osu file format v14

[General]
AudioFilename: audio.mp3
AudioLeadIn: 0
PreviewTime: 2355
Countdown: 0
SampleSet: Soft
StackLeniency: 0.2
Mode: 0
LetterboxInBreaks: 0
WidescreenStoryboard: 1

[Editor]
Bookmarks: 6354,18354,42354,53021,63688,74354,82353,87687,93020,103687,114353,119687,125020,135687,141020,143688,146846,168232,177832,187377,204831,223090,236804,247470,258137,268803,274137,279470,290153,296553,302953,309530,315385,323637,344945
DistanceSpacing: 1.6
BeatDivisor: 3
GridSize: 16
TimelineZoom: 2.24

[Metadata]
Title:UNDERVEIL IS REAL!!! ...AND WE ARE UNDERVEIL!!!
TitleUnicode:UNDERVEIL IS REAL!!! ...AND WE ARE UNDERVEIL!!!
Artist:UNDERVEIL ALLSTARS
ArtistUnicode:UNDERVEIL ALLSTARS
Creator:Cuber
Version:Cuber
Source:UNDERTALE
Tags:collaboration yamajet 梅干茶漬け umeboshi chazuke orangentle puriri ぷりりー tanchiky saiph kiryu morimori atsushi モリモリあつし lime s-don hara kana コルソン koruson itoki hana 糸奇 はな tc-taka taqumi daph seaside-métro seaside-metro izna se-u-ra ryhki こふ kofu mytk mossari frums silentroom aaaa ああああ toby fox asriel dreemur credits
BeatmapID:1574599
BeatmapSetID:747260

[Difficulty]
HPDrainRate:6
CircleSize:4.5
OverallDifficulty:8.5
ApproachRate:9.3
SliderMultiplier:1
SliderTickRate:2

[Events]
//Background and Video events
0,0,"heck.jpg",0,0
//Break Periods
2,74443,119133
2,125136,262916
2,270170,278916
2,280836,295999
2,297553,344391
//Storyboard Layer 0 (Background)
//Storyboard Layer 1 (Fail)
//Storyboard Layer 2 (Pass)
//Storyboard Layer 3 (Foreground)
//Storyboard Sound Samples

[TimingPoints]
2355,333.333333333333,4,2,0,40,1,0
5854,-100,4,2,0,5,0,0
6021,-66.6666666666667,4,2,0,40,0,0
6355,333.333333333333,4,2,2,40,1,0
6355,-66.6666666666667,4,2,2,40,0,0
15688,-83.3333333333333,4,2,2,40,0,0
18354,-57.1428571428571,4,2,2,40,0,1
19021,-40,4,2,2,40,0,1
19688,-50,4,2,2,40,0,1
20354,-57.1428571428571,4,2,2,40,0,1
21688,-33.3333333333333,4,2,2,40,0,1
21938,-33.3333333333333,4,2,2,5,0,1
22021,-40,4,2,2,40,0,1
22271,-40,4,2,2,5,0,1
22354,-40,4,2,2,40,0,1
23688,-57.1428571428571,4,2,2,40,0,1
24354,-40,4,2,2,40,0,1
25021,-50,4,2,2,40,0,1
25688,-57.1428571428571,4,2,2,40,0,1
26021,-50,4,2,2,40,0,1
29021,-83.3333333333333,4,2,2,40,0,0
31688,-50,4,2,2,40,0,1
32354,-33.3333333333333,4,2,2,40,0,1
32604,-33.3333333333333,4,2,2,5,0,1
32688,-40,4,2,2,40,0,1
32938,-40,4,2,2,5,0,1
33021,-40,4,2,2,40,0,1
34354,-50,4,2,2,40,0,1
35021,-40,4,2,2,40,0,1
35688,-50,4,2,2,40,0,1
36354,-57.1428571428571,4,2,2,40,0,1
36688,-50,4,2,2,40,0,1
39354,-100,4,2,2,40,0,1
39604,-100,4,2,2,5,0,1
39688,-250,4,2,2,40,0,0
41021,-100,4,2,2,40,0,0
41854,-66.6666666666667,4,2,2,40,0,0
41938,-66.6666666666667,4,2,2,5,0,0
42021,-33.3333333333333,4,2,2,40,0,0
42271,-33.3333333333333,4,2,2,5,0,0
42354,-50,4,2,2,40,0,1
42854,-33.3333333333333,4,2,2,40,0,1
43521,-50,4,2,2,40,0,1
44188,-66.6666666666667,4,2,2,40,0,1
45521,-33.3333333333333,4,2,2,40,0,1
46188,-66.6666666666667,4,2,2,40,0,1
46938,-66.6666666666667,4,2,2,5,0,1
47021,-66.6666666666667,4,2,2,40,0,1
47688,-50,4,2,2,40,0,1
47854,-50,4,2,2,5,0,1
47938,-50,4,2,2,40,0,1
48188,-33.3333333333333,4,2,2,40,0,1
48854,-50,4,2,2,40,0,1
53021,-66.6666666666667,4,2,2,40,0,0
53688,-40,4,2,2,40,0,0
54354,-50,4,2,2,40,0,0
56271,-50,4,2,2,5,0,0
56354,-33.3333333333333,4,2,2,40,0,0
57021,-50,4,2,2,40,0,0
74354,333.333333333333,3,2,0,40,1,0
82354,333.333333333333,4,2,5,40,1,0
87687,-100,4,2,5,40,0,1
93020,-100,4,2,5,40,0,0
119687,-33.3333333333333,4,2,5,40,0,0
119937,-33.3333333333333,4,2,5,5,0,0
120020,-33.3333333333333,4,2,5,40,0,1
122937,-33.3333333333333,4,2,5,5,0,1
123020,-33.3333333333333,4,2,5,40,0,1
123603,-33.3333333333333,4,2,5,5,0,1
123687,-33.3333333333333,4,2,5,40,0,1
124937,-33.3333333333333,4,2,5,40,0,0
125020,-100,4,2,5,40,0,1
135687,-100,4,2,5,40,0,0
143688,363.636363636364,4,3,0,40,1,0
144051,400,4,3,0,40,1,0
144451,375,4,3,0,40,1,0
144826,333.333333333333,4,3,0,40,1,0
145159,375,4,3,0,40,1,0
146846,685.714285714286,4,2,0,40,1,0
147873,558.139534883721,4,2,0,40,1,0
148152,710.059171597633,4,2,0,40,1,0
149217,521.739130434783,4,2,0,40,1,0
149477,621.761658031088,4,2,0,40,1,0
149787,693.64161849711,4,2,0,40,1,0
150133,731.707317073171,4,2,0,40,1,0
150498,625,4,2,0,40,1,0
150810,697.674418604651,4,2,0,40,1,0
151158,681.818181818182,4,2,0,40,1,0
151839,631.578947368421,4,2,0,40,1,0
152469,674.157303370787,4,2,0,40,1,0
152806,652.173913043478,4,2,0,40,1,0
153784,693.64161849711,4,2,0,40,1,0
154130,666.666666666667,4,2,0,40,1,0
154463,691.244239631336,4,2,0,40,1,0
155153,670.391061452514,4,2,0,40,1,0
155488,645.161290322581,4,2,0,40,1,0
155810,655.737704918033,4,2,0,40,1,0
156137,646.029609690444,4,2,0,40,1,0
156783,694.1431670282,4,2,0,40,1,0
158171,645.161290322581,4,2,0,40,1,0
158816,722.89156626506,4,2,0,40,1,0
159177,526.315789473684,4,2,0,40,1,0
159440,733.94495412844,4,2,0,40,1,0
159806,685.714285714286,4,2,0,40,1,0
160148,674.157303370787,4,2,0,40,1,0
160822,656.580855196564,4,2,0,40,1,0
162135,606.060606060606,4,2,0,40,1,0
162438,714.285714285714,4,2,0,40,1,0
162795,681.818181818182,4,2,0,40,1,0
163135,625,4,2,0,40,1,0
163447,710.059171597633,4,2,0,40,1,0
163802,674.157303370787,4,2,0,40,1,0
164139,638.297872340426,4,2,0,40,1,0
164458,681.818181818182,4,2,0,40,1,0
164798,960,4,2,0,40,1,0
165278,365.853658536585,4,2,0,40,1,0
165460,681.818181818182,4,2,0,40,1,0
166141,641.711229946524,4,2,0,40,1,0
166461,800,4,2,0,40,1,0
166861,685.500000004644,4,2,0,40,1,0
168232,600,4,2,0,40,1,0
186232,572.5,4,2,0,40,1,0
187377,545.454545454546,4,2,9,40,1,0
204831,571.428571428571,4,2,10,40,1,0
222545,545.454545454546,4,2,10,40,1,0
223090,428.571428571429,4,2,0,40,1,0
236804,333.333333333333,4,2,12,40,1,0
263470,-100,4,2,12,40,0,1
267470,-333.333333333333,4,2,12,40,0,0
268803,-100,4,2,12,40,0,0
270137,-80,4,2,12,40,0,0
271470,-66.6666666666667,4,2,12,40,0,0
272803,-57.1428571428571,4,2,12,40,0,0
274137,-100,4,2,12,40,0,1
279387,-100,4,2,12,40,0,0
279470,-25,4,2,12,40,0,1
289803,350,4,2,8,40,1,1
290153,400,4,2,15,40,1,1
290153,-100,4,2,15,40,0,0
296553,-100,4,2,15,40,0,1
298953,-100,4,2,15,40,0,0
299753,-100,4,2,15,40,0,1
302153,-100,4,2,15,40,0,0
306953,444.444444444444,4,2,0,40,1,0
308730,400,4,2,0,40,1,0
309530,366.97247706422,4,2,3,40,1,0
315385,659.340659340659,4,2,0,40,1,0
316044,674.157303370787,4,2,0,40,1,0
316718,697.674418604651,4,2,0,40,1,0
317415,821.917808219178,4,2,0,40,1,0
318236,545.454545454546,4,2,0,40,1,0
318781,638.297872340426,4,2,0,40,1,0
319419,1304.34782608696,4,2,0,40,1,0
320723,1271.18644067797,4,2,0,40,1,0
321994,1643.83561643836,4,2,0,40,1,0
323637,3428.57142857143,4,2,0,40,1,0
337351,3797.46835443038,4,2,0,40,1,0
344945,3678.75,4,2,99,40,1,0
344945,-100,4,2,99,40,0,0

[Colours]
Combo1 : 10,0,255
Combo2 : 255,64,64
Combo3 : 75,255,0
Combo4 : 255,220,0
Combo5 : 255,130,0
Combo6 : 210,0,255

[HitObjects]
256,192,2354,12,0,5854,0:3:0:0:
112,204,6021,6,0,L|76:180,2,37.5000014305115,0|0|0,0:3|0:3|0:3,0:3:0:0:
293,42,6355,6,0,P|356:7|431:30,1,150.000005722046,0|0,0:3|0:3,0:3:0:0:
457,113,6854,1,0,0:3:0:0:
367,93,7021,2,0,L|374:174,1,75.0000028610231,0|0,0:3|0:3,0:3:0:0:
282,127,7354,2,0,L|289:208,1,75.0000028610231,0|0,0:3|0:3,0:3:0:0:
187,328,7688,6,0,P|124:363|49:340,1,150.000005722046,0|0,0:3|0:3,0:3:0:0:
23,256,8188,1,0,0:3:0:0:
112,280,8354,2,0,L|105:205,1,75.0000028610231,0|0,0:3|0:3,0:3:0:0:
194,248,8688,1,0,0:3:0:0:
188,162,8854,1,0,0:3:0:0:
365,75,9021,6,0,P|400:138|377:213,1,150.000005722046,0|0,0:3|0:3,0:3:0:0:
295,232,9521,2,0,L|204:240,1,75.0000028610231,0|0,0:3|0:3,0:3:0:0:
310,148,9854,1,0,0:3:0:0:
227,154,10021,1,0,0:3:0:0:
277,66,10188,1,0,0:3:0:0:
72,29,10354,6,0,B|51:48|51:48|54:62|54:62|45:72|45:72|35:119|87:165,1,150.000005722046,0|0,0:3|0:3,0:3:0:0:
128,89,10854,1,0,0:0:0:0:
202,77,11021,2,0,L|283:64,1,75.0000028610231
421,304,11354,5,0,0:0:0:0:
421,304,11688,5,0,0:0:0:0:
381,123,11854,1,0,0:0:0:0:
490,304,12021,1,0,0:0:0:0:
315,122,12188,1,0,0:0:0:0:
196,292,12354,5,0,0:0:0:0:
315,203,12521,1,0,0:0:0:0:
164,127,12688,1,0,0:0:0:0:
285,284,12854,1,0,0:0:0:0:
253,93,13021,5,0,0:0:0:0:
370,269,13188,1,0,0:0:0:0:
180,37,13354,1,0,0:0:0:0:
92,261,13521,1,0,0:0:0:0:
95,64,13688,5,0,0:0:0:0:
164,313,13854,1,0,0:0:0:0:
295,172,14021,1,0,0:0:0:0:
41,162,14188,1,0,0:0:0:0:
300,313,14354,5,0,0:0:0:0:
326,309,14437,1,0,0:0:0:0:
353,301,14520,1,0,0:0:0:0:
378,288,14604,1,0,0:0:0:0:
399,271,14687,1,0,0:0:0:0:
417,250,14770,1,0,0:0:0:0:
430,227,14854,1,0,0:0:0:0:
440,200,14937,1,0,0:0:0:0:
449,167,15021,5,0,0:0:0:0:
408,178,15104,1,0,0:0:0:0:
366,182,15187,1,0,0:0:0:0:
324,176,15271,1,0,0:0:0:0:
285,162,15354,1,0,0:0:0:0:
249,140,15437,1,0,0:0:0:0:
219,110,15521,1,0,0:0:0:0:
195,76,15604,1,0,0:0:0:0:
180,36,15687,1,0,0:0:0:0:
124,277,16021,5,0,0:0:0:0:
364,333,16354,5,0,0:0:0:0:
420,93,16688,5,0,0:0:0:0:
180,37,17021,6,0,L|172:68,1,29.9999990844727
124,277,17354,6,0,L|153:286,1,29.9999990844727
364,333,17688,6,0,L|371:302,3,29.9999990844727
420,93,18021,5,0,0:0:0:0:
420,93,18354,6,0,L|324:110,1,87.500000834465
180,198,18688,2,0,L|272:214,1,87.500000834465
360,290,19021,5,0,0:0:0:0:
378,278,19063,2,0,L|456:182,1,93.75
409,27,19354,2,0,L|329:129,1,125
223,87,19688,6,0,L|259:186,1,100
139,226,20021,2,0,L|92:320,1,100
195,300,20354,6,0,L|228:402,1,87.500000834465
382,322,20688,2,0,L|349:220,1,87.500000834465
266,136,21021,6,0,L|164:169,1,87.500000834465
117,249,21354,2,0,L|15:282,1,87.500000834465
202,272,21688,6,0,P|225:170|308:84,1,225.000008583069
435,77,22021,2,0,P|384:168|290:219,1,187.5
191,43,22354,5,0,0:0:0:0:
143,143,22521,1,0,0:0:0:0:
221,226,22688,1,0,0:0:0:0:
207,255,22743,1,0,0:0:0:0:
221,284,22799,1,0,0:0:0:0:
207,313,22854,1,0,0:0:0:0:
88,373,23021,5,0,0:0:0:0:
298,340,23188,1,0,0:0:0:0:
427,174,23354,5,0,0:0:0:0:
158,132,23521,1,0,0:0:0:0:
455,326,23688,6,0,L|359:309,1,87.500000834465
215,221,24022,2,0,L|307:205,1,87.500000834465
139,279,24355,6,0,L|59:177,1,125
103,27,24688,2,0,L|183:129,1,125
289,87,25022,6,0,L|253:186,1,100
373,226,25355,2,0,L|420:320,1,100
315,299,25688,6,0,L|213:266,1,87.500000834465
300,155,26022,2,0,L|414:116,1,100
114,237,26354,5,0,0:0:0:0:
103,80,26520,1,0,0:0:0:0:
283,322,26688,1,0,0:0:0:0:
266,64,26854,1,0,0:0:0:0:
92,168,27188,5,0,0:0:0:0:
283,322,27354,1,0,0:0:0:0:
348,68,27521,1,0,0:0:0:0:
512,333,27854,5,0,0:0:0:0:
283,322,28021,1,0,0:0:0:0:
415,108,28188,1,0,0:0:0:0:
348,68,28521,6,0,P|370:43|419:33,2,50
336,90,28729,6,0,L|330:122,6,25
322,182,29021,5,0,0:0:0:0:
283,322,29188,1,0,0:0:0:0:
406,210,29354,1,0,0:0:0:0:
195,297,29521,1,0,0:0:0:0:
153,80,29688,5,0,0:0:0:0:
371,348,29854,1,0,0:0:0:0:
96,204,30021,1,0,0:0:0:0:
429,115,30187,1,0,0:0:0:0:
255,51,30354,6,0,L|243:103,3,29.9999990844727
216,222,30688,6,0,L|228:274,3,29.9999990844727
265,379,31021,5,0,0:0:0:0:
265,379,31188,6,0,L|272:327,1,29.9999990844727
308,132,31354,1,0,0:0:0:0:
122,318,31688,6,0,L|135:207,1,100
83,82,32021,1,0,0:0:0:0:
216,222,32188,1,0,0:0:0:0:
266,78,32354,6,0,P|361:84|463:186,1,225.000008583069
340,171,32688,2,0,P|259:191|240:314,1,187.5
266,352,33021,5,0,0:0:0:0:
319,264,33188,1,0,0:0:0:0:
162,212,33355,1,0,0:0:0:0:
143,186,33410,1,0,0:0:0:0:
152,155,33466,1,0,0:0:0:0:
134,128,33521,1,0,0:0:0:0:
125,294,33688,5,0,0:0:0:0:
50,94,33855,1,0,0:0:0:0:
131,22,34021,5,0,0:0:0:0:
47,281,34188,1,0,0:0:0:0:
311,275,34354,6,0,L|324:164,1,100
416,12,34687,1,0,0:0:0:0:
276,116,34854,1,0,0:0:0:0:
362,352,35021,6,0,L|442:250,1,125
398,100,35355,2,0,L|318:202,1,125
99,77,35688,6,0,L|135:176,1,100
242,247,36021,2,0,L|195:341,1,100
129,256,36354,6,0,L|27:223,1,87.500000834465
142,122,36688,2,0,L|256:83,1,100
384,267,37021,5,0,0:0:0:0:
393,116,37187,1,0,0:0:0:0:
238,320,37354,1,0,0:0:0:0:
255,62,37520,1,0,0:0:0:0:
238,320,37854,5,0,0:0:0:0:
429,166,38021,1,0,0:0:0:0:
172,97,38187,1,0,0:0:0:0:
238,320,38521,5,0,0:0:0:0:
58,337,38688,1,0,0:0:0:0:
177,13,38854,1,0,0:0:0:0:
412,14,39188,5,0,0:0:0:0:
452,362,39354,2,0,P|411:376|365:359,1,75
311,335,39688,6,0,B|347:267|388:321|428:246,1,150
477,188,41021,6,0,L|436:169,1,25
282,167,41354,2,0,L|323:186,1,25
166,250,41688,6,0,L|137:245,1,25
50,201,41854,2,0,P|58:220|54:241,1,25.0000009536744
63,120,42021,6,0,B|96:98|96:98|114:126|114:126|138:106|138:106|150:140|150:140|179:126|179:126|187:138|187:138|208:124|208:124|225:149,1,225.000008583069
289,288,42354,6,0,B|328:252|328:252|385:234,1,100
430,288,42604,1,0,0:0:0:0:
460,195,42688,1,0,0:0:0:0:
460,195,42854,6,0,B|422:90|422:90|301:58,1,225.000008583069
195,20,43188,2,0,L|250:169,1,150.000005722046
246,160,43521,6,0,B|218:236|218:236|129:260,1,150
83,276,43854,1,0,0:0:0:0:
162,173,44021,1,0,0:0:0:0:
365,311,44188,2,0,L|446:333,1,75.0000028610231
437,330,44521,5,0,0:0:0:0:
463,301,44604,1,0,0:0:0:0:
488,271,44688,1,0,0:0:0:0:
391,210,44854,1,0,0:0:0:0:
285,58,45021,5,0,0:0:0:0:
246,308,45188,1,0,0:0:0:0:
75,225,45354,1,0,0:0:0:0:
334,293,45521,6,0,B|347:146|347:146|220:40,1,300.000011444092
207,225,46021,1,0,0:0:0:0:
449,213,46188,2,0,L|492:340,1,112.500004291535
512,384,46521,1,0,0:0:0:0:
405,74,46688,6,0,B|391:83|391:83|395:97|395:97|362:208,1,112.500004291535
288,303,47021,2,0,L|250:201,1,75.0000028610231
252,205,47271,1,0,0:0:0:0:
256,122,47354,2,0,B|222:110|195:131|195:131|175:178,1,112.500004291535
186,286,47688,6,0,B|141:255|141:255|82:247,1,100
24,270,47938,1,0,0:0:0:0:
74,180,48021,1,0,0:0:0:0:
74,180,48188,6,0,B|112:75|112:75|233:43,1,225.000008583069
314,33,48522,2,0,L|259:182,1,150.000005722046
347,166,48855,6,0,B|319:242|319:242|230:266,1,150
194,328,49188,1,0,0:0:0:0:
262,173,49355,1,0,0:0:0:0:
445,338,49521,6,0,L|504:359,1,50
346,285,49854,6,0,L|405:264,1,50
287,112,50188,6,0,B|197:76|197:76|112:132,1,150
101,153,50521,2,0,L|109:206,1,50
177,332,50688,2,0,L|185:279,1,50
282,42,50854,6,0,B|372:6|372:6|457:62,1,150
368,90,51187,2,0,L|360:143,1,50
292,269,51354,2,0,L|284:216,1,50
287,112,51521,6,0,B|197:76|197:76|112:132,1,150
101,153,51854,2,0,L|109:206,1,50
169,280,52021,6,0,L|258:215,1,100
316,174,52271,1,0,0:0:0:0:
327,283,52354,6,0,L|241:213,1,100
185,167,52604,1,0,0:0:0:0:
253,101,52688,6,0,B|336:84|336:84|411:127,1,150
416,160,53021,6,0,L|416:256,1,75.0000028610231
416,384,53354,2,0,L|416:288,1,75.0000028610231
416,64,53688,6,0,L|288:64,1,125
160,64,54021,2,0,L|160:192,1,125
160,288,54354,6,0,L|288:288,1,100
448,288,54688,2,0,L|320:288,1,100
64,288,55021,6,0,L|64:352,2,50
64,192,55354,1,0,0:0:0:0:
64,32,55521,2,0,B|128:32|128:32|128:160|128:160|416:160,1,450
512,160,56354,6,0,B|512:32|512:32|320:32|320:32|320:96|320:96|416:96,1,450.000017166138
448,96,56938,1,0,0:0:0:0:
448,224,57021,6,0,B|320:224|320:224|320:160|320:160|256:160|256:160|256:320,1,400
256,352,57771,1,0,0:0:0:0:
256,384,57854,2,0,L|128:384,1,100
64,384,58188,1,0,0:0:0:0:
64,96,58354,6,0,L|192:96,1,100
224,96,58604,1,0,0:0:0:0:
288,96,58688,1,0,0:0:0:0:
288,96,59021,6,0,L|288:224,1,100
288,320,59354,2,0,L|160:320,1,100
96,320,59688,6,0,L|96:192,1,100
96,32,60021,2,0,L|96:160,1,100
96,224,60354,5,0,0:0:0:0:
224,224,60521,1,0,0:0:0:0:
224,224,60854,6,0,B|224:128|224:128|352:128,1,200
448,128,61354,2,0,L|448:256,1,100
448,288,61604,1,0,0:0:0:0:
384,288,61688,6,0,L|256:288,1,100
284,288,62188,6,0,B|284:224|284:160|284:160|188:160,1,200
124,160,62688,1,0,0:0:0:0:
124,64,62854,1,0,0:0:0:0:
220,64,63021,1,0,0:0:0:0:
220,224,63188,1,0,0:0:0:0:
220,320,63354,2,0,L|92:320,1,100
77,174,63688,6,0,P|86:101|157:82,1,133.333333333333
188,176,64021,2,0,P|120:204|68:152,1,133.333333333333
230,60,64354,6,0,P|288:104|269:175,1,133.333333333333
226,246,64688,1,0,0:0:0:0:
161,72,64910,1,0,0:0:0:0:
388,166,65021,6,0,P|372:94|300:81,1,133.333333333333
277,178,65354,2,0,P|347:199|394:143,1,133.333333333333
193,161,65687,6,0,L|122:143,1,66.6666666666667
54,178,65910,1,0,0:0:0:0:
75,326,66021,2,0,P|119:384|190:365,1,133.333333333333
385,182,66354,6,0,P|341:240|270:221,1,133.333333333333
290,123,66688,2,0,P|353:126|385:182,1,133.333333333333
181,231,67021,1,0,0:0:0:0:
349,66,67243,1,0,0:0:0:0:
385,182,67354,6,0,P|457:179|482:110,1,133.333333333333
254,100,67688,2,0,P|220:164|267:220,1,133.333333333333
376,89,68021,2,0,P|337:27|264:40,1,133.333333333333
312,256,68354,6,0,L|245:272,1,66.6666666666667
109,207,68577,2,0,L|123:166,1,33.3333333333333
186,128,68688,1,0,0:0:0:0:
298,303,69021,6,0,P|337:365|448:333,1,200
320,124,69521,1,0,0:0:0:0:
174,134,69688,2,0,P|112:173|144:284,1,200
295,171,70354,6,0,P|357:210|325:321,1,200
190,268,70854,1,0,0:0:0:0:
133,175,71021,1,0,0:0:0:0:
316,18,71243,1,0,0:0:0:0:
331,44,71299,1,0,0:0:0:0:
346,70,71354,1,0,0:0:0:0:
219,253,71688,6,0,P|291:250|316:181,1,133.333333333333
226,54,72021,1,0,0:0:0:0:
91,217,72243,1,0,0:0:0:0:
177,371,72354,6,0,B|167:377|167:377|159:366|159:366|111:362|95:288,1,133.333333333333
248,205,72688,1,0,0:0:0:0:
408,332,72910,1,0,0:0:0:0:
303,286,73021,6,0,P|357:239|335:169,1,133.333333333333
310,87,73354,1,0,0:0:0:0:
36,356,73688,5,0,0:0:0:0:
67,290,73799,1,0,0:0:0:0:
98,224,73910,1,0,0:0:0:0:
156,170,74021,5,0,0:0:0:0:
220,121,74132,1,0,0:0:0:0:
238,233,74243,1,0,0:0:0:0:
127,200,119687,6,0,P|87:189|166:147,1,225.000008583069
134,278,120020,6,0,L|384:313,1,225.000008583069
454,255,120353,2,0,L|438:86,1,150.000005722046
321,51,120603,2,0,L|329:135,1,75.0000028610231
335,217,120770,1,0,0:0:0:0:
259,261,120853,2,0,L|174:252,1,75.0000028610231
90,241,121020,1,0,0:0:0:0:
133,152,121103,1,0,0:0:0:0:
88,64,121187,6,0,L|56:70,6,25.0000009536744
161,46,121353,1,0,0:0:0:0:
234,28,121437,1,0,0:0:0:0:
223,115,121520,6,0,L|217:83,6,18.7500007152558
241,188,121686,1,0,0:0:0:0:
259,261,121770,1,0,0:0:0:0:
337,254,121853,2,0,L|374:100,1,150.000005722046
373,109,122353,6,0,P|435:160|273:134,1,525.000020027161
343,203,123020,2,0,P|357:281|250:157,1,525.000020027161
259,254,123687,1,0,0:0:0:0:
245,295,123770,1,0,0:0:0:0:
215,326,123853,1,0,0:0:0:0:
175,343,123936,1,0,0:0:0:0:
131,341,124020,1,0,0:0:0:0:
89,320,124103,1,0,0:0:0:0:
59,282,124186,1,0,0:0:0:0:
47,236,124270,1,0,0:0:0:0:
33,187,124353,5,0,0:0:0:0:
77,213,124436,1,0,0:0:0:0:
128,219,124519,1,0,0:0:0:0:
177,203,124602,1,0,0:0:0:0:
216,169,124686,1,0,0:0:0:0:
236,121,124769,1,0,0:0:0:0:
235,69,124852,1,0,0:0:0:0:
212,23,124936,1,0,0:0:0:0:
160,352,263470,5,0,0:0:0:0:
256,32,263692,1,0,0:0:0:0:
352,352,263915,1,0,0:0:0:0:
160,32,264137,5,0,0:0:0:0:
256,352,264359,1,0,0:0:0:0:
352,32,264581,1,0,0:0:0:0:
96,288,264803,5,0,0:0:0:0:
416,192,265025,1,0,0:0:0:0:
96,96,265248,1,0,0:0:0:0:
416,288,265470,5,0,0:0:0:0:
160,32,265692,5,0,0:0:0:0:
352,352,265914,1,0,0:0:0:0:
352,32,266137,5,0,0:0:0:0:
160,352,266359,1,0,0:0:0:0:
256,256,266581,5,0,0:0:0:0:
256,0,266803,1,0,0:0:0:0:
256,96,267026,1,0,0:0:0:0:
256,192,267248,1,0,0:0:0:0:
256,16,267470,5,0,0:0:0:0:
256,112,267692,1,0,0:0:0:0:
256,208,267915,1,0,0:0:0:0:
256,343,268137,2,0,L|256:384,1,39.9999987792969
187,188,268803,6,0,L|222:243,1,50
325,196,269137,2,0,L|290:141,1,50
115,182,269470,6,0,L|134:244,1,50
397,202,269803,1,0,0:0:0:0:
381,154,269970,1,0,0:0:0:0:
82,94,279470,6,0,L|124:330,1,200
430,94,279803,2,0,L|388:330,1,200
38,106,280137,6,0,L|132:327,1,200
474,106,280470,2,0,L|380:327,1,200
242,42,296553,5,0,0:0:0:0:
179,338,296753,1,0,0:0:0:0:
179,338,297153,5,0,0:0:0:0:
445,236,297353,1,0,0:0:0:0:
97,61,344945,6,0,B|127:153|204:191|204:191|204:203|204:203|217:203|217:203|217:214|217:214|228:214|228:214|235:262|265:282|265:282|265:292|265:292|274:292|274:292|274:302|274:302|306:318|328:348,1,400
