osu file format v14

[General]
AudioFilename: audio.mp3
AudioLeadIn: 0
PreviewTime: 2355
Countdown: 0
SampleSet: Soft
StackLeniency: 0.7
Mode: 2
LetterboxInBreaks: 0
WidescreenStoryboard: 0

[Editor]
Bookmarks: 247470,359661
DistanceSpacing: 1.1
BeatDivisor: 4
GridSize: 32
TimelineZoom: 2.24

[Metadata]
Title:UNDERVEIL IS REAL!!! ...AND WE ARE UNDERVEIL!!!
TitleUnicode:UNDERVEIL IS REAL!!! ...AND WE ARE UNDERVEIL!!!
Artist:UNDERVEIL ALLSTARS
ArtistUnicode:UNDERVEIL ALLSTARS
Creator:Chara
Version:*Together as one, we stay determined!
Source:UNDERTALE
Tags:collaboration yamajet 梅干茶漬け umeboshi chazuke orangentle puriri ぷりりー tanchiky saiph kiryu morimori atsushi モリモリあつし lime s-don hara kana コルソン koruson itoki hana 糸奇 はな tc-taka taqumi daph seaside-métro seaside-metro izna se-u-ra ryhki こふ kofu mytk mossari frums silentroom aaaa ああああ toby fox asriel dreemur credits
BeatmapID:1351241
BeatmapSetID:636920

[Difficulty]
HPDrainRate:6
CircleSize:4.4
OverallDifficulty:9.3
ApproachRate:9.3
SliderMultiplier:1
SliderTickRate:2

[Events]
//Background and Video events
0,0,"heck.jpg",0,0
//Break Periods
//Storyboard Layer 0 (Background)
//Storyboard Layer 1 (Fail)
//Storyboard Layer 2 (Pass)
//Storyboard Layer 3 (Foreground)
//Storyboard Sound Samples

[TimingPoints]
2355,333.333333333333,4,2,0,5,1,0
6021,-100,4,2,0,40,0,0
6355,333.333333333333,4,2,2,65,1,0
6355,-58.8235294117647,4,2,2,65,0,0
11354,-58.8235294117647,4,2,0,65,0,0
11688,-58.8235294117647,4,2,2,65,0,0
15688,-58.8235294117647,4,2,0,65,0,0
17854,-50,4,2,0,60,0,0
18021,-33.3333333333333,4,2,0,60,0,0
18354,-50,4,2,1,70,0,1
28521,-50,4,2,0,65,0,1
29021,-50,4,2,1,60,0,0
31354,-33.3333333333333,4,2,0,60,0,0
31688,-45.4545454545455,4,2,1,70,0,1
39688,-45.4545454545455,4,2,0,60,0,0
41021,-45.4545454545455,4,2,0,65,0,0
42354,-54.054054054054,4,2,3,70,0,0
53021,-55.5555555555556,4,3,0,70,0,0
60688,-55.5555555555556,4,3,0,45,0,0
60854,-55.5555555555556,4,3,0,70,0,0
62021,-55.5555555555556,4,3,0,45,0,0
62188,-55.5555555555556,4,3,0,70,0,0
63688,-52.6315789473684,4,2,4,60,0,0
74354,333.333333333333,3,2,0,50,1,0
74354,-62.5,3,2,0,50,0,0
82354,333.333333333333,4,2,5,60,1,0
82354,-66.6666666666667,4,2,5,60,0,0
87354,-33.3333333333333,4,2,0,60,0,0
87688,-47.6190476190476,4,2,6,65,0,0
93021,-51.2820512820513,4,2,6,65,0,0
102854,-51.2820512820513,4,3,6,65,0,0
103688,-56.1797752808989,4,2,7,60,0,0
114354,-61.7283950617284,4,2,5,60,0,0
118020,-57.4712643678161,4,2,5,60,0,0
118354,-57.4712643678161,4,3,0,60,0,0
119688,-53.475935828877,4,2,0,60,0,0
119938,-53.475935828877,4,2,6,65,0,0
122021,-35.650623885918,4,2,6,65,0,0
122354,-53.475935828877,4,2,6,65,0,0
125020,-45.4545454545455,4,2,8,73,0,1
129854,-45.4545454545455,4,2,0,73,0,1
130354,-45.4545454545455,4,2,8,73,0,1
135187,-41.6666666666667,4,2,0,73,0,1
135354,-35.7142857142857,4,2,8,73,0,1
135687,-58.8235294117647,4,3,0,45,0,0
141021,-58.8235294117647,4,3,0,60,0,0
143688,363.636363636364,4,3,0,55,1,0
143688,-66.6666666666667,4,3,0,55,0,0
144051,400,4,3,0,52,1,0
144051,-66.6666666666667,4,3,0,52,0,0
144451,375,4,3,0,48,1,0
144451,-66.6666666666667,4,3,0,48,0,0
144826,333.333333333333,4,3,0,44,1,0
144826,-66.6666666666667,4,3,0,44,0,0
145159,375,4,3,0,40,1,0
145159,-66.6666666666667,4,3,0,40,0,0
145909,-100,4,3,0,40,0,0
146846,685.714285714286,4,2,0,30,1,0
146846,-66.6666666666667,4,2,0,30,0,0
147873,558.139534883721,4,2,0,30,1,0
147873,-66.6666666666667,4,2,0,30,0,0
148152,710.059171597633,4,2,0,30,1,0
148152,-66.6666666666667,4,2,0,30,0,0
149217,521.739130434783,4,2,0,30,1,0
149217,-66.6666666666667,4,2,0,30,0,0
149477,621.761658031088,4,2,0,30,1,0
149477,-66.6666666666667,4,2,0,30,0,0
149787,693.64161849711,4,2,0,30,1,0
149787,-66.6666666666667,4,2,0,30,0,0
150133,731.707317073171,4,2,0,30,1,0
150133,-66.6666666666667,4,2,0,30,0,0
150498,625,4,2,0,30,1,0
150498,-66.6666666666667,4,2,0,30,0,0
150810,697.674418604651,4,2,0,30,1,0
150810,-66.6666666666667,4,2,0,30,0,0
151158,681.818181818182,4,2,0,30,1,0
151158,-66.6666666666667,4,2,0,30,0,0
151839,631.578947368421,4,2,0,30,1,0
151839,-66.6666666666667,4,2,0,30,0,0
152469,674.157303370787,4,2,0,30,1,0
152469,-66.6666666666667,4,2,0,30,0,0
152806,652.173913043478,4,2,0,30,1,0
152806,-66.6666666666667,4,2,0,30,0,0
153784,693.64161849711,4,2,0,30,1,0
153784,-66.6666666666667,4,2,0,30,0,0
154130,666.666666666667,4,2,0,30,1,0
154130,-66.6666666666667,4,2,0,30,0,0
154463,691.244239631336,4,2,0,30,1,0
154463,-66.6666666666667,4,2,0,30,0,0
155153,670.391061452514,4,2,0,30,1,0
155153,-66.6666666666667,4,2,0,30,0,0
155488,645.161290322581,4,2,0,30,1,0
155488,-66.6666666666667,4,2,0,30,0,0
155810,655.737704918033,4,2,0,30,1,0
155810,-66.6666666666667,4,2,0,30,0,0
156137,646.029609690444,4,2,0,30,1,0
156137,-66.6666666666667,4,2,0,30,0,0
156783,694.1431670282,4,2,0,30,1,0
156783,-66.6666666666667,4,2,0,30,0,0
158171,645.161290322581,4,2,0,30,1,0
158171,-66.6666666666667,4,2,0,30,0,0
158816,722.89156626506,4,2,0,30,1,0
158816,-66.6666666666667,4,2,0,30,0,0
159177,526.315789473684,4,2,0,30,1,0
159177,-66.6666666666667,4,2,0,30,0,0
159440,733.94495412844,4,2,0,30,1,0
159440,-66.6666666666667,4,2,0,30,0,0
159806,685.714285714286,4,2,0,30,1,0
159806,-66.6666666666667,4,2,0,30,0,0
160148,674.157303370787,4,2,0,30,1,0
160148,-66.6666666666667,4,2,0,30,0,0
160822,656.580855196564,4,2,0,30,1,0
160822,-66.6666666666667,4,2,0,30,0,0
162135,606.060606060606,4,2,0,30,1,0
162135,-66.6666666666667,4,2,0,30,0,0
162438,714.285714285714,4,2,0,30,1,0
162438,-66.6666666666667,4,2,0,30,0,0
162795,681.818181818182,4,2,0,30,1,0
162795,-66.6666666666667,4,2,0,30,0,0
163135,625,4,2,0,30,1,0
163135,-66.6666666666667,4,2,0,30,0,0
163447,710.059171597633,4,2,0,30,1,0
163447,-66.6666666666667,4,2,0,30,0,0
163802,674.157303370787,4,2,0,30,1,0
163802,-66.6666666666667,4,2,0,30,0,0
164139,638.297872340426,4,2,0,30,1,0
164139,-66.6666666666667,4,2,0,30,0,0
164458,681.818181818182,4,2,0,30,1,0
164458,-66.6666666666667,4,2,0,30,0,0
164798,960,4,2,0,30,1,0
164798,-66.6666666666667,4,2,0,30,0,0
165278,365.853658536585,4,2,0,30,1,0
165278,-66.6666666666667,4,2,0,30,0,0
165460,681.818181818182,4,2,0,30,1,0
165460,-66.6666666666667,4,2,0,30,0,0
166141,641.711229946524,4,2,0,30,1,0
166141,-66.6666666666667,4,2,0,30,0,0
166461,800,4,2,0,30,1,0
166461,-66.6666666666667,4,2,0,30,0,0
166861,685.500000004644,4,2,0,30,1,0
166861,-66.6666666666667,4,2,0,30,0,0
168232,600,4,2,0,30,1,0
168232,-55.5555555555556,4,2,0,30,0,0
177832,-50,4,2,0,35,0,0
186232,572.5,4,2,0,35,1,0
186232,-50,4,2,0,35,0,0
186375,-50,4,2,0,15,0,0
187377,545.454545454546,4,2,9,38,1,0
187377,-44.4444444444445,4,2,9,38,0,0
204831,571.428571428571,4,2,10,35,1,0
204831,-54.054054054054,4,2,10,35,0,0
222545,545.454545454546,4,2,10,40,1,0
222545,-54.054054054054,4,2,10,40,0,0
223090,428.571428571429,4,2,0,60,1,0
223090,-40,4,2,0,60,0,0
223197,-40,4,2,11,60,0,0
229947,-40,4,2,0,60,0,0
230054,-40,4,2,11,60,0,0
236804,333.333333333333,4,2,12,70,1,0
236804,-50,4,2,12,70,0,0
247470,-50,4,2,13,70,0,0
258137,-44.4444444444445,4,2,12,70,0,0
268803,-55.5555555555556,4,2,14,65,0,0
273803,-44.4444444444445,4,2,0,65,0,0
273970,-44.4444444444445,4,2,14,65,0,0
274137,-47.6190476190476,4,2,14,72,0,0
279470,-43.4782608695652,4,2,8,75,0,1
288970,-43.4782608695652,4,2,0,75,0,1
289137,-43.4782608695652,4,2,8,75,0,1
289303,-43.4782608695652,4,2,0,75,0,1
289470,-43.4782608695652,4,2,8,75,0,1
289553,-43.4782608695652,4,2,0,75,0,1
289803,350,4,2,8,75,1,1
289803,-43.4782608695652,4,2,8,75,0,1
289978,-43.4782608695652,4,2,0,75,0,1
290153,400,4,2,15,10,1,0
290153,-50,4,2,15,10,0,0
290253,-50,4,2,15,20,0,0
291753,-50,4,2,15,25,0,0
292553,-50,4,2,15,28,0,0
293353,-50,4,2,15,32,0,0
294153,-50,4,2,15,36,0,0
294953,-50,4,2,15,40,0,0
295353,-50,4,2,15,45,0,0
295953,-50,4,2,15,20,0,0
296553,-50,4,2,15,55,0,0
302953,-66.6666666666667,4,2,0,40,0,0
306953,444.444444444444,4,2,0,37,1,0
306953,-66.6666666666667,4,2,0,37,0,0
307841,-66.6666666666667,4,2,0,35,0,0
308730,400,4,2,0,50,1,0
308730,-50,4,2,0,50,0,0
308930,-50,4,2,3,50,0,0
309530,366.97247706422,4,2,3,60,1,0
309530,-50,4,2,3,60,0,0
315034,-43.4782608695652,4,2,3,60,0,0
315385,659.340659340659,4,2,0,30,1,0
315385,-66.6666666666667,4,2,0,30,0,0
315426,-66.6666666666667,4,2,0,20,0,0
316044,674.157303370787,4,2,0,20,1,0
316044,-66.6666666666667,4,2,0,20,0,0
316718,697.674418604651,4,2,0,20,1,0
316718,-66.6666666666667,4,2,0,20,0,0
317415,821.917808219178,4,2,0,20,1,0
317415,-66.6666666666667,4,2,0,20,0,0
318236,545.454545454546,4,2,0,20,1,0
318236,-66.6666666666667,4,2,0,20,0,0
318781,638.297872340426,4,2,0,20,1,0
318781,-66.6666666666667,4,2,0,20,0,0
319419,1304.34782608696,4,2,0,20,1,0
319419,-66.6666666666667,4,2,0,20,0,0
320723,1271.18644067797,4,2,0,20,1,0
320723,-66.6666666666667,4,2,0,20,0,0
321994,1643.83561643836,4,2,0,20,1,0
321994,-66.6666666666667,4,2,0,20,0,0
323637,3428.57142857143,4,2,0,10,1,0
323637,-25,4,2,0,10,0,0
337351,3797.46835443038,4,2,0,10,1,0
337351,-25,4,2,0,10,0,0
344945,3678.75,4,2,99,60,1,1
345174,-100,4,2,0,10,0,1
350922,-100,4,2,0,14,0,1
351382,-100,4,2,0,18,0,1
351842,-100,4,2,0,22,0,1
352302,-100,4,2,0,27,0,1
352762,-100,4,2,0,31,0,1
353222,-100,4,2,0,35,0,1
353682,-100,4,2,0,40,0,1
354141,-100,4,2,0,44,0,1
354601,-100,4,2,0,48,0,1
355061,-100,4,2,0,52,0,1
355521,-100,4,2,0,57,0,1
355981,-100,4,2,0,61,0,1
356441,-100,4,2,0,65,0,1
356900,-100,4,2,0,70,0,1
357360,-100,4,2,0,74,0,1
357820,-100,4,2,0,78,0,1
358280,-100,4,2,0,82,0,1
358740,-100,4,2,0,87,0,1
359200,-100,4,2,16,91,0,1
359660,-100,4,2,16,5,0,0

[Colours]
Combo1 : 0,255,255
Combo2 : 255,64,64
Combo3 : 75,255,0
Combo4 : 255,220,0
Combo5 : 255,130,0
Combo6 : 210,0,255
Combo7 : 10,0,255

[HitObjects]
256,192,2354,12,0,5854,0:0:0:0:
70,189,6021,5,2,0:0:0:0:
61,168,6062,1,2,0:0:0:0:
59,145,6104,1,2,0:0:0:0:
64,124,6146,1,2,0:0:0:0:
74,104,6187,1,2,0:0:0:0:
91,89,6229,1,2,0:0:0:0:
316,117,6355,6,0,L|115:121,1,170.000003242493,10|8,0:0|0:0,0:0:0:0:
262,182,6854,1,2,0:0:0:0:
39,255,7021,2,0,L|56:365,1,85.0000016212464,8|0,0:0|0:0,0:0:0:0:
182,368,7354,2,0,L|70:367,1,85.0000016212464,10|0,0:0|0:0,0:0:0:0:
371,343,7688,6,0,P|399:296|323:200,1,170.000003242493,10|8,0:0|0:0,0:0:0:0:
227,187,8188,1,2,0:0:0:0:
377,137,8354,2,0,L|282:128,1,85.0000016212464,8|0,0:0|0:0,0:0:0:0:
444,192,8688,2,0,L|457:295,1,85.0000016212464,10|0,0:0|0:0,0:0:0:0:
172,141,9021,6,8,L|373:157,1,170.000003242493,10|8,0:0|0:0,0:0:0:0:
224,224,9521,1,2,0:0:0:0:
451,237,9688,2,0,L|460:331,1,85.0000016212464,8|0,0:0|0:0,0:0:0:0:
335,366,10021,2,0,L|420:365,1,85.0000016212464,10|0,0:0|0:0,0:0:0:0:
196,325,10354,6,0,P|140:311|84:199,1,170.000003242493,10|8,0:0|0:0,0:0:0:0:
233,187,10854,1,2,0:0:0:0:
89,136,11021,2,0,L|83:234,1,85.0000016212464,8|0,0:0|0:0,0:0:0:0:
342,364,11354,1,2,0:0:0:0:
44,147,11688,6,10,L|64:270,1,85.0000016212464
188,273,12021,2,10,L|76:279,1,85.0000016212464
455,230,12355,2,10,L|469:147,1,85.0000016212464
324,273,12688,2,10,L|436:279,1,85.0000016212464
152,294,13021,5,10,0:0:0:0:
256,257,13187,1,10,0:0:0:0:
24,181,13354,1,10,0:0:0:0:
128,144,13521,1,10,0:0:0:0:
360,294,13688,1,10,0:0:0:0:
256,257,13854,1,10,0:0:0:0:
488,181,14021,1,10,0:0:0:0:
384,144,14188,1,10,0:0:0:0:
58,220,14354,6,10,L|14:183,1,42.5000008106232
112,169,14521,2,10,L|83:119,1,42.5000008106232
177,138,14688,2,10,L|167:81,1,42.5000008106232
251,133,14855,2,10,L|261:76,1,42.5000008106232
58,220,15021,5,10,0:0:0:0:
28,265,15104,1,10,0:0:0:0:
47,316,15187,1,10,0:0:0:0:
100,330,15271,1,10,0:0:0:0:
189,294,15354,2,10,L|136:289,1,42.5000008106232
55,238,15521,2,10,L|108:233,1,42.5000008106232
253,208,15688,6,0,L|423:190,3,170.000003242493,2|0|0|0,0:0|0:0|0:0|0:0,0:0:0:0:
97,97,17021,5,2,0:0:0:0:
415,97,17354,1,2,0:0:0:0:
97,97,17688,1,2,0:0:0:0:
256,114,17854,2,0,L|206:109,1,50
381,83,18021,2,0,P|456:128|362:196,1,225.000008583069,4|0,1:0|0:0,0:0:0:0:
206,245,18354,6,0,L|305:247,1,100,6|0,0:0|0:0,0:0:0:0:
57,241,18688,2,0,L|40:362,1,100,10|0,0:0|0:0,0:0:0:0:
325,106,19021,1,2,0:0:0:0:
189,142,19188,1,0,0:0:0:0:
53,178,19354,1,10,0:0:0:0:
293,312,19521,1,0,0:0:0:0:
69,350,19688,6,0,L|91:225,1,100,2|0,0:0|0:0,0:0:0:0:
221,212,20021,2,0,L|89:212,1,100,10|0,0:0|0:0,0:0:0:0:
443,350,20354,2,0,L|421:225,1,100,2|0,0:0|0:0,0:0:0:0:
291,212,20687,2,0,L|423:212,1,100,10|0,0:0|0:0,0:0:0:0:
156,320,21021,6,2,L|374:298,1,200,2|10,0:0|0:0,0:0:0:0:
192,217,21521,1,0,0:0:0:0:
424,176,21688,2,0,L|414:292,1,100,2|0,0:0|0:0,0:0:0:0:
115,262,22021,2,0,L|125:378,1,100,10|0,0:0|0:0,0:0:0:0:
371,303,22354,6,0,L|242:294,1,100,2|0,0:0|0:0,0:0:0:0:
418,296,22688,1,10,0:0:0:0:
438,232,22771,1,0,0:0:0:0:
428,264,22854,1,0,0:0:0:0:
114,254,23021,2,0,L|243:245,1,100,2|0,0:0|0:0,0:0:0:0:
481,84,23354,2,0,L|352:75,1,100,10|0,0:0|0:0,0:0:0:0:
104,66,23688,6,2,P|52:139|124:200,1,200,2|10,0:0|0:0,0:0:0:0:
256,201,24188,1,0,0:0:0:0:
22,310,24354,2,0,L|127:311,1,100,2|0,0:0|0:0,0:0:0:0:
355,200,24688,2,0,L|250:201,1,100,10|0,0:0|0:0,0:0:0:0:
481,41,25021,6,0,L|496:139,1,100,2|0,0:0|0:0,0:0:0:0:
262,30,25354,1,10,0:0:0:0:
385,46,25521,1,0,0:0:0:0:
81,136,25688,2,0,L|59:260,1,100,2|0,0:0|0:0,0:0:0:0:
313,351,26021,1,10,0:0:0:0:
198,340,26188,1,0,0:0:0:0:
468,223,26354,6,0,L|358:226,1,100,2|0,0:0|0:0,0:0:0:0:
487,215,26688,1,10,0:0:0:0:
144,295,26854,2,0,P|241:233|228:172,1,150,2|0,0:0|0:0,0:0:0:0:
175,171,27188,1,0,0:0:0:0:
274,157,27354,1,10,0:0:0:0:
498,25,27521,6,0,L|326:58,1,150,2|0,0:0|0:0,0:0:0:0:
167,214,27854,1,0,0:0:0:0:
274,157,28021,1,10,0:0:0:0:
29,126,28188,2,0,P|7:182|60:252,1,150,2|0,0:0|0:0,0:0:0:0:
243,248,28521,2,2,L|231:189,1,50,2|0,0:0|0:0,0:0:0:0:
53,170,28688,1,2,0:0:0:0:
43,201,28729,1,2,0:0:0:0:
42,235,28771,1,2,0:0:0:0:
51,267,28813,1,2,0:0:0:0:
68,295,28854,1,2,0:0:0:0:
92,318,28896,1,2,0:0:0:0:
122,333,28938,1,2,0:0:0:0:
327,264,29021,5,2,0:0:0:0:
181,264,29188,1,2,0:0:0:0:
334,271,29354,1,2,0:0:0:0:
174,271,29521,1,2,0:0:0:0:
340,277,29688,1,2,0:0:0:0:
168,277,29855,1,2,0:0:0:0:
344,282,30021,1,2,0:0:0:0:
165,282,30188,1,2,0:0:0:0:
428,236,30354,6,2,L|452:179,1,50
352,154,30521,2,2,L|355:91,1,50
259,102,30688,2,2,L|241:42,1,50
150,74,30855,2,2,L|112:24,1,50
271,29,31021,6,2,L|140:29,1,100
146,30,31271,1,2,0:0:0:0:
382,33,31354,2,0,P|433:125|329:183,1,225.000008583069,4|0,1:0|0:0,0:0:0:0:
89,243,31688,6,0,L|217:250,1,110.000003356934,6|0,0:0|0:0,0:0:0:0:
473,304,32021,2,0,L|345:311,1,110.000003356934,10|0,0:0|0:0,0:0:0:0:
114,329,32354,1,2,0:0:0:0:
256,343,32521,1,0,0:0:0:0:
398,329,32688,1,10,0:0:0:0:
97,95,32854,1,0,0:0:0:0:
415,95,33021,6,0,B|470:91|470:91|415:95,1,110.000003356934,2|0,0:0|0:0,0:0:0:0:
237,219,33355,1,10,0:0:0:0:
220,260,33438,1,0,0:0:0:0:
254,178,33521,1,0,0:0:0:0:
496,175,33688,2,0,L|355:172,1,110.000003356934,2|0,0:0|0:0,0:0:0:0:
260,166,34021,1,10,0:0:0:0:
496,175,34188,1,0,0:0:0:0:
187,324,34354,6,2,P|96:259|186:193,1,220.000006713867,2|10,0:0|0:0,0:0:0:0:
282,188,34854,1,0,0:0:0:0:
50,107,35021,2,0,L|38:229,1,110.000003356934,2|0,0:0|0:0,0:0:0:0:
185,310,35354,2,0,L|50:308,1,110.000003356934,10|0,0:0|0:0,0:0:0:0:
337,279,35688,5,2,0:0:0:0:
471,254,35854,1,0,0:0:0:0:
323,247,36021,1,10,0:0:0:0:
443,222,36187,1,0,0:0:0:0:
97,122,36354,2,0,P|64:181|125:235,1,110.000003356934,2|0,0:0|0:0,0:0:0:0:
319,251,36688,2,0,L|184:283,1,110.000003356934,10|0,0:0|0:0,0:0:0:0:
488,97,37021,6,0,L|380:71,1,110.000003356934,2|0,0:0|0:0,0:0:0:0:
131,71,37354,1,10,0:0:0:0:
373,175,37521,2,0,P|367:243|257:279,1,165.000005035401,2|0,0:0|0:0,0:0:0:0:
216,288,37854,1,0,0:0:0:0:
373,175,38021,1,10,0:0:0:0:
84,211,38188,6,0,P|90:279|200:315,1,165.000005035401,2|0,0:0|0:0,0:0:0:0:
251,324,38521,1,0,0:0:0:0:
84,211,38688,1,10,0:0:0:0:
376,127,38854,2,0,L|195:124,1,165.000005035401,2|0,0:0|0:0,0:0:0:0:
136,127,39188,1,2,0:0:0:0:
385,50,39354,2,0,L|415:160,1,110.000003356934,8|0,0:0|0:0,0:0:0:0:
99,156,39688,1,2,0:0:0:0:
256,192,39771,12,0,40854,0:0:0:0:
344,146,41021,6,0,L|334:258,1,110.000003356934,2|0,0:0|0:0,0:0:0:0:
48,259,41354,2,0,L|58:371,1,110.000003356934,2|0,0:0|0:0,0:0:0:0:
348,365,41688,2,0,L|357:255,1,110.000003356934,2|0,0:0|0:0,0:0:0:0:
282,240,41938,1,0,0:0:0:0:
137,144,42021,2,2,L|210:144,1,55.0000016784668,6|2,0:0|0:0,0:0:0:0:
129,74,42188,2,2,L|202:74,1,55.0000016784668
384,81,42354,6,0,L|257:81,1,92.4999996471405,6|0,0:0|0:0,0:0:0:0:
344,135,42604,1,0,0:0:0:0:
397,178,42688,1,10,0:0:0:0:
176,210,42854,2,0,P|158:256|213:317,1,138.749999470711,6|0,0:0|0:0,0:0:0:0:
119,326,43188,2,0,L|224:315,1,92.4999996471405,2|10,0:0|0:0,0:0:0:0:
471,188,43521,6,0,L|290:175,1,138.749999470711,6|0,0:0|0:0,0:0:0:0:
256,178,43854,1,2,0:0:0:0:
414,141,44021,1,10,0:0:0:0:
159,265,44188,2,0,P|101:218|155:154,1,138.749999470711,6|0,0:0|0:0,0:0:0:0:
203,134,44521,2,2,L|140:134,1,46.2499998235703
13,84,44688,2,0,L|113:81,1,92.4999996471405,10|2,0:0|0:0,0:0:0:0:
377,85,45021,5,6,0:0:0:0:
256,175,45188,1,0,0:0:0:0:
135,85,45354,1,10,0:0:0:0:
418,178,45521,2,0,L|244:196,1,138.749999470711,6|0,0:0|0:0,0:0:0:0:
442,95,45854,2,2,L|316:107,1,92.4999996471405,2|10,0:0|0:0,0:0:0:0:
61,186,46188,6,0,L|265:157,1,184.999999294281,6|2,0:0|0:0,0:0:0:0:
98,262,46688,2,0,L|79:366,1,92.4999996471405,10|0,0:0|0:0,0:0:0:0:
367,352,47021,1,2,0:0:0:0:
227,258,47188,2,2,L|289:259,1,46.2499998235703
349,256,47354,2,0,P|348:301|257:349,1,138.749999470711,10|10,0:0|0:0,0:0:0:0:
472,128,47688,6,8,P|493:167|438:254,1,138.749999470711,6|0,0:0|0:0,0:0:0:0:
389,259,48021,1,10,0:0:0:0:
152,121,48188,2,0,P|145:187|204:239,1,138.749999470711,6|0,0:0|0:0,0:0:0:0:
282,230,48521,2,2,L|171:252,1,92.4999996471405,2|10,0:0|0:0,0:0:0:0:
445,164,48854,6,0,L|294:159,1,138.749999470711,6|0,0:0|0:0,0:0:0:0:
229,163,49187,1,0,0:0:0:0:
256,27,49354,1,10,0:0:0:0:
480,332,49521,1,6,0:0:0:0:
32,332,49854,1,6,0:0:0:0:
480,332,50188,6,0,P|483:259|404:198,1,138.749999470711,6|0,0:0|0:0,0:0:0:0:
342,118,50521,2,0,L|443:126,1,92.4999996471405,2|10,0:0|0:0,0:0:0:0:
205,245,50854,2,0,L|45:233,1,138.749999470711,6|0,0:0|0:0,0:0:0:0:
129,198,51188,1,2,0:0:0:0:
291,256,51354,1,10,0:0:0:0:
36,250,51521,6,2,L|246:256,1,184.999999294281,6|2,0:0|0:0,0:0:0:0:
291,256,51938,1,2,0:0:0:0:
148,315,52021,2,2,P|95:304|48:267,1,92.4999996471405,10|2,0:0|0:0,0:0:0:0:
136,235,52271,1,2,0:0:0:0:
208,207,52354,6,2,L|216:91,1,92.4999996471405,14|2,0:0|0:0,0:0:0:0:
140,96,52604,1,2,0:0:0:0:
308,249,52688,2,2,L|304:314,1,46.2499998235703,10|2,0:0|0:0,0:0:0:0:
204,312,52854,2,2,L|208:377,1,46.2499998235703,2|10,0:0|0:0,0:0:0:0:
404,358,53021,6,0,P|450:288|378:230,1,179.999994506836,4|10,0:2|0:0,0:0:0:0:
268,227,53521,1,0,0:0:0:0:
22,104,53688,1,2,0:0:0:0:
38,220,53854,1,0,0:0:0:0:
329,166,54021,1,10,0:0:0:0:
313,282,54187,1,0,0:0:0:0:
63,319,54354,6,0,L|169:321,1,89.9999972534181,2|0,0:0|0:0,0:0:0:0:
289,235,54688,2,0,L|183:237,1,89.9999972534181,10|0,0:0|0:0,0:0:0:0:
456,136,55021,1,2,0:0:0:0:
462,166,55104,1,0,0:0:0:0:
450,106,55188,1,0,0:0:0:0:
320,108,55354,1,14,0:0:0:0:
462,166,55521,1,0,0:0:0:0:
185,333,55688,6,0,P|160:276|193:234,1,89.9999972534181,2|0,0:0|0:0,0:0:0:0:
298,268,56021,1,10,0:0:0:0:
185,333,56188,1,0,0:0:0:0:
458,145,56354,1,2,0:0:0:0:
388,136,56438,1,0,0:0:0:0:
318,126,56521,1,0,0:0:0:0:
54,145,56688,1,10,0:0:0:0:
204,171,56854,2,0,L|210:233,1,44.999998626709
57,238,57021,6,0,L|49:337,1,89.9999972534181,2|0,0:0|0:0,0:0:0:0:
207,136,57354,2,0,L|215:235,1,89.9999972534181,10|0,0:0|0:0,0:0:0:0:
57,210,57688,1,2,0:0:0:0:
130,225,57771,1,0,0:0:0:0:
203,240,57854,2,0,P|216:183|189:154,1,89.9999972534181,0|10,0:0|0:0,0:0:0:0:
36,150,58188,1,0,0:0:0:0:
291,117,58354,5,2,0:0:0:0:
182,85,58521,2,0,L|244:83,1,44.999998626709
416,79,58688,1,4,0:2:0:0:
209,197,59021,2,0,L|322:189,1,89.9999972534181,2|0,0:0|0:0,0:0:0:0:
407,183,59354,1,10,0:0:0:0:
182,85,59521,1,4,0:2:0:0:
416,79,59688,6,0,L|305:79,1,89.9999972534181,2|0,0:0|0:0,0:0:0:0:
63,271,60021,2,0,L|212:271,1,134.999995880127,10|0,0:0|0:0,0:0:0:0:
56,208,60354,2,0,L|148:208,1,89.9999972534181,2|0,0:0|0:0,0:0:0:0:
63,131,60688,1,2,2:0:0:0:
435,145,60854,6,0,L|256:140,1,179.999994506836
27,127,61354,1,10,0:0:0:0:
161,196,61521,2,0,L|166:258,1,44.999998626709
18,334,61688,2,0,L|146:337,1,89.9999972534181,2|0,0:0|0:0,0:0:0:0:
26,273,62021,1,2,2:2:0:0:
316,331,62188,6,0,P|380:285|312:212,1,179.999994506836
112,94,62688,1,10,0:0:0:0:
253,69,62854,1,0,0:0:0:0:
32,227,63021,2,0,L|21:295,2,44.999998626709,2|0|0,0:0|0:0|0:0,0:0:0:0:
257,181,63354,2,0,L|124:168,1,89.9999972534181,2|0,0:0|0:0,0:0:0:0:
436,256,63688,6,0,P|446:193|411:128,1,126.666663284302,4|0,0:0|0:0,0:0:0:0:
325,137,64021,2,0,L|469:129,1,126.666663284302,8|0,0:0|0:0,0:0:0:0:
330,212,64354,2,0,P|302:149|355:95,1,126.666663284302,2|0,0:0|0:0,0:0:0:0:
406,103,64688,1,8,0:0:0:0:
113,82,64910,1,0,0:0:0:0:
195,113,65021,6,0,L|186:244,1,126.666663284302,2|0,0:0|0:0,0:0:0:0:
70,190,65354,2,0,L|79:321,1,126.666663284302,8|0,0:0|0:0,0:0:0:0:
199,323,65688,2,0,L|123:327,1,63.3333316421509,2|0,0:0|0:0,0:0:0:0:
49,334,65910,1,0,0:0:0:0:
249,303,66021,2,0,P|296:234|236:178,1,126.666663284302,8|0,0:0|0:0,0:0:0:0:
94,84,66354,6,0,L|251:96,1,126.666663284302,2|0,0:0|0:0,0:0:0:0:
315,98,66688,1,8,0:0:0:0:
155,219,66910,1,0,0:0:0:0:
225,262,67021,2,0,P|218:342|147:364,1,126.666663284302,2|0,0:0|0:0,0:0:0:0:
97,370,67354,1,8,0:0:0:0:
387,323,67577,6,0,L|396:251,1,63.3333316421509,0|2,0:0|0:0,0:0:0:0:
54,151,67910,2,0,L|45:79,1,63.3333316421509,0|8,0:0|0:0,0:0:0:0:
327,77,68243,1,0,0:0:0:0:
256,98,68354,2,0,P|199:163|198:219,1,126.666663284302,2|0,0:0|0:0,0:0:0:0:
257,223,68632,1,0,0:0:0:0:
317,200,68688,2,0,L|163:204,1,126.666663284302,8|0,0:0|0:0,0:0:0:0:
410,270,69021,6,0,P|443:215|407:150,1,126.666663284302,2|0,0:0|0:0,0:0:0:0:
325,141,69354,1,8,0:0:0:0:
487,106,69577,1,0,0:0:0:0:
311,79,69688,2,0,L|451:101,1,126.666663284302,2|0,0:0|0:0,0:0:0:0:
338,146,70021,2,0,P|327:229|367:262,1,126.666663284302,8|0,0:0|0:0,0:0:0:0:
78,274,70354,6,0,L|224:256,1,126.666663284302,2|0,0:0|0:0,0:0:0:0:
108,197,70688,1,8,0:0:0:0:
269,145,70910,2,0,L|278:192,1,31.6666658210755
206,127,71021,2,0,P|190:167|244:223,1,126.666663284302,2|0,0:0|0:0,0:0:0:0:
307,236,71299,1,0,0:0:0:0:
372,207,71354,2,0,L|226:196,1,126.666663284302,8|0,0:0|0:0,0:0:0:0:
54,168,71688,6,0,P|58:268|116:296,1,126.666663284302,2|0,0:0|0:0,0:0:0:0:
257,299,72021,2,0,L|116:335,1,126.666663284302,8|0,0:0|0:0,0:0:0:0:
377,330,72354,2,0,L|255:299,1,126.666663284302,2|0,0:0|0:0,0:0:0:0:
440,280,72688,2,0,P|472:228|458:168,1,126.666663284302,8|0,0:0|0:0,0:0:0:0:
192,105,73021,6,0,L|318:97,1,126.666663284302,2|0,0:0|0:0,0:0:0:0:
54,167,73354,2,0,P|39:228|71:280,1,126.666663284302,8|0,0:0|0:0,0:0:0:0:
330,229,73688,1,10,0:0:0:0:
256,284,73799,1,8,0:0:0:0:
180,229,73910,1,0,0:0:0:0:
305,136,74021,1,8,0:0:0:0:
205,136,74132,1,0,0:0:0:0:
330,229,74243,1,8,0:0:0:0:
127,79,74354,6,0,P|73:112|69:180,1,106.666666666667,2|0,0:0|0:0,0:0:0:0:
162,220,74688,2,0,L|178:343,1,106.666666666667,2|0,0:0|0:0,0:0:0:0:
273,225,75020,2,0,L|267:139,1,53.3333333333333,2|0,0:0|0:0,0:0:0:0:
205,114,75242,1,0,0:0:0:0:
139,98,75354,6,0,L|263:83,1,106.666666666667,2|0,0:0|0:0,0:0:0:0:
331,74,75688,1,2,0:0:0:0:
176,179,75910,2,0,L|347:158,1,160
440,152,76354,6,0,P|444:221|402:280,1,106.666666666667,2|0,0:0|0:0,0:0:0:0:
304,291,76688,2,0,L|434:298,1,106.666666666667,2|0,0:0|0:0,0:0:0:0:
293,338,77021,2,0,L|163:345,1,106.666666666667,2|0,0:0|0:0,0:0:0:0:
88,348,77354,2,0,P|23:327|-3:285,2,106.666666666667,2|0|0,0:0|0:0|0:0,0:0:0:0:
186,343,77910,2,0,L|113:343,1,53.3333333333333,0|2,0:0|0:0,0:0:0:0:
41,338,78132,2,0,L|59:261,1,53.3333333333333
109,259,78299,1,0,0:0:0:0:
164,230,78354,6,0,L|51:214,1,106.666666666667,2|0,0:0|0:0,0:0:0:0:
151,89,78688,2,0,L|264:73,1,106.666666666667,2|0,0:0|0:0,0:0:0:0:
376,65,79021,1,2,0:0:0:0:
295,167,79132,2,0,L|288:231,1,53.3333333333333
350,244,79299,1,0,0:0:0:0:
410,254,79354,6,0,P|444:197|427:153,1,106.666666666667,2|0,0:0|0:0,0:0:0:0:
307,107,79688,2,0,L|429:125,1,106.666666666667,2|0,0:0|0:0,0:0:0:0:
286,158,80021,2,0,L|164:176,1,106.666666666667,2|0,0:0|0:0,0:0:0:0:
126,187,80299,1,0,0:0:0:0:
71,199,80354,6,2,L|196:190,2,120
327,312,81104,1,2,0:0:0:0:
79,347,81354,2,2,P|38:293|93:199,1,160
288,128,81938,2,2,L|168:117,1,120
443,47,82354,6,8,P|468:104|402:201,1,150.000005722046,0|0,0:0|0:0,0:0:0:0:
257,245,82910,2,0,L|266:321,1,50.0000019073487,0|8,0:0|0:0,0:0:0:0:
435,281,83243,2,0,L|426:357,1,50.0000019073487,0|8,0:0|0:0,0:0:0:0:
277,343,83576,2,0,L|214:340,1,50.0000019073487,0|8,0:0|0:0,0:0:0:0:
82,330,84021,2,0,P|69:260|94:213,1,100.000003814697,8|0,0:0|0:0,0:0:0:0:
195,206,84354,2,0,L|71:198,1,100.000003814697,8|0,0:0|0:0,0:0:0:0:
16,192,84688,1,8,0:0:0:0:
187,145,84910,1,0,0:0:0:0:
250,136,85021,6,0,P|264:187|174:257,1,150.000005722046,8|8,0:0|0:0,0:0:0:0:
54,294,85577,1,0,0:0:0:0:
110,305,85632,1,0,0:0:0:0:
166,316,85688,2,0,P|198:263|180:207,1,100.000003814697,8|0,0:0|0:0,0:0:0:0:
127,199,86021,1,8,0:0:0:0:
221,151,86188,2,0,L|273:156,1,37.5000014305115
173,128,86354,6,0,L|42:122,1,100.000003814697,8|0,0:0|0:0,0:0:0:0:
173,261,86688,2,0,L|304:255,1,100.000003814697,8|0,0:0|0:0,0:0:0:0:
152,351,87021,2,0,L|21:345,1,100.000003814697,8|0,0:0|0:0,0:0:0:0:
356,154,87354,2,0,P|420:202|307:292,1,225.000008583069,4|0,1:0|0:0,0:0:0:0:
184,271,87688,6,0,L|301:271,1,104.999996795654,6|0,0:0|0:0,0:0:0:0:
314,209,87938,1,0,0:0:0:0:
141,283,88021,2,0,L|152:220,1,52.4999983978272,2|0,0:0|0:0,0:0:0:0:
228,329,88188,2,0,L|259:273,1,52.4999983978272
422,206,88354,5,2,0:0:0:0:
434,273,88437,1,0,0:0:0:0:
401,333,88520,1,0,0:0:0:0:
337,359,88603,1,0,0:0:0:0:
180,358,88688,2,0,L|160:294,1,52.4999983978272,2|0,0:0|0:0,0:0:0:0:
359,278,88854,6,0,P|410:236|338:147,1,157.499995193482,6|0,0:0|0:0,0:0:0:0:
152,162,89188,1,6,0:3:0:0:
293,112,89354,2,0,L|169:111,1,104.999996795654,6|0,0:3|0:0,0:0:0:0:
439,65,89688,2,0,L|471:125,1,52.4999983978272,2|0,0:0|0:0,0:0:0:0:
382,138,89854,2,0,L|391:205,1,52.4999983978272
475,254,90021,1,2,0:0:0:0:
147,279,90188,6,6,L|362:276,1,209.999993591309,6|6,0:3|0:3,0:0:0:0:
447,275,90604,1,2,0:0:0:0:
240,190,90688,2,0,L|359:188,1,104.999996795654,6|0,0:3|0:0,0:0:0:0:
398,186,90938,1,0,0:0:0:0:
319,241,91021,2,0,L|313:307,1,52.4999983978272,2|0,0:0|0:0,0:0:0:0:
497,344,91188,2,0,L|381:344,1,104.999996795654,6|2,0:3|0:0,0:0:0:0:
310,294,91438,2,0,L|367:294,1,52.4999983978272,0|6,0:0|0:3,0:0:0:0:
78,168,91688,6,0,L|202:172,1,104.999996795654,6|0,0:0|0:0,0:0:0:0:
467,219,92021,2,0,L|343:223,1,104.999996795654,6|0,0:0|0:0,0:0:0:0:
118,310,92354,1,6,0:0:0:0:
362,222,92521,1,0,0:0:0:0:
64,172,92688,2,0,P|64:104|147:68,1,157.499995193482,6|0,0:0|0:0,0:0:0:0:
313,78,93021,6,0,L|298:206,1,97.500000371933,6|0,0:0|0:0,0:0:0:0:
192,250,93354,1,10,0:0:0:0:
313,327,93521,1,2,0:0:0:0:
54,345,93688,2,0,L|42:248,1,97.500000371933
174,180,94021,1,10,0:0:0:0:
305,129,94188,1,0,0:0:0:0:
18,64,94354,6,0,L|141:77,1,97.500000371933,2|0,0:0|0:0,0:0:0:0:
288,210,94688,2,0,L|165:223,1,97.500000371933,10|2,0:0|0:0,0:0:0:0:
361,324,95021,2,0,L|370:200,1,97.500000371933
133,201,95354,1,10,0:0:0:0:
256,195,95521,1,0,0:0:0:0:
22,198,95688,6,0,P|16:253|61:311,1,97.500000371933,2|0,0:0|0:0,0:0:0:0:
174,308,96021,1,10,0:0:0:0:
22,198,96188,1,2,0:0:0:0:
257,137,96354,2,0,L|131:129,1,97.500000371933
22,198,96688,1,10,0:0:0:0:
327,289,96854,1,0,0:0:0:0:
332,289,96896,1,0,0:0:0:0:
337,289,96938,1,0,0:0:0:0:
342,289,96979,1,0,0:0:0:0:
347,289,97021,6,0,L|228:297,2,97.500000371933,2|0|10,0:0|0:0|0:0,0:0:0:0:
118,242,97521,1,2,0:0:0:0:
231,207,97688,2,0,L|213:104,1,97.500000371933
76,65,98021,2,0,L|196:65,1,97.500000371933,10|0,0:0|0:0,0:0:0:0:
402,143,98354,6,0,L|188:142,1,195.000000743866,6|10,0:0|0:0,0:0:0:0:
347,243,98854,1,2,0:0:0:0:
91,239,99021,2,0,L|106:344,1,97.500000371933
228,327,99354,1,10,0:0:0:0:
91,239,99521,1,0,0:0:0:0:
389,81,99688,6,2,P|436:145|342:222,1,195.000000743866,6|10,0:0|0:0,0:0:0:0:
257,225,100188,1,0,0:0:0:0:
485,95,100354,2,0,L|361:77,2,97.500000371933,0|0|10,0:0|0:0|0:0,0:0:0:0:
156,126,100854,6,0,L|359:113,1,195.000000743866,6|0,0:0|0:0,0:0:0:0:
64,187,101354,2,0,P|31:250|113:343,1,195.000000743866,10|6,0:0|0:0,0:0:0:0:
320,110,101854,2,0,L|216:99,1,97.500000371933,0|10,0:0|0:0,0:0:0:0:
447,186,102188,6,0,P|479:274|414:340,1,195.000000743866,6|0,0:0|0:0,0:0:0:0:
155,261,102688,1,10,0:0:0:0:
308,239,102854,2,0,L|318:178,1,48.7500001859665
121,81,103021,1,0,0:0:0:0:
256,192,103188,2,2,L|308:192,1,48.7500001859665,2|2,0:2|0:2,0:2:0:0:
119,270,103354,2,10,L|7:270,1,97.500000371933,10|2,0:2|0:2,0:2:0:0:
347,319,103687,6,0,L|362:212,1,97.500000371933,6|0,0:0|0:0,0:0:0:0:
257,170,104020,1,0,0:0:0:0:
416,119,104187,1,2,0:0:0:0:
313,87,104353,2,0,L|212:68,1,89.0000000679016
362,26,104687,1,10,0:0:0:0:
225,70,104853,1,0,0:0:0:0:
456,213,105020,6,0,P|456:152|431:120,1,89.0000000679016,2|0,0:0|0:0,0:0:0:0:
345,94,105353,1,0,0:0:0:0:
190,159,105520,2,0,L|286:157,1,89.0000000679016,2|0,0:0|0:0,0:0:0:0:
175,266,105853,1,0,0:0:0:0:
305,328,106020,2,0,P|310:281|261:224,1,89.0000000679016,10|0,0:0|0:0,0:0:0:0:
33,193,106354,6,0,L|22:295,1,89.0000000679016,2|0,0:0|0:0,0:0:0:0:
153,146,106688,1,0,0:0:0:0:
20,67,106854,1,2,0:0:0:0:
163,50,107021,2,0,L|36:50,1,89.0000000679016
190,116,107354,1,10,0:0:0:0:
47,116,107521,1,0,0:0:0:0:
311,116,107688,6,0,L|327:240,1,89.0000000679016,2|0,0:0|0:0,0:0:0:0:
182,220,108021,2,0,L|166:344,1,89.0000000679016,0|2,0:0|0:0,0:0:0:0:
333,334,108354,1,0,0:0:0:0:
246,283,108521,2,0,L|305:283,1,44.5000000339508
462,283,108688,1,10,0:0:0:0:
483,229,108771,1,10,0:0:0:0:
455,179,108854,1,2,0:0:0:0:
398,169,108937,1,0,0:0:0:0:
201,178,109021,6,2,P|162:253|245:313,1,178.000000135803,6|10,0:0|0:0,0:0:0:0:
322,330,109521,1,0,0:0:0:0:
49,214,109688,2,0,L|148:215,1,89.0000000679016,0|2,0:0|0:0,0:0:0:0:
272,215,110021,1,10,0:0:0:0:
125,314,110188,1,0,0:0:0:0:
439,353,110354,6,2,P|478:278|395:218,1,178.000000135803,2|10,0:0|0:0,0:0:0:0:
291,211,110854,1,2,0:0:0:0:
29,138,111021,2,0,L|142:124,1,89.0000000679016,0|2,0:0|0:0,0:0:0:0:
189,113,111271,1,0,0:0:0:0:
344,86,111354,2,0,P|338:146|301:181,1,89.0000000679016,10|0,0:0|0:0,0:0:0:0:
272,184,111604,1,0,0:0:0:0:
451,169,111688,6,0,L|342:166,1,89.0000000679016,6|0,0:0|0:0,0:0:0:0:
208,28,112021,2,0,L|297:26,1,89.0000000679016,10|0,0:0|0:0,0:0:0:0:
149,166,112354,2,0,L|61:169,1,89.0000000679016,2|0,0:0|0:0,0:0:0:0:
297,26,112688,2,0,L|208:28,1,89.0000000679016,10|0,0:0|0:0,0:0:0:0:
467,137,113021,5,10,0:0:0:0:
337,176,113188,1,0,0:0:0:0:
475,259,113354,2,0,L|490:329,1,44.5000000339508
282,101,113521,2,0,L|395:104,1,89.0000000679016,10|0,0:0|0:0,0:0:0:0:
235,189,113854,2,0,L|227:247,1,44.5000000339508
369,299,114021,2,10,L|304:299,1,44.5000000339508
164,303,114188,1,2,0:0:0:0:
385,214,114354,5,14,0:0:0:0:
472,156,114521,2,8,L|491:68,2,81.0000019775391,8|8|10,0:0|0:0|0:0,0:0:0:0:
306,164,115021,1,8,0:0:0:0:
393,106,115188,2,8,L|412:18,2,81.0000019775391
127,214,115688,5,10,0:0:0:0:
40,156,115853,2,8,L|21:68,2,81.0000019775391,8|8|10,0:0|0:0|0:0,0:0:0:0:
206,164,116353,1,8,0:0:0:0:
119,106,116520,2,8,L|100:18,2,81.0000019775391
388,181,117020,6,0,L|402:223,3,40.5000009887696,10|0|8|0,0:0|0:0|0:0|0:0,0:0:0:0:
319,233,117354,2,0,L|317:277,1,40.5000009887696,8|0,0:0|0:0,0:0:0:0:
236,242,117520,2,0,L|219:283,1,40.5000009887696,10|0,0:0|0:0,0:0:0:0:
139,243,117688,5,8,0:0:0:0:
89,240,117771,1,0,0:0:0:0:
55,204,117854,1,8,0:0:0:0:
53,155,117937,1,0,0:0:0:0:
86,118,118021,2,0,L|145:113,1,43.5000003650665,8|0,0:0|0:0,0:0:0:0:
207,33,118188,2,0,L|152:26,1,43.5000003650665,8|0,0:0|0:0,0:0:0:0:
328,138,118354,6,2,L|334:95,1,43.5000003650665
233,171,118521,2,2,L|253:209,1,43.5000003650665
357,255,118688,2,8,L|324:283,1,43.5000003650665
203,338,118854,2,8,L|243:354,1,43.5000003650665
438,330,119021,6,0,L|387:332,1,43.5000003650665,2|0,0:1|0:0,0:0:0:0:
307,215,119188,2,0,L|259:234,1,43.5000003650665,2|0,0:1|0:0,0:0:0:0:
180,121,119354,2,0,L|142:155,1,43.5000003650665,2|0,0:1|0:0,0:0:0:0:
60,132,119521,2,0,L|36:177,1,43.5000003650665,2|0,0:1|0:0,0:0:0:0:
231,292,119688,6,0,P|253:205|200:173,1,140.249997217941,2|0,0:0|0:0,0:0:0:0:
43,82,120021,2,0,L|170:74,1,93.4999981452942,14|0,0:0|0:0,0:0:0:0:
363,61,120354,1,8,0:0:0:0:
250,109,120521,2,0,L|257:159,1,46.7499990726471,0|2,0:0|0:0,0:0:0:0:
332,216,120688,2,0,L|325:266,1,46.7499990726471
400,291,120854,1,2,0:0:0:0:
169,334,121021,6,0,L|96:334,1,46.7499990726471
203,293,121188,1,10,0:0:0:0:
206,257,121229,1,0,0:0:0:0:
203,293,121271,1,0,0:0:0:0:
41,234,121354,2,0,L|32:176,1,46.7499990726471
121,137,121521,1,10,0:0:0:0:
124,113,121562,1,0,0:0:0:0:
127,91,121604,1,0,0:0:0:0:
286,93,121688,6,10,L|342:93,1,46.7499990726471
250,45,121854,1,2,0:0:0:0:
273,45,121895,1,0,0:0:0:0:
296,45,121937,1,0,0:0:0:0:
450,46,122021,2,0,P|484:121|385:205,1,210.375003330445,4|0,1:0|0:0,0:0:0:0:
224,306,122354,5,2,0:0:0:0:
214,291,122437,1,0,0:0:0:0:
124,238,122520,1,0,0:0:0:0:
114,223,122603,1,0,0:0:0:0:
280,164,122688,1,10,0:0:0:0:
290,141,122729,1,0,0:0:0:0:
299,120,122771,1,0,0:0:0:0:
387,98,122854,2,10,L|408:42,1,46.7499990726471
211,51,123021,6,0,L|89:66,1,93.4999981452942,10|0,0:0|0:0,0:0:0:0:
217,130,123271,2,0,L|339:145,1,93.4999981452942,10|0,0:0|0:0,0:0:0:0:
206,221,123521,2,0,L|149:236,1,46.7499990726471,10|0,0:0|0:0,0:0:0:0:
318,368,123688,5,2,0:0:0:0:
342,300,123771,1,2,0:0:0:0:
311,234,123854,1,2,0:0:0:0:
241,212,123937,1,2,0:0:0:0:
335,206,124021,1,2,0:0:0:0:
385,154,124104,1,2,0:0:0:0:
384,81,124187,1,2,0:0:0:0:
330,32,124270,1,2,0:0:0:0:
146,91,124354,6,0,L|207:85,1,46.7499990726471,2|0,0:0|0:0,0:0:0:0:
273,167,124521,2,0,L|212:161,1,46.7499990726471,2|0,0:0|0:0,0:0:0:0:
63,228,124688,2,0,L|56:283,1,46.7499990726471,10|0,0:0|0:0,0:0:0:0:
137,304,124854,2,0,L|130:359,1,46.7499990726471,2|0,0:0|0:0,0:0:0:0:
308,306,125021,6,0,L|435:306,1,110.000003356934,6|0,0:3|0:0,0:0:0:0:
184,181,125354,1,10,0:0:0:0:
418,306,125521,1,0,0:0:0:0:
155,248,125688,2,0,L|145:363,1,110.000003356934,2|0,0:0|0:0,0:0:0:0:
367,357,126021,1,10,0:0:0:0:
74,183,126188,6,0,L|195:180,2,110.000003356934,0|2|0,0:0|0:0|0:0,0:0:0:0:
316,229,126688,2,0,P|338:161|316:132,1,110.000003356934,10|0,0:0|0:0,0:0:0:0:
138,62,127021,2,0,L|258:67,1,110.000003356934,2|0,0:0|0:0,0:0:0:0:
498,183,127354,2,0,L|378:188,1,110.000003356934,10|0,0:0|0:0,0:0:0:0:
68,270,127688,5,2,0:0:0:0:
194,249,127854,1,0,0:0:0:0:
320,228,128021,1,10,0:0:0:0:
85,140,128188,1,0,0:0:0:0:
311,47,128354,2,0,L|201:35,1,110.000003356934,2|0,0:0|0:0,0:0:0:0:
427,140,128688,1,10,0:0:0:0:
256,81,128854,1,0,0:0:0:0:
491,265,129021,5,6,0:0:0:0:
227,185,129188,2,0,L|240:298,1,110.000003356934,0|8,0:0|0:0,0:0:0:0:
491,265,129521,2,0,L|359:270,1,110.000003356934,2|0,0:0|0:0,0:0:0:0:
227,185,129854,2,0,L|299:181,1,55.0000016784668
491,265,130021,2,0,L|359:270,1,110.000003356934,2|0,0:0|0:0,0:0:0:0:
105,303,130354,6,0,P|78:241|101:190,1,110.000003356934,6|0,0:0|0:0,0:0:0:0:
327,167,130688,1,10,0:0:0:0:
185,167,130854,1,0,0:0:0:0:
422,203,131021,2,0,L|277:193,1,110.000003356934,2|0,0:0|0:0,0:0:0:0:
90,203,131354,2,0,L|235:193,1,110.000003356934,10|0,0:0|0:0,0:0:0:0:
429,85,131688,6,0,L|404:205,1,110.000003356934,6|0,0:0|0:0,0:0:0:0:
181,110,132021,1,10,0:0:0:0:
331,110,132188,1,0,0:0:0:0:
75,58,132354,1,2,0:0:0:0:
331,110,132521,2,0,L|345:169,1,55.0000016784668
181,110,132688,2,0,L|330:115,1,110.000003356934,10|0,0:0|0:0,0:0:0:0:
67,107,133021,6,0,L|23:161,1,55.0000016784668,6|0,0:0|0:0,0:0:0:0:
121,199,133188,2,0,L|98:264,1,55.0000016784668
331,184,133354,2,0,L|375:238,1,55.0000016784668,10|0,0:0|0:0,0:0:0:0:
277,276,133521,2,0,L|300:341,1,55.0000016784668
140,331,133688,5,6,0:0:0:0:
92,278,133771,1,0,0:0:0:0:
109,210,133854,1,0,0:0:0:0:
174,184,133938,1,0,0:0:0:0:
322,108,134021,2,0,L|256:106,1,55.0000016784668,10|0,0:0|0:0,0:0:0:0:
184,47,134188,2,0,L|250:45,1,55.0000016784668
486,74,134354,6,0,L|359:84,1,110.000003356934,6|0,0:0|0:0,0:0:0:0:
26,74,134688,2,0,L|153:84,1,110.000003356934,2|0,0:0|0:0,0:0:0:0:
370,272,135021,1,2,0:0:0:0:
377,238,135062,1,0,0:0:0:0:
367,205,135104,1,0,0:0:0:0:
344,181,135145,1,0,0:0:0:0:
311,169,135188,2,2,L|398:168,1,59.9999981689454
187,82,135354,2,0,L|326:79,1,139.999995727539,10|0,0:0|0:0,0:0:0:0:
105,158,135688,5,2,0:0:0:0:
14,227,135854,2,0,L|39:341,1,85.0000016212464
142,341,136188,1,2,0:0:0:0:
298,277,136354,2,0,L|213:271,1,85.0000016212464
85,212,136688,2,0,L|169:206,1,85.0000016212464,2|0,0:0|0:0,0:0:0:0:
333,188,137021,5,2,0:0:0:0:
214,277,137188,2,0,L|298:271,1,85.0000016212464
179,188,137521,1,2,0:0:0:0:
316,104,137688,2,0,L|333:190,1,85.0000016212464
470,224,138021,2,0,L|453:310,1,85.0000016212464,2|0,0:0|0:0,0:0:0:0:
171,315,138354,6,0,L|359:304,1,170.000003242493,6|0,0:2|0:0,0:0:0:0:
209,191,138854,1,2,0:2:0:0:
392,206,139021,2,0,L|385:311,1,85.0000016212464
256,260,139354,1,2,0:2:0:0:
392,206,139521,1,0,0:0:0:0:
171,253,139688,6,0,L|263:260,2,85.0000016212464,2|0|0,0:2|0:0|0:0,0:0:0:0:
392,206,140188,1,2,0:2:0:0:
171,85,140354,2,0,L|182:178,1,85.0000016212464
333,228,140688,2,0,L|322:321,1,85.0000016212464,2|0,0:2|0:0,0:0:0:0:
92,353,141021,5,6,0:2:0:0:
420,353,141854,1,2,0:0:0:0:
303,249,142021,2,0,L|395:258,1,85.0000016212464
56,111,142354,1,6,0:2:0:0:
456,111,143188,1,2,0:0:0:0:
339,7,143353,2,0,L|431:16,1,85.0000016212464
118,155,143688,6,0,L|102:264,1,75.0000028610231,6|0,0:2|0:0,0:0:0:0:
394,155,144051,2,0,L|410:264,1,75.0000028610231,2|0,0:2|0:0,0:0:0:0:
119,345,144451,1,2,0:2:0:0:
282,323,144638,1,4,0:2:0:0:
21,209,144826,2,0,L|5:306,1,75.0000028610231,2|0,0:2|0:0,0:0:0:0:
312,358,145159,6,0,P|362:321|311:132,1,262.500010013581,6|0,0:2|0:0,0:0:0:0:
264,121,145909,2,0,L|487:94,1,225,2|0,0:2|0:0,0:0:0:0:
433,132,146846,6,2,P|377:161|344:244,1,150.000005722046
444,163,147873,1,0,0:0:0:0:
229,286,148152,2,0,L|317:279,1,75.0000028610231,2|0,0:0|0:0,0:0:0:0:
464,67,148862,2,0,L|376:60,1,75.0000028610231,2|0,0:0|0:0,0:0:0:0:
173,68,149477,5,2,0:0:0:0:
339,68,149787,1,0,0:0:0:0:
116,210,150133,2,0,L|122:285,1,75.0000028610231,2|0,0:0|0:0,0:0:0:0:
313,279,150810,1,2,0:0:0:0:
103,336,151158,2,0,P|83:295|141:207,1,150.000005722046
360,195,152154,6,0,L|353:283,1,75.0000028610231,2|0,0:0|0:0,0:0:0:0:
142,258,152806,2,0,L|149:346,1,75.0000028610231,2|0,0:0|0:0,0:0:0:0:
309,338,153458,1,2,0:0:0:0:
456,267,153784,1,0,0:0:0:0:
471,105,154130,1,2,0:0:0:0:
456,267,154463,1,0,0:0:0:0:
215,256,154808,6,0,L|316:250,1,75.0000028610231,2|0,0:0|0:0,0:0:0:0:
80,316,155488,2,0,L|65:212,1,75.0000028610231,2|0,0:0|0:0,0:0:0:0:
279,154,156137,2,0,L|108:143,1,150.000005722046,2|0,0:0|0:0,0:0:0:0:
310,48,157130,1,0,0:0:0:0:
83,141,157477,6,2,P|67:188|129:281,1,150.000005722046
272,319,158493,1,0,0:0:0:0:
52,360,158816,2,0,L|158:350,1,75.0000028610231,2|0,0:0|0:0,0:0:0:0:
292,203,159440,2,0,L|186:193,1,75.0000028610231,2|0,0:0|0:0,0:0:0:0:
378,273,160148,5,2,0:0:0:0:
54,163,160822,1,2,0:0:0:0:
284,110,161478,2,0,L|226:271,1,150.000005722046,2|2,0:0|0:0,0:0:0:0:
380,250,162438,1,0,0:0:0:0:
142,257,162795,6,0,L|131:343,1,75.0000028610231,2|0,0:0|0:0,0:0:0:0:
330,208,163447,1,2,0:0:0:0:
142,257,163802,1,0,0:0:0:0:
340,323,164139,2,0,L|370:251,1,75.0000028610231,2|0,0:0|0:0,0:0:0:0:
166,137,164798,2,0,L|262:137,1,75.0000028610231,2|0,0:0|0:0,0:0:0:0:
373,136,165460,6,2,P|416:200|364:266,1,150.000005722046
256,268,166461,1,0,0:0:0:0:
493,312,166861,2,0,L|250:340,1,225.000008583069,2|0,0:0|0:0,0:0:0:0:
118,334,168232,5,0,0:0:0:0:
60,267,168532,1,0,0:0:0:0:
54,178,168832,1,2,0:0:0:0:
102,105,169132,1,0,0:0:0:0:
185,75,169432,2,0,L|291:76,1,89.9999972534181
420,168,170032,2,0,L|315:169,1,89.9999972534181,2|0,0:0|0:0,0:0:0:0:
102,181,170632,5,0,0:0:0:0:
118,250,170932,1,0,0:0:0:0:
236,291,171232,2,0,L|257:386,1,89.9999972534181,2|0,0:0|0:0,0:0:0:0:
430,376,171832,2,0,L|449:288,1,89.9999972534181
289,201,172432,2,0,L|395:201,1,89.9999972534181,2|0,0:0|0:0,0:0:0:0:
169,158,172957,6,0,L|165:120,1,22.4999993133545
369,102,173332,1,0,0:0:0:0:
177,40,173632,1,2,0:0:0:0:
402,179,173932,1,0,0:0:0:0:
162,234,174232,2,0,L|180:327,1,89.9999972534181
376,334,174832,2,0,L|258:334,1,89.9999972534181,2|0,0:0|0:0,0:0:0:0:
51,268,175432,6,0,L|43:160,1,89.9999972534181
192,138,176032,2,0,L|200:30,1,89.9999972534181,2|0,0:0|0:0,0:0:0:0:
418,127,176632,1,0,0:0:0:0:
225,242,176932,1,0,0:0:0:0:
473,301,177232,2,0,L|489:172,1,89.9999972534181,2|0,0:0|0:0,0:0:0:0:
54,197,177832,6,0,P|31:131|141:26,1,200,6|2,0:0|0:0,0:0:0:0:
298,42,178732,1,0,0:0:0:0:
143,175,179032,2,0,L|256:168,1,100
427,96,179632,2,0,L|314:89,1,100,2|0,0:0|0:0,0:0:0:0:
57,269,180232,6,0,L|300:258,1,200,0|2,0:0|0:0,0:0:0:0:
120,148,181132,1,0,0:0:0:0:
340,113,181432,2,0,P|413:145|342:232,1,200,0|2,0:0|0:0,0:0:0:0:
227,245,182332,1,0,0:0:0:0:
457,342,182632,6,0,L|464:241,1,100
256,168,183232,1,2,0:0:0:0:
384,116,183532,1,0,0:0:0:0:
128,116,183832,1,0,0:0:0:0:
256,168,184132,1,0,0:0:0:0:
48,242,184432,2,0,L|55:342,1,100,2|0,0:0|0:0,0:0:0:0:
296,350,185032,5,0,0:0:0:0:
330,231,185332,1,0,0:0:0:0:
294,113,185632,1,2,0:0:0:0:
200,33,185932,1,0,0:0:0:0:
76,18,186232,2,0,P|26:83|92:338,1,350,2|0,0:0|0:0,0:0:0:0:
304,66,187377,6,0,L|189:88,1,112.500004291535,6|0,0:0|0:0,0:0:0:0:
118,107,187786,1,0,0:0:0:0:
221,178,187922,2,0,L|248:232,1,56.2500021457673
133,279,188195,2,0,L|139:338,1,56.2500021457673
333,183,188467,6,0,L|213:177,1,112.500004291535,10|0,0:0|0:0,0:0:0:0:
305,155,188877,1,0,0:0:0:0:
380,132,189013,2,0,L|453:129,1,56.2500021457673
363,74,189286,2,0,L|436:71,1,56.2500021457673
187,85,189558,6,0,L|177:172,1,56.2500021457673,2|0,0:0|0:0,0:0:0:0:
257,171,189831,2,0,L|191:168,1,56.2500021457673
112,135,190104,2,0,L|178:132,1,56.2500021457673
262,131,190377,1,0,0:0:0:0:
272,84,190513,1,0,0:0:0:0:
74,124,190649,6,0,P|56:193|88:221,1,112.500004291535,10|0,0:0|0:0,0:0:0:0:
159,230,191058,1,0,0:0:0:0:
55,323,191195,2,0,L|124:323,1,56.2500021457673
192,367,191467,2,0,L|123:367,1,56.2500021457673
341,234,191740,6,0,L|225:234,1,112.500004291535,2|0,0:0|0:0,0:0:0:0:
146,235,192149,1,0,0:0:0:0:
238,222,192286,2,0,L|254:163,1,56.2500021457673
130,115,192558,2,0,L|165:65,1,56.2500021457673
355,47,192831,6,0,L|472:43,1,112.500004291535,10|0,0:0|0:0,0:0:0:0:
375,113,193240,1,0,0:0:0:0:
479,151,193377,2,0,L|465:224,1,56.2500021457673
365,254,193649,2,0,L|379:327,1,56.2500021457673
156,349,193922,5,2,0:0:0:0:
289,288,194195,2,0,L|229:285,1,56.2500021457673
127,229,194467,1,0,0:0:0:0:
90,166,194603,1,0,0:0:0:0:
222,135,194740,2,0,L|156:134,1,56.2500021457673,2|0,0:0|0:0,0:0:0:0:
380,100,195013,6,0,P|411:162|391:213,1,112.500004291535,10|0,0:0|0:0,0:0:0:0:
323,231,195422,1,0,0:0:0:0:
415,248,195558,2,0,L|421:159,1,56.2500021457673
310,159,195831,2,0,L|316:70,1,56.2500021457673
104,92,196104,6,0,L|84:232,1,112.500004291535,2|0,0:0|0:0,0:0:0:0:
191,267,196513,1,0,0:0:0:0:
296,186,196649,2,0,L|262:245,1,56.2500021457673
155,300,196922,2,0,L|207:343,1,56.2500021457673
449,253,197195,6,0,P|464:194|407:132,1,112.500004291535,10|0,0:0|0:0,0:0:0:0:
354,110,197604,1,0,0:0:0:0:
266,71,197740,2,0,L|346:62,1,56.2500021457673
424,139,198013,2,0,L|344:130,1,56.2500021457673
174,172,198286,6,0,L|256:185,1,56.2500021457673,2|0,0:0|0:0,0:0:0:0:
328,276,198558,2,0,L|246:289,1,56.2500021457673
371,326,198831,1,0,0:0:0:0:
381,259,198967,1,0,0:0:0:0:
265,201,199104,2,0,L|334:209,1,56.2500021457673
113,256,199377,6,0,P|97:200|142:152,1,112.500004291535,10|0,0:0|0:0,0:0:0:0:
213,138,199786,1,0,0:0:0:0:
299,72,199922,2,0,L|223:68,1,56.2500021457673
143,96,200195,2,0,L|67:92,1,56.2500021457673
308,320,200467,6,0,P|308:255|261:208,1,112.500004291535,2|0,0:0|0:0,0:0:0:0:
188,190,200877,1,0,0:0:0:0:
74,153,201013,2,0,P|74:88|121:41,1,112.500004291535
194,23,201423,1,0,0:0:0:0:
431,32,201558,6,0,L|296:45,1,112.500004291535,10|0,0:0|0:0,0:0:0:0:
399,110,201967,1,0,0:0:0:0:
479,187,202104,2,0,L|458:256,1,56.2500021457673
356,282,202377,2,0,L|377:351,1,56.2500021457673
171,335,202649,6,0,L|42:330,1,112.500004291535,2|0,0:0|0:0,0:0:0:0:
39,241,203058,1,0,0:0:0:0:
141,186,203195,2,0,L|54:181,1,56.2500021457673
294,96,203467,1,2,0:0:0:0:
194,110,203604,1,2,0:0:0:0:
405,273,203740,6,0,P|402:195|349:168,1,112.500004291535,10|0,0:0|0:0,0:0:0:0:
108,56,204286,2,0,L|49:68,1,56.2500021457673,10|0,0:0|0:0,0:0:0:0:
156,156,204558,2,0,L|215:168,1,56.2500021457673
416,168,204831,6,0,L|431:290,1,92.4999996471405,2|0,0:0|0:0,0:0:0:0:
352,310,205259,1,0,0:0:0:0:
256,321,205402,1,8,0:0:0:0:
447,116,205688,1,0,0:0:0:0:
264,57,205973,2,0,L|388:62,1,92.4999996471405,0|2,0:0|0:0,0:0:0:0:
162,190,206545,2,0,L|149:288,1,92.4999996471405,8|0,0:0|0:0,0:0:0:0:
345,74,207116,6,0,L|235:74,1,92.4999996471405,2|0,0:0|0:0,0:0:0:0:
176,79,207545,1,0,0:0:0:0:
280,150,207688,1,8,0:0:0:0:
67,260,207973,2,0,L|175:244,1,92.4999996471405
389,207,208545,2,0,L|309:199,1,46.2499998235703,2|0,0:0|0:0,0:0:0:0:
450,157,208831,2,0,L|351:148,1,92.4999996471405,8|2,0:0|0:0,0:0:0:0:
142,164,209402,6,0,P|104:227|109:287,1,92.4999996471405,2|0,0:0|0:0,0:0:0:0:
174,327,209831,1,0,0:0:0:0:
268,345,209973,1,8,0:0:0:0:
85,342,210259,1,0,0:0:0:0:
307,227,210545,2,0,L|198:214,1,92.4999996471405,0|2,0:0|0:0,0:0:0:0:
431,101,211116,1,8,0:0:0:0:
205,227,211402,6,0,L|314:214,1,92.4999996471405,0|2,0:0|0:0,0:0:0:0:
69,158,211973,2,0,L|156:144,1,46.2499998235703
249,92,212259,2,0,L|151:84,1,92.4999996471405,8|0,0:0|0:0,0:0:0:0:
75,72,212688,1,0,0:0:0:0:
199,152,212831,2,0,P|207:214|173:259,1,92.4999996471405,0|2,0:0|0:0,0:0:0:0:
18,269,213402,2,0,L|122:276,1,92.4999996471405,8|2,0:0|0:0,0:0:0:0:
342,207,213973,6,0,L|214:199,1,92.4999996471405,2|0,0:0|0:0,0:0:0:0:
163,195,214402,1,0,0:0:0:0:
69,282,214545,2,0,P|54:329|83:364,1,92.4999996471405,10|0,0:0|0:0,0:0:0:0:
302,338,215116,2,0,L|191:331,1,92.4999996471405,0|2,0:0|0:0,0:0:0:0:
434,361,215688,2,0,P|458:323|443:282,1,92.4999996471405,10|0,0:0|0:0,0:0:0:0:
206,154,216259,6,0,L|337:154,1,92.4999996471405,2|0,0:0|0:0,0:0:0:0:
370,154,216688,1,0,0:0:0:0:
267,254,216831,1,10,0:0:0:0:
489,28,217116,2,0,L|358:28,1,92.4999996471405
166,201,217688,2,0,L|232:201,1,46.2499998235703,2|0,0:0|0:0,0:0:0:0:
127,141,217973,2,0,L|253:142,1,92.4999996471405,10|0,0:0|0:0,0:0:0:0:
377,145,218545,6,0,P|380:204|331:255,1,92.4999996471405,2|0,0:0|0:0,0:0:0:0:
275,261,218973,1,0,0:0:0:0:
166,296,219116,2,0,L|49:296,1,92.4999996471405,8|0,0:0|0:0,0:0:0:0:
285,106,219688,2,0,L|394:102,1,92.4999996471405,0|2,0:0|0:0,0:0:0:0:
249,23,220259,1,8,0:0:0:0:
480,132,220545,6,0,L|461:247,1,92.4999996471405,2|6,0:0|0:0,0:0:0:0:
235,239,221116,2,0,L|253:301,1,46.2499998235703
353,264,221402,2,0,L|334:379,1,92.4999996471405,8|0,0:0|0:0,0:0:0:0:
91,280,221973,2,2,L|166:280,1,46.2499998235703
237,137,222259,2,2,L|162:137,1,46.2499998235703
16,213,222545,2,0,L|128:215,1,92.4999996471405,10|0,0:0|0:0,0:0:0:0:
436,225,223090,6,0,L|449:111,1,83.3333333333333,6|0,0:0|0:0,0:0:0:0:
370,131,223304,2,0,L|355:262,1,125,2|8,0:0|0:0,0:0:0:0:
476,294,223732,1,6,0:0:0:0:
311,171,223875,6,0,L|269:177,1,41.6666666666667
365,66,224089,2,0,L|308:57,1,41.6666666666667,0|2,0:0|0:0,0:0:0:0:
155,65,224375,2,0,L|313:61,1,125,8|2,0:0|0:0,0:0:0:0:
27,221,224732,2,0,L|23:267,1,41.6666666666667,0|4,0:0|0:0,0:0:0:0:
141,349,224947,2,0,L|145:303,1,41.6666666666667,0|2,0:0|0:0,0:0:0:0:
322,129,225232,2,0,L|227:123,1,83.3333333333333,8|0,0:0|0:0,0:0:0:0:
153,80,225447,2,0,L|248:74,1,83.3333333333333,6|0,0:0|0:0,0:0:0:0:
337,58,225661,6,0,L|201:44,1,125,0|2,0:0|0:0,0:0:0:0:
294,29,225982,1,0,0:0:0:0:
376,147,226090,2,0,P|405:211|376:260,1,125,8|2,0:0|0:0,0:0:0:0:
13,164,226518,6,0,L|131:172,1,83.3333333333333,4|0,0:0|0:0,0:0:0:0:
175,235,226732,2,0,L|57:243,1,83.3333333333333,2|0,0:0|0:0,0:0:0:0:
13,245,226947,1,8,0:0:0:0:
108,301,227090,1,0,0:0:0:0:
170,273,227161,2,0,P|148:205|120:176,1,83.3333333333333,6|0,0:0|0:0,0:0:0:0:
67,87,227375,6,0,L|174:70,1,83.3333333333333
236,61,227590,1,2,0:0:0:0:
96,171,227732,2,0,L|92:217,1,41.6666666666667,0|8,0:0|0:0,0:0:0:0:
414,286,228018,2,0,L|298:296,1,83.3333333333333,2|0,0:0|0:0,0:0:0:0:
416,325,228232,6,0,L|424:213,1,83.3333333333333,4|0,0:0|0:0,0:0:0:0:
503,191,228447,2,0,L|494:106,1,62.5,2|0,0:0|0:0,0:0:0:0:
392,93,228661,2,0,L|301:92,1,83.3333333333333,8|0,0:0|0:0,0:0:0:0:
235,96,228875,1,6,0:0:0:0:
32,210,229018,6,0,L|114:208,1,41.6666666666667
183,328,229232,2,0,L|101:326,1,41.6666666666667,0|2,0:0|0:0,0:0:0:0:
286,226,229518,2,0,L|389:222,1,83.3333333333333,4|0,0:0|0:0,0:0:0:0:
284,310,229732,2,4,L|181:306,1,83.3333333333333
397,343,229947,6,0,L|405:237,1,83.3333333333333,4|0,0:0|0:0,0:0:0:0:
325,237,230161,2,0,L|344:106,1,125,2|8,0:0|0:0,0:0:0:0:
461,107,230518,2,0,L|469:52,1,41.6666666666667,0|6,0:0|0:0,0:0:0:0:
223,56,230732,6,0,L|156:59,1,41.6666666666667
52,166,230947,2,0,L|119:169,1,41.6666666666667,0|2,0:0|0:0,0:0:0:0:
260,178,231232,1,8,0:0:0:0:
51,276,231447,1,2,0:0:0:0:
301,328,231590,1,0,0:0:0:0:
359,310,231661,6,0,P|360:258|331:221,1,83.3333333333333,4|0,0:0|0:0,0:0:0:0:
275,219,231875,2,0,L|421:221,1,125,2|8,0:0|0:0,0:0:0:0:
289,118,232232,1,0,0:0:0:0:
221,136,232304,2,0,P|220:188|249:225,1,83.3333333333333,6|0,0:0|0:0,0:0:0:0:
309,230,232518,6,0,L|181:245,1,125,0|2,0:0|0:0,0:0:0:0:
108,262,232840,1,0,0:0:0:0:
32,281,232947,2,0,P|15:214|55:145,1,125,8|2,0:0|0:0,0:0:0:0:
336,50,233375,6,0,L|223:52,1,83.3333333333333,4|0,0:0|0:0,0:0:0:0:
169,53,233590,1,2,0:0:0:0:
286,183,233732,2,0,L|290:121,1,41.6666666666667,0|8,0:0|0:0,0:0:0:0:
179,122,233947,1,0,0:0:0:0:
257,152,234018,2,0,L|366:147,1,83.3333333333333,6|0,0:0|0:0,0:0:0:0:
427,92,234232,6,0,L|281:83,1,125,0|2,0:0|0:0,0:0:0:0:
90,83,234661,1,8,0:0:0:0:
265,63,234875,2,0,L|162:50,1,83.3333333333333,2|0,0:0|0:0,0:0:0:0:
90,83,235090,5,4,0:0:0:0:
362,211,235232,2,0,L|369:156,1,41.6666666666667,0|2,0:0|0:0,0:0:0:0:
259,147,235447,2,0,L|252:92,1,41.6666666666667,0|8,0:0|0:0,0:0:0:0:
142,63,235732,2,0,L|267:67,1,125,6|0,0:0|0:0,0:0:0:0:
443,69,236161,5,2,0:0:0:0:
159,254,236375,2,0,L|154:304,1,31.25,2|0,0:0|0:0,0:0:0:0:
194,280,236482,2,0,L|172:325,1,31.25,2|0,0:0|0:0,0:0:0:0:
220,312,236590,2,0,L|198:357,1,31.25,2|0,0:0|0:0,0:0:0:0:
243,348,236697,1,2,0:0:0:0:
42,262,236804,6,0,L|167:258,1,100,6|0,0:0|0:0,0:0:0:0:
395,65,237137,2,0,L|270:61,1,100,6|0,0:0|0:0,0:0:0:0:
42,136,237470,1,6,0:0:0:0:
178,156,237637,1,0,0:0:0:0:
27,219,237804,2,0,L|147:230,1,100,6|0,0:0|0:0,0:0:0:0:
369,227,238137,5,6,0:0:0:0:
253,301,238304,1,0,0:0:0:0:
391,379,238470,1,6,0:0:0:0:
121,379,238637,2,0,L|132:266,1,100,0|6,0:0|0:0,0:0:0:0:
284,172,238970,1,0,0:0:0:0:
212,186,239054,1,0,0:0:0:0:
141,203,239137,2,0,L|123:98,1,100,6|0,0:0|0:0,0:0:0:0:
360,50,239470,6,0,L|225:48,1,100,6|0,0:0|0:0,0:0:0:0:
498,220,239804,2,0,L|363:218,1,100,6|0,0:0|0:0,0:0:0:0:
164,222,240137,1,6,0:0:0:0:
291,226,240304,2,0,L|301:114,1,100,0|6,0:0|0:0,0:0:0:0:
46,51,240637,6,0,L|162:54,1,100,0|6,0:0|0:0,0:0:0:0:
324,115,240970,1,0,0:0:0:0:
252,129,241054,1,0,0:0:0:0:
181,146,241137,2,0,L|163:41,1,100,6|0,0:0|0:0,0:0:0:0:
395,51,241470,2,0,L|253:70,1,100,6|0,0:0|0:0,0:0:0:0:
45,159,241804,2,0,L|187:178,1,100,6|0,0:0|0:0,0:0:0:0:
455,329,242137,6,0,L|436:215,1,100,6|0,0:0|0:0,0:0:0:0:
191,130,242470,1,6,0:0:0:0:
321,130,242637,1,0,0:0:0:0:
73,230,242804,2,0,L|57:329,1,100,6|0,0:0|0:0,0:0:0:0:
321,130,243137,1,6,0:0:0:0:
191,130,243304,1,0,0:0:0:0:
420,134,243470,6,0,L|298:128,1,100,6|0,0:0|0:0,0:0:0:0:
191,130,243804,1,6,0:0:0:0:
438,223,243970,2,0,P|460:167|424:106,1,100,0|6,0:0|0:0,0:0:0:0:
279,88,244304,1,0,0:0:0:0:
353,92,244387,1,0,0:0:0:0:
427,96,244470,2,0,P|449:40|413:-21,1,100,6|0,0:0|0:0,0:0:0:0:
360,25,244720,1,0,0:0:0:0:
498,152,244804,6,0,L|363:174,1,100,6|0,0:0|0:0,0:0:0:0:
155,325,245137,2,0,L|290:347,1,100,6|0,0:0|0:0,0:0:0:0:
315,348,245387,1,0,0:0:0:0:
107,210,245470,2,0,L|242:232,1,100,6|0,0:0|0:0,0:0:0:0:
447,265,245804,1,6,0:0:0:0:
336,155,245970,6,0,L|471:177,1,100,0|6,0:0|0:0,0:0:0:0:
124,176,246304,1,0,0:0:0:0:
256,221,246470,1,6,0:0:0:0:
388,176,246637,2,0,L|400:61,1,100,0|6,0:0|0:0,0:0:0:0:
56,102,246970,1,0,0:0:0:0:
319,33,247137,1,6,0:0:0:0:
193,33,247304,1,0,0:0:0:0:
456,102,247470,6,0,L|479:232,1,100,6|0,0:0|0:0,0:0:0:0:
298,251,247804,1,10,0:0:0:0:
427,284,247970,2,0,L|420:345,1,50
343,201,248137,2,0,L|350:262,1,50
271,149,248304,1,2,0:0:0:0:
442,91,248470,2,0,L|320:91,1,100,10|0,0:0|0:0,0:0:0:0:
271,149,248720,1,0,0:0:0:0:
70,91,248804,6,0,L|192:91,2,100,2|0|10,0:0|0:0|0:0,0:0:0:0:
222,215,249304,2,0,L|233:150,1,50
153,148,249470,2,0,L|164:83,1,50
83,34,249637,2,0,L|148:45,1,50,2|0,0:0|0:0,0:0:0:0:
228,79,249804,2,0,L|129:107,1,100,10|0,0:0|0:0,0:0:0:0:
116,170,250054,1,0,0:0:0:0:
287,144,250137,6,0,L|188:172,1,100,2|0,0:0|0:0,0:0:0:0:
32,216,250470,1,10,0:0:0:0:
181,253,250637,1,0,0:0:0:0:
188,195,250720,1,0,0:0:0:0:
111,105,250804,2,0,L|101:154,2,50,0|0|2,0:0|0:0|0:0,0:0:0:0:
273,57,251137,2,0,L|168:71,1,100,10|0,0:0|0:0,0:0:0:0:
189,152,251387,1,0,0:0:0:0:
352,199,251470,6,0,L|359:78,1,100,2|0,0:0|0:0,0:0:0:0:
282,67,251720,1,0,0:0:0:0:
124,86,251803,2,0,L|249:86,1,100,10|0,0:0|0:0,0:0:0:0:
287,87,252053,1,0,0:0:0:0:
210,151,252137,2,0,L|217:201,1,50
307,203,252303,1,2,0:0:0:0:
160,299,252470,2,0,L|265:300,1,100,10|2,0:0|0:0,0:0:0:0:
268,253,252720,1,0,0:0:0:0:
94,242,252803,6,0,L|72:140,1,100,6|0,0:0|0:0,0:0:0:0:
224,179,253137,1,0,0:0:0:0:
134,274,253303,2,0,L|40:275,1,50
249,181,253470,2,0,L|108:183,1,100,10|0,0:0|0:0,0:0:0:0:
36,192,253803,1,0,0:0:0:0:
177,83,253970,2,0,L|108:84,1,50
28,128,254137,6,0,L|149:130,1,100
424,125,254470,1,2,0:0:0:0:
319,183,254637,2,0,L|311:235,1,50
462,179,254803,2,0,P|472:108|460:79,1,100,10|0,0:0|0:0,0:0:0:0:
391,64,255053,1,0,0:0:0:0:
301,45,255137,2,0,L|414:38,1,100,2|0,0:0|0:0,0:0:0:0:
471,28,255387,1,0,0:0:0:0:
253,182,255470,6,0,L|235:284,1,100,2|0,0:0|0:0,0:0:0:0:
362,308,255803,1,0,0:0:0:0:
221,340,255970,2,0,L|283:343,1,50
130,285,256137,2,0,L|16:272,1,100,10|0,0:0|0:0,0:0:0:0:
216,168,256470,2,0,L|102:155,1,100
50,150,256720,1,0,0:0:0:0:
115,87,256803,6,0,L|16:77,1,100
370,94,257137,1,2,0:0:0:0:
235,188,257303,2,0,L|242:242,1,50
472,173,257470,2,2,L|338:181,1,100,10|2,0:0|0:0,0:0:0:0:
140,178,257803,1,10,0:0:0:0:
372,178,257970,1,2,0:0:0:0:
80,206,258137,6,0,P|33:265|93:292,1,150.000005722046,2|0,0:0|0:0,0:0:0:0:
193,248,258470,2,0,L|104:248,1,75.000002861023,2|0,0:0|0:0,0:0:0:0:
432,206,258803,2,0,P|479:265|419:292,1,150.000005722046,2|0,0:0|0:0,0:0:0:0:
319,248,259137,2,0,L|408:248,1,75.000002861023,2|0,0:0|0:0,0:0:0:0:
72,173,259470,6,0,P|57:65|126:41,1,150.000005722046,2|0,0:0|0:0,0:0:0:0:
185,44,259803,1,2,0:0:0:0:
77,48,259915,1,0,0:0:0:0:
435,48,260137,2,0,L|282:40,2,150.000005722046,2|0|0,0:0|0:0|0:0,0:0:0:0:
119,168,260803,6,0,P|91:260|140:325,1,150.000005722046,2|0,0:0|0:0,0:0:0:0:
14,333,261137,2,0,L|93:340,1,75.000002861023,2|0,0:0|0:0,0:0:0:0:
418,333,261470,2,0,P|453:249|413:225,1,112.500004291535
345,216,261720,2,0,L|472:190,1,112.500004291535
389,151,261970,1,0,0:0:0:0:
73,129,262137,5,6,0:0:0:0:
144,150,262248,1,0,0:0:0:0:
215,177,262359,1,0,0:0:0:0:
108,88,262470,1,0,0:0:0:0:
203,89,262581,1,0,0:0:0:0:
298,90,262692,1,0,0:0:0:0:
173,22,262804,6,0,L|279:21,1,75.000002861023
353,18,263026,1,0,0:0:0:0:
254,66,263248,1,0,0:0:0:0:
374,66,263359,1,0,0:0:0:0:
102,159,263470,6,0,L|28:212,1,75.000002861023,6|0,0:0|0:0,0:0:0:0:
140,73,263692,2,0,L|52:97,1,75.000002861023,6|0,0:0|0:0,0:0:0:0:
167,22,263915,2,0,L|76:15,1,75.000002861023,6|0,0:0|0:0,0:0:0:0:
367,230,264137,6,6,P|450:184|473:123,2,150.000005722046
78,100,264803,5,6,0:0:0:0:
256,206,265026,1,6,0:0:0:0:
434,100,265248,1,6,0:0:0:0:
59,170,265470,2,6,P|19:272|74:318,1,150.000005722046
478,295,265915,1,6,0:0:0:0:
29,54,266137,6,6,L|196:50,2,150.000005722046
483,54,266803,1,6,0:0:0:0:
333,50,267026,2,0,L|487:53,1,150.000005722046
68,243,267470,5,6,0:0:0:0:
254,154,267692,1,0,0:0:0:0:
44,46,267915,1,0,0:0:0:0:
465,252,268137,2,0,P|376:182|494:84,1,300.000011444092
150,40,268803,6,0,L|137:168,1,89.9999972534181,6|0,0:0|0:0,0:0:0:0:
268,150,269137,2,0,L|281:278,1,89.9999972534181
143,275,269470,2,0,L|243:281,1,89.9999972534181,10|0,0:0|0:0,0:0:0:0:
111,315,269803,1,2,0:0:0:0:
263,239,269970,1,2,0:0:0:0:
24,72,270137,6,0,L|124:61,1,89.9999972534181,6|0,0:0|0:0,0:0:0:0:
266,161,270470,2,0,L|166:150,1,89.9999972534181,2|0,0:0|0:0,0:0:0:0:
330,229,270803,2,0,L|341:334,1,89.9999972534181,10|0,0:0|0:0,0:0:0:0:
494,264,271137,2,0,L|483:369,1,89.9999972534181
122,238,271470,5,6,0:0:0:0:
241,219,271637,1,0,0:0:0:0:
263,86,271803,1,0,0:0:0:0:
241,219,271970,1,0,0:0:0:0:
91,297,272137,2,0,L|215:279,1,89.9999972534181,10|0,0:0|0:0,0:0:0:0:
329,257,272470,1,2,0:0:0:0:
176,210,272637,1,2,0:0:0:0:
424,128,272803,6,0,L|331:108,1,89.9999972534181,6|0,0:0|0:0,0:0:0:0:
449,56,273137,2,0,L|356:36,1,89.9999972534181,2|0,0:0|0:0,0:0:0:0:
212,95,273470,2,0,L|305:75,1,89.9999972534181,10|0,0:0|0:0,0:0:0:0:
138,54,273803,2,2,L|238:52,1,56.2500021457673
349,54,273970,1,10,0:0:0:0:
92,208,274137,6,0,L|222:210,1,104.999996795654,6|0,0:0|0:0,0:0:0:0:
446,281,274470,2,0,L|316:283,1,104.999996795654,10|0,0:0|0:0,0:0:0:0:
117,320,274803,1,0,0:0:0:0:
242,280,274970,1,2,0:0:0:0:
17,174,275137,2,0,L|29:292,1,104.999996795654,10|0,0:0|0:0,0:0:0:0:
258,92,275470,6,0,L|117:90,2,104.999996795654,2|0|10,0:0|0:0|0:0,0:0:0:0:
482,97,275970,2,0,L|397:95,1,52.4999983978272,0|2,0:0|0:0,0:0:0:0:
229,190,276137,2,2,L|348:192,1,104.999996795654,0|2,0:0|0:0,0:0:0:0:
500,306,276470,2,0,L|381:308,1,104.999996795654,10|0,0:0|0:0,0:0:0:0:
168,83,276803,5,2,0:0:0:0:
319,125,276970,1,0,0:0:0:0:
193,125,277137,1,10,0:0:0:0:
344,83,277304,1,0,0:0:0:0:
77,226,277470,2,0,L|188:240,1,104.999996795654,0|2,0:0|0:0,0:0:0:0:
435,226,277803,2,0,L|324:240,1,104.999996795654,10|0,0:0|0:0,0:0:0:0:
56,125,278137,6,0,L|50:59,1,52.4999983978272,4|0,0:0|0:0,0:0:0:0:
133,162,278303,2,0,L|127:96,1,52.4999983978272
211,74,278470,2,0,L|77:74,1,104.999996795654
412,271,278803,5,2,0:0:0:0:
377,216,278886,1,0,0:0:0:0:
383,151,278969,1,0,0:0:0:0:
426,103,279052,1,0,0:0:0:0:
255,205,279137,2,0,L|169:203,1,52.4999983978272
273,109,279303,1,0,0:0:0:0:
42,83,279470,6,0,L|195:97,1,115.000002193451,6|0,0:0|0:0,0:0:0:0:
470,83,279803,2,0,L|317:97,1,115.000002193451,2|0,0:0|0:0,0:0:0:0:
115,236,280137,1,2,0:0:0:0:
256,281,280303,1,0,0:0:0:0:
397,236,280470,1,2,0:0:0:0:
130,63,280637,1,0,0:0:0:0:
382,63,280803,6,0,L|395:205,1,115.000002193451,2|0,0:0|0:0,0:0:0:0:
256,281,281137,1,2,0:0:0:0:
426,352,281303,1,0,0:0:0:0:
130,63,281470,2,0,L|117:205,1,115.000002193451,2|0,0:0|0:0,0:0:0:0:
256,281,281804,1,2,0:0:0:0:
86,352,281970,1,0,0:0:0:0:
370,89,282137,6,0,L|256:100,2,115.000002193451,2|0|2,0:0|0:0|0:0,0:0:0:0:
142,89,282637,1,0,0:0:0:0:
414,137,282803,2,0,L|400:272,1,115.000002193451,2|0,0:0|0:0,0:0:0:0:
98,137,283137,2,0,L|112:272,1,115.000002193451,2|0,0:0|0:0,0:0:0:0:
486,204,283470,5,2,0:0:0:0:
226,158,283637,1,0,0:0:0:0:
346,109,283803,1,2,0:0:0:0:
86,63,283970,1,0,0:0:0:0:
392,21,284137,1,2,0:0:0:0:
256,140,284303,1,0,0:0:0:0:
120,21,284470,1,2,0:0:0:0:
418,128,284637,1,0,0:0:0:0:
196,287,284803,6,0,L|356:288,1,115.000002193451,2|0,0:0|0:0,0:0:0:0:
42,144,285137,2,0,L|22:257,1,115.000002193451,2|0,0:0|0:0,0:0:0:0:
336,158,285470,1,2,0:0:0:0:
176,158,285637,1,0,0:0:0:0:
470,144,285803,2,0,L|489:257,1,115.000002193451,2|0,0:0|0:0,0:0:0:0:
129,328,286137,5,2,0:0:0:0:
262,330,286303,2,0,L|280:191,1,115.000002193451,0|2,0:0|0:0,0:0:0:0:
27,207,286637,1,0,0:0:0:0:
262,73,286803,2,0,L|117:73,1,115.000002193451,2|0,0:0|0:0,0:0:0:0:
384,268,287137,2,0,L|529:268,1,115.000002193451,2|0,0:0|0:0,0:0:0:0:
115,108,287470,5,2,0:0:0:0:
256,34,287637,1,0,0:0:0:0:
397,108,287803,1,2,0:0:0:0:
90,239,287970,1,0,0:0:0:0:
397,108,288137,1,2,0:0:0:0:
256,34,288304,1,0,0:0:0:0:
115,108,288470,1,2,0:0:0:0:
422,239,288637,1,0,0:0:0:0:
90,239,288803,5,2,0:0:0:0:
340,340,288970,1,2,0:0:0:0:
343,281,289012,1,2,0:0:0:0:
346,281,289053,1,2,0:0:0:0:
193,125,289137,2,0,L|344:122,1,115.000002193451,2|2,0:0|0:0,0:0:0:0:
380,119,289387,1,2,0:0:0:0:
199,182,289470,6,2,L|189:89,1,57.5000010967255
363,180,289637,1,2,0:0:0:0:
82,271,289803,2,2,L|233:268,1,115.000002193451
262,266,290065,1,2,0:0:0:0:
433,207,290153,6,0,L|410:63,1,133.333333333333,6|0,0:0|0:0,0:0:0:0:
327,176,290553,2,0,L|350:320,1,133.333333333333,2|0,0:0|0:0,0:0:0:0:
263,158,290953,2,0,L|240:14,1,133.333333333333,2|0,0:0|0:0,0:0:0:0:
157,127,291353,2,0,L|180:271,1,133.333333333333,2|0,0:0|0:0,0:0:0:0:
310,241,291753,6,0,L|172:259,1,133.333333333333,2|0,0:0|0:0,0:0:0:0:
64,288,292153,2,0,L|202:306,1,133.333333333333,2|0,0:0|0:0,0:0:0:0:
298,319,292553,2,0,P|324:233|275:186,1,133.333333333333,2|0,0:0|0:0,0:0:0:0:
208,202,292953,2,0,P|183:261|214:319,1,133.333333333333,2|0,0:0|0:0,0:0:0:0:
352,324,293353,6,0,L|491:287,1,133.333333333333,2|0,0:0|0:0,0:0:0:0:
330,210,293753,2,0,L|469:173,1,133.333333333333,2|0,0:0|0:0,0:0:0:0:
315,189,294153,2,0,L|176:152,1,133.333333333333,2|0,0:0|0:0,0:0:0:0:
337,75,294553,2,0,L|198:38,1,133.333333333333,2|0,0:0|0:0,0:0:0:0:
53,175,294953,6,0,L|182:210,1,133.333333333333,2|0,0:0|0:0,0:0:0:0:
31,289,295353,2,0,L|134:320,1,100,2|0,0:0|0:0,0:0:0:0:
195,339,295653,1,0,0:0:0:0:
386,317,295753,1,2,0:0:0:0:
256,192,295853,12,0,296353,0:0:0:0:
413,99,296553,5,6,0:0:0:0:
109,194,296753,1,6,0:3:0:0:
436,160,297153,1,2,0:0:0:0:
106,278,297353,2,2,L|83:147,1,100,10|0,0:0|0:0,0:0:0:0:
456,204,297753,5,6,0:3:0:0:
152,299,297953,1,6,0:3:0:0:
479,265,298353,1,4,0:3:0:0:
149,383,298553,2,0,P|120:295|178:229,1,150
326,130,298953,6,0,L|213:114,1,100,10|0,0:0|0:0,0:0:0:0:
213,41,299253,1,2,0:0:0:0:
300,54,299353,2,0,L|307:134,1,50
391,170,299553,2,0,L|384:250,1,50,2|0,0:0|0:0,0:0:0:0:
99,99,299753,5,6,0:0:0:0:
403,194,299953,1,6,0:3:0:0:
76,160,300353,1,6,0:3:0:0:
406,278,300553,2,0,L|429:147,1,100,14|0,0:3|0:0,0:0:0:0:
56,204,300953,5,6,0:3:0:0:
360,299,301153,1,6,0:3:0:0:
33,265,301553,1,6,0:3:0:0:
363,383,301753,2,0,P|392:295|334:229,1,150
193,134,302153,6,0,L|189:203,1,50,10|0,0:0|0:0,0:0:0:0:
93,226,302353,2,0,L|97:295,1,50
198,321,302553,2,0,L|156:356,1,50
55,283,302753,2,0,L|97:318,1,50
344,317,302953,6,0,P|377:250|329:206,1,150.000005722046,2|0,0:0|0:0,0:0:0:0:
168,317,303553,1,2,0:0:0:0:
294,243,303753,2,0,L|219:239,1,75.0000028610231
75,252,304153,6,0,P|47:205|87:122,1,150.000005722046,2|0,0:0|0:0,0:0:0:0:
260,109,304753,2,0,L|98:87,1,150.000005722046,2|0,0:0|0:0,0:0:0:0:
376,39,305353,1,2,0:0:0:0:
136,39,305753,1,0,0:0:0:0:
424,148,306153,6,0,P|440:214|384:284,1,150.000005722046,2|0,0:0|0:0,0:0:0:0:
181,183,306953,2,0,L|342:180,1,150.000005722046,2|0,0:0|0:0,0:0:0:0:
115,278,307841,1,2,0:0:0:0:
396,278,308286,1,6,0:0:0:0:
72,176,308730,1,6,0:0:0:0:
246,198,308930,2,2,L|271:143,1,50
167,154,309130,2,10,L|171:93,1,50
72,176,309330,2,2,L|55:117,1,50
319,254,309530,6,2,L|337:134,1,100,14|2,0:0|0:0,0:0:0:0:
97,256,309896,1,0,0:0:0:0:
400,318,310080,2,0,L|418:198,1,100,10|2,0:0|0:0,0:0:0:0:
178,320,310446,1,0,0:0:0:0:
460,176,310630,6,0,L|320:175,2,100,10|2|0,0:0|0:0|0:0,0:0:0:0:
151,175,311181,1,14,0:0:0:0:
300,110,311364,2,0,L|160:109,1,100,2|0,0:0|0:0,0:0:0:0:
456,314,311731,6,2,L|323:314,1,100,14|2,0:0|0:0,0:0:0:0:
56,314,312098,2,2,L|189:314,1,100,10|2,0:0|0:0,0:0:0:0:
444,229,312465,5,14,0:0:0:0:
177,250,312649,2,0,L|163:128,1,100,2|0,0:0|0:0,0:0:0:0:
412,298,313016,1,14,0:0:0:0:
145,319,313200,2,0,L|131:197,1,100,2|0,0:0|0:0,0:0:0:0:
429,127,313566,6,2,L|326:125,2,100,14|2|0,0:0|0:0|0:0,0:0:0:0:
133,119,314117,1,14,0:0:0:0:
256,74,314300,1,2,0:0:0:0:
379,119,314484,1,0,0:0:0:0:
82,50,314667,5,14,0:0:0:0:
330,73,314851,2,2,L|382:65,1,50,10|2,0:0|0:0,0:0:0:0:
158,29,315034,2,10,L|235:19,1,57.5000010967255
379,65,315218,1,2,0:0:0:0:
53,134,315385,6,0,L|43:109,2,18.7500007152558,6|0|0,0:0|0:0|0:0,0:0:0:0:
256,172,316044,1,2,0:0:0:0:
459,134,316718,2,0,L|465:125,1,9.37500035762788,2|0,0:0|0:0,0:0:0:0:
125,41,317415,1,2,0:0:0:0:
387,41,318185,2,0,L|383:55,1,9.37500035762788,0|2,0:0|0:0,0:0:0:0:
135,190,318781,1,2,0:0:0:0:
400,275,319419,6,0,L|404:267,1,9.37500035762788,2|0,0:0|0:0,0:0:0:0:
131,125,320723,1,2,0:0:0:0:
461,26,321994,1,2,0:0:0:0:
131,79,323637,6,2,P|105:134|206:225,1,200
430,102,327065,2,2,L|80:76,1,350,2|0,0:0|0:0,0:0:0:0:
381,79,330494,2,2,P|407:134|306:225,1,200
82,102,333922,2,2,L|431:76,1,350,2|0,0:0|0:0,0:0:0:0:
126,97,337351,6,2,P|67:176|214:354,1,350,2|0,0:0|0:0,0:0:0:0:
320,354,341148,2,2,P|446:249|360:79,1,375,2|0,0:0|0:0,0:0:0:0:
17,80,344945,1,14,0:0:0:0:
256,192,345174,12,0,359660,0:0:0:0:
