osu file format v14

[General]
AudioFilename: audio.mp3
AudioLeadIn: 0
PreviewTime: 46518
Countdown: 0
SampleSet: Normal
StackLeniency: 0.7
Mode: 0
LetterboxInBreaks: 0
WidescreenStoryboard: 0

[Editor]
DistanceSpacing: 0.1
BeatDivisor: 3
GridSize: 4
TimelineZoom: 5.599997

[Metadata]
Title:swallowtail
TitleUnicode:swallowtail
Artist:UNDEAD CORPORATION
ArtistUnicode:UNDEAD CORPORATION
Creator:-Ran Yakumo-
Version:Lunatic September
Source:東方Project
Tags:
BeatmapID:1188772
BeatmapSetID:562257

[Difficulty]
HPDrainRate:4
CircleSize:4
OverallDifficulty:10
ApproachRate:10
SliderMultiplier:1.8
SliderTickRate:1

[Events]
//Background and Video events
0,0,"hina.jpg",0,0
//Break Periods
2,108318,120468
//Storyboard Layer 0 (Background)
//Storyboard Layer 1 (Fail)
//Storyboard Layer 2 (Pass)
//Storyboard Layer 3 (Foreground)
//Storyboard Sound Samples

[TimingPoints]
118,200,4,1,1,65,1,0
46518,-83.3333333333333,4,1,1,65,0,1
58518,-100,4,1,1,65,0,0
95318,-83.3333333333333,4,1,1,65,0,1
108118,-125,4,1,1,65,0,0
122518,-100,4,1,1,65,0,0
136918,-83.3333333333333,4,1,1,90,0,1
143318,-100,4,1,1,65,0,1
149718,-125,4,1,1,65,0,0
156118,-100,4,1,1,65,0,0
169718,-83.3333333333333,4,1,1,65,0,1
181718,-83.3333333333333,4,1,1,65,0,0
182518,-71.4285714285714,4,1,1,100,0,1
195318,-83.3333333333333,4,1,1,65,0,0

[Colours]
Combo1 : 192,192,192
Combo2 : 206,0,0
Combo3 : 0,215,0
Combo4 : 167,167,167

[HitObjects]
60,111,118,6,0,B|108:108|108:108|173:122,1,90
157,3,318,2,0,P|199:31|237:85,1,90
303,0,518,2,0,P|319:46|311:113,1,90
425,77,718,2,0,B|409:125|409:125|358:169,1,90
470,247,918,2,0,P|421:251|357:236,1,90
358,372,1118,2,0,P|312:341|278:290,1,90
215,186,1318,1,8,0:0:0:0:
204,362,1418,1,8,0:0:0:0:
315,226,1518,1,8,0:0:0:0:
146,267,1618,1,8,0:0:0:0:
308,334,1718,5,4,0:0:0:0:
308,334,1818,1,8,0:0:0:0:
308,334,1918,2,0,B|329:290|329:290|344:221,1,90,0|8,0:0|0:0,0:0:0:0:
415,149,2118,2,0,B|423:188|423:188|444:233,1,90,0|8,0:0|0:0,0:0:0:0:
512,68,2318,1,0,0:0:0:0:
512,68,2418,1,8,0:0:0:0:
378,2,2518,2,0,B|329:0|329:0|268:10,1,90,0|8,0:0|0:0,0:0:0:0:
183,88,2718,2,0,B|142:94|142:94|93:92,1,90,0|8,0:0|0:0,0:0:0:0:
24,204,2918,5,0,0:0:0:0:
24,204,3018,1,8,0:0:0:0:
83,318,3118,2,0,L|197:309,1,90,0|8,0:0|0:0,0:0:0:0:
236,223,3318,2,0,L|325:230,1,90,0|8,0:0|0:0,0:0:0:0:
403,340,3518,1,0,0:0:0:0:
403,340,3618,1,8,0:0:0:0:
461,238,3718,2,0,P|454:193|461:139,1,90,0|8,0:0|0:0,0:0:0:0:
364,92,3918,2,0,P|371:47|364:-7,1,90,0|8,0:0|0:0,0:0:0:0:
202,29,4118,6,0,L|95:51,1,90,0|8,0:0|0:0,0:0:0:0:
41,161,4318,2,0,L|148:139,1,90,0|8,0:0|0:0,0:0:0:0:
313,191,4518,2,0,L|206:213,1,90,0|8,0:0|0:0,0:0:0:0:
152,323,4718,2,0,L|259:301,1,90,0|8,0:0|0:0,0:0:0:0:
399,268,4918,5,4,0:0:0:0:
399,268,5018,1,8,0:0:0:0:
399,268,5118,2,0,P|423:215|421:164,1,90,0|8,0:0|0:0,0:0:0:0:
297,0,5318,2,0,P|273:53|275:104,1,90,0|8,0:0|0:0,0:0:0:0:
350,204,5518,1,0,0:0:0:0:
350,204,5618,1,8,0:0:0:0:
435,75,5718,2,0,B|390:65|390:65|341:67,1,90,0|8,0:0|0:0,0:0:0:0:
205,157,5918,2,0,B|165:164|165:164|110:152,1,90,0|8,0:0|0:0,0:0:0:0:
186,10,6118,5,0,0:0:0:0:
186,10,6218,1,8,0:0:0:0:
278,108,6318,2,0,P|285:158|274:214,1,90,0|8,0:0|0:0,0:0:0:0:
234,276,6518,6,0,P|227:326|238:382,1,90,0|8,0:0|0:0,0:0:0:0:
345,231,6718,2,0,P|395:238|451:227,1,90,0|8,0:0|0:0,0:0:0:0:
278,108,6918,2,0,P|285:58|274:2,1,90,0|8,0:0|0:0,0:0:0:0:
150,158,7118,2,0,P|100:150|44:162,1,90,0|8,0:0|0:0,0:0:0:0:
299,266,7318,2,0,P|330:307|377:339,1,90,0|8,0:0|0:0,0:0:0:0:
346,156,7518,2,0,P|386:126|418:78,1,90,0|8,0:0|0:0,0:0:0:0:
212,117,7718,2,0,P|181:76|134:44,1,90,0|8,0:0|0:0,0:0:0:0:
157,242,7918,2,0,P|116:273|84:320,1,90,0|8,0:0|0:0,0:0:0:0:
250,376,8118,5,4,0:0:0:0:
250,376,8218,1,8,0:0:0:0:
379,248,8318,2,0,L|371:138,1,90,0|8,0:0|0:0,0:0:0:0:
252,21,8518,2,0,L|245:110,1,90,0|8,0:0|0:0,0:0:0:0:
233,268,8718,1,0,0:0:0:0:
233,268,8818,1,8,0:0:0:0:
389,333,8918,2,0,B|430:307|430:307|469:263,1,90,0|8,0:0|0:0,0:0:0:0:
456,81,9118,2,0,B|415:107|415:107|376:151,1,90,0|8,0:0|0:0,0:0:0:0:
244,110,9318,5,0,0:0:0:0:
244,110,9418,1,8,0:0:0:0:
213,306,9518,2,0,L|325:293,1,90,0|8,0:0|0:0,0:0:0:0:
150,137,9718,2,0,B|139:186|139:186|139:249,1,90,0|8,0:0|0:0,0:0:0:0:
301,196,9918,1,0,0:0:0:0:
301,196,10018,1,8,0:0:0:0:
227,75,10118,2,0,B|186:54|186:54|123:44,1,90,0|8,0:0|0:0,0:0:0:0:
65,275,10318,2,0,B|106:296|106:296|169:306,1,90,0|8,0:0|0:0,0:0:0:0:
319,337,10518,6,0,B|352:297|352:297|372:237,1,90,0|8,0:0|0:0,0:0:0:0:
193,47,10718,2,0,B|160:87|160:87|140:147,1,90,0|8,0:0|0:0,0:0:0:0:
193,337,10918,2,0,B|160:297|160:297|140:237,1,90,0|8,0:0|0:0,0:0:0:0:
319,47,11118,2,0,B|352:87|352:87|372:147,1,90,0|8,0:0|0:0,0:0:0:0:
260,264,11318,5,4,0:0:0:0:
260,264,11418,1,8,0:0:0:0:
164,148,11518,2,0,L|255:162,1,90,0|8,0:0|0:0,0:0:0:0:
346,363,11718,2,0,L|255:349,1,90,0|8,0:0|0:0,0:0:0:0:
97,321,11918,1,0,0:0:0:0:
97,321,12018,1,8,0:0:0:0:
24,220,12118,2,0,P|14:171|27:108,1,90,0|8,0:0|0:0,0:0:0:0:
120,79,12318,2,0,P|157:45|218:25,1,90,0|8,0:0|0:0,0:0:0:0:
309,88,12518,5,0,0:0:0:0:
309,88,12618,1,8,0:0:0:0:
396,195,12718,2,0,B|403:246|403:246|399:292,1,90,0|8,0:0|0:0,0:0:0:0:
232,384,12918,6,0,B|228:345|228:345|235:294,1,90,4|0,0:0|0:0,0:0:0:0:
309,174,13118,2,0,L|379:153,2,45
228,201,13318,1,8,0:0:0:0:
199,210,13384,1,8,0:0:0:0:
170,206,13451,1,0,0:0:0:0:
145,189,13517,1,0,0:0:0:0:
131,163,13584,1,0,0:0:0:0:
129,133,13651,1,0,0:0:0:0:
142,104,13718,2,0,P|163:86|171:52,2,45
70,68,13918,2,0,P|74:40|59:9,2,45
20,148,14118,5,8,0:0:0:0:
81,213,14218,1,8,0:0:0:0:
20,279,14318,1,8,0:0:0:0:
79,346,14418,1,8,0:0:0:0:
166,326,14518,6,0,L|287:297,1,90,4|0,0:0|0:0,0:0:0:0:
323,288,14718,1,2,0:0:0:0:
370,235,14818,1,8,0:0:0:0:
367,165,14918,1,2,0:0:0:0:
316,117,15018,1,8,0:0:0:0:
246,118,15118,1,2,0:0:0:0:
187,153,15218,1,8,0:0:0:0:
123,126,15318,1,2,0:0:0:0:
106,59,15418,1,8,0:0:0:0:
150,6,15518,1,2,0:0:0:0:
220,10,15618,1,8,0:0:0:0:
254,73,15718,6,0,P|247:141|276:188,1,90,2|8,0:0|0:0,0:0:0:0:
373,243,15918,1,2,0:0:0:0:
361,105,16018,1,8,0:0:0:0:
231,257,16118,2,0,L|255:360,1,90,2|8,0:0|0:0,0:0:0:0:
318,369,16318,1,2,0:0:0:0:
387,384,16418,1,8,0:0:0:0:
447,349,16518,1,2,0:0:0:0:
468,281,16618,1,8,0:0:0:0:
434,217,16718,1,2,0:0:0:0:
397,156,16818,1,8,0:0:0:0:
411,87,16918,6,0,B|364:56|364:56|320:41,1,90,6|0,0:0|0:0,0:0:0:0:
172,59,17118,1,2,0:0:0:0:
172,59,17168,1,2,0:0:0:0:
172,59,17218,1,2,0:0:0:0:
172,59,17268,1,2,0:0:0:0:
172,59,17318,2,0,P|162:116|178:168,1,90,8|0,0:0|0:0,0:0:0:0:
340,325,17518,1,2,0:0:0:0:
340,325,17568,1,2,0:0:0:0:
340,325,17618,1,2,0:0:0:0:
340,325,17668,1,2,0:0:0:0:
340,325,17718,2,0,P|350:268|334:216,1,90,10|0,0:0|0:0,0:0:0:0:
307,174,17918,5,2,0:0:0:0:
280,109,18018,1,8,0:0:0:0:
313,48,18118,1,2,0:0:0:0:
382,36,18218,1,8,0:0:0:0:
434,82,18318,1,2,0:0:0:0:
431,152,18418,1,8,0:0:0:0:
365,181,18518,1,2,0:0:0:0:
299,157,18618,1,8,0:0:0:0:
241,195,18718,1,2,0:0:0:0:
235,264,18818,1,8,0:0:0:0:
286,311,18918,6,0,L|398:304,1,90,0|8,0:0|0:0,0:0:0:0:
225,72,19118,2,0,L|114:80,1,90,0|8,0:0|0:0,0:0:0:0:
43,173,19318,1,8,0:0:0:0:
43,173,19368,1,0,0:0:0:0:
43,173,19418,1,0,0:0:0:0:
61,304,19518,2,0,B|108:315|108:315|159:314,1,90
272,271,19718,1,2,0:0:0:0:
276,260,19768,1,2,0:0:0:0:
281,250,19818,1,2,0:0:0:0:
285,240,19868,1,2,0:0:0:0:
290,230,19918,1,2,0:0:0:0:
341,126,20018,5,0,0:0:0:0:
341,126,20068,1,0,0:0:0:0:
341,126,20118,2,0,L|329:66,1,45,8|0,0:0|0:0,0:0:0:0:
247,84,20218,1,0,0:0:0:0:
247,84,20268,1,0,0:0:0:0:
247,84,20318,2,0,L|235:24,1,45,8|0,0:0|0:0,0:0:0:0:
162,165,20418,1,0,0:0:0:0:
162,165,20468,1,0,0:0:0:0:
162,165,20518,2,0,L|150:105,1,45,8|0,0:0|0:0,0:0:0:0:
68,123,20618,1,0,0:0:0:0:
68,123,20668,1,0,0:0:0:0:
68,123,20718,2,0,L|46:10,1,90,10|0,0:0|0:0,0:0:0:0:
94,257,20918,5,2,0:0:0:0:
94,257,21018,1,8,0:0:0:0:
192,344,21118,2,0,L|297:356,1,90,0|8,0:0|0:0,0:0:0:0:
334,258,21318,2,0,L|423:247,1,90,0|8,0:0|0:0,0:0:0:0:
478,122,21518,1,0,0:0:0:0:
478,122,21618,1,8,0:0:0:0:
338,75,21718,2,0,B|335:128|335:128|350:185,1,90,0|8,0:0|0:0,0:0:0:0:
167,163,21918,2,0,B|177:128|177:128|174:75,1,90,0|8,0:0|0:0,0:0:0:0:
34,122,22118,5,0,0:0:0:0:
34,122,22218,1,8,0:0:0:0:
77,286,22318,2,0,L|196:307,1,90,0|8,0:0|0:0,0:0:0:0:
367,246,22518,2,0,L|248:225,1,90,0|8,0:0|0:0,0:0:0:0:
361,108,22718,1,0,0:0:0:0:
361,108,22818,1,8,0:0:0:0:
473,181,22918,2,0,B|477:235|477:235|470:300,1,90,0|8,0:0|0:0,0:0:0:0:
269,384,23118,2,0,B|265:330|265:330|272:265,1,90,0|8,0:0|0:0,0:0:0:0:
104,65,23318,6,0,L|99:186,1,90,0|8,0:0|0:0,0:0:0:0:
209,231,23518,2,0,L|212:141,1,90,0|8,0:0|0:0,0:0:0:0:
26,186,23718,2,0,L|21:307,1,90,0|8,0:0|0:0,0:0:0:0:
131,352,23918,6,0,L|134:262,1,90,0|8,0:0|0:0,0:0:0:0:
140,91,24118,1,0,0:0:0:0:
140,91,24218,1,8,0:0:0:0:
323,265,24318,2,0,L|208:261,1,90,0|8,0:0|0:0,0:0:0:0:
416,132,24518,2,0,B|424:187|424:187|417:244,1,90,0|8,0:0|0:0,0:0:0:0:
350,355,24718,1,0,0:0:0:0:
350,355,24818,1,8,0:0:0:0:
260,180,24918,2,0,L|375:184,1,90,0|8,0:0|0:0,0:0:0:0:
167,313,25118,2,0,B|159:258|159:258|166:201,1,90,0|8,0:0|0:0,0:0:0:0:
214,88,25318,5,0,0:0:0:0:
214,88,25418,1,8,0:0:0:0:
331,48,25518,2,0,L|438:51,1,90,0|8,0:0|0:0,0:0:0:0:
324,333,25718,6,0,B|307:282|307:282|308:232,1,90,0|8,0:0|0:0,0:0:0:0:
188,51,25918,2,0,B|205:102|205:102|204:152,1,90,0|8,0:0|0:0,0:0:0:0:
115,260,26118,2,0,B|166:243|166:243|216:244,1,90,0|8,0:0|0:0,0:0:0:0:
397,124,26318,2,0,B|346:141|346:141|296:140,1,90,0|8,0:0|0:0,0:0:0:0:
204,339,26518,2,0,B|228:291|228:291|264:257,1,90,0|8,0:0|0:0,0:0:0:0:
307,44,26718,2,0,B|283:92|283:92|247:126,1,90,0|8,0:0|0:0,0:0:0:0:
108,140,26918,2,0,B|156:164|156:164|190:200,1,90,0|8,0:0|0:0,0:0:0:0:
403,243,27118,2,0,B|355:219|355:219|321:183,1,90,0|8,0:0|0:0,0:0:0:0:
413,84,27318,5,0,0:0:0:0:
413,84,27418,1,8,0:0:0:0:
499,186,27518,2,0,L|508:297,1,90,0|8,0:0|0:0,0:0:0:0:
323,384,27718,2,0,L|330:294,1,90,0|8,0:0|0:0,0:0:0:0:
256,192,27918,1,0,0:0:0:0:
256,192,28018,1,8,0:0:0:0:
181,294,28118,2,0,L|189:384,1,90,0|8,0:0|0:0,0:0:0:0:
5,275,28318,2,0,L|13:186,1,90,0|8,0:0|0:0,0:0:0:0:
99,84,28518,5,0,0:0:0:0:
99,84,28618,1,8,0:0:0:0:
209,14,28718,2,0,L|318:18,1,90,0|8,0:0|0:0,0:0:0:0:
471,157,28918,2,0,L|382:154,1,90,0|8,0:0|0:0,0:0:0:0:
276,281,29118,1,0,0:0:0:0:
276,281,29218,1,8,0:0:0:0:
453,339,29318,2,0,B|465:297|465:297|466:235,1,90,0|8,0:0|0:0,0:0:0:0:
310,118,29518,2,0,B|310:164|310:164|322:206,1,90,0|8,0:0|0:0,0:0:0:0:
433,48,29718,6,0,L|370:39,2,45,4|0|8,0:0|0:0|0:0,0:0:0:0:
308,93,29918,2,0,L|245:84,2,45,4|0|8,0:0|0:0|0:0,0:0:0:0:
183,17,30118,1,8,0:0:0:0:
96,40,30218,1,8,0:0:0:0:
121,126,30318,1,8,0:0:0:0:
33,146,30418,1,8,0:0:0:0:
47,234,30518,5,4,0:0:0:0:
47,234,30618,1,8,0:0:0:0:
104,302,30718,2,0,B|163:315|163:315|225:317,1,90,0|8,0:0|0:0,0:0:0:0:
290,226,30918,2,0,B|319:225|319:225|378:212,1,90,0|8,0:0|0:0,0:0:0:0:
493,108,31118,1,0,0:0:0:0:
493,108,31218,1,8,0:0:0:0:
316,38,31318,2,0,L|306:135,1,90,0|8,0:0|0:0,0:0:0:0:
420,322,31518,2,0,L|410:232,1,90,0|8,0:0|0:0,0:0:0:0:
219,148,31718,5,0,0:0:0:0:
219,148,31818,1,8,0:0:0:0:
223,352,31918,2,0,B|273:353|273:353|336:337,1,90,0|8,0:0|0:0,0:0:0:0:
61,111,32118,6,0,L|40:229,1,90,0|8,0:0|0:0,0:0:0:0:
25,324,32318,2,0,L|16:389,2,60
129,308,32518,2,0,L|120:373,2,60,8|8|0,0:0|0:0|0:0,0:0:0:0:
225,298,32718,1,0,0:0:0:0:
259,287,32784,1,0,0:0:0:0:
285,263,32851,1,0,0:0:0:0:
298,230,32917,1,0,0:0:0:0:
296,194,32984,1,0,0:0:0:0:
278,163,33051,1,0,0:0:0:0:
256,135,33117,1,0,0:0:0:0:
249,100,33184,1,0,0:0:0:0:
258,66,33250,1,0,0:0:0:0:
282,40,33317,5,12,0:0:0:0:
448,170,33418,1,8,0:0:0:0:
334,109,33518,1,8,0:0:0:0:
436,31,33618,1,8,0:0:0:0:
391,237,33718,6,0,L|363:346,1,90,4|8,0:0|0:0,0:0:0:0:
312,370,33918,1,2,0:0:0:0:
242,372,34018,1,8,0:0:0:0:
198,319,34118,1,2,0:0:0:0:
215,251,34218,1,8,0:0:0:0:
235,184,34318,1,2,0:0:0:0:
206,120,34418,1,8,0:0:0:0:
141,92,34518,1,2,0:0:0:0:
74,113,34618,1,8,0:0:0:0:
38,174,34718,1,2,0:0:0:0:
52,243,34818,1,8,0:0:0:0:
114,279,34918,6,0,B|163:289|163:289|226:291,1,90,2|8,0:0|0:0,0:0:0:0:
391,237,35118,1,2,0:0:0:0:
235,184,35218,1,8,0:0:0:0:
394,319,35318,2,0,P|442:295|477:243,1,90,2|8,0:0|0:0,0:0:0:0:
500,205,35518,1,2,0:0:0:0:
477,138,35618,1,8,0:0:0:0:
415,106,35718,1,2,0:0:0:0:
345,125,35818,1,8,0:0:0:0:
328,195,35918,1,2,0:0:0:0:
285,252,36018,1,8,0:0:0:0:
216,275,36118,6,0,L|94:242,1,90,2|8,0:0|0:0,0:0:0:0:
46,100,36318,1,2,0:0:0:0:
46,100,36368,1,2,0:0:0:0:
46,100,36418,1,2,0:0:0:0:
46,100,36468,1,2,0:0:0:0:
46,100,36518,2,0,B|106:70|106:70|151:62,1,90,8|0,0:0|0:0,0:0:0:0:
390,67,36718,1,2,0:0:0:0:
390,67,36768,1,2,0:0:0:0:
390,67,36818,1,2,0:0:0:0:
390,67,36868,1,2,0:0:0:0:
390,67,36918,6,0,B|412:71|412:71|472:101,1,90,12|8,0:0|0:0,0:0:0:0:
482,173,37118,1,2,0:0:0:0:
485,243,37218,1,8,0:0:0:0:
437,294,37318,1,2,0:0:0:0:
367,296,37418,1,8,0:0:0:0:
317,247,37518,1,2,0:0:0:0:
316,177,37618,1,8,0:0:0:0:
319,107,37718,1,2,0:0:0:0:
273,53,37818,1,8,0:0:0:0:
204,45,37918,1,2,0:0:0:0:
147,86,38018,1,8,0:0:0:0:
133,155,38118,5,8,0:0:0:0:
186,227,38218,1,8,0:0:0:0:
133,300,38318,1,8,0:0:0:0:
47,272,38418,1,8,0:0:0:0:
47,182,38518,5,4,0:0:0:0:
50,171,38568,1,0,0:0:0:0:
53,160,38618,1,0,0:0:0:0:
56,149,38668,1,0,0:0:0:0:
60,138,38718,2,0,L|87:45,1,90,4|0,0:0|0:0,0:0:0:0:
204,45,38918,1,2,0:0:0:0:
259,63,38984,1,2,0:0:0:0:
286,115,39051,1,2,0:0:0:0:
270,171,39118,2,0,P|247:227|268:280,1,90,4|0,0:0|0:0,0:0:0:0:
344,348,39318,5,8,0:0:0:0:
344,348,39368,1,0,0:0:0:0:
344,348,39418,1,0,0:0:0:0:
412,251,39518,2,0,L|467:237,2,45,8|0|0,0:0|0:0|0:0,0:0:0:0:
349,163,39718,1,8,0:0:0:0:
349,163,39768,1,0,0:0:0:0:
349,163,39818,1,0,0:0:0:0:
417,66,39918,2,0,L|472:52,2,45,8|0|0,0:0|0:0|0:0,0:0:0:0:
296,29,40118,6,0,B|251:22|251:22|192:21,1,90,12|0,0:0|0:0,0:0:0:0:
178,96,40268,1,0,0:0:0:0:
178,96,40318,2,0,B|139:119|139:119|93:156,1,90,8|0,0:0|0:0,0:0:0:0:
158,207,40468,1,0,0:0:0:0:
158,207,40518,2,0,B|143:250|143:250|132:308,1,90,8|0,0:0|0:0,0:0:0:0:
213,286,40668,1,0,0:0:0:0:
213,286,40718,2,0,B|229:328|229:328|258:380,1,90,8|0,0:0|0:0,0:0:0:0:
318,324,40868,5,0,0:0:0:0:
318,324,40918,2,0,B|357:345|357:345|412:367,1,90,8|0,0:0|0:0,0:0:0:0:
400,285,41068,1,0,0:0:0:0:
400,285,41118,2,0,B|444:276|444:276|500:256,1,90,8|0,0:0|0:0,0:0:0:0:
455,188,41268,1,0,0:0:0:0:
455,188,41318,2,0,B|483:152|483:152|513:101,1,90,8|0,0:0|0:0,0:0:0:0:
436,93,41468,1,0,0:0:0:0:
436,93,41518,2,0,B|435:47|435:47|425:-10,1,90,8|0,0:0|0:0,0:0:0:0:
188,33,41718,6,0,L|90:46,1,90,12|0,0:0|0:0,0:0:0:0:
64,122,41868,1,0,0:0:0:0:
64,122,41918,2,0,L|166:108,1,90,8|0,0:0|0:0,0:0:0:0:
209,174,42068,1,0,0:0:0:0:
209,174,42118,2,0,L|107:188,1,90,8|0,0:0|0:0,0:0:0:0:
87,263,42268,1,0,0:0:0:0:
87,263,42318,2,0,L|189:249,1,90,8|0,0:0|0:0,0:0:0:0:
232,315,42468,1,0,0:0:0:0:
232,315,42518,2,0,L|130:329,1,90,8|0,0:0|0:0,0:0:0:0:
270,244,42668,1,0,0:0:0:0:
270,244,42718,2,0,L|333:325,1,90,8|0,0:0|0:0,0:0:0:0:
433,304,42918,5,4,0:0:0:0:
464,279,42984,1,0,0:0:0:0:
484,245,43051,1,0,0:0:0:0:
489,205,43117,1,0,0:0:0:0:
479,167,43184,1,0,0:0:0:0:
455,135,43251,1,0,0:0:0:0:
420,115,43318,6,8,L|328:91,1,90,12|8,0:0|0:0,0:0:0:0:
91,268,43518,2,8,L|184:293,1,90,8|8,0:0|0:0,0:0:0:0:
420,268,43718,2,8,L|333:291,1,90,8|8,0:0|0:0,0:0:0:0:
91,115,43919,2,8,L|178:92,1,90,8|8,0:0|0:0,0:0:0:0:
420,268,44118,6,8,L|374:190,1,90,8|8,0:0|0:0,0:0:0:0:
91,115,44318,2,8,L|136:192,1,90,8|8,0:0|0:0,0:0:0:0:
318,362,44518,2,8,L|240:317,1,90,8|8,0:0|0:0,0:0:0:0:
192,22,44718,2,8,L|269:67,1,90,8|8,0:0|0:0,0:0:0:0:
390,139,44918,5,0,0:0:0:0:
390,144,44968,1,0,0:0:0:0:
390,150,45018,1,0,0:0:0:0:
390,155,45068,1,0,0:0:0:0:
390,161,45118,1,0,0:0:0:0:
390,167,45168,1,0,0:0:0:0:
390,172,45218,1,0,0:0:0:0:
390,178,45268,1,0,0:0:0:0:
390,183,45318,1,8,0:0:0:0:
390,189,45368,1,0,0:0:0:0:
390,195,45418,1,0,0:0:0:0:
390,200,45468,1,0,0:0:0:0:
390,206,45518,1,0,0:0:0:0:
390,212,45568,1,0,0:0:0:0:
390,217,45618,1,0,0:0:0:0:
390,223,45668,1,0,0:0:0:0:
390,228,45718,6,0,B|349:253|349:253|290:265,1,90,12|0,0:0|0:0,0:0:0:0:
194,334,45918,2,0,B|151:310|151:310|111:265,1,90,12|0,0:0|0:0,0:0:0:0:
203,136,46118,1,8,0:0:0:0:
376,192,46218,1,0,0:0:0:0:
203,248,46318,1,8,0:0:0:0:
310,101,46418,1,0,0:0:0:0:
310,284,46518,6,0,P|355:324|444:344,1,107.999996704102,4|8,0:0|0:0,0:0:0:0:
376,192,46718,2,0,P|436:193|517:151,1,107.999996704102,0|8,0:0|0:0,0:0:0:0:
202,284,46918,2,0,P|157:324|68:344,1,107.999996704102,0|8,0:0|0:0,0:0:0:0:
136,192,47118,2,0,P|75:193|-5:151,1,107.999996704102,0|8,0:0|0:0,0:0:0:0:
301,22,47318,6,0,L|316:146,1,107.999996704102,0|8,0:0|0:0,0:0:0:0:
211,362,47518,2,0,L|196:238,1,107.999996704102,0|8,0:0|0:0,0:0:0:0:
426,237,47718,2,0,L|302:252,1,107.999996704102,0|8,0:0|0:0,0:0:0:0:
86,147,47918,2,0,L|209:132,1,107.999996704102,0|8,0:0|0:0,0:0:0:0:
455,94,48118,6,0,B|477:146|477:146|495:222,1,107.999996704102,0|8,0:0|0:0,0:0:0:0:
23,196,48318,2,0,B|35:146|35:146|57:94,1,107.999996704102,0|8,0:0|0:0,0:0:0:0:
450,304,48518,2,0,B|415:349|415:349|359:402,1,107.999996704102,0|8,0:0|0:0,0:0:0:0:
133,384,48718,2,0,B|96:349|96:349|62:304,1,107.999996704102,0|8,0:0|0:0,0:0:0:0:
347,66,48918,6,0,L|352:200,1,107.999996704102,0|8,0:0|0:0,0:0:0:0:
173,124,49118,2,0,L|168:16,1,107.999996704102,0|8,0:0|0:0,0:0:0:0:
285,223,49318,2,0,L|290:357,1,107.999996704102,0|8,0:0|0:0,0:0:0:0:
133,384,49518,2,0,L|128:276,1,107.999996704102,0|8,0:0|0:0,0:0:0:0:
347,66,49718,6,0,B|410:75|410:75|464:102,1,107.999996704102,4|8,0:0|0:0,0:0:0:0:
281,131,49918,2,0,B|257:71|257:71|253:11,1,107.999996704102,0|8,0:0|0:0,0:0:0:0:
414,190,50118,2,0,B|356:190|356:190|280:211,1,107.999996704102,0|8,0:0|0:0,0:0:0:0:
251,309,50318,2,0,B|197:326|197:326|117:330,1,107.999996704102,0|8,0:0|0:0,0:0:0:0:
112,172,50518,6,0,B|153:210|153:210|197:277,1,107.999996704102,0|8,0:0|0:0,0:0:0:0:
62,362,50718,2,0,B|74:306|74:306|110:235,1,107.999996704102,0|8,0:0|0:0,0:0:0:0:
202,147,50918,2,0,L|356:161,1,107.999996704102,0|8,0:0|0:0,0:0:0:0:
462,286,51118,2,0,L|308:272,1,107.999996704102,0|8,0:0|0:0,0:0:0:0:
445,87,51318,6,0,P|456:136|439:202,1,107.999996704102,0|8,0:0|0:0,0:0:0:0:
299,345,51518,2,0,L|145:331,1,107.999996704102,0|8,0:0|0:0,0:0:0:0:
25,183,51718,2,0,L|179:197,1,107.999996704102,0|8,0:0|0:0,0:0:0:0:
48,377,51918,2,0,B|11:325|11:325|-7:260,1,107.999996704102,0|8,0:0|0:0,0:0:0:0:
57,28,52118,6,0,L|180:36,1,107.999996704102,0|8,0:0|0:0,0:0:0:0:
333,52,52318,1,0,0:0:0:0:
211,132,52418,1,8,0:0:0:0:
251,8,52518,1,0,0:0:0:0:
303,150,52618,1,8,0:0:0:0:
306,158,52668,1,8,0:0:0:0:
309,166,52718,1,8,0:0:0:0:
312,175,52768,1,8,0:0:0:0:
316,183,52818,1,8,0:0:0:0:
319,191,52868,1,8,0:0:0:0:
322,200,52918,6,0,B|288:243|288:243|224:266,1,107.999996704102,4|8,0:0|0:0,0:0:0:0:
333,52,53118,2,0,B|387:59|387:59|439:103,1,107.999996704102,0|8,0:0|0:0,0:0:0:0:
362,276,53318,2,0,L|351:384,1,107.999996704102,0|8,0:0|0:0,0:0:0:0:
494,194,53518,2,0,L|505:301,1,107.999996704102,0|8,0:0|0:0,0:0:0:0:
225,66,53718,6,0,L|342:50,1,107.999996704102,0|8,0:0|0:0,0:0:0:0:
130,223,53918,2,0,L|114:106,1,107.999996704102,0|8,0:0|0:0,0:0:0:0:
287,318,54118,2,0,L|170:334,1,107.999996704102,0|8,0:0|0:0,0:0:0:0:
382,161,54318,2,0,L|398:278,1,107.999996704102,0|8,0:0|0:0,0:0:0:0:
144,124,54518,6,0,L|216:30,1,107.999996704102,0|8,0:0|0:0,0:0:0:0:
188,303,54718,2,0,L|94:231,1,107.999996704102,0|8,0:0|0:0,0:0:0:0:
367,259,54918,2,0,L|295:353,1,107.999996704102,0|8,0:0|0:0,0:0:0:0:
323,80,55118,2,0,L|417:152,1,107.999996704102,0|8,0:0|0:0,0:0:0:0:
261,266,55318,6,0,B|231:225|231:225|205:166,1,107.999996704102,0|8,0:0|0:0,0:0:0:0:
459,251,55518,2,0,B|438:297|438:297|400:349,1,107.999996704102,0|8,0:0|0:0,0:0:0:0:
323,80,55718,2,0,L|441:69,1,107.999996704102,0|8,0:0|0:0,0:0:0:0:
207,172,55918,2,0,L|100:162,1,107.999996704102,0|8,0:0|0:0,0:0:0:0:
283,90,56118,6,0,B|314:142|314:142|327:187,1,107.999996704102,4|8,0:0|0:0,0:0:0:0:
244,370,56318,2,0,B|212:317|212:317|199:272,1,107.999996704102,0|8,0:0|0:0,0:0:0:0:
397,238,56518,2,0,L|405:366,1,107.999996704102,0|8,0:0|0:0,0:0:0:0:
305,125,56718,2,0,L|297:253,1,107.999996704102,0|8,0:0|0:0,0:0:0:0:
136,34,56918,6,0,B|198:24|198:24|256:25,1,107.999996704102,0|8,0:0|0:0,0:0:0:0:
78,116,57118,2,0,B|38:67|38:67|10:16,1,107.999996704102,0|8,0:0|0:0,0:0:0:0:
201,102,57318,2,0,L|210:219,1,107.999996704102,0|8,0:0|0:0,0:0:0:0:
66,255,57518,2,0,L|57:372,1,107.999996704102,0|8,0:0|0:0,0:0:0:0:
297,269,57718,6,0,B|250:227|250:227|189:201,1,107.999996704102,0|8,0:0|0:0,0:0:0:0:
283,364,57918,2,0,B|342:344|342:344|395:304,1,107.999996704102,0|8,0:0|0:0,0:0:0:0:
470,233,58118,2,0,P|476:187|450:118,1,107.999996704102,0|8,0:0|0:0,0:0:0:0:
304,29,58318,2,0,P|286:79|291:132,1,107.999996704102,0|8,0:0|0:0,0:0:0:0:
154,153,58518,5,12,0:0:0:0:
142,150,58568,1,0,0:0:0:0:
131,148,58618,1,0,0:0:0:0:
120,146,58668,1,0,0:0:0:0:
109,144,58718,1,8,0:0:0:0:
97,145,58768,1,0,0:0:0:0:
86,147,58818,1,0,0:0:0:0:
75,149,58868,1,0,0:0:0:0:
64,150,58918,1,12,0:0:0:0:
53,155,58968,1,0,0:0:0:0:
43,160,59018,1,0,0:0:0:0:
33,166,59068,1,0,0:0:0:0:
23,171,59118,2,0,L|38:230,3,45
55,300,59318,5,12,0:0:0:0:
139,329,59418,1,4,0:0:0:0:
223,363,59518,1,4,0:0:0:0:
457,84,59918,5,8,0:0:0:0:
372,54,60018,1,4,0:0:0:0:
289,21,60118,1,4,0:0:0:0:
302,329,60518,5,8,0:0:0:0:
388,304,60618,1,4,0:0:0:0:
319,245,60718,1,4,0:0:0:0:
210,55,61118,5,8,0:0:0:0:
124,80,61218,1,4,0:0:0:0:
193,139,61318,1,4,0:0:0:0:
416,26,61518,5,0,0:0:0:0:
416,26,61584,1,0,0:0:0:0:
416,26,61651,1,0,0:0:0:0:
416,26,61718,6,8,B|423:78|423:78|419:133,1,90,12|8,0:0|0:0,0:0:0:0:
296,268,61918,2,8,B|289:216|289:216|293:161,1,90
448,337,62118,2,8,B|399:348|399:348|341:349,1,90
213,247,62318,2,8,B|173:247|173:247|124:258,1,90
393,275,62518,6,8,B|409:231|409:231|408:174,1,90
278,90,62718,2,8,B|278:139|278:139|291:179,1,90
466,46,62918,2,8,L|359:37,1,90
210,166,63118,2,8,L|103:175,1,90
250,317,63318,5,4,0:0:0:0:
250,317,63418,1,8,0:0:0:0:
377,229,63518,2,0,B|383:182|383:182|373:123,1,90,0|8,0:0|0:0,0:0:0:0:
230,46,63718,2,0,B|222:88|222:88|228:135,1,90,0|8,0:0|0:0,0:0:0:0:
333,36,63918,1,0,0:0:0:0:
333,36,64018,1,8,0:0:0:0:
146,0,64118,2,0,L|28:14,1,90,0|8,0:0|0:0,0:0:0:0:
241,176,64318,2,0,L|151:165,1,90,0|8,0:0|0:0,0:0:0:0:
404,204,64518,5,0,0:0:0:0:
404,204,64618,1,8,0:0:0:0:
274,360,64718,2,0,B|266:311|266:311|278:247,1,90,0|8,0:0|0:0,0:0:0:0:
120,180,64918,2,0,B|128:227|128:227|118:268,1,90,0|8,0:0|0:0,0:0:0:0:
27,120,65118,1,0,0:0:0:0:
27,120,65218,1,8,0:0:0:0:
125,33,65318,2,0,L|250:35,1,90,0|8,0:0|0:0,0:0:0:0:
270,147,65518,2,0,L|359:145,1,90,0|8,0:0|0:0,0:0:0:0:
448,290,65718,6,0,B|406:319|406:319|348:335,1,90,0|8,0:0|0:0,0:0:0:0:
158,384,65918,2,0,B|129:342|129:342|113:284,1,90,0|8,0:0|0:0,0:0:0:0:
64,94,66118,2,0,B|106:65|106:65|164:49,1,90,0|8,0:0|0:0,0:0:0:0:
354,0,66318,2,0,B|383:42|383:42|399:100,1,90,0|8,0:0|0:0,0:0:0:0:
308,237,66518,5,0,0:0:0:0:
308,237,66618,1,8,0:0:0:0:
220,96,66718,2,0,L|346:67,1,90,0|8,0:0|0:0,0:0:0:0:
190,271,66918,2,0,L|102:176,1,90,0|8,0:0|0:0,0:0:0:0:
36,88,67118,1,0,0:0:0:0:
36,88,67218,1,8,0:0:0:0:
10,228,67318,2,0,B|7:275|7:275|28:329,1,90,0|8,0:0|0:0,0:0:0:0:
129,373,67518,2,0,P|177:373|242:363,1,90,0|8,0:0|0:0,0:0:0:0:
386,309,67718,5,0,0:0:0:0:
386,309,67818,1,8,0:0:0:0:
248,171,67918,2,0,L|234:271,1,90,0|8,0:0|0:0,0:0:0:0:
415,118,68118,6,0,P|391:73|342:42,1,90,0|8,0:0|0:0,0:0:0:0:
182,33,68318,2,0,P|137:57|106:106,1,90,0|8,0:0|0:0,0:0:0:0:
97,266,68518,2,0,P|121:311|170:342,1,90,0|8,0:0|0:0,0:0:0:0:
330,351,68718,2,0,P|375:327|406:278,1,90,0|8,0:0|0:0,0:0:0:0:
316,27,68918,6,0,P|267:12|210:25,1,90,0|8,0:0|0:0,0:0:0:0:
91,131,69118,2,0,P|76:180|89:237,1,90,0|8,0:0|0:0,0:0:0:0:
195,356,69318,2,0,P|244:371|301:358,1,90,0|8,0:0|0:0,0:0:0:0:
420,252,69518,2,0,P|435:203|422:146,1,90,0|8,0:0|0:0,0:0:0:0:
305,114,69718,5,0,0:0:0:0:
305,114,69818,1,8,0:0:0:0:
161,187,69918,2,0,L|146:302,1,90,0|8,0:0|0:0,0:0:0:0:
296,384,70118,2,0,L|284:294,1,90,0|8,0:0|0:0,0:0:0:0:
264,94,70318,1,0,0:0:0:0:
264,94,70418,1,8,0:0:0:0:
127,49,70518,2,0,B|81:57|81:57|33:84,1,90,0|8,0:0|0:0,0:0:0:0:
248,182,70718,2,0,B|260:141|260:141|264:83,1,90,0|8,0:0|0:0,0:0:0:0:
188,259,70918,5,0,0:0:0:0:
188,259,71018,1,8,0:0:0:0:
302,315,71118,2,0,L|410:298,1,90,0|8,0:0|0:0,0:0:0:0:
484,184,71318,2,0,L|395:197,1,90,0|8,0:0|0:0,0:0:0:0:
246,77,71518,1,0,0:0:0:0:
246,77,71618,1,8,0:0:0:0:
393,28,71718,2,0,B|398:74|398:74|391:123,1,90,0|8,0:0|0:0,0:0:0:0:
244,253,71918,2,0,B|237:209|237:209|242:163,1,90,0|8,0:0|0:0,0:0:0:0:
439,326,72118,6,0,L|348:339,1,90,0|8,0:0|0:0,0:0:0:0:
311,203,72318,2,0,L|401:216,1,90,0|8,0:0|0:0,0:0:0:0:
232,283,72518,2,0,L|141:296,1,90,0|8,0:0|0:0,0:0:0:0:
104,161,72718,2,0,L|194:174,1,90,0|8,0:0|0:0,0:0:0:0:
290,38,72918,5,0,0:0:0:0:
290,38,73018,1,8,0:0:0:0:
394,140,73118,2,0,B|400:189|400:189|394:237,1,90,0|8,0:0|0:0,0:0:0:0:
256,357,73318,2,0,B|250:308|250:308|256:260,1,90,0|8,0:0|0:0,0:0:0:0:
382,343,73518,1,0,0:0:0:0:
382,343,73618,1,8,0:0:0:0:
169,285,73718,2,0,B|157:243|157:243|160:185,1,90,0|8,0:0|0:0,0:0:0:0:
321,71,73918,2,0,B|323:117|323:117|311:159,1,90,0|8,0:0|0:0,0:0:0:0:
179,75,74118,5,0,0:0:0:0:
179,75,74218,1,8,0:0:0:0:
391,22,74318,2,0,L|488:33,1,90,0|8,0:0|0:0,0:0:0:0:
473,203,74518,6,0,L|382:213,1,90,0|8,0:0|0:0,0:0:0:0:
238,232,74718,1,0,0:0:0:0:
197,222,74784,1,8,0:0:0:0:
173,189,74851,1,0,0:0:0:0:
175,148,74918,1,8,0:0:0:0:
195,113,74984,1,0,0:0:0:0:
179,75,75051,1,0,0:0:0:0:
141,63,75118,1,0,0:0:0:0:
103,64,75184,1,0,0:0:0:0:
70,90,75250,1,0,0:0:0:0:
50,127,75318,6,0,L|62:201,2,60
173,189,75518,2,0,L|161:263,2,60
143,333,75718,1,8,0:0:0:0:
232,335,75818,1,8,0:0:0:0:
240,245,75918,1,8,0:0:0:0:
329,253,76018,1,8,0:0:0:0:
342,157,76118,6,0,B|329:110|329:110|305:71,1,90,4|8,0:0|0:0,0:0:0:0:
247,46,76318,1,2,0:0:0:0:
177,45,76418,1,8,0:0:0:0:
132,99,76518,1,2,0:0:0:0:
146,167,76618,1,8,0:0:0:0:
210,201,76718,1,2,0:0:0:0:
252,257,76818,1,8,0:0:0:0:
249,328,76918,1,2,0:0:0:0:
201,380,77018,1,8,0:0:0:0:
132,384,77118,1,2,0:0:0:0:
71,354,77218,1,8,0:0:0:0:
47,288,77318,6,0,L|54:174,1,90,2|8,0:0|0:0,0:0:0:0:
210,201,77518,1,2,0:0:0:0:
128,277,77618,1,8,0:0:0:0:
132,99,77718,2,0,L|138:-15,1,90,2|8,0:0|0:0,0:0:0:0:
209,15,77918,1,2,0:0:0:0:
277,33,78018,1,8,0:0:0:0:
324,86,78118,1,2,0:0:0:0:
335,155,78218,1,8,0:0:0:0:
301,220,78318,1,2,0:0:0:0:
239,257,78418,1,8,0:0:0:0:
218,323,78518,6,0,B|248:352|248:352|305:370,1,90,12|0,0:0|0:0,0:0:0:0:
408,338,78718,1,2,0:0:0:0:
412,327,78768,1,2,0:0:0:0:
416,317,78818,1,2,0:0:0:0:
420,306,78868,1,2,0:0:0:0:
424,296,78918,2,0,L|457:204,1,90,8|0,0:0|0:0,0:0:0:0:
386,30,79118,1,2,0:0:0:0:
381,40,79168,1,2,0:0:0:0:
377,50,79218,1,2,0:0:0:0:
373,61,79268,1,2,0:0:0:0:
370,72,79318,6,0,L|332:160,1,90,8|0,0:0|0:0,0:0:0:0:
300,218,79518,1,2,0:0:0:0:
242,256,79618,1,8,0:0:0:0:
176,234,79718,1,2,0:0:0:0:
153,168,79818,1,8,0:0:0:0:
192,110,79918,1,2,0:0:0:0:
198,42,80018,1,8,0:0:0:0:
143,0,80118,1,2,0:0:0:0:
78,23,80218,1,8,0:0:0:0:
56,92,80318,1,2,0:0:0:0:
86,157,80418,1,8,0:0:0:0:
153,168,80518,5,8,0:0:0:0:
220,222,80618,1,8,0:0:0:0:
209,308,80718,1,8,0:0:0:0:
131,343,80818,1,8,0:0:0:0:
60,294,80918,2,0,L|53:232,3,45
148,213,81118,2,0,L|155:150,3,45
167,68,81318,1,2,0:0:0:0:
178,66,81368,1,2,0:0:0:0:
189,64,81418,1,2,0:0:0:0:
200,62,81468,1,2,0:0:0:0:
211,60,81518,6,0,B|257:66|257:66|313:91,1,90,4|0,0:0|0:0,0:0:0:0:
395,168,81718,1,8,0:0:0:0:
395,168,81768,1,0,0:0:0:0:
395,168,81818,1,0,0:0:0:0:
372,283,81918,1,8,0:0:0:0:
372,283,81968,1,0,0:0:0:0:
372,283,82018,1,0,0:0:0:0:
280,336,82118,1,8,0:0:0:0:
280,336,82168,1,0,0:0:0:0:
280,336,82218,1,0,0:0:0:0:
174,299,82318,1,8,0:0:0:0:
174,299,82368,1,0,0:0:0:0:
174,299,82418,1,0,0:0:0:0:
99,210,82518,6,0,P|92:169|97:113,1,90,12|0,0:0|0:0,0:0:0:0:
141,57,82668,1,0,0:0:0:0:
141,57,82718,2,0,L|255:58,1,90,8|0,0:0|0:0,0:0:0:0:
314,60,82868,1,0,0:0:0:0:
314,60,82918,2,0,B|341:97|341:97|355:146,1,90,8|0,0:0|0:0,0:0:0:0:
354,222,83068,1,0,0:0:0:0:
354,222,83118,2,0,P|318:269|266:293,1,90,8|0,0:0|0:0,0:0:0:0:
219,312,83268,1,0,0:0:0:0:
219,312,83318,2,0,L|113:292,1,90,8|0,0:0|0:0,0:0:0:0:
58,281,83468,1,0,0:0:0:0:
58,281,83518,2,0,B|47:230|47:230|47:167,1,90,8|0,0:0|0:0,0:0:0:0:
126,215,83668,1,0,0:0:0:0:
126,215,83718,2,0,B|137:164|137:164|137:101,1,90,8|0,0:0|0:0,0:0:0:0:
64,154,83868,1,0,0:0:0:0:
64,154,83918,2,8,B|53:103|53:103|53:40,1,90,8|0,0:0|0:0,0:0:0:0:
258,4,84118,6,0,L|354:18,1,90,4|0,0:0|0:0,0:0:0:0:
394,80,84268,1,0,0:0:0:0:
394,80,84318,2,0,L|380:176,1,90,8|0,0:0|0:0,0:0:0:0:
320,219,84468,1,0,0:0:0:0:
320,219,84518,2,0,L|224:205,1,90,8|0,0:0|0:0,0:0:0:0:
185,150,84668,1,0,0:0:0:0:
185,150,84718,2,0,L|199:54,1,90,8|0,0:0|0:0,0:0:0:0:
356,15,84868,1,0,0:0:0:0:
356,15,84918,6,0,L|414:93,1,90,8|0,0:0|0:0,0:0:0:0:
399,165,85068,1,0,0:0:0:0:
399,165,85118,2,0,L|321:223,1,90,8|0,0:0|0:0,0:0:0:0:
218,296,85318,1,0,0:0:0:0:
202,302,85368,1,0,0:0:0:0:
186,306,85418,1,0,0:0:0:0:
169,306,85468,1,0,0:0:0:0:
152,303,85518,1,0,0:0:0:0:
137,297,85568,1,0,0:0:0:0:
122,288,85618,1,0,0:0:0:0:
110,277,85668,1,0,0:0:0:0:
101,263,85718,6,0,B|94:218|94:218|104:164,1,90,4|0,0:0|0:0,0:0:0:0:
411,121,85918,2,8,B|418:166|418:166|408:220,1,90
185,36,86118,2,8,B|230:30|230:30|284:40,1,90
327,347,86318,2,8,B|282:354|282:354|228:344,1,90
276,108,86518,6,8,L|342:173,1,90
236,276,86718,2,8,L|170:211,1,90
185,36,86918,2,8,L|304:30,1,90
327,347,87118,2,8,L|208:353,1,90
137,357,87318,6,0,L|96:326,3,45,4|0|0|0,0:0|0:0|0:0|0:0,0:0:0:0:
155,264,87518,2,0,L|114:233,3,45,4|0|0|0,0:0|0:0|0:0|0:0,0:0:0:0:
212,192,87718,2,0,L|171:161,3,45,4|0|0|0,0:0|0:0|0:0|0:0,0:0:0:0:
230,99,87918,2,0,L|189:68,3,45,4|0|0|0,0:0|0:0|0:0|0:0,0:0:0:0:
276,24,88118,2,0,L|375:19,1,90,4|0,0:0|0:0,0:0:0:0:
321,99,88318,2,0,L|420:94,1,90,8|0,0:0|0:0,0:0:0:0:
359,177,88518,2,0,L|458:172,1,90,12|0,0:0|0:0,0:0:0:0:
404,252,88718,2,0,L|503:247,1,90,12|0,0:0|0:0,0:0:0:0:
330,366,88918,5,0,0:0:0:0:
294,360,88984,1,0,0:0:0:0:
264,341,89051,1,0,0:0:0:0:
243,311,89118,1,0,0:0:0:0:
235,276,89184,1,0,0:0:0:0:
242,241,89251,1,0,0:0:0:0:
263,212,89317,1,0,0:0:0:0:
267,177,89384,1,0,0:0:0:0:
254,144,89451,1,0,0:0:0:0:
226,122,89517,1,0,0:0:0:0:
191,116,89584,1,0,0:0:0:0:
157,128,89651,1,0,0:0:0:0:
136,157,89718,6,0,L|128:223,2,60,8|0|0,0:0|0:0|0:0,0:0:0:0:
242,241,89918,2,0,L|250:307,2,60
60,235,90118,2,0,L|52:301,2,60
166,319,90318,2,0,L|174:385,2,60
301,371,90518,5,4,0:0:0:0:
336,370,90584,1,0,0:0:0:0:
368,355,90651,1,0,0:0:0:0:
390,327,90718,1,0,0:0:0:0:
398,292,90784,1,0,0:0:0:0:
389,257,90851,1,0,0:0:0:0:
366,230,90918,1,0,0:0:0:0:
337,209,90984,1,0,0:0:0:0:
318,179,91051,1,0,0:0:0:0:
311,144,91118,1,0,0:0:0:0:
318,109,91184,1,0,0:0:0:0:
337,79,91251,1,0,0:0:0:0:
366,57,91318,6,0,L|451:44,2,60
431,131,91518,2,0,L|516:118,2,60
473,274,91718,2,0,B|453:258|453:258|434:278|434:278|388:225|388:225|357:289|304:261|304:261|287:284|287:284|264:291|248:282|248:282|223:279|205:299,1,315,4|0,0:0|0:0,0:0:0:0:
125,277,92118,6,0,L|84:231,2,60
135,151,92318,2,0,L|94:105,2,60
270,188,92518,2,0,L|229:142,2,60
280,62,92718,2,0,L|239:16,2,60
376,57,92918,5,8,0:0:0:0:
397,85,92984,1,0,0:0:0:0:
409,119,93051,1,0,0:0:0:0:
411,155,93118,1,0,0:0:0:0:
403,190,93184,1,0,0:0:0:0:
386,221,93251,1,0,0:0:0:0:
360,246,93318,1,0,0:0:0:0:
345,278,93384,1,0,0:0:0:0:
322,306,93451,1,0,0:0:0:0:
292,326,93518,1,0,0:0:0:0:
258,336,93584,1,0,0:0:0:0:
222,337,93651,1,0,0:0:0:0:
187,327,93718,6,0,B|146:297|146:297|107:231,1,90,4|0,0:0|0:0,0:0:0:0:
325,57,93918,2,0,B|366:87|366:87|405:153,1,90,4|0,0:0|0:0,0:0:0:0:
126,120,94118,2,0,B|146:87|146:87|187:57,1,90,4|0,0:0|0:0,0:0:0:0:
385,263,94318,2,0,B|366:297|366:297|325:327,1,90,4|0,0:0|0:0,0:0:0:0:
65,28,94518,5,8,0:0:0:0:
420,1,94718,1,8,0:0:0:0:
447,356,94918,1,8,0:0:0:0:
92,383,95118,1,8,0:0:0:0:
361,106,95318,6,0,B|372:158|372:158|366:257,1,107.999996704102,4|8,0:0|0:0,0:0:0:0:
247,74,95518,2,0,B|286:38|286:38|375:-5,1,107.999996704102,0|8,0:0|0:0,0:0:0:0:
467,99,95718,2,0,P|481:152|479:216,1,107.999996704102,0|8,0:0|0:0,0:0:0:0:
399,295,95918,2,0,B|340:315|340:315|277:318,1,107.999996704102,0|8,0:0|0:0,0:0:0:0:
124,286,96118,6,0,L|105:173,1,107.999996704102,0|8,0:0|0:0,0:0:0:0:
266,49,96318,2,0,L|248:155,1,107.999996704102,0|8,0:0|0:0,0:0:0:0:
55,94,96518,2,0,L|168:75,1,107.999996704102,0|8,0:0|0:0,0:0:0:0:
309,277,96718,2,0,L|202:259,1,107.999996704102,0|8,0:0|0:0,0:0:0:0:
404,118,96918,6,0,B|400:171|400:171|417:242,1,107.999996704102,0|8,0:0|0:0,0:0:0:0:
489,72,97118,2,0,B|445:42|445:42|375:21,1,107.999996704102,0|8,0:0|0:0,0:0:0:0:
234,33,97318,2,0,B|181:48|181:48|137:78,1,107.999996704102,0|8,0:0|0:0,0:0:0:0:
212,228,97518,2,0,B|224:174|224:174|220:121,1,107.999996704102,0|8,0:0|0:0,0:0:0:0:
43,275,97718,6,0,L|183:310,1,107.999996704102,0|8,0:0|0:0,0:0:0:0:
364,301,97918,2,0,L|469:275,1,107.999996704102,0|8,0:0|0:0,0:0:0:0:
394,48,98118,2,0,P|341:75|348:128,1,107.999996704102,0|8,0:0|0:0,0:0:0:0:
170,117,98318,2,0,P|165:66|118:48,1,107.999996704102,0|8,0:0|0:0,0:0:0:0:
214,266,98518,6,0,B|235:217|235:217|240:149,1,107.999996704102,4|8,0:0|0:0,0:0:0:0:
124,281,98718,2,0,B|155:323|155:323|212:362,1,107.999996704102,0|8,0:0|0:0,0:0:0:0:
272,86,98918,2,0,B|219:92|219:92|157:121,1,107.999996704102,0|8,0:0|0:0,0:0:0:0:
355,179,99118,2,0,L|368:67,1,107.999996704102,0|8,0:0|0:0,0:0:0:0:
481,302,99318,6,0,B|429:320|429:320|367:326,1,107.999996704102,0|8,0:0|0:0,0:0:0:0:
256,220,99518,2,0,L|371:173,1,107.999996704102,0|8,0:0|0:0,0:0:0:0:
135,325,99718,2,0,B|82:319|82:319|30:301,1,107.999996704102,0|8,0:0|0:0,0:0:0:0:
156,179,99918,2,0,L|255:219,1,107.999996704102,0|8,0:0|0:0,0:0:0:0:
61,87,100118,6,0,B|43:147|43:147|40:207,1,107.999996704102,0|8,0:0|0:0,0:0:0:0:
156,70,100318,2,0,B|113:24|113:24|62:-8,1,107.999996704102,0|8,0:0|0:0,0:0:0:0:
124,159,100518,2,0,B|184:144|184:144|238:117,1,107.999996704102,0|8,0:0|0:0,0:0:0:0:
329,32,100718,2,0,P|355:75|367:154,1,107.999996704102,0|8,0:0|0:0,0:0:0:0:
367,305,100918,1,0,0:0:0:0:
264,163,101018,1,8,0:0:0:0:
430,217,101118,1,0,0:0:0:0:
264,271,101218,1,8,0:0:0:0:
367,130,101318,5,8,0:0:0:0:
367,124,101368,1,8,0:0:0:0:
366,117,101418,1,8,0:0:0:0:
365,110,101468,1,8,0:0:0:0:
364,104,101518,1,8,0:0:0:0:
362,97,101568,1,8,0:0:0:0:
361,91,101618,1,8,0:0:0:0:
358,84,101668,1,8,0:0:0:0:
356,78,101718,6,0,B|301:70|301:70|233:78,1,107.999996704102,4|8,0:0|0:0,0:0:0:0:
156,269,101918,2,0,B|211:277|211:277|279:269,1,107.999996704102,0|8,0:0|0:0,0:0:0:0:
121,184,102118,2,0,B|86:227|86:227|59:290,1,107.999996704102,0|8,0:0|0:0,0:0:0:0:
375,160,102318,2,0,B|409:116|409:116|436:53,1,107.999996704102,0|8,0:0|0:0,0:0:0:0:
193,58,102518,6,0,L|69:68,1,107.999996704102,0|8,0:0|0:0,0:0:0:0:
246,120,102718,2,0,P|267:70|263:17,1,107.999996704102,0|8,0:0|0:0,0:0:0:0:
175,246,102918,2,0,L|282:237,1,107.999996704102,0|8,0:0|0:0,0:0:0:0:
120,183,103118,2,0,P|99:232|104:286,1,107.999996704102,0|8,0:0|0:0,0:0:0:0:
200,364,103318,6,0,L|356:348,1,107.999996704102,0|8,0:0|0:0,0:0:0:0:
450,297,103518,2,0,B|459:244|459:244|462:181,1,107.999996704102,0|8,0:0|0:0,0:0:0:0:
281,227,103718,2,0,L|395:236,1,107.999996704102,0|8,0:0|0:0,0:0:0:0:
190,167,103918,6,0,B|192:221|192:221|201:274,1,107.999996704102,0|8,0:0|0:0,0:0:0:0:
366,95,104118,2,0,B|305:77|305:77|233:68,1,107.999996704102,0|8,0:0|0:0,0:0:0:0:
260,312,104318,2,0,B|305:307|305:307|366:289,1,107.999996704102,0|8,0:0|0:0,0:0:0:0:
170,251,104518,2,0,P|158:306|179:371,1,107.999996704102,0|8,0:0|0:0,0:0:0:0:
447,147,104718,2,0,P|459:92|438:27,1,107.999996704102,0|8,0:0|0:0,0:0:0:0:
92,16,104918,6,0,L|95:140,1,107.999996704102,4|8,0:0|0:0,0:0:0:0:
254,198,105118,2,0,L|256:90,1,107.999996704102,0|8,0:0|0:0,0:0:0:0:
13,153,105318,2,0,L|16:277,1,107.999996704102,0|8,0:0|0:0,0:0:0:0:
175,335,105518,2,0,L|177:227,1,107.999996704102,0|8,0:0|0:0,0:0:0:0:
416,16,105718,6,0,L|413:140,1,107.999996704102,0|8,0:0|0:0,0:0:0:0:
254,198,105918,2,0,L|251:90,1,107.999996704102,0|8,0:0|0:0,0:0:0:0:
495,153,106118,2,0,L|492:277,1,107.999996704102,0|8,0:0|0:0,0:0:0:0:
333,335,106318,2,0,L|330:227,1,107.999996704102,0|8,0:0|0:0,0:0:0:0:
326,44,106518,5,0,0:0:0:0:
312,41,106568,1,0,0:0:0:0:
299,39,106618,1,0,0:0:0:0:
286,36,106668,1,0,0:0:0:0:
272,34,106718,2,0,B|215:60|215:60|167:96,1,107.999996704102,8|0,0:0|0:0,0:0:0:0:
81,214,106918,1,0,0:0:0:0:
95,217,106968,1,0,0:0:0:0:
108,219,107018,1,0,0:0:0:0:
121,222,107068,1,0,0:0:0:0:
135,224,107118,2,0,L|205:238,3,53.9999983520508
277,250,107318,5,0,0:0:0:0:
277,250,107368,1,0,0:0:0:0:
277,250,107418,2,0,L|341:243,1,53.9999983520508
316,166,107518,1,0,0:0:0:0:
316,166,107568,1,0,0:0:0:0:
316,166,107618,2,0,L|380:159,1,53.9999983520508
348,80,107718,1,12,0:0:0:0:
90,7,108118,5,4,0:0:0:0:
361,53,120918,6,0,B|327:220|421:135|359:351,1,288,4|0,0:0|0:0,0:0:0:0:
108,80,122118,5,0,0:0:0:0:
54,281,122318,5,0,0:0:0:0:
54,281,122384,1,0,0:0:0:0:
54,281,122451,1,0,0:0:0:0:
54,281,122518,2,0,L|156:300,1,90,4|0,0:0|0:0,0:0:0:0:
458,103,122718,2,0,L|356:84,1,90,4|0,0:0|0:0,0:0:0:0:
369,297,122918,2,0,L|458:281,1,90,4|0,0:0|0:0,0:0:0:0:
142,86,123118,2,0,L|54:103,1,90,4|0,0:0|0:0,0:0:0:0:
321,188,123318,6,0,B|325:138|325:138|316:78,1,90,4|0,0:0|0:0,0:0:0:0:
191,196,123518,2,0,B|187:246|187:246|196:306,1,90,4|0,0:0|0:0,0:0:0:0:
348,376,123718,1,8,0:0:0:0:
400,251,123818,1,8,0:0:0:0:
263,333,123918,1,8,0:0:0:0:
440,330,124018,1,8,0:0:0:0:
301,252,124118,6,0,L|248:215,2,60,4|0|0,0:0|0:0|0:0,0:0:0:0:
177,177,124318,1,2,0:0:0:0:
177,177,124384,1,0,0:0:0:0:
177,177,124451,2,0,P|177:138|179:100,1,60,0|2,0:0|0:0,0:0:0:0:
225,21,124584,5,0,0:0:0:0:
236,23,124650,1,0,0:0:0:0:
248,25,124717,1,2,0:0:0:0:
260,27,124784,1,0,0:0:0:0:
272,29,124850,1,0,0:0:0:0:
284,31,124918,5,2,0:0:0:0:
273,59,124984,1,0,0:0:0:0:
270,88,125051,1,0,0:0:0:0:
275,118,125118,1,2,0:0:0:0:
287,145,125184,1,0,0:0:0:0:
305,169,125251,1,0,0:0:0:0:
332,181,125318,5,2,0:0:0:0:
376,220,125384,1,0,0:0:0:0:
389,277,125451,1,0,0:0:0:0:
367,332,125518,1,2,0:0:0:0:
317,363,125584,1,0,0:0:0:0:
258,360,125651,1,0,0:0:0:0:
211,323,125718,5,4,0:0:0:0:
215,309,125784,1,0,0:0:0:0:
215,294,125851,1,0,0:0:0:0:
211,279,125918,1,2,0:0:0:0:
205,266,125984,1,0,0:0:0:0:
208,251,126051,1,0,0:0:0:0:
208,236,126118,1,2,0:0:0:0:
204,221,126185,1,0,0:0:0:0:
198,208,126251,1,0,0:0:0:0:
203,190,126318,6,0,B|209:144|209:144|199:80,1,90,2|0,0:0|0:0,0:0:0:0:
88,41,126518,1,2,0:0:0:0:
88,41,126618,2,0,B|42:69|33:107|33:107|74:151|40:204|40:204|61:275|46:313|46:313|116:338,1,360
210,335,127118,2,0,L|303:300,1,90
397,266,127318,5,2,0:0:0:0:
401,264,127384,1,0,0:0:0:0:
406,262,127451,1,0,0:0:0:0:
417,259,127518,1,2,0:0:0:0:
425,250,127584,1,0,0:0:0:0:
430,239,127651,1,0,0:0:0:0:
434,221,127718,1,2,0:0:0:0:
432,203,127784,1,0,0:0:0:0:
424,186,127851,1,0,0:0:0:0:
418,162,127918,1,2,0:0:0:0:
417,138,127984,1,0,0:0:0:0:
421,114,128051,1,0,0:0:0:0:
433,86,128118,1,2,0:0:0:0:
441,57,128184,1,0,0:0:0:0:
432,30,128251,1,0,0:0:0:0:
408,13,128318,1,2,0:0:0:0:
348,19,128384,1,0,0:0:0:0:
288,25,128451,1,0,0:0:0:0:
229,35,128518,6,0,B|216:56|216:56|232:76|232:76|216:96|216:96|232:120|232:120|220:144|220:144|236:164|236:164|236:292,1,270,2|0,0:0|0:0,0:0:0:0:
301,338,128918,1,6,0:0:0:0:
355,353,128984,1,0,0:0:0:0:
407,337,129051,1,0,0:0:0:0:
437,296,129118,1,2,0:0:0:0:
440,248,129184,1,0,0:0:0:0:
420,207,129251,1,0,0:0:0:0:
386,180,129318,1,2,0:0:0:0:
366,146,129384,1,0,0:0:0:0:
366,109,129451,1,0,0:0:0:0:
386,83,129518,1,2,0:0:0:0:
415,80,129584,1,0,0:0:0:0:
439,91,129651,1,0,0:0:0:0:
451,111,129718,1,2,0:0:0:0:
451,131,129784,1,0,0:0:0:0:
447,148,129851,1,0,0:0:0:0:
435,166,129918,6,2,L|350:184,2,60
285,198,130118,1,8,0:0:0:0:
285,198,130184,1,8,0:0:0:0:
285,198,130251,1,8,0:0:0:0:
181,217,130318,2,2,L|96:235,3,60
31,252,130618,5,8,0:0:0:0:
0,170,130718,1,2,0:0:0:0:
34,89,130818,1,8,0:0:0:0:
114,53,130918,1,2,0:0:0:0:
151,77,131018,1,8,0:0:0:0:
187,103,131118,1,2,0:0:0:0:
223,128,131218,1,8,0:0:0:0:
260,152,131318,6,0,L|326:194,2,60,2|0|0,0:0|0:0|0:0,0:0:0:0:
259,266,131518,2,0,L|325:308,2,60,2|0|0,0:0|0:0|0:0,0:0:0:0:
380,345,131718,1,2,0:0:0:0:
409,347,131784,1,0,0:0:0:0:
437,335,131851,1,0,0:0:0:0:
456,313,131918,1,2,0:0:0:0:
478,259,131984,1,0,0:0:0:0:
456,204,132051,1,0,0:0:0:0:
403,180,132118,6,0,B|368:149|368:149|344:77,1,90,2|8,0:0|0:0,0:0:0:0:
244,45,132318,2,0,B|213:80|213:80|141:104,1,90,2|8,0:0|0:0,0:0:0:0:
109,204,132518,2,0,B|144:235|144:235|168:307,1,90,2|8,0:0|0:0,0:0:0:0:
268,339,132718,2,0,B|299:304|299:304|371:280,1,90,2|8,0:0|0:0,0:0:0:0:
351,79,132918,6,0,B|304:82|304:82|236:48,1,90,2|8,0:0|0:0,0:0:0:0:
143,96,133118,2,0,B|146:143|146:143|112:211,1,90,2|8,0:0|0:0,0:0:0:0:
160,304,133318,2,0,B|207:301|207:301|275:335,1,90,2|8,0:0|0:0,0:0:0:0:
368,287,133518,2,0,B|365:240|365:240|399:172,1,90,2|8,0:0|0:0,0:0:0:0:
483,148,133718,6,0,P|488:98|366:58,1,180,2|2,0:0|0:0,0:0:0:0:
297,140,134018,1,8,0:0:0:0:
297,140,134118,2,0,B|244:153|244:153|181:160,1,90,2|8,0:0|0:0,0:0:0:0:
151,267,134318,2,0,B|115:263|115:263|62:250,1,90,2|8,0:0|0:0,0:0:0:0:
35,135,134518,5,2,0:0:0:0:
42,105,134584,1,0,0:0:0:0:
56,79,134651,1,0,0:0:0:0:
76,57,134717,1,2,0:0:0:0:
101,41,134784,1,0,0:0:0:0:
129,31,134851,1,0,0:0:0:0:
159,29,134918,1,2,0:0:0:0:
187,39,134984,1,0,0:0:0:0:
217,45,135051,1,0,0:0:0:0:
247,47,135117,1,2,0:0:0:0:
277,46,135184,1,0,0:0:0:0:
306,41,135251,1,0,0:0:0:0:
335,33,135318,6,0,P|359:77|339:138,1,90,4|0,0:0|0:0,0:0:0:0:
296,231,135518,2,0,L|230:233,3,45
145,236,135718,1,0,0:0:0:0:
140,225,135768,1,0,0:0:0:0:
136,215,135818,1,0,0:0:0:0:
132,204,135868,1,0,0:0:0:0:
129,193,135918,2,0,L|109:147,3,45
225,39,136118,5,8,0:0:0:0:
252,176,136218,1,8,0:0:0:0:
141,75,136318,1,8,0:0:0:0:
294,101,136418,1,8,0:0:0:0:
145,161,136518,1,8,0:0:0:0:
267,64,136618,1,8,0:0:0:0:
200,186,136718,1,8,0:0:0:0:
180,38,136818,1,8,0:0:0:0:
280,156,136918,6,4,P|304:227|163:267,1,215.999993408203,12|8,0:0|0:0,0:0:0:0:
361,119,137218,1,0,0:0:0:0:
361,119,137318,2,0,P|390:197|303:344,1,215.999993408203,8|8,0:0|0:0,0:0:0:0:
204,376,137618,1,0,0:0:0:0:
204,376,137718,2,0,B|152:357|152:357|114:320,1,107.999996704102,8|0,0:0|0:0,0:0:0:0:
193,185,137918,2,0,B|202:239|202:239|189:290,1,107.999996704102,8|0,0:0|0:0,0:0:0:0:
35,283,138118,2,0,B|77:247|77:247|128:233,1,107.999996704102,8|0,0:0|0:0,0:0:0:0:
305,343,138318,2,0,P|248:370|177:373,1,107.999996704102,8|0,0:0|0:0,0:0:0:0:
308,155,138518,5,8,0:0:0:0:
308,155,138618,1,0,0:0:0:0:
308,155,138718,2,0,L|427:159,1,107.999996704102,8|0,0:0|0:0,0:0:0:0:
204,155,138918,1,8,0:0:0:0:
204,155,139018,1,0,0:0:0:0:
204,155,139118,2,0,L|85:159,1,107.999996704102,8|0,0:0|0:0,0:0:0:0:
309,54,139318,1,8,0:0:0:0:
309,54,139418,1,0,0:0:0:0:
309,54,139518,2,0,L|428:58,1,107.999996704102,8|0,0:0|0:0,0:0:0:0:
205,54,139718,1,8,0:0:0:0:
205,54,139818,1,0,0:0:0:0:
205,54,139918,2,0,L|86:58,1,107.999996704102,8|0,0:0|0:0,0:0:0:0:
15,212,140118,6,8,P|20:269|93:203,1,215.999993408203,12|8,0:0|0:0,0:0:0:0:
11,353,140418,1,0,0:0:0:0:
11,353,140518,2,8,B|139:406|96:280|239:355,1,215.999993408203,8|8,0:0|0:0,0:0:0:0:
357,242,140818,1,0,0:0:0:0:
357,242,140918,2,0,B|371:303|371:303|368:358,1,107.999996704102,8|0,0:0|0:0,0:0:0:0:
270,214,141118,2,0,B|315:171|315:171|364:146,1,107.999996704102,8|0,0:0|0:0,0:0:0:0:
295,301,141318,2,0,B|235:282|235:282|189:252,1,107.999996704102,8|0,0:0|0:0,0:0:0:0:
112,166,141518,2,0,L|116:52,1,107.999996704102,8|0,0:0|0:0,0:0:0:0:
348,20,141718,5,8,0:0:0:0:
348,20,141818,1,0,0:0:0:0:
348,20,141918,2,0,L|360:146,1,107.999996704102,8|0,0:0|0:0,0:0:0:0:
164,364,142118,1,8,0:0:0:0:
164,364,142218,1,0,0:0:0:0:
164,364,142318,2,8,L|152:238,1,107.999996704102,8|0,0:0|0:0,0:0:0:0:
144,94,142518,5,8,0:0:0:0:
161,69,142584,1,0,0:0:0:0:
185,52,142651,1,0,0:0:0:0:
214,45,142717,1,0,0:0:0:0:
244,49,142784,1,0,0:0:0:0:
270,63,142851,1,0,0:0:0:0:
290,86,142917,1,0,0:0:0:0:
300,111,142984,1,0,0:0:0:0:
299,144,143051,1,0,0:0:0:0:
288,172,143118,1,0,0:0:0:0:
271,195,143184,1,0,0:0:0:0:
265,223,143251,1,0,0:0:0:0:
271,251,143318,6,0,P|293:290|352:322,1,90,4|0,0:0|0:0,0:0:0:0:
349,242,143518,2,0,P|390:257|456:244,1,90
401,186,143718,2,0,P|443:171|484:118,1,90,8|0,0:0|0:0,0:0:0:0:
405,107,143918,2,0,P|427:68|425:1,1,90
362,44,144118,5,4,0:0:0:0:
292,61,144218,1,0,0:0:0:0:
222,79,144318,1,0,0:0:0:0:
152,98,144418,1,0,0:0:0:0:
208,142,144518,1,8,0:0:0:0:
138,160,144618,1,0,0:0:0:0:
69,178,144718,1,0,0:0:0:0:
0,196,144818,1,0,0:0:0:0:
58,238,144918,6,0,L|161:282,1,90,4|0,0:0|0:0,0:0:0:0:
170,227,145118,2,0,L|273:271,1,90
292,222,145318,2,0,L|395:266,1,90,8|0,0:0|0:0,0:0:0:0:
404,211,145518,2,0,L|507:255,1,90
474,175,145718,5,4,0:0:0:0:
478,105,145818,1,0,0:0:0:0:
425,60,145918,1,0,0:0:0:0:
357,75,146018,1,0,0:0:0:0:
334,143,146118,1,8,0:0:0:0:
310,75,146218,1,0,0:0:0:0:
242,60,146318,1,0,0:0:0:0:
189,105,146418,1,0,0:0:0:0:
194,175,146518,6,0,P|220:223|278:268,1,90,4|0,0:0|0:0,0:0:0:0:
276,324,146718,2,0,P|235:345|203:375,1,90
128,329,146918,2,0,P|108:289|78:257,1,90,8|0,0:0|0:0,0:0:0:0:
53,177,147118,2,0,P|101:151|146:93,1,90
144,55,147318,5,4,0:0:0:0:
210,32,147418,1,0,0:0:0:0:
270,66,147518,1,0,0:0:0:0:
285,134,147618,1,0,0:0:0:0:
254,199,147718,1,8,0:0:0:0:
256,269,147818,1,0,0:0:0:0:
306,318,147918,1,0,0:0:0:0:
376,320,148018,1,0,0:0:0:0:
428,272,148118,6,0,B|444:230|444:230|440:177,1,90,4|0,0:0|0:0,0:0:0:0:
380,81,148318,2,0,L|322:60,2,60
256,119,148518,2,0,L|198:98,2,60
118,152,148718,2,0,L|60:131,2,60
228,189,148918,5,8,0:0:0:0:
126,353,149051,1,8,0:0:0:0:
141,51,149184,1,8,0:0:0:0:
334,260,149318,5,8,0:0:0:0:
34,269,149451,1,8,0:0:0:0:
248,23,149584,1,8,0:0:0:0:
248,361,149718,5,4,0:0:0:0:
248,361,150318,6,0,P|318:353|339:275,1,144,0|8,0:0|0:0,0:0:0:0:
343,291,151118,1,8,0:0:0:0:
321,262,151318,1,0,0:0:0:0:
311,228,151518,1,8,0:0:0:0:
316,192,151718,1,0,0:0:0:0:
316,192,152118,5,12,0:0:0:0:
316,192,152718,6,0,L|234:172,1,72
190,161,152918,1,4,0:0:0:0:
134,172,153018,1,0,0:0:0:0:
93,211,153118,1,0,0:0:0:0:
80,266,153218,1,0,0:0:0:0:
98,320,153318,1,8,0:0:0:0:
143,355,153418,1,0,0:0:0:0:
199,361,153518,1,0,0:0:0:0:
250,335,153618,1,0,0:0:0:0:
259,278,153718,6,0,P|247:235|259:195,1,72,12|0,0:0|0:0,0:0:0:0:
377,193,153918,1,0,0:0:0:0:
377,193,154018,1,0,0:0:0:0:
377,193,154118,2,0,P|345:224|305:234,1,72,8|0,0:0|0:0,0:0:0:0:
249,134,154318,1,0,0:0:0:0:
249,134,154418,1,0,0:0:0:0:
249,134,154518,2,0,P|267:135|303:162,2,48,8|0|0,0:0|0:0|0:0,0:0:0:0:
327,84,154718,2,0,P|345:85|381:112,2,48,8|0|0,0:0|0:0|0:0,0:0:0:0:
353,206,154918,2,0,P|371:207|407:234,2,48,8|0|0,0:0|0:0|0:0,0:0:0:0:
431,156,155118,2,0,P|449:157|485:184,2,48,8|0|0,0:0|0:0|0:0,0:0:0:0:
467,301,155318,5,8,0:0:0:0:
467,301,155368,1,0,0:0:0:0:
467,301,155418,2,0,L|469:357,1,36,8|0,0:0|0:0,0:0:0:0:
368,306,155518,1,8,0:0:0:0:
368,306,155568,1,0,0:0:0:0:
368,306,155618,2,0,L|370:362,1,36,8|0,0:0|0:0,0:0:0:0:
263,311,155718,1,8,0:0:0:0:
263,311,155768,1,0,0:0:0:0:
263,311,155818,2,0,L|265:367,1,36,8|0,0:0|0:0,0:0:0:0:
164,316,155918,1,8,0:0:0:0:
164,316,155968,1,0,0:0:0:0:
164,316,156018,2,0,L|166:372,1,36,8|0,0:0|0:0,0:0:0:0:
63,275,156118,5,4,0:0:0:0:
63,275,156218,1,8,0:0:0:0:
63,275,156318,2,0,B|47:226|47:226|52:151,1,90,0|8,0:0|0:0,0:0:0:0:
117,77,156518,2,0,B|167:87|167:87|229:129,1,90,0|8,0:0|0:0,0:0:0:0:
287,237,156718,1,0,0:0:0:0:
287,237,156818,1,8,0:0:0:0:
150,247,156918,2,0,L|136:148,1,90,0|8,0:0|0:0,0:0:0:0:
253,69,157118,2,0,L|240:158,1,90,0|8,0:0|0:0,0:0:0:0:
203,307,157318,5,0,0:0:0:0:
203,307,157418,1,8,0:0:0:0:
329,338,157518,2,0,B|383:331|383:331|439:302,1,90,0|8,0:0|0:0,0:0:0:0:
491,199,157718,2,0,B|437:206|437:206|405:222,1,90,0|8,0:0|0:0,0:0:0:0:
501,317,157918,1,0,0:0:0:0:
501,317,158018,1,8,0:0:0:0:
434,120,158118,2,0,L|338:83,1,90,0|8,0:0|0:0,0:0:0:0:
255,148,158318,2,0,L|159:111,1,90,0|8,0:0|0:0,0:0:0:0:
59,255,158518,6,0,B|77:300|77:300|114:337,1,90,0|8,0:0|0:0,0:0:0:0:
192,0,158718,2,0,B|147:18|147:18|110:55,1,90,0|8,0:0|0:0,0:0:0:0:
453,129,158918,2,0,B|435:84|435:84|398:47,1,90,0|8,0:0|0:0,0:0:0:0:
320,384,159118,2,0,B|365:366|365:366|402:329,1,90,0|8,0:0|0:0,0:0:0:0:
368,193,159318,5,0,0:0:0:0:
368,193,159418,1,8,0:0:0:0:
180,147,159518,2,0,L|197:264,1,90,0|8,0:0|0:0,0:0:0:0:
323,345,159718,2,0,L|306:228,1,90,0|8,0:0|0:0,0:0:0:0:
286,98,159918,1,0,0:0:0:0:
286,98,160018,1,8,0:0:0:0:
149,129,160118,2,0,B|108:157|108:157|61:213,1,90,0|8,0:0|0:0,0:0:0:0:
298,185,160318,2,0,B|339:157|339:157|386:101,1,90,0|8,0:0|0:0,0:0:0:0:
249,16,160518,5,0,0:0:0:0:
249,16,160618,1,8,0:0:0:0:
217,151,160718,2,0,B|220:200|220:200|245:269,1,90,0|8,0:0|0:0,0:0:0:0:
312,329,160918,6,0,P|359:333|438:329,1,90,0|8,0:0|0:0,0:0:0:0:
393,136,161118,2,0,P|409:89|393:10,1,90,0|8,0:0|0:0,0:0:0:0:
200,61,161318,2,0,P|154:51|74:61,1,90,0|8,0:0|0:0,0:0:0:0:
119,248,161518,2,0,P|105:292|119:374,1,90,0|8,0:0|0:0,0:0:0:0:
392,249,161718,2,0,L|481:160,1,90,0|8,0:0|0:0,0:0:0:0:
313,55,161918,2,0,L|224:-33,1,90,0|8,0:0|0:0,0:0:0:0:
119,134,162118,2,0,L|30:223,1,90,0|8,0:0|0:0,0:0:0:0:
198,328,162318,2,0,L|287:417,1,90,0|8,0:0|0:0,0:0:0:0:
336,237,162518,5,0,0:0:0:0:
336,237,162618,1,8,0:0:0:0:
154,146,162718,2,0,B|145:198|145:198|157:263,1,90,0|8,0:0|0:0,0:0:0:0:
346,126,162918,2,0,B|306:92|306:92|244:70,1,90,0|8,0:0|0:0,0:0:0:0:
232,244,163118,1,0,0:0:0:0:
232,244,163218,1,8,0:0:0:0:
372,323,163318,2,0,P|421:312|475:258,1,90,0|8,0:0|0:0,0:0:0:0:
427,92,163518,2,0,P|378:103|324:157,1,90,0|8,0:0|0:0,0:0:0:0:
437,218,163718,5,0,0:0:0:0:
437,218,163818,1,8,0:0:0:0:
338,37,163918,2,0,L|221:32,1,90,0|8,0:0|0:0,0:0:0:0:
78,143,164118,2,0,L|167:139,1,90,0|8,0:0|0:0,0:0:0:0:
352,132,164318,1,0,0:0:0:0:
352,132,164418,1,8,0:0:0:0:
226,270,164518,2,0,B|214:218|214:218|218:156,1,90,0|8,0:0|0:0,0:0:0:0:
351,295,164718,2,0,B|363:347|363:347|359:409,1,90,0|8,0:0|0:0,0:0:0:0:
290,224,164918,6,0,L|362:218,2,60,8|8|0,0:0|0:0|0:0,0:0:0:0:
352,132,165118,2,0,L|424:126,2,60
241,99,165318,2,0,L|181:103,2,60
303,7,165518,2,0,L|243:11,2,60
435,45,165718,6,0,L|452:153,5,90,4|0|0|0|0|0,0:0|0:0|0:0|0:0|0:0|0:0,0:0:0:0:
281,384,166318,2,0,L|178:344,5,90,4|0|0|0|0|0,0:0|0:0|0:0|0:0|0:0|0:0,0:0:0:0:
77,117,166918,2,0,L|162:48,3,90,4|0|0|0,0:0|0:0|0:0|0:0,0:0:0:0:
278,22,167318,6,0,B|281:77|281:77|272:151,1,90,4|0,0:0|0:0,0:0:0:0:
426,214,167518,2,0,B|371:217|371:217|297:208,1,90,4|0,0:0|0:0,0:0:0:0:
234,362,167718,2,0,B|231:307|231:307|240:233,1,90,4|0,0:0|0:0,0:0:0:0:
86,170,167918,2,0,B|141:167|141:167|215:176,1,90,4|0,0:0|0:0,0:0:0:0:
391,87,168118,6,0,B|354:128|354:128|296:174,1,90,12|0,0:0|0:0,0:0:0:0:
360,327,168318,2,0,B|319:290|319:290|273:232,1,90,4|0,0:0|0:0,0:0:0:0:
120,296,168518,2,0,B|157:255|157:255|215:209,1,90,4|0,0:0|0:0,0:0:0:0:
151,56,168718,2,0,B|192:93|192:93|238:151,1,90,4|0,0:0|0:0,0:0:0:0:
230,222,168918,5,8,0:0:0:0:
222,243,168968,1,8,0:0:0:0:
225,265,169018,1,8,0:0:0:0:
236,284,169068,1,8,0:0:0:0:
253,298,169118,1,2,0:0:0:0:
275,302,169168,1,2,0:0:0:0:
297,298,169218,1,2,0:0:0:0:
315,285,169268,1,2,0:0:0:0:
326,265,169318,1,8,0:0:0:0:
337,245,169368,1,0,0:0:0:0:
355,232,169418,1,0,0:0:0:0:
377,228,169468,1,0,0:0:0:0:
399,232,169518,1,0,0:0:0:0:
416,246,169568,1,0,0:0:0:0:
427,265,169618,1,0,0:0:0:0:
430,287,169668,1,0,0:0:0:0:
421,310,169718,6,0,B|382:346|382:346|301:368,1,107.999996704102,4|8,0:0|0:0,0:0:0:0:
160,256,169918,2,0,B|199:220|199:220|280:198,1,107.999996704102,0|8,0:0|0:0,0:0:0:0:
158,342,170118,2,0,B|107:326|107:326|47:267,1,107.999996704102,0|8,0:0|0:0,0:0:0:0:
6,120,170318,2,0,P|55:99|138:84,1,107.999996704102,0|8,0:0|0:0,0:0:0:0:
275,187,170518,6,0,B|290:138|290:138|286:68,1,107.999996704102,0|8,0:0|0:0,0:0:0:0:
189,219,170718,2,0,B|223:256|223:256|286:288,1,107.999996704102,0|8,0:0|0:0,0:0:0:0:
211,125,170918,2,0,B|161:136|161:136|102:174,1,107.999996704102,0|8,0:0|0:0,0:0:0:0:
158,342,171118,2,0,L|290:362,1,107.999996704102,0|8,0:0|0:0,0:0:0:0:
430,218,171318,6,0,B|442:275|442:275|437:355,1,107.999996704102,0|8,0:0|0:0,0:0:0:0:
285,256,171518,2,0,B|279:206|279:206|290:148,1,107.999996704102,0|8,0:0|0:0,0:0:0:0:
503,67,171718,2,0,B|516:120|516:120|510:204,1,107.999996704102,0|8,0:0|0:0,0:0:0:0:
359,107,171918,2,0,B|352:53|352:53|364:0,1,107.999996704102,0|8,0:0|0:0,0:0:0:0:
185,132,172118,6,0,B|245:148|245:148|314:151,1,107.999996704102,0|8,0:0|0:0,0:0:0:0:
162,36,172318,2,0,B|118:79|118:79|81:138,1,107.999996704102,0|8,0:0|0:0,0:0:0:0:
172,323,172518,2,0,P|193:272|199:196,1,107.999996704102,0|8,0:0|0:0,0:0:0:0:
0,135,172718,2,0,P|0:192|22:240,1,107.999996704102,0|8,0:0|0:0,0:0:0:0:
253,343,172918,6,0,L|378:322,1,107.999996704102,4|8,0:0|0:0,0:0:0:0:
480,195,173118,2,0,L|355:216,1,107.999996704102,0|8,0:0|0:0,0:0:0:0:
194,277,173318,2,0,B|174:333|174:333|166:387,1,107.999996704102,0|8,0:0|0:0,0:0:0:0:
58,266,173518,2,0,B|50:217|50:217|30:161,1,107.999996704102,0|8,0:0|0:0,0:0:0:0:
175,19,173718,6,0,L|306:29,1,107.999996704102,0|8,0:0|0:0,0:0:0:0:
313,127,173918,2,0,L|444:137,1,107.999996704102,0|8,0:0|0:0,0:0:0:0:
199,257,174118,2,0,L|91:248,1,107.999996704102,0|8,0:0|0:0,0:0:0:0:
337,365,174318,2,0,L|229:356,1,107.999996704102,0|8,0:0|0:0,0:0:0:0:
254,39,174518,6,0,B|294:78|294:78|315:134,1,107.999996704102,0|8,0:0|0:0,0:0:0:0:
258,345,174718,2,0,B|218:306|218:306|197:250,1,107.999996704102,0|8,0:0|0:0,0:0:0:0:
409,190,174918,2,0,B|370:230|370:230|314:251,1,107.999996704102,0|8,0:0|0:0,0:0:0:0:
103,194,175118,2,0,B|142:154|142:154|198:133,1,107.999996704102,0|8,0:0|0:0,0:0:0:0:
340,184,175318,1,0,0:0:0:0:
190,232,175418,1,8,0:0:0:0:
283,105,175518,1,0,0:0:0:0:
283,263,175618,1,8,0:0:0:0:
190,135,175718,5,8,0:0:0:0:
184,138,175768,1,8,0:0:0:0:
178,140,175818,1,8,0:0:0:0:
172,143,175868,1,8,0:0:0:0:
166,146,175918,1,8,0:0:0:0:
160,149,175968,1,8,0:0:0:0:
154,153,176018,1,8,0:0:0:0:
148,156,176068,1,8,0:0:0:0:
142,161,176118,6,0,B|98:202|98:202|74:249,1,107.999996704102,4|8,0:0|0:0,0:0:0:0:
306,85,176318,2,0,B|273:34|273:34|231:2,1,107.999996704102,0|8,0:0|0:0,0:0:0:0:
339,275,176518,2,0,B|397:262|397:262|442:233,1,107.999996704102,0|8,0:0|0:0,0:0:0:0:
158,259,176718,2,0,B|162:319|162:319|182:368,1,107.999996704102,0|8,0:0|0:0,0:0:0:0:
240,212,176918,6,0,B|186:184|186:184|134:178,1,107.999996704102,0|8,0:0|0:0,0:0:0:0:
40,27,177118,2,0,B|93:54|93:54|145:60,1,107.999996704102,0|8,0:0|0:0,0:0:0:0:
370,60,177318,2,0,B|418:54|418:54|472:27,1,107.999996704102,0|8,0:0|0:0,0:0:0:0:
373,178,177518,2,0,B|325:184|325:184|272:212,1,107.999996704102,0|8,0:0|0:0,0:0:0:0:
426,324,177718,6,0,L|432:201,1,107.999996704102,0|8,0:0|0:0,0:0:0:0:
309,35,177918,2,0,L|303:158,1,107.999996704102,0|8,0:0|0:0,0:0:0:0:
223,261,178118,2,0,L|346:267,1,107.999996704102,0|8,0:0|0:0,0:0:0:0:
512,121,178318,2,0,L|389:115,1,107.999996704102,0|8,0:0|0:0,0:0:0:0:
124,99,178518,6,0,B|112:159|112:159|117:227,1,107.999996704102,0|8,0:0|0:0,0:0:0:0:
214,367,178718,2,0,B|226:307|226:307|221:239,1,107.999996704102,0|8,0:0|0:0,0:0:0:0:
35,278,178918,2,0,B|95:290|95:290|163:285,1,107.999996704102,0|8,0:0|0:0,0:0:0:0:
303,188,179118,2,0,B|243:176|243:176|175:181,1,107.999996704102,0|8,0:0|0:0,0:0:0:0:
354,302,179318,6,0,L|386:179,1,107.999996704102,4|8,0:0|0:0,0:0:0:0:
277,304,179518,2,0,P|306:359|361:391,1,107.999996704102,0|8,0:0|0:0,0:0:0:0:
306,143,179718,2,0,L|188:108,1,107.999996704102,0|8,0:0|0:0,0:0:0:0:
328,218,179918,2,0,P|371:186|371:109,1,107.999996704102,0|8,0:0|0:0,0:0:0:0:
141,51,180118,6,0,B|125:105|125:105|133:168,1,107.999996704102,0|8,0:0|0:0,0:0:0:0:
135,309,180318,2,0,B|96:268|96:268|37:243,1,107.999996704102,0|8,0:0|0:0,0:0:0:0:
131,156,180518,2,0,B|185:142|185:142|236:104,1,107.999996704102,0|8,0:0|0:0,0:0:0:0:
230,264,180718,2,0,B|175:277|175:277|124:315,1,107.999996704102,0|8,0:0|0:0,0:0:0:0:
306,359,180918,5,0,0:0:0:0:
319,356,180968,1,0,0:0:0:0:
332,353,181018,1,0,0:0:0:0:
345,350,181068,1,0,0:0:0:0:
358,348,181118,2,0,L|377:295,3,53.9999983520508
388,260,181318,1,0,0:0:0:0:
385,246,181368,1,0,0:0:0:0:
382,233,181418,1,0,0:0:0:0:
379,220,181468,1,0,0:0:0:0:
375,209,181518,2,0,L|322:190,3,53.9999983520508
244,160,181718,5,0,0:0:0:0:
237,157,181768,1,0,0:0:0:0:
231,155,181818,1,0,0:0:0:0:
224,153,181868,1,0,0:0:0:0:
218,150,181918,1,0,0:0:0:0:
212,148,181968,1,0,0:0:0:0:
205,146,182018,1,0,0:0:0:0:
199,144,182068,1,0,0:0:0:0:
193,141,182118,2,8,P|152:189|311:237,1,323.999990112305,8|0,0:0|0:0,0:0:0:0:
366,72,182518,6,0,L|248:19,1,125.999996154785,12|0,0:0|0:0,0:0:0:0:
78,89,182718,2,0,L|195:141,1,125.999996154785,10|0,0:0|0:0,0:0:0:0:
410,384,182918,2,0,L|396:256,1,125.999996154785,10|0,0:0|0:0,0:0:0:0:
192,140,183118,2,0,L|205:267,1,125.999996154785,10|0,0:0|0:0,0:0:0:0:
463,48,183318,6,0,B|401:20|401:20|313:2,1,125.999996154785,14|0,0:0|0:0,0:0:0:0:
204,265,183518,2,0,B|266:293|266:293|354:311,1,125.999996154785,10|0,0:0|0:0,0:0:0:0:
167,8,183718,2,0,B|111:20|111:20|49:48,1,125.999996154785,10|0,0:0|0:0,0:0:0:0:
189,304,183919,2,0,B|246:293|246:293|308:265,1,125.999996154785,10|0,0:0|0:0,0:0:0:0:
441,128,184118,6,0,L|457:289,1,125.999996154785,14|0,0:0|0:0,0:0:0:0:
168,260,184318,2,0,L|180:134,1,125.999996154785,10|0,0:0|0:0,0:0:0:0:
357,240,184518,2,0,L|373:401,1,125.999996154785,10|0,0:0|0:0,0:0:0:0:
84,372,184718,2,0,L|96:246,1,125.999996154785,10|0,0:0|0:0,0:0:0:0:
399,333,184918,6,0,P|328:352|252:342,1,125.999996154785,14|0,0:0|0:0,0:0:0:0:
129,129,185118,2,0,P|200:110|276:120,1,125.999996154785,10|0,0:0|0:0,0:0:0:0:
183,382,185318,6,0,P|164:311|174:235,1,125.999996154785,14|0,0:0|0:0,0:0:0:0:
363,124,185518,2,0,P|382:195|372:271,1,125.999996154785,10|0,0:0|0:0,0:0:0:0:
139,44,185718,6,0,B|199:27|199:27|294:24,1,125.999996154785,14|0,0:0|0:0,0:0:0:0:
379,247,185918,2,0,B|319:264|319:264|255:266,1,125.999996154785,10|0,0:0|0:0,0:0:0:0:
462,25,186118,2,0,L|475:176,1,125.999996154785,10|0,0:0|0:0,0:0:0:0:
256,266,186318,2,0,L|266:140,1,125.999996154785,10|0,0:0|0:0,0:0:0:0:
476,266,186518,6,0,B|424:320|424:320|358:349,1,125.999996154785,14|0,0:0|0:0,0:0:0:0:
234,4,186718,2,0,B|306:22|306:22|364:64,1,125.999996154785,10|0,0:0|0:0,0:0:0:0:
14,161,186918,2,0,L|-2:23,1,125.999996154785,10|0,0:0|0:0,0:0:0:0:
205,364,187118,2,0,L|221:226,1,125.999996154785,10|0,0:0|0:0,0:0:0:0:
438,156,187318,6,0,P|447:215|436:302,1,125.999996154785,14|0,0:0|0:0,0:0:0:0:
146,206,187518,2,0,P|137:147|148:60,1,125.999996154785,10|0,0:0|0:0,0:0:0:0:
446,357,187718,2,0,B|387:368|387:368|312:362,1,125.999996154785,10|0,0:0|0:0,0:0:0:0:
240,11,187918,2,0,B|306:-1|306:-1|374:6,1,125.999996154785,10|0,0:0|0:0,0:0:0:0:
425,235,188118,5,14,0:0:0:0:
255,120,188218,1,0,0:0:0:0:
459,113,188318,1,10,0:0:0:0:
298,239,188418,1,0,0:0:0:0:
362,74,188518,1,12,0:0:0:0:
362,74,188568,1,8,0:0:0:0:
362,74,188618,1,8,0:0:0:0:
362,74,188668,1,8,0:0:0:0:
362,74,188718,1,8,0:0:0:0:
362,74,188768,1,8,0:0:0:0:
362,74,188818,1,8,0:0:0:0:
362,74,188868,1,8,0:0:0:0:
362,74,188918,6,0,L|385:164,2,83.9999974365235,4|0|0,0:0|0:0|0:0,0:0:0:0:
298,239,189118,2,0,L|275:329,2,83.9999974365235,0|0|0,0:0|0:0|0:0,0:0:0:0:
190,201,189318,2,0,L|102:175,1,83.9999974365235,8|0,0:0|0:0,0:0:0:0:
220,42,189451,1,0,0:0:0:0:
220,42,189518,2,0,L|241:131,1,83.9999974365235,0|0,0:0|0:0,0:0:0:0:
58,104,189651,1,0,0:0:0:0:
58,104,189718,6,0,L|124:40,2,83.9999974365235,4|0|0,0:0|0:0|0:0,0:0:0:0:
220,42,189918,2,0,L|311:36,2,83.9999974365235,0|0|0,0:0|0:0|0:0,0:0:0:0:
381,109,190118,2,0,L|399:204,1,83.9999974365235,8|0,0:0|0:0,0:0:0:0:
293,206,190251,1,0,0:0:0:0:
293,206,190318,2,0,L|275:301,1,83.9999974365235,0|0,0:0|0:0,0:0:0:0:
409,278,190451,1,0,0:0:0:0:
409,278,190518,6,0,L|427:373,2,83.9999974365235,4|0|0,0:0|0:0|0:0,0:0:0:0:
210,355,190718,2,0,L|192:260,2,83.9999974365235,0|0|0,0:0|0:0|0:0,0:0:0:0:
174,169,190918,2,0,B|183:123|183:123|219:77,1,83.9999974365235,8|0,0:0|0:0,0:0:0:0:
300,41,191051,1,0,0:0:0:0:
300,41,191118,2,0,L|401:50,1,83.9999974365235,0|0,0:0|0:0,0:0:0:0:
454,142,191251,1,0,0:0:0:0:
454,142,191318,6,0,L|467:239,2,83.9999974365235,4|0|0,0:0|0:0|0:0,0:0:0:0:
317,312,191518,2,0,L|328:228,2,83.9999974365235,0|0|0,0:0|0:0|0:0,0:0:0:0:
198,343,191718,2,0,L|110:311,1,83.9999974365235,12|0,0:0|0:0,0:0:0:0:
150,216,191851,1,0,0:0:0:0:
150,216,191918,2,0,L|62:184,1,83.9999974365235,0|0,0:0|0:0,0:0:0:0:
89,82,192051,1,0,0:0:0:0:
89,82,192118,6,0,L|1:50,2,83.9999974365235,4|0|0,0:0|0:0|0:0,0:0:0:0:
210,28,192318,2,0,L|122:-4,2,83.9999974365235,0|0|0,0:0|0:0|0:0,0:0:0:0:
319,71,192518,2,0,L|330:159,1,83.9999974365235,8|0,0:0|0:0,0:0:0:0:
399,223,192651,1,0,0:0:0:0:
399,223,192718,2,0,L|410:311,1,83.9999974365235,0|0,0:0|0:0,0:0:0:0:
310,340,192851,1,0,0:0:0:0:
310,340,192918,6,0,L|214:318,2,83.9999974365235,4|0|0,0:0|0:0|0:0,0:0:0:0:
208,226,193118,2,0,L|112:204,2,83.9999974365235,0|0|0,0:0|0:0|0:0,0:0:0:0:
298,95,193318,2,0,L|303:202,1,83.9999974365235,8|0,0:0|0:0,0:0:0:0:
173,117,193451,1,0,0:0:0:0:
173,117,193518,2,0,L|176:33,1,83.9999974365235,0|0,0:0|0:0,0:0:0:0:
288,9,193651,1,0,0:0:0:0:
288,9,193718,2,4,B|355:9|355:9|437:22,1,125.999996154785,4|4,0:0|0:0,0:0:0:0:
479,126,193918,6,0,L|483:206,3,62.9999980773926,0|0|0|0,0:0|0:0|0:0|0:0,0:0:0:0:
360,212,194118,2,0,L|356:292,3,62.9999980773926,0|0|0|0,0:0|0:0|0:0|0:0,0:0:0:0:
248,175,194318,2,0,L|244:112,3,62.9999980773926,0|0|0|0,0:0|0:0|0:0|0:0,0:0:0:0:
136,201,194518,2,0,L|132:281,3,62.9999980773926,0|0|0|0,0:0|0:0|0:0|0:0,0:0:0:0:
145,96,194718,5,8,0:0:0:0:
150,81,194768,1,8,0:0:0:0:
157,67,194818,1,0,0:0:0:0:
166,54,194868,1,0,0:0:0:0:
177,43,194918,1,0,0:0:0:0:
189,33,194968,1,0,0:0:0:0:
203,25,195018,1,0,0:0:0:0:
225,19,195068,1,0,0:0:0:0:
233,16,195118,1,8,0:0:0:0:
249,15,195168,1,8,0:0:0:0:
265,16,195218,1,0,0:0:0:0:
280,20,195268,1,0,0:0:0:0:
295,25,195318,6,0,L|333:168,2,107.999996704102,4|0|0,0:0|0:0|0:0,0:0:0:0:
217,359,195918,2,0,L|179:216,2,107.999996704102,4|0|0,0:0|0:0|0:0,0:0:0:0:
423,231,196518,2,0,L|280:269,2,107.999996704102,4|0|0,0:0|0:0|0:0,0:0:0:0:
89,153,197118,2,0,L|232:115,2,107.999996704102,4|0|0,0:0|0:0|0:0,0:0:0:0:
77,343,197518,1,0,0:0:0:0:
77,343,197584,1,0,0:0:0:0:
77,343,197651,1,0,0:0:0:0:
77,343,197718,6,0,L|213:346,1,107.999996704102,4|0,0:0|0:0,0:0:0:0:
435,41,197918,2,0,L|299:38,1,107.999996704102,4|0,0:0|0:0,0:0:0:0:
407,371,198118,2,0,L|409:263,1,107.999996704102,4|0,0:0|0:0,0:0:0:0:
105,13,198318,2,0,L|102:120,1,107.999996704102,4|0,0:0|0:0,0:0:0:0:
236,384,198518,2,0,L|334:289,1,107.999996704102,4|0,0:0|0:0,0:0:0:0:
276,0,198718,2,0,L|177:94,1,107.999996704102,4|0,0:0|0:0,0:0:0:0:
489,211,198918,2,0,L|414:133,1,107.999996704102,4|0,0:0|0:0,0:0:0:0:
22,172,199118,2,0,L|97:250,1,107.999996704102,4|0,0:0|0:0,0:0:0:0:
204,353,199318,6,0,L|300:364,1,71.9999978027344
239,277,199451,1,0,0:0:0:0:
239,277,199518,2,0,L|335:288,1,71.9999978027344
285,200,199651,1,0,0:0:0:0:
285,200,199718,2,0,L|381:211,1,71.9999978027344
342,122,199851,1,0,0:0:0:0:
342,122,199918,2,0,L|438:133,1,71.9999978027344
388,45,200051,1,0,0:0:0:0:
388,45,200118,2,0,L|484:56,2,71.9999978027344
270,83,200318,2,0,L|174:72,2,71.9999978027344
113,73,200518,5,8,0:0:0:0:
11,175,200618,1,8,0:0:0:0:
113,277,200718,1,8,0:0:0:0:
214,175,200818,1,8,0:0:0:0:
