osu file format v14

[General]
AudioFilename: audio.mp3
AudioLeadIn: 0
PreviewTime: 46639
Countdown: 1
SampleSet: None
StackLeniency: 0.7
Mode: 0
LetterboxInBreaks: 0
WidescreenStoryboard: 0

[Editor]
Bookmarks: 35698
DistanceSpacing: 0.5
BeatDivisor: 4
GridSize: 16
TimelineZoom: 1.4

[Metadata]
Title:karakurenawi
TitleUnicode:からくれなゐ
Artist:UNDEAD CORPORATION
ArtistUnicode:UNDEAD CORPORATION
Creator:maciek0421
Version:xxxxxx
Source:
Tags:
BeatmapID:1979700
BeatmapSetID:947914

[Difficulty]
HPDrainRate:6
CircleSize:5
OverallDifficulty:8
ApproachRate:9.2
SliderMultiplier:1.8
SliderTickRate:1

[Events]
//Background and Video events
//Break Periods
2,62722,74834
//Storyboard Layer 0 (Background)
//Storyboard Layer 1 (Fail)
//Storyboard Layer 2 (Pass)
//Storyboard Layer 3 (Foreground)
//Storyboard Sound Samples

[TimingPoints]
13287,352.941176470588,4,2,0,100,1,0
47345,-66.6666666666667,4,2,0,100,0,0

[HitObjects]
232,250,13287,5,0,0:3:0:0:
233,228,13375,1,0,0:3:0:0:
234,209,13463,2,0,P|303:192|267:253,1,180,0|0,0:3|0:3,0:3:0:0:
401,263,14169,2,0,P|365:324|434:307,1,180,0|0,0:3|0:3,0:3:0:0:
434,107,14875,1,0,0:0:0:0:
452,228,15051,1,0,0:0:0:0:
379,156,15228,1,0,0:0:0:0:
463,303,15404,1,0,0:0:0:0:
344,346,15581,2,0,P|308:284|377:301,1,180,0|0,0:3|0:3,0:3:0:0:
175,198,16287,6,0,P|210:259|141:242,1,180,0|0,0:3|0:3,0:3:0:0:
302,97,16992,2,0,P|266:158|335:141,1,180,0|0,0:3|0:3,0:3:0:0:
422,202,17698,1,0,0:0:0:0:
410,307,17874,1,0,0:0:0:0:
502,193,18051,1,0,0:0:0:0:
352,243,18227,1,0,0:0:0:0:
445,78,18404,1,0,0:0:0:0:
467,44,18757,1,0,0:0:0:0:
283,53,19110,6,0,P|247:114|316:97,1,180,0|0,0:3|0:3,0:3:0:0:
376,177,19816,2,0,P|411:238|342:221,1,180,0|0,0:3|0:3,0:3:0:0:
228,238,20522,1,0,0:0:0:0:
212,348,20699,1,0,0:0:0:0:
322,243,20875,1,0,0:0:0:0:
149,288,21052,1,0,0:0:0:0:
359,336,21228,1,0,0:0:0:0:
403,356,21581,1,0,0:0:0:0:
405,181,21934,6,0,P|440:242|371:225,1,180,0|0,0:3|0:3,0:3:0:0:
290,101,22639,2,0,P|254:162|316:151,1,135,0|0,0:3|0:3,0:3:0:0:
337,164,22992,1,0,0:0:0:0:
482,137,23169,1,0,0:0:0:0:
383,258,23345,2,0,P|232:170|441:168,1,540
337,164,24757,6,0,B|306:258,1,90
212,306,25110,2,0,L|243:215,1,90
259,108,25463,2,0,L|172:132,1,90
123,230,25816,2,0,L|209:205,1,90
338,189,26169,1,0,0:0:0:0:
485,284,26345,1,0,0:0:0:0:
270,270,26522,1,0,0:0:0:0:
480,142,26698,1,0,0:0:0:0:
353,328,26875,1,0,0:0:0:0:
339,369,27228,1,0,0:0:0:0:
477,206,27581,6,0,L|407:139,1,90
246,113,27934,2,0,L|324:196,1,90
330,315,28286,2,0,L|230:257,1,90
109,189,28639,2,0,L|142:298,1,90
198,373,28992,1,0,0:0:0:0:
364,279,29169,1,0,0:0:0:0:
198,253,29345,1,0,0:0:0:0:
333,118,29522,1,0,0:0:0:0:
125,110,29698,1,0,0:0:0:0:
84,86,30051,1,0,0:0:0:0:
103,315,30404,6,0,L|173:248,1,90
209,93,30757,2,0,L|143:155,1,90
313,261,31110,2,0,L|243:194,1,90
413,101,31463,2,0,L|343:168,1,90
244,257,31816,1,0,0:0:0:0:
141,186,31992,1,0,0:0:0:0:
156,328,32169,1,0,0:0:0:0:
30,177,32345,1,0,0:0:0:0:
210,197,32522,1,0,0:0:0:0:
255,199,32875,5,0,0:0:0:0:
355,189,33228,1,0,0:0:0:0:
359,233,33316,1,0,0:0:0:0:
341,273,33404,1,0,0:0:0:0:
305,300,33492,1,0,0:0:0:0:
262,292,33580,1,0,0:0:0:0:
237,256,33668,1,0,0:0:0:0:
238,211,33756,1,0,0:0:0:0:
250,168,33844,1,0,0:0:0:0:
269,127,33933,1,0,0:0:0:0:
255,85,34022,1,0,0:0:0:0:
220,57,34110,1,0,0:0:0:0:
176,53,34198,1,0,0:0:0:0:
136,72,34286,5,0,0:0:0:0:
113,110,34375,1,0,0:0:0:0:
114,154,34463,1,0,0:0:0:0:
139,191,34551,1,0,0:0:0:0:
173,217,34639,2,0,P|238:264|328:269,1,135
251,232,34992,2,0,P|326:243|374:208,1,135
337,191,35345,2,0,P|343:128|290:139,1,135
321,156,35698,2,0,L|198:275,1,135
194,278,36051,5,0,0:0:0:0:
99,118,36228,1,0,0:0:0:0:
133,88,36316,1,0,0:0:0:0:
167,59,36404,1,0,0:0:0:0:
341,82,36581,2,0,P|308:171|292:194,1,90
207,229,36934,1,0,0:0:0:0:
211,184,37022,1,0,0:0:0:0:
216,139,37110,1,0,0:0:0:0:
81,180,37286,6,0,P|155:258|174:260,1,90
346,304,37640,1,0,0:0:0:0:
305,283,37728,1,0,0:0:0:0:
265,262,37816,1,0,0:0:0:0:
158,213,37992,1,0,0:0:0:0:
74,113,38169,2,0,P|125:91|188:90,1,90
315,166,38522,2,0,P|264:188|201:189,1,90
80,338,38875,5,0,0:0:0:0:
240,303,39051,1,0,0:0:0:0:
200,280,39139,1,0,0:0:0:0:
161,258,39227,1,0,0:0:0:0:
32,166,39404,1,0,0:0:0:0:
160,67,39581,1,0,0:0:0:0:
176,109,39669,1,0,0:0:0:0:
194,150,39757,1,0,0:0:0:0:
212,192,39845,1,0,0:0:0:0:
231,237,39934,5,0,0:0:0:0:
270,215,40022,1,0,0:0:0:0:
310,194,40110,1,0,0:0:0:0:
436,125,40286,1,0,0:0:0:0:
243,68,40463,1,0,0:0:0:0:
287,63,40551,1,0,0:0:0:0:
332,59,40639,1,0,0:0:0:0:
270,207,40816,5,0,0:0:0:0:
409,267,40993,1,0,0:0:0:0:
395,224,41081,1,0,0:0:0:0:
381,181,41169,1,0,0:0:0:0:
330,337,41345,1,0,0:0:0:0:
304,299,41433,1,0,0:0:0:0:
279,262,41521,1,0,0:0:0:0:
137,142,41698,5,0,0:0:0:0:
283,96,41875,1,0,0:0:0:0:
151,38,42051,1,0,0:0:0:0:
201,231,42228,1,0,0:0:0:0:
335,181,42404,1,0,0:0:0:0:
195,102,42581,1,0,0:0:0:0:
246,270,42757,1,0,0:0:0:0:
382,110,42934,1,0,0:0:0:0:
200,31,43110,6,0,L|270:116,1,90
410,279,43463,2,0,L|439:173,1,90
159,243,43816,2,0,L|181:358,1,90
375,127,44169,2,0,L|358:37,1,90
143,116,44522,5,0,0:0:0:0:
251,240,44698,1,0,0:0:0:0:
262,68,44875,1,0,0:0:0:0:
132,289,45051,1,0,0:0:0:0:
326,148,45228,1,0,0:0:0:0:
352,288,45404,1,0,0:0:0:0:
232,154,45581,1,0,0:0:0:0:
199,344,45757,1,0,0:0:0:0:
361,223,45934,1,0,0:0:0:0:
416,65,46110,1,0,0:0:0:0:
381,94,46198,1,0,0:0:0:0:
347,123,46286,1,0,0:0:0:0:
347,123,46463,5,0,0:0:0:0:
272,183,46639,5,0,0:0:0:0:
272,183,46816,1,0,0:0:0:0:
272,183,46992,1,0,0:0:0:0:
272,183,47169,1,0,0:0:0:0:
165,308,47345,5,0,0:0:0:0:
209,131,47522,1,0,0:0:0:0:
314,326,47698,1,0,0:0:0:0:
281,74,47875,1,0,0:0:0:0:
457,266,48051,1,0,0:0:0:0:
356,18,48228,1,0,0:0:0:0:
356,18,48316,1,0,0:0:0:0:
356,18,48404,1,0,0:0:0:0:
455,210,48581,5,0,0:0:0:0:
255,128,48757,2,0,L|377:57,1,135.000005149842
358,263,49110,2,0,L|236:334,1,135.000005149842
75,139,49463,2,0,L|191:206,1,135.000005149842
368,84,49816,5,0,0:0:0:0:
411,256,49992,1,0,0:0:0:0:
221,115,50169,1,0,0:0:0:0:
483,114,50345,1,0,0:0:0:0:
256,118,50522,1,0,0:0:0:0:
144,300,50698,1,0,0:0:0:0:
101,128,50875,1,0,0:0:0:0:
291,269,51052,1,0,0:0:0:0:
291,269,51139,1,0,0:0:0:0:
291,269,51228,1,0,0:0:0:0:
171,103,51405,1,0,0:0:0:0:
205,333,51581,5,0,0:0:0:0:
277,114,51757,1,0,0:0:0:0:
372,335,51934,1,0,0:0:0:0:
411,60,52110,1,0,0:0:0:0:
512,280,52286,1,0,0:0:0:0:
512,280,52375,1,0,0:0:0:0:
512,280,52463,1,0,0:0:0:0:
192,146,52639,6,0,L|326:189,1,135.000005149842
134,329,52992,2,0,L|0:286,1,135.000005149842
109,60,53345,1,0,0:0:0:0:
192,237,53522,1,0,0:0:0:0:
259,40,53698,1,0,0:0:0:0:
114,190,53875,1,0,0:0:0:0:
242,343,54051,1,0,0:0:0:0:
320,147,54228,1,0,0:0:0:0:
167,295,54404,6,0,L|334:376,1,135.000005149842
229,111,54757,2,0,L|62:30,1,135.000005149842
341,236,55110,2,0,L|449:105,1,135.000005149842
286,236,55463,1,0,0:0:0:0:
77,141,55639,5,0,0:0:0:0:
105,175,55728,1,0,0:0:0:0:
133,210,55816,2,0,L|257:357,1,135.000005149842
379,174,56169,2,0,L|255:27,1,135.000005149842
104,142,56522,1,0,0:0:0:0:
61,191,56610,1,0,0:0:0:0:
73,255,56698,1,0,0:0:0:0:
131,285,56786,1,0,0:0:0:0:
191,259,56874,1,0,0:0:0:0:
311,78,57051,1,0,0:0:0:0:
134,210,57228,5,0,0:0:0:0:
195,184,57317,1,0,0:0:0:0:
253,214,57405,1,0,0:0:0:0:
265,278,57493,1,0,0:0:0:0:
222,327,57581,1,0,0:0:0:0:
7,380,57757,1,0,0:0:0:0:
192,257,57934,5,0,0:0:0:0:
252,285,58022,1,0,0:0:0:0:
317,275,58110,1,0,0:0:0:0:
366,229,58198,1,0,0:0:0:0:
380,164,58286,1,0,0:0:0:0:
355,103,58375,1,0,0:0:0:0:
299,66,58463,1,0,0:0:0:0:
233,67,58551,1,0,0:0:0:0:
178,106,58639,5,0,0:0:0:0:
225,266,58816,1,0,0:0:0:0:
63,55,58992,1,0,0:0:0:0:
82,322,59169,1,0,0:0:0:0:
162,99,59345,1,0,0:0:0:0:
186,332,59522,1,0,0:0:0:0:
186,332,59610,1,0,0:0:0:0:
186,332,59698,1,0,0:0:0:0:
38,175,59875,1,0,0:0:0:0:
226,47,60051,2,0,L|353:127,1,135.000005149842
277,323,60404,2,0,L|224:192,1,135.000005149842
65,144,60757,2,0,L|116:276,1,135.000005149842
305,132,61110,5,0,0:0:0:0:
94,204,61286,1,0,0:0:0:0:
94,204,61375,1,0,0:0:0:0:
94,204,61463,1,0,0:0:0:0:
335,273,61639,1,0,0:0:0:0:
149,114,61816,1,0,0:0:0:0:
335,145,61992,1,0,0:0:0:0:
335,145,62081,1,0,0:0:0:0:
335,145,62169,1,0,0:0:0:0:
185,281,62345,1,0,0:0:0:0:
185,281,62434,1,0,0:0:0:0:
185,281,62522,1,0,0:0:0:0:
319,108,75404,5,0,0:0:0:0:
264,298,75580,1,0,0:0:0:0:
193,127,75757,1,0,0:0:0:0:
414,182,75933,1,0,0:0:0:0:
287,360,76110,1,0,0:0:0:0:
265,71,76286,1,0,0:0:0:0:
428,285,76463,1,0,0:0:0:0:
