osu file format v14

[General]
AudioFilename: audio.mp3
AudioLeadIn: 0
PreviewTime: 6710
Countdown: 0
SampleSet: Normal
StackLeniency: 0.7
Mode: 1
LetterboxInBreaks: 0
WidescreenStoryboard: 1

[Editor]
DistanceSpacing: 1.4
BeatDivisor: 8
GridSize: 32
TimelineZoom: 0.9

[Metadata]
Title:Yume
TitleUnicode:ゆめ
Artist:UNDEAD CORPORATION
ArtistUnicode:UNDEAD CORPORATION
Creator:ginjani
Version:yenmaster's Oni
Source:osu!
Tags:featured artist piano fa instrumental video game touhou pinetree complete box dream パインツリー project 鬼ーoniー 夢 紅染の鬼が哭く Benizome no Oni ga Naku yasuho yenmaster
BeatmapID:2609640
BeatmapSetID:1147179

[Difficulty]
HPDrainRate:7.5
CircleSize:2
OverallDifficulty:3.5
ApproachRate:10
SliderMultiplier:1.4
SliderTickRate:1

[Events]
//Background and Video events
0,0,"yume.jpg",0,100
//Break Periods
//Storyboard Layer 0 (Background)
//Storyboard Layer 1 (Fail)
//Storyboard Layer 2 (Pass)
//Storyboard Layer 3 (Foreground)
//Storyboard Layer 4 (Overlay)
//Storyboard Sound Samples

[TimingPoints]
6881,683.760683760684,4,1,0,40,1,0
6881,-100,4,1,0,40,0,0
13718,697.674418604651,4,1,0,40,1,8
13718,-98.0392156862745,4,1,0,40,0,0
15113,743.034055727554,4,1,0,40,1,0
15113,-91.743119266055,4,1,0,40,0,0
18085,674.157303370787,4,1,0,40,1,0
18085,-101.424501442995,4,1,0,40,0,0
34264,666.666666666667,4,1,0,40,1,0
34264,-102.564102564103,4,1,0,40,0,0
35597,655.737704918033,4,1,0,40,1,8
35597,-104.166666666667,4,1,0,40,0,0
36908,683.760683760684,4,1,0,40,1,0
36908,-100,4,1,0,40,0,0

[HitObjects]
256,192,6752,5,0,0:0:0:0:
256,192,6881,1,8,0:0:0:0:
256,192,7564,1,8,0:0:0:0:
256,192,8248,1,0,0:0:0:0:
256,192,8932,1,0,0:0:0:0:
256,192,9274,1,8,0:0:0:0:
256,192,9616,1,0,0:0:0:0:
256,192,10299,1,8,0:0:0:0:
256,192,10641,1,0,0:0:0:0:
256,192,10869,1,0,0:0:0:0:
256,192,10983,1,8,0:0:0:0:
256,192,11325,1,8,0:0:0:0:
256,192,11439,1,0,0:0:0:0:
256,192,11553,1,0,0:0:0:0:
256,192,11667,1,8,0:0:0:0:
256,192,12009,1,0,0:0:0:0:
256,192,12237,1,0,0:0:0:0:
256,192,12351,1,8,0:0:0:0:
256,192,13034,1,8,0:0:0:0:
256,192,13376,1,0,0:0:0:0:
256,192,13718,1,8,0:0:0:0:
256,192,13892,1,8,0:0:0:0:
256,192,14415,1,8,0:0:0:0:
256,192,14764,1,0,0:0:0:0:
256,192,14997,1,0,0:0:0:0:
256,192,15113,1,8,0:0:0:0:
256,192,16599,1,0,0:0:0:0:
256,192,17992,1,0,0:0:0:0:
256,192,18085,1,8,0:0:0:0:
256,192,18759,1,8,0:0:0:0:
256,192,19433,1,0,0:0:0:0:
256,192,20107,1,8,0:0:0:0:
256,192,20444,1,0,0:0:0:0:
256,192,20781,1,8,0:0:0:0:
256,192,21455,1,0,0:0:0:0:
256,192,22129,1,8,0:0:0:0:
256,192,22804,1,0,0:0:0:0:
256,192,23141,1,0,0:0:0:0:
256,192,23478,1,8,0:0:0:0:
256,192,24152,1,8,0:0:0:0:
256,192,24826,1,0,0:0:0:0:
256,192,25500,1,8,0:0:0:0:
256,192,25837,1,0,0:0:0:0:
256,192,26174,1,8,0:0:0:0:
256,192,26849,1,8,0:0:0:0:
256,192,27523,1,0,0:0:0:0:
256,192,28197,1,8,0:0:0:0:
256,192,28534,1,0,0:0:0:0:
256,192,28871,1,0,0:0:0:0:
256,192,29545,1,8,0:0:0:0:
256,192,30219,1,0,0:0:0:0:
256,192,30893,1,8,0:0:0:0:
256,192,31231,1,0,0:0:0:0:
256,192,31568,1,8,0:0:0:0:
256,192,32242,1,0,0:0:0:0:
256,192,32916,1,8,0:0:0:0:
256,192,33927,1,0,0:0:0:0:
256,192,34096,1,8,0:0:0:0:
256,192,34264,1,0,0:0:0:0:
256,192,34430,1,0,0:0:0:0:
256,192,34597,1,8,0:0:0:0:
256,192,34764,1,0,0:0:0:0:
256,192,34930,1,8,0:0:0:0:
256,192,35097,1,0,0:0:0:0:
256,192,35264,1,8,0:0:0:0:
256,192,35430,1,0,0:0:0:0:
256,192,35597,1,8,0:0:0:0:
256,192,35760,1,8,0:0:0:0:
256,192,35924,1,8,0:0:0:0:
256,192,36088,1,0,0:0:0:0:
256,192,36252,1,8,0:0:0:0:
256,192,36416,1,8,0:0:0:0:
256,192,36580,1,8,0:0:0:0:
256,192,36744,1,0,0:0:0:0:
256,192,36908,1,0,0:0:0:0:
256,192,37078,1,8,0:0:0:0:
256,192,37249,1,0,0:0:0:0:
256,192,37420,1,8,0:0:0:0:
256,192,37591,1,8,0:0:0:0:
256,192,37762,1,0,0:0:0:0:
256,192,37933,1,0,0:0:0:0:
256,192,39130,1,0,0:0:0:0:
256,192,39244,1,0,0:0:0:0:
256,192,39358,1,8,0:0:0:0:
