osu file format v14

[General]
AudioFilename: audio.mp3
AudioLeadIn: 0
PreviewTime: 6710
Countdown: 0
SampleSet: Normal
StackLeniency: 0.7
Mode: 1
LetterboxInBreaks: 0
WidescreenStoryboard: 1

[Editor]
DistanceSpacing: 1.2
BeatDivisor: 12
GridSize: 4
TimelineZoom: 0.9

[Metadata]
Title:Yume
TitleUnicode:ゆめ
Artist:UNDEAD CORPORATION
ArtistUnicode:UNDEAD CORPORATION
Creator:ginjani
Version:Yasuho's Muzukashii
Source:osu!
Tags:featured artist piano fa instrumental video game touhou pinetree complete box dream パインツリー project 鬼ーoniー 夢 紅染の鬼が哭く Benizome no Oni ga Naku yasuho yenmaster
BeatmapID:2473944
BeatmapSetID:1147179

[Difficulty]
HPDrainRate:8
CircleSize:2
OverallDifficulty:3
ApproachRate:10
SliderMultiplier:1.4
SliderTickRate:1

[Events]
//Background and Video events
0,0,"yume.jpg",0,100
//Break Periods
//Storyboard Layer 0 (Background)
//Storyboard Layer 1 (Fail)
//Storyboard Layer 2 (Pass)
//Storyboard Layer 3 (Foreground)
//Storyboard Layer 4 (Overlay)
//Storyboard Sound Samples

[TimingPoints]
6881,683.760683760684,4,1,0,40,1,0
6881,-100,4,1,0,40,0,0
13718,697.674418604651,4,1,0,40,1,8
13718,-98.0392156862745,4,1,0,40,0,0
15113,743.034055727554,4,1,0,40,1,0
15113,-91.743119266055,4,1,0,40,0,0
18085,674.157303370787,4,1,0,40,1,0
18085,-101.419878296146,4,1,0,40,0,0
34264,666.666666666667,4,1,0,40,1,0
34264,-102.564102564103,4,1,0,40,0,0
35597,655.737704918033,4,1,0,40,1,8
35597,-104.166666666667,4,1,0,40,0,0
36908,683.760683760684,4,1,0,40,1,8
36908,-100,4,1,0,40,0,0

[HitObjects]
139,268,6881,5,8,0:0:0:0:
173,210,7564,1,8,0:0:0:0:
173,210,8248,1,0,0:0:0:0:
173,210,8932,1,8,0:0:0:0:
167,203,9274,1,0,0:0:0:0:
170,202,9616,1,0,0:0:0:0:
126,191,10299,1,8,0:0:0:0:
126,191,10641,1,8,0:0:0:0:
126,191,10983,1,8,0:0:0:0:
166,263,11325,1,0,0:0:0:0:
166,263,11439,1,0,0:0:0:0:
175,142,11553,1,0,0:0:0:0:
220,103,11667,1,0,0:0:0:0:
220,103,12009,1,0,0:0:0:0:
220,103,12351,1,8,0:0:0:0:
34,200,13034,1,8,0:0:0:0:
94,167,13376,1,0,0:0:0:0:
109,178,13718,1,8,0:0:0:0:
134,191,13892,1,8,0:0:0:0:
82,189,14415,1,0,0:0:0:0:
82,189,14764,1,0,0:0:0:0:
82,189,15113,1,8,0:0:0:0:
98,194,16599,1,8,0:0:0:0:
373,103,18085,1,8,0:0:0:0:
195,274,18759,1,0,0:0:0:0:
156,268,19433,1,0,0:0:0:0:
156,268,20107,1,8,0:0:0:0:
161,224,20781,1,8,0:0:0:0:
161,224,21455,1,0,0:0:0:0:
156,217,22129,1,8,0:0:0:0:
162,291,22804,1,0,0:0:0:0:
162,248,23141,1,0,0:0:0:0:
156,217,23478,1,8,0:0:0:0:
198,225,24152,1,8,0:0:0:0:
198,225,24826,1,0,0:0:0:0:
206,219,25500,1,0,0:0:0:0:
206,219,26174,1,8,0:0:0:0:
197,139,26849,1,8,0:0:0:0:
138,197,27523,1,0,0:0:0:0:
200,236,28197,1,8,0:0:0:0:
183,231,28871,1,0,0:0:0:0:
223,236,29545,1,0,0:0:0:0:
191,223,30219,1,0,0:0:0:0:
205,217,30893,1,8,0:0:0:0:
205,217,31568,1,8,0:0:0:0:
235,212,32242,1,0,0:0:0:0:
235,212,32916,1,8,0:0:0:0:
206,221,33927,1,0,0:0:0:0:
206,221,34096,1,0,0:0:0:0:
127,204,34264,1,0,0:0:0:0:
206,221,34597,1,8,0:0:0:0:
168,228,34763,1,8,0:0:0:0:
206,221,34930,1,8,0:0:0:0:
168,228,35264,1,0,0:0:0:0:
168,228,35597,1,8,0:0:0:0:
168,228,35760,1,8,0:0:0:0:
168,228,35924,1,8,0:0:0:0:
136,134,36252,1,0,0:0:0:0:
121,124,36416,1,8,0:0:0:0:
168,228,36580,1,8,0:0:0:0:
168,228,36908,1,0,0:0:0:0:
92,185,37078,1,0,0:0:0:0:
168,228,37249,1,0,0:0:0:0:
168,228,37591,1,8,0:0:0:0:
168,228,37933,1,0,0:0:0:0:
225,188,39358,1,8,0:0:0:0:
