osu file format v14

[General]
AudioFilename: audio.mp3
AudioLeadIn: 0
PreviewTime: 6710
Countdown: 0
SampleSet: Normal
StackLeniency: 0.7
Mode: 1
LetterboxInBreaks: 0
WidescreenStoryboard: 1

[Editor]
DistanceSpacing: 1.2
BeatDivisor: 4
GridSize: 4
TimelineZoom: 1

[Metadata]
Title:Yume
TitleUnicode:ゆめ
Artist:UNDEAD CORPORATION
ArtistUnicode:UNDEAD CORPORATION
Creator:ginjani
Version:Futsuu
Source:osu!
Tags:featured artist piano fa instrumental video game touhou pinetree complete box dream パインツリー project 鬼ーoniー 夢 紅染の鬼が哭く Benizome no Oni ga Naku yasuho yenmaster
BeatmapID:2514928
BeatmapSetID:1147179

[Difficulty]
HPDrainRate:8.5
CircleSize:2
OverallDifficulty:2.5
ApproachRate:10
SliderMultiplier:1.4
SliderTickRate:1

[Events]
//Background and Video events
0,0,"yume.jpg",0,100
//Break Periods
//Storyboard Layer 0 (Background)
//Storyboard Layer 1 (Fail)
//Storyboard Layer 2 (Pass)
//Storyboard Layer 3 (Foreground)
//Storyboard Layer 4 (Overlay)
//Storyboard Sound Samples

[TimingPoints]
6881,683.760683760684,4,1,0,40,1,0
6881,-100,4,1,0,40,0,0
13718,697.674418604651,4,1,0,40,1,8
13718,-98.0392156862745,4,1,0,40,0,0
15113,743.034055727554,4,1,0,40,1,0
15113,-91.743119266055,4,1,0,40,0,0
18085,674.157303370787,4,1,0,40,1,0
18085,-101.419878296146,4,1,0,40,0,0
34264,666.666666666667,4,1,0,40,1,0
34264,-102.564102564103,4,1,0,40,0,0
35597,655.737704918033,4,1,0,40,1,8
35597,-104.166666666667,4,1,0,40,0,0
36908,683.760683760684,4,1,0,40,1,0
36908,-100,4,1,0,40,0,0

[HitObjects]
131,161,6881,5,8,0:0:0:0:
299,162,7564,1,8,0:0:0:0:
249,107,8248,1,0,0:0:0:0:
198,206,8932,1,0,0:0:0:0:
271,210,9274,1,8,0:0:0:0:
306,142,9616,1,0,0:0:0:0:
288,126,10299,1,8,0:0:0:0:
289,249,10641,1,0,0:0:0:0:
296,198,10983,1,8,0:0:0:0:
173,266,11325,1,0,0:0:0:0:
173,266,11667,1,0,0:0:0:0:
303,293,12009,1,8,0:0:0:0:
445,248,12351,1,0,0:0:0:0:
224,96,13034,1,8,0:0:0:0:
318,177,13376,1,0,0:0:0:0:
338,193,13718,1,8,0:0:0:0:
338,193,13892,1,8,0:0:0:0:
131,161,14415,1,0,0:0:0:0:
93,254,14764,1,0,0:0:0:0:
191,90,15113,1,8,0:0:0:0:
234,170,16599,1,8,0:0:0:0:
113,111,18085,1,0,0:0:0:0:
303,198,18759,1,0,0:0:0:0:
120,254,19433,1,8,0:0:0:0:
205,250,20107,1,8,0:0:0:0:
251,127,20781,1,0,0:0:0:0:
227,145,21455,1,0,0:0:0:0:
356,147,22129,1,8,0:0:0:0:
165,148,22804,1,8,0:0:0:0:
126,165,23141,1,0,0:0:0:0:
160,172,23478,1,8,0:0:0:0:
101,137,24152,1,8,0:0:0:0:
174,172,24826,1,0,0:0:0:0:
210,130,25500,1,8,0:0:0:0:
187,151,26174,1,0,0:0:0:0:
304,261,26849,1,8,0:0:0:0:
222,159,27523,1,8,0:0:0:0:
139,146,28871,1,0,0:0:0:0:
185,186,29545,1,8,0:0:0:0:
195,186,30219,1,8,0:0:0:0:
195,186,30893,1,0,0:0:0:0:
195,186,31568,1,0,0:0:0:0:
117,159,32242,1,8,0:0:0:0:
196,194,32916,1,0,0:0:0:0:
162,222,33927,1,0,0:0:0:0:
229,194,34264,1,0,0:0:0:0:
229,194,34597,1,0,0:0:0:0:
229,194,34930,1,0,0:0:0:0:
227,203,35264,1,0,0:0:0:0:
231,198,35597,1,8,0:0:0:0:
231,198,36252,1,8,0:0:0:0:
231,198,36580,1,8,0:0:0:0:
231,198,36908,1,8,0:0:0:0:
270,209,37249,1,8,0:0:0:0:
242,195,37591,1,8,0:0:0:0:
260,217,37933,1,0,0:0:0:0:
263,200,39358,1,8,0:0:0:0:
