osu file format v14

[General]
AudioFilename: audio.mp3
AudioLeadIn: 0
PreviewTime: 18085
Countdown: 1
SampleSet: Soft
StackLeniency: 0.7
Mode: 0
LetterboxInBreaks: 0
WidescreenStoryboard: 0

[Editor]
DistanceSpacing: 0.3
BeatDivisor: 6
GridSize: 4
TimelineZoom: 0.6999999

[Metadata]
Title:Yume
TitleUnicode:ゆめ
Artist:UNDEAD CORPORATION
ArtistUnicode:UNDEAD CORPORATION
Creator:Lafayla
Version:Lunatic
Source:osu!
Tags:instrumental video game mappers' guild mpg fa featured artist TOHO Complete Box ONI Touhou Dream
BeatmapID:2422330
BeatmapSetID:1161067

[Difficulty]
HPDrainRate:5
CircleSize:5
OverallDifficulty:7
ApproachRate:8
SliderMultiplier:1.6
SliderTickRate:1

[Events]
//Background and Video events
0,0,"Yume.jpg",0,0
//Break Periods
//Storyboard Layer 0 (Background)
//Storyboard Layer 1 (Fail)
//Storyboard Layer 2 (Pass)
//Storyboard Layer 3 (Foreground)
//Storyboard Layer 4 (Overlay)
//Storyboard Sound Samples

[TimingPoints]
6881,683.760683760684,4,2,1,45,1,0
13718,697.674418604651,4,2,1,45,1,0
15113,743.034055727554,4,2,1,45,1,0
18085,674.157303370787,4,2,1,45,1,0
34264,666.666666666667,4,2,1,45,1,0
35597,655.737704918033,4,2,1,45,1,0
36908,683.760683760684,4,2,1,45,1,0

[Colours]
Combo1 : 250,190,230
Combo2 : 130,200,230
Combo3 : 255,230,140
Combo4 : 170,245,170

[HitObjects]
512,131,6881,6,0,P|457:129|429:87,1,80,2|0,0:0|0:0,0:0:0:0:
410,12,7564,2,0,P|355:13|327:56,1,80,2|0,0:0|0:0,0:0:0:0:
309,131,8248,2,0,P|254:129|226:87,1,80,2|0,0:0|0:0,0:0:0:0:
134,18,8932,1,2,0:0:0:0:
25,20,9274,1,0,0:0:0:0:
25,20,9616,6,0,P|-8:68|5:124,1,120,2|0,0:0|0:0,0:0:0:0:
25,140,10299,1,2,0:0:0:0:
156,221,10641,1,0,0:0:0:0:
156,221,10812,1,0,0:0:0:0:
156,221,10983,2,0,P|116:224|83:247,1,80,2|0,0:0|0:0,0:0:0:0:
63,330,11439,1,2,0:0:0:0:
64,344,11553,1,2,0:0:0:0:
71,355,11667,2,0,P|38:332|-2:328,1,80,2|0,0:0|0:0,0:0:0:0:
174,332,12351,6,0,P|213:327|245:304,1,80,2|0,0:0|0:0,0:0:0:0:
332,172,13034,1,2,0:0:0:0:
243,108,13375,1,0,0:0:0:0:
361,37,13718,1,2,0:0:0:0:
361,37,13892,2,0,P|401:36|433:63,1,80,2|0,0:0|0:0,0:0:0:0:
439,83,14415,1,2,0:0:0:0:
336,176,14764,1,0,0:0:0:0:
336,176,15113,6,0,B|424:151|407:226|498:193,2,160,2|0|0,0:0|0:0|0:0,0:0:0:0:
336,176,18085,6,0,P|386:198|390:254,1,80,2|0,0:0|0:0,0:0:0:0:
473,324,18759,2,0,P|438:306|400:316,1,80,2|0,0:0|0:0,0:0:0:0:
373,344,19264,1,0,0:0:0:0:
373,344,19433,2,0,P|335:354|300:336,1,80,2|0,0:0|0:0,0:0:0:0:
172,289,20107,2,0,P|211:287|238:259,1,80,2|0,0:0|0:0,0:0:0:0:
332,176,20781,6,0,L|343:255,2,80,2|0|0,0:0|0:0|0:0,0:0:0:0:
262,10,21961,1,2,0:0:0:0:
262,10,22129,2,0,P|258:49|235:81,1,80,2|0,0:0|0:0,0:0:0:0:
96,156,22804,1,2,0:0:0:0:
12,88,23141,1,0,0:0:0:0:
12,88,23478,6,0,P|41:58|101:75,1,80,2|0,0:0|0:0,0:0:0:0:
131,156,24152,2,0,P|160:186|220:169,1,80,2|0,0:0|0:0,0:0:0:0:
116,276,24826,2,0,P|104:316|149:359,1,80,2|0,0:0|0:0,0:0:0:0:
275,377,25500,1,2,0:0:0:0:
385,316,25837,1,0,0:0:0:0:
385,316,26174,6,0,B|400:307|407:282|407:282|362:221|270:274,1,160,2|0,0:0|0:0,0:0:0:0:
300,258,27186,1,0,0:0:0:0:
169,234,27523,2,0,B|154:225|146:200|146:200|192:139|284:192,1,160,2|0,0:0|0:0,0:0:0:0:
394,219,28534,1,0,0:0:0:0:
394,219,28871,6,0,P|395:178|450:138,1,80,2|0,0:0|0:0,0:0:0:0:
510,245,29545,2,0,P|494:282|428:299,1,80,2|0,0:0|0:0,0:0:0:0:
371,383,30219,2,0,P|355:345|289:328,1,80,2|0,0:0|0:0,0:0:0:0:
171,309,30893,1,2,0:0:0:0:
98,241,31231,1,0,0:0:0:0:
98,241,31568,6,0,L|110:161,1,80,2|0,0:0|0:0,0:0:0:0:
236,193,32242,2,0,L|223:113,1,80,2|0,0:0|0:0,0:0:0:0:
346,248,32916,2,0,L|358:168,1,80,2|0,0:0|0:0,0:0:0:0:
320,80,33590,6,0,P|305:69|283:63,3,40,2|0|0|0,0:0|0:0|0:0|0:0,0:0:0:0:
223,113,34264,2,0,P|208:123|186:129,3,40,2|0|0|0,0:0|0:0|0:0|0:0,0:0:0:0:
112,135,34930,5,2,0:0:0:0:
125,154,35097,1,0,0:0:0:0:
133,176,35264,1,2,0:0:0:0:
137,199,35430,1,0,0:0:0:0:
107,220,35597,1,2,0:0:0:0:
93,241,35760,1,0,0:0:0:0:
84,265,35924,1,2,0:0:0:0:
80,291,36088,1,0,0:0:0:0:
96,321,36252,5,2,0:0:0:0:
128,285,36416,1,0,0:0:0:0:
174,269,36580,1,2,0:0:0:0:
221,273,36744,1,0,0:0:0:0:
247,286,36908,5,2,0:0:0:0:
277,274,37078,1,0,0:0:0:0:
312,302,37249,5,2,0:0:0:0:
342,314,37420,1,0,0:0:0:0:
356,309,37591,5,2,0:0:0:0:
368,299,37762,1,0,0:0:0:0:
374,291,37933,1,2,0:0:0:0:
374,291,38617,5,2,0:0:0:0:
332,189,38959,1,2,0:0:0:0:
329,177,39130,1,0,0:0:0:0:
329,164,39301,1,2,0:0:0:0:
