osu file format v14

[General]
AudioFilename: audio.mp3
AudioLeadIn: 0
PreviewTime: 18085
Countdown: 1
SampleSet: Soft
StackLeniency: 0.7
Mode: 0
LetterboxInBreaks: 0
WidescreenStoryboard: 1

[Editor]
DistanceSpacing: 1.4
BeatDivisor: 4
GridSize: 4
TimelineZoom: 0.6999999

[Metadata]
Title:Yume
TitleUnicode:ゆめ
Artist:UNDEAD CORPORATION
ArtistUnicode:UNDEAD CORPORATION
Creator:Lafayla
Version:Hard
Source:osu!
Tags:instrumental video game mappers' guild mpg fa featured artist TOHO Complete Box ONI Touhou Dream
BeatmapID:2422329
BeatmapSetID:1161067

[Difficulty]
HPDrainRate:4.5
CircleSize:4
OverallDifficulty:6
ApproachRate:7
SliderMultiplier:1.4
SliderTickRate:1

[Events]
//Background and Video events
0,0,"Yume.jpg",0,0
//Break Periods
//Storyboard Layer 0 (Background)
//Storyboard Layer 1 (Fail)
//Storyboard Layer 2 (Pass)
//Storyboard Layer 3 (Foreground)
//Storyboard Layer 4 (Overlay)
//Storyboard Sound Samples

[TimingPoints]
6881,683.760683760684,4,2,1,45,1,0
13718,697.674418604651,4,2,1,45,1,0
15113,743.034055727554,4,2,1,45,1,0
18085,674.157303370787,4,2,1,45,1,0
34264,666.666666666667,4,2,1,45,1,0
35597,655.737704918033,4,2,1,45,1,0
36908,683.760683760684,4,2,1,45,1,0

[Colours]
Combo1 : 250,190,230
Combo2 : 130,200,230
Combo3 : 255,230,140
Combo4 : 170,245,170

[HitObjects]
368,62,6881,6,0,B|283:31|304:101|214:63,1,140,2|0,0:0|0:0,0:0:0:0:
143,31,7906,1,0,0:0:0:0:
47,54,8248,2,0,P|24:80|18:114,1,70,2|0,0:0|0:0,0:0:0:0:
51,206,8932,1,2,0:0:0:0:
149,183,9274,1,0,0:0:0:0:
149,183,9616,6,0,B|205:175|237:222|237:222|269:217|283:198,1,140,2|0,0:0|0:0,0:0:0:0:
349,149,10641,1,0,0:0:0:0:
447,151,10983,2,0,P|481:156|509:176,1,70,2|0,0:0|0:0,0:0:0:0:
442,248,11667,2,0,P|407:253|379:273,1,70,2|0,0:0|0:0,0:0:0:0:
294,323,12351,6,0,P|284:289|275:252,1,70,2|0,0:0|0:0,0:0:0:0:
207,184,13034,1,2,0:0:0:0:
272,111,13375,1,0,0:0:0:0:
202,51,13718,1,2,0:0:0:0:
202,51,13892,2,0,P|154:31|104:45,1,105,2|0,0:0|0:0,0:0:0:0:
39,118,14764,1,0,0:0:0:0:
120,160,15113,6,0,B|147:182|149:221|149:221|103:255|122:310,2,140,2|0|0,0:0|0:0|0:0,0:0:0:0:
120,160,18085,6,0,P|166:109|248:119,1,140,2|0,0:0|0:0,0:0:0:0:
316,162,19096,1,0,0:0:0:0:
274,250,19433,2,0,P|278:294|303:325,1,70,2|0,0:0|0:0,0:0:0:0:
378,360,20107,2,0,P|395:329|395:295,1,70,2|0,0:0|0:0,0:0:0:0:
384,197,20781,6,0,L|463:208,2,70,2|0|0,0:0|0:0|0:0,0:0:0:0:
247,155,21961,1,2,0:0:0:0:
247,155,22129,2,0,P|231:118|307:46,1,140,2|0,0:0|0:0,0:0:0:0:
383,35,23141,1,0,0:0:0:0:
463,90,23478,6,0,P|462:129|415:168,1,70,2|0,0:0|0:0,0:0:0:0:
512,224,24152,2,0,P|483:250|423:245,1,70,2|0,0:0|0:0,0:0:0:0:
450,354,24826,2,0,P|410:353|371:306,1,70,2|0,0:0|0:0,0:0:0:0:
317,266,25500,1,2,0:0:0:0:
380,191,25837,1,0,0:0:0:0:
380,191,26174,6,0,B|410:125|410:125|376:62,1,140,2|0,0:0|0:0,0:0:0:0:
296,9,27186,1,0,0:0:0:0:
199,23,27523,2,0,B|166:82|166:82|196:148,1,140,2|0,0:0|0:0,0:0:0:0:
265,218,28534,1,0,0:0:0:0:
215,302,28871,6,0,P|183:325|144:326,1,70,2|0,0:0|0:0,0:0:0:0:
57,311,29545,2,0,P|51:272|71:237,1,70,2|0,0:0|0:0,0:0:0:0:
128,169,30219,2,0,P|164:184|184:217,1,70,2|0,0:0|0:0,0:0:0:0:
216,299,30893,1,2,0:0:0:0:
316,318,31231,1,0,0:0:0:0:
316,318,31568,6,0,L|328:238,1,70,2|0,0:0|0:0,0:0:0:0:
424,242,32242,2,0,L|413:172,1,70,2|0,0:0|0:0,0:0:0:0:
319,146,32916,2,0,L|331:66,1,70,2|0,0:0|0:0,0:0:0:0:
425,48,33590,6,0,P|444:53|460:64,3,35,2|0|0|0,0:0|0:0|0:0|0:0,0:0:0:0:
490,112,34264,2,0,P|470:117|454:128,3,35,2|0|0|0,0:0|0:0|0:0|0:0,0:0:0:0:
416,169,34930,6,0,L|409:216,3,35,2|0|0|0,0:0|0:0|0:0|0:0,0:0:0:0:
458,248,35597,2,0,L|464:295,3,35,2|0|0|0,0:0|0:0|0:0|0:0,0:0:0:0:
430,330,36252,6,0,P|412:332|394:330,3,35,2|0|0|0,0:0|0:0|0:0|0:0,0:0:0:0:
337,319,36907,5,2,0:0:0:0:
329,307,37078,1,0,0:0:0:0:
325,293,37249,1,2,0:0:0:0:
325,279,37420,1,0,0:0:0:0:
325,265,37591,2,0,P|328:245|332:231,2,35,2|0|0,0:0|0:0|0:0,0:0:0:0:
325,265,38617,6,0,P|290:271|257:263,1,70,2|0,0:0|0:0,0:0:0:0:
239,257,39130,1,2,0:0:0:0:
239,257,39301,1,2,0:0:0:0:
