osu file format v14

[General]
AudioFilename: audio.mp3
AudioLeadIn: 0
PreviewTime: 26924
Countdown: 0
SampleSet: Soft
StackLeniency: 0.7
Mode: 0
LetterboxInBreaks: 0
WidescreenStoryboard: 0

[Editor]
Bookmarks: 1834,8379,14924,21470,28015,34561,41106,47652,51994
DistanceSpacing: 0.8
BeatDivisor: 4
GridSize: 32
TimelineZoom: 1

[Metadata]
Title:Yukitsuki Ouka no Kuni
TitleUnicode:雪月桜花の国
Artist:UNDEAD CORPORATION
ArtistUnicode:UNDEAD CORPORATION
Creator:eiri-
Version:Normal
Source:東方三月精 ~ Strange and Bright Nature Deity.
Tags:Ayyri Featured Artist FA Mappers' Guild Instrumental Video Game 東方Project ZUN A Land Resplendent With Nature's Beauty Team Shanghai Alice Touhou Sangetsusei Three Fairies of Light サニーミルク Sunny Milk ルナチャイルド Luna Child スターサファイア Star Sapphire TOHO Complete Box SILVER
BeatmapID:2366098
BeatmapSetID:1132812

[Difficulty]
HPDrainRate:3
CircleSize:3
OverallDifficulty:4
ApproachRate:4
SliderMultiplier:1.2
SliderTickRate:1

[Events]
//Background and Video events
0,0,"Three Fairies of Light 386.jpg",0,0
//Break Periods
//Storyboard Layer 0 (Background)
//Storyboard Layer 1 (Fail)
//Storyboard Layer 2 (Pass)
//Storyboard Layer 3 (Foreground)
//Storyboard Layer 4 (Overlay)
//Storyboard Sound Samples

[TimingPoints]
1834,545.454545454546,3,2,1,50,1,0
48744,560.747663551402,3,2,1,50,1,0
49304,666.666666666667,3,2,1,40,1,0
49970,882.352941176471,3,2,1,35,1,0
50852,1142.85714285714,3,2,1,30,1,0
51994,-100,3,2,1,25,0,0

[Colours]
Combo1 : 252,172,152
Combo2 : 138,255,138
Combo3 : 236,225,147
Combo4 : 138,200,255

[HitObjects]
64,320,743,5,2,0:0:0:0:
151,281,1288,1,2,0:0:0:0:
232,332,1834,6,0,L|313:323,1,60,2|0,0:0|0:0,0:0:0:0:
336,343,2379,2,0,L|356:210,1,120,0|0,0:0|0:0,0:0:0:0:
398,139,3470,1,2,0:0:0:0:
352,54,4015,2,0,P|319:29|237:30,1,120,2|2,0:0|0:0,0:0:0:0:
153,62,5106,6,0,L|173:193,1,120,2|0,0:0|0:0,0:0:0:0:
205,369,6743,2,0,L|272:353,1,60,0|0,0:0|0:0,0:0:0:0:
309,368,7288,1,2,0:0:0:0:
348,280,7834,1,2,0:0:0:0:
300,196,8379,6,0,P|255:184|217:183,1,60,2|0,0:0|0:0,0:0:0:0:
208,217,8924,2,0,B|132:235|132:235|81:204,1,120,0|2,0:0|0:0,0:0:0:0:
28,145,10015,1,2,0:0:0:0:
51,51,10561,2,0,L|171:78,1,120,2|2,0:0|0:0,0:0:0:0:
251,29,11652,6,0,L|262:159,1,120,2|0,0:0|0:0,0:0:0:0:
277,339,13288,2,0,P|326:366|400:365,2,120,2|2|2,0:0|0:0|0:0,0:0:0:0:
231,254,14924,6,0,L|312:245,1,60,2|0,0:0|0:0,0:0:0:0:
320,209,15470,2,0,L|450:224,1,120,0|0,0:0|0:0,0:0:0:0:
476,134,16561,1,2,0:0:0:0:
399,73,17106,2,0,L|269:88,1,120,2|2,0:0|0:0,0:0:0:0:
184,100,18197,6,0,B|112:90|112:90|119:30,1,120,2|0,0:0|0:0,0:0:0:0:
92,233,19834,2,0,L|105:316,1,60,0|0,0:0|0:0,0:0:0:0:
108,339,20378,1,2,0:0:0:0:
194,297,20924,1,2,0:0:0:0:
288,314,21470,6,0,P|315:325|340:341,1,60,2|0,0:0|0:0,0:0:0:0:
375,375,22015,2,0,P|422:361|443:287,1,120,0|2,0:0|0:0,0:0:0:0:
389,221,23106,1,2,0:0:0:0:
412,127,23652,2,0,B|401:79|401:79|310:95,1,120,2|2,0:0|0:0,0:0:0:0:
237,110,24743,6,0,L|116:92,1,120,2|0,0:0|0:0,0:0:0:0:
103,187,25834,2,0,L|224:205,1,120,2|0,0:0|0:0,0:0:0:0:
283,277,26924,1,2,0:0:0:0:
356,215,27470,1,2,0:0:0:0:
291,143,28015,6,0,P|322:121|359:111,1,60,2|0,0:0|0:0,0:0:0:0:
384,131,28561,2,0,L|518:117,1,120
495,214,29652,1,2,0:0:0:0:
400,228,30197,2,0,L|266:242,1,120,2|0,0:0|0:0,0:0:0:0:
214,310,31288,6,0,L|80:296,1,120,2|0,0:0|0:0,0:0:0:0:
81,105,32924,2,0,L|148:89,1,60,0|0,0:0|0:0,0:0:0:0:
185,104,33469,1,2,0:0:0:0:
139,188,34015,1,2,0:0:0:0:
217,243,34561,6,0,P|253:225|277:204,1,60,2|0,0:0|0:0,0:0:0:0:
287,168,35106,2,0,P|329:215|320:280,1,120,0|2,0:0|0:0,0:0:0:0:
262,341,36197,1,2,0:0:0:0:
177,295,36743,2,0,L|190:157,1,120,2|2,0:0|0:0,0:0:0:0:
271,126,37834,6,0,L|284:264,1,120,2|0,0:0|0:0,0:0:0:0:
119,347,39470,2,0,B|93:315|93:315|3:332,2,120,2|2|2,0:0|0:0|0:0,0:0:0:0:
213,365,41106,6,0,L|292:349,1,60,2|0,0:0|0:0,0:0:0:0:
316,371,41652,2,0,P|367:343|363:277,1,120,0|0,0:0|0:0,0:0:0:0:
334,196,42743,1,2,0:0:0:0:
410,135,43288,2,0,L|386:9,1,120,2|2,0:0|0:0,0:0:0:0:
313,78,44379,6,0,P|269:96|176:105,1,120,2|0,0:0|0:0,0:0:0:0:
9,65,46015,2,0,L|22:148,1,60,0|0,0:0|0:0,0:0:0:0:
25,171,46561,1,2,0:0:0:0:
114,135,47105,1,2,0:0:0:0:
195,185,47652,6,0,L|182:268,1,60,2|0,0:0|0:0,0:0:0:0:
178,291,48197,2,0,B|256:278|256:278|296:317,1,120,0|2,0:0|0:0,0:0:0:0:
355,369,49304,1,2,0:0:0:0:
417,300,49970,2,0,L|386:161,1,120,2|2,0:0|0:0,0:0:0:0:
369,83,51994,6,0,L|423:94,1,30,2|2,0:0|0:0,0:0:0:0:
