osu file format v14

[General]
AudioFilename: audio.mp3
AudioLeadIn: 0
PreviewTime: 26924
Countdown: 0
SampleSet: Soft
StackLeniency: 0.7
Mode: 0
LetterboxInBreaks: 0
WidescreenStoryboard: 0

[Editor]
Bookmarks: 1834,8379,14924,21470,28015,34561,41106,47652,51994
DistanceSpacing: 1.2
BeatDivisor: 4
GridSize: 32
TimelineZoom: 1

[Metadata]
Title:Yukitsuki Ouka no Kuni
TitleUnicode:雪月桜花の国
Artist:UNDEAD CORPORATION
ArtistUnicode:UNDEAD CORPORATION
Creator:eiri-
Version:Advanced
Source:東方三月精 ~ Strange and Bright Nature Deity.
Tags:Ayyri Featured Artist FA Mappers' Guild Instrumental Video Game 東方Project ZUN A Land Resplendent With Nature's Beauty Team Shanghai Alice Touhou Sangetsusei Three Fairies of Light サニーミルク Sunny Milk ルナチャイルド Luna Child スターサファイア Star Sapphire TOHO Complete Box SILVER
BeatmapID:2366097
BeatmapSetID:1132812

[Difficulty]
HPDrainRate:4
CircleSize:4
OverallDifficulty:5
ApproachRate:6
SliderMultiplier:1.4
SliderTickRate:1

[Events]
//Background and Video events
0,0,"Three Fairies of Light 386.jpg",0,0
//Break Periods
//Storyboard Layer 0 (Background)
//Storyboard Layer 1 (Fail)
//Storyboard Layer 2 (Pass)
//Storyboard Layer 3 (Foreground)
//Storyboard Layer 4 (Overlay)
//Storyboard Sound Samples

[TimingPoints]
1834,545.454545454546,3,2,1,50,1,0
48744,560.747663551402,3,2,1,50,1,0
49304,666.666666666667,3,2,1,40,1,0
49970,882.352941176471,3,2,1,35,1,0
50852,1142.85714285714,3,2,1,30,1,0
51994,-100,3,2,1,25,0,0

[Colours]
Combo1 : 252,172,152
Combo2 : 138,255,138
Combo3 : 236,225,147
Combo4 : 138,200,255

[HitObjects]
32,311,743,5,2,0:0:0:0:
42,339,1288,5,2,0:0:0:0:
52,367,1834,6,0,P|92:339|155:325,1,105,2|0,0:0|0:0,0:0:0:0:
184,342,2379,2,0,L|334:322,1,140
485,365,3470,2,0,P|508:321|503:284,1,70,2|0,0:0|0:0,0:0:0:0:
435,257,4016,2,0,P|412:213|417:176,1,70,2|0,0:0|0:0,0:0:0:0:
485,149,4561,2,0,P|508:105|503:68,1,70,2|0,0:0|0:0,0:0:0:0:
485,4,5107,6,0,P|443:28|339:31,1,140,2|0,0:0|0:0,0:0:0:0:
17,19,6743,2,0,P|90:2|146:8,1,105
150,30,7288,2,0,P|130:70|124:117,1,70,2|0,0:0|0:0,0:0:0:0:
192,145,7834,2,0,P|212:185|218:232,1,70,2|0,0:0|0:0,0:0:0:0:
198,291,8379,6,0,L|92:277,1,105,2|0,0:0|0:0,0:0:0:0:
51,272,8924,2,0,P|69:330|122:359,1,105
145,358,9470,1,2,0:0:0:0:
309,324,10016,2,0,L|298:240,1,70,2|0,0:0|0:0,0:0:0:0:
260,179,10561,2,0,L|271:95,1,70,2|0,0:0|0:0,0:0:0:0:
282,26,11107,2,0,P|322:38|365:45,1,70,2|0,0:0|0:0,0:0:0:0:
426,10,11652,6,0,P|475:38|477:140,1,140,2|0,0:0|0:0,0:0:0:0:
195,277,13288,2,0,P|149:287|125:298,1,70,2|0,0:0|0:0,0:0:0:0:
152,377,13834,2,0,P|198:367|222:356,1,70,2|0,0:0|0:0,0:0:0:0:
305,357,14379,2,0,P|337:370|372:377,1,70,2|0,0:0|0:0,0:0:0:0:
455,366,14925,6,0,L|468:248,1,105,2|0,0:0|0:0,0:0:0:0:
488,226,15470,2,0,P|478:179|382:160,1,140
249,230,16561,2,0,P|210:242|155:245,1,70,2|0,0:0|0:0,0:0:0:0:
100,269,17107,2,0,P|63:249|22:213,1,70,2|0,0:0|0:0,0:0:0:0:
41,148,17652,2,0,P|68:126|100:111,1,70,2|0,0:0|0:0,0:0:0:0:
181,134,18198,6,0,P|215:139|292:177,1,105,2|0,0:0|0:0,0:0:0:0:
300,203,18743,2,0,L|279:360,1,140
413,237,19834,2,0,L|397:117,1,105
419,96,20379,2,0,L|517:76,1,70,2|0,0:0|0:0,0:0:0:0:
445,8,20925,2,0,L|347:28,1,70,2|0,0:0|0:0,0:0:0:0:
306,68,21470,6,0,L|175:40,1,105,2|0,0:0|0:0,0:0:0:0:
162,37,22015,2,0,P|186:85|201:160,1,105
189,175,22561,1,2,0:0:0:0:
69,292,23106,2,0,L|-14:310,1,70,2|0,0:0|0:0,0:0:0:0:
56,370,23652,2,0,L|139:388,1,70,2|0,0:0|0:0,0:0:0:0:
191,334,24197,2,0,L|274:316,1,70,2|0,0:0|0:0,0:0:0:0:
329,366,24743,6,0,P|380:360|397:283,1,140,2|0,0:0|0:0,0:0:0:0:
329,129,25834,2,0,P|280:153|214:167,1,105,2|0,0:0|0:0,0:0:0:0:
189,161,26379,2,0,L|181:258,1,70
172,314,26924,5,2,0:0:0:0:
182,342,27470,5,2,0:0:0:0:
192,370,28015,6,0,L|311:352,1,105,2|0,0:0|0:0,0:0:0:0:
321,320,28561,2,0,L|485:344,1,140
506,178,29652,2,0,P|489:130|463:100,1,70,2|0,0:0|0:0,0:0:0:0:
415,58,30197,2,0,P|375:82|334:84,1,70,2|0,0:0|0:0,0:0:0:0:
286,137,30743,2,0,P|240:125|210:98,1,70,2|0,0:0|0:0,0:0:0:0:
169,46,31288,6,0,P|181:92|157:168,1,105,2|0,0:0|0:0,0:0:0:0:
136,173,31834,2,0,P|80:148|0:155,1,140
6,321,32924,2,0,L|118:307,1,105
148,290,33470,2,0,P|183:313|208:349,1,70,2|0,0:0|0:0,0:0:0:0:
281,357,34015,2,0,P|307:334|325:304,1,70,2|0,0:0|0:0,0:0:0:0:
353,224,34561,6,0,L|324:102,1,105,2|0,0:0|0:0,0:0:0:0:
322,80,35106,2,0,P|374:77|426:120,1,105
438,141,35652,1,2,0:0:0:0:
315,255,36197,2,0,L|229:238,1,70,2|0,0:0|0:0,0:0:0:0:
189,303,36743,2,0,L|103:320,1,70,2|0,0:0|0:0,0:0:0:0:
68,250,37288,2,0,L|-18:233,1,70,2|0,0:0|0:0,0:0:0:0:
42,163,37834,6,0,B|140:133|140:133|187:185,1,140,2|0,0:0|0:0,0:0:0:0:
175,188,39470,2,0,L|168:275,1,70,2|0,0:0|0:0,0:0:0:0:
161,341,40015,2,0,L|248:348,1,70,2|0,0:0|0:0,0:0:0:0:
314,355,40561,2,0,L|321:268,1,70,2|0,0:0|0:0,0:0:0:0:
328,202,41106,6,0,L|204:192,1,105,2|0,0:0|0:0,0:0:0:0:
192,165,41652,2,0,P|230:98|298:106,1,140
453,113,42743,2,0,P|436:65|410:35,1,70,2|0,0:0|0:0,0:0:0:0:
369,113,43288,2,0,P|350:142|341:176,1,70,2|0,0:0|0:0,0:0:0:0:
399,236,43834,2,0,P|417:265|426:299,1,70,2|0,0:0|0:0,0:0:0:0:
382,370,44379,6,0,L|250:356,1,105,2|0,0:0|0:0,0:0:0:0:
240,379,44924,2,0,P|201:352|220:253,1,140
349,181,46015,2,0,L|334:62,1,105
330,34,46561,2,0,P|296:16|252:16,1,70,2|0,0:0|0:0,0:0:0:0:
201,69,47106,2,0,P|167:87|123:87,1,70,2|0,0:0|0:0,0:0:0:0:
51,88,47652,6,0,L|69:199,1,105,2|0,0:0|0:0,0:0:0:0:
90,226,48197,2,0,L|72:337,1,105
64,370,48744,1,2,0:0:0:0:
197,324,49304,2,0,P|238:331|324:368,1,105,2|0,0:0|0:0,0:0:0:0:
320,374,49970,2,0,P|376:369|402:299,1,105,2|0,0:0|0:0,0:0:0:0:
410,292,50852,1,2,0:0:0:0:
256,192,51994,6,0,L|256:256,1,35,2|2,0:0|0:0,0:0:0:0:
