osu file format v14

[General]
AudioFilename: audio.mp3
AudioLeadIn: 0
PreviewTime: 26849
Countdown: 0
SampleSet: Soft
StackLeniency: 0.7
Mode: 2
LetterboxInBreaks: 0
WidescreenStoryboard: 1

[Editor]
DistanceSpacing: 1
BeatDivisor: 4
GridSize: 8
TimelineZoom: 1.3

[Metadata]
Title:Yukitsuki Ouka no Kuni
TitleUnicode:雪月桜花の国
Artist:UNDEAD CORPORATION
ArtistUnicode:UNDEAD CORPORATION
Creator:Astreachan
Version:For Old Fairies
Source:東方Project
Tags:Featured Artist Setsugetsu Touhou Piano Gensoukyou kara chou Koutetsu Juutei Bakuon 幻想郷から超鋼鉄重低爆音 C78 ZUN Three Moon Fairies Sangetsusei 東方三月精 ~ Strange and Bright Nature Deity 1 Team Shanghai Alice A Land Resplendent With Nature's Beauty 上海アリス幻樂団 Gengakudan Yukimura Hirano Sunny Milk Luna Child Star Sapphire Shad0w414
BeatmapID:1604247
BeatmapSetID:696573

[Difficulty]
HPDrainRate:5
CircleSize:4
OverallDifficulty:7
ApproachRate:7
SliderMultiplier:1
SliderTickRate:1

[Events]
//Background and Video events
0,0,"star sapphire.jpg",0,0
//Break Periods
//Storyboard Layer 0 (Background)
//Storyboard Layer 1 (Fail)
//Storyboard Layer 2 (Pass)
//Storyboard Layer 3 (Foreground)
//Storyboard Layer 4 (Overlay)
//Storyboard Sound Samples

[TimingPoints]
122,545.454545454546,3,2,1,20,1,0
49212,681.818181818182,3,2,1,25,1,0
49893,882.352941176471,3,2,1,20,1,0
50775,1165.04854368932,3,2,1,15,1,0
51940,1090.90909090909,3,2,1,20,1,0
52212,-1000,4,2,1,5,0,0
52758,-100,4,2,1,5,0,0

[Colours]
Combo1 : 255,255,128
Combo2 : 255,128,192
Combo3 : 0,0,255
Combo4 : 255,0,0

[HitObjects]
144,160,667,5,0,0:0:0:0:
32,168,1212,1,0,0:0:0:0:
448,216,1758,2,0,L|448:144,1,50,4|0,0:0|0:0,0:0:0:0:
192,192,2303,2,0,B|152:160|152:160|192:112,1,100,2|0,0:0|0:0,0:0:0:0:
360,192,3394,6,0,L|424:192,1,50
256,192,3940,2,0,L|184:192,1,50
64,176,4485,2,0,L|128:176,1,50
448,168,5031,2,0,L|448:112,1,50,4|0,0:0|0:0,0:0:0:0:
288,184,5576,2,0,B|232:152|232:152|288:136,1,100,2|0,0:0|0:0,0:0:0:0:
368,192,6667,6,0,L|424:192,1,50
184,232,7212,2,0,P|184:176|184:176,1,50
392,224,7758,2,0,L|392:168,1,50
56,192,8303,2,0,L|56:136,1,50,4|0,0:0|0:0,0:0:0:0:
288,128,8849,2,0,L|352:128,1,50,2|0,0:0|0:0,0:0:0:0:
184,128,9394,5,0,0:0:0:0:
400,176,9940,2,0,L|456:176,1,50
259,197,10485,2,0,L|259:141,1,50
117,181,11031,2,0,L|67:181,1,50
400,200,11576,2,0,L|400:128,1,50,4|0,0:0|0:0,0:0:0:0:
144,144,12122,2,0,B|96:168|96:168|144:192,1,100,2|0,0:0|0:0,0:0:0:0:
472,168,13212,5,2,0:0:0:0:
40,208,13758,1,2,0:0:0:0:
464,136,14303,1,2,0:0:0:0:
48,184,14849,2,0,L|48:128,1,50,4|0,0:0|0:0,0:0:0:0:
266,170,15394,2,0,B|322:170|322:170|258:170,1,100,2|0,0:0|0:0,0:0:0:0:
400,192,16485,6,0,L|456:192,1,50
192,200,17031,2,0,L|256:200,1,50
376,216,17576,2,0,L|432:216,1,50
88,184,18122,2,0,L|88:112,1,50,4|0,0:0|0:0,0:0:0:0:
224,128,18667,2,0,B|272:152|272:152|224:168,1,100,2|0,0:0|0:0,0:0:0:0:
80,176,19758,5,0,0:0:0:0:
312,168,20303,2,0,L|256:168,1,50
136,152,20849,2,0,L|64:152,1,50
416,216,21394,2,0,L|416:160,1,50,4|0,0:0|0:0,0:0:0:0:
224,224,21940,2,0,B|224:168|224:168|224:168,1,50,2|0,0:0|0:0,0:0:0:0:
368,208,22485,6,0,L|424:208,1,50
80,192,23031,1,0,0:0:0:0:
320,200,23576,2,0,L|392:200,1,50
56,208,24122,2,0,L|24:152,1,50
368,168,24667,6,0,B|324:168|324:168|380:168,1,100,4|2,0:0|0:0,0:0:0:0:
48,200,25758,2,0,L|48:96,1,100,4|2,0:0|0:0,0:0:0:0:
272,208,26849,6,0,L|336:208,1,50
416,208,27394,2,0,L|472:208,1,50,8|0,0:0|0:0,0:0:0:0:
128,192,27940,2,0,L|128:136,1,50,4|0,0:0|0:0,0:0:0:0:
336,120,28485,2,0,L|456:120,1,100,2|0,0:0|0:0,0:0:0:0:
200,192,29576,6,0,L|144:192,1,50,8|0,0:0|0:0,0:0:0:0:
280,184,30122,2,0,L|208:184,1,50
472,168,30667,2,0,L|408:168,1,50,2|0,0:0|0:0,0:0:0:0:
88,184,31212,2,0,L|80:120,1,50,4|0,0:0|0:0,0:0:0:0:
336,136,31758,2,0,L|440:136,2,100,8|0|2,0:0|0:0|0:0,0:0:0:0:
40,144,33394,5,0,0:0:0:0:
160,152,33940,1,8,0:0:0:0:
464,208,34485,2,0,L|464:152,1,50,4|0,0:0|0:0,0:0:0:0:
256,152,35031,2,0,B|232:152|232:152|280:152,1,50,2|0,0:0|0:0,0:0:0:0:
424,160,35576,6,0,L|496:160,1,50
136,160,36122,2,0,L|72:160,1,50,8|0,0:0|0:0,0:0:0:0:
416,160,36667,2,0,L|416:96,1,50
176,152,37212,2,0,L|112:152,1,50,2|0,0:0|0:0,0:0:0:0:
464,200,37758,2,0,L|344:200,2,100,4|8|0,0:0|0:0|0:0,0:0:0:0:
40,184,39394,5,2,0:0:0:0:
432,184,39940,1,0,0:0:0:0:
64,200,40485,1,8,0:0:0:0:
472,208,41031,2,0,L|472:152,1,50,4|0,0:0|0:0,0:0:0:0:
136,176,41576,2,0,L|88:88,1,100,2|0,0:0|0:0,0:0:0:0:
432,192,42667,6,0,L|360:192,1,50,8|0,0:0|0:0,0:0:0:0:
280,176,43212,2,0,L|224:176,1,50
128,160,43758,2,0,L|64:160,1,50,2|0,0:0|0:0,0:0:0:0:
448,216,44303,2,0,L|448:160,1,50,4|0,0:0|0:0,0:0:0:0:
248,192,44849,2,0,L|136:192,2,100,8|0|2,0:0|0:0|0:0,0:0:0:0:
352,168,46485,6,0,L|408:168,1,50
472,168,47031,2,0,L|416:168,1,50,8|0,0:0|0:0,0:0:0:0:
88,200,47576,2,0,B|40:168|40:168|88:144,1,100,4|2,0:0|0:0,0:0:0:0:
304,184,48667,6,0,L|384:184,1,75,4|0,0:0|0:0,0:0:0:0:
248,176,49212,6,0,L|168:176,1,75,4|0,0:0|0:0,0:0:0:0:
304,184,49893,6,0,L|392:184,1,75,4|0,0:0|0:0,0:0:0:0:
248,176,50775,6,0,L|152:176,1,75,4|0,0:0|0:0,0:0:0:0:
56,216,51940,5,2,0:0:0:0:
80,200,52008,1,2,0:0:0:0:
96,168,52076,1,2,0:0:0:0:
80,144,52144,1,2,0:0:0:0:
48,128,52212,6,0,L|37:62,1,67.5,4|0,0:0|1:0,0:0:0:0:
