osu file format v14

[General]
AudioFilename: audio.mp3
AudioLeadIn: 0
PreviewTime: 26849
Countdown: 0
SampleSet: Soft
StackLeniency: 0.7
Mode: 2
LetterboxInBreaks: 0
WidescreenStoryboard: 1

[Editor]
DistanceSpacing: 1
BeatDivisor: 4
GridSize: 4
TimelineZoom: 1

[Metadata]
Title:Yukitsuki Ouka no Kuni
TitleUnicode:雪月桜花の国
Artist:UNDEAD CORPORATION
ArtistUnicode:UNDEAD CORPORATION
Creator:Astreachan
Version:For Fairies
Source:東方Project
Tags:Featured Artist Setsugetsu Touhou Piano Gensoukyou kara chou Koutetsu Juutei Bakuon 幻想郷から超鋼鉄重低爆音 C78 ZUN Three Moon Fairies Sangetsusei 東方三月精 ~ Strange and Bright Nature Deity 1 Team Shanghai Alice A Land Resplendent With Nature's Beauty 上海アリス幻樂団 Gengakudan Yukimura Hirano Sunny Milk Luna Child Star Sapphire Shad0w414
BeatmapID:1597992
BeatmapSetID:696573

[Difficulty]
HPDrainRate:3
CircleSize:3
OverallDifficulty:4
ApproachRate:4
SliderMultiplier:1.70000000596046
SliderTickRate:1

[Events]
//Background and Video events
0,0,"sunny milk.jpg",0,0
//Break Periods
//Storyboard Layer 0 (Background)
//Storyboard Layer 1 (Fail)
//Storyboard Layer 2 (Pass)
//Storyboard Layer 3 (Foreground)
//Storyboard Layer 4 (Overlay)
//Storyboard Sound Samples

[TimingPoints]
122,545.454545454546,3,2,1,20,1,0
49212,681.818181818182,3,2,1,25,1,0
49893,882.352941176471,3,2,1,20,1,0
50775,1165.04854368932,3,2,1,15,1,0
51940,1090.90909090909,3,2,1,30,1,0
53030,-100,4,2,1,5,0,0

[Colours]
Combo1 : 255,255,128
Combo2 : 255,128,192
Combo3 : 0,0,255
Combo4 : 255,0,0

[HitObjects]
136,184,667,5,0,0:0:0:0:
240,196,1212,1,0,0:0:0:0:
344,200,1758,2,0,L|528:200,1,170.000000596046,0|2,0:0|0:0,0:0:0:0:
160,200,3394,5,0,0:0:0:0:
64,160,3940,1,0,0:0:0:0:
160,200,4485,1,0,0:0:0:0:
300,188,5031,2,0,L|472:188,1,170.000000596046,0|2,0:0|0:0,0:0:0:0:
136,192,6667,5,0,0:0:0:0:
248,184,7212,1,0,0:0:0:0:
96,192,7758,1,0,0:0:0:0:
256,192,8303,2,0,L|444:192,1,170.000000596046,0|2,0:0|0:0,0:0:0:0:
192,136,9394,5,0,0:0:0:0:
319,148,9940,1,4,0:0:0:0:
426,180,10485,1,0,0:0:0:0:
272,120,11031,1,0,0:0:0:0:
104,96,11576,2,0,P|41:143|75:214,1,170.000000596046,0|2,0:0|0:0,0:0:0:0:
352,192,13212,5,0,0:0:0:0:
424,184,13758,1,0,0:0:0:0:
336,168,14303,1,0,0:0:0:0:
164,168,14849,2,0,B|64:168|64:168|172:168,1,170.000000596046,0|2,0:0|0:0,0:0:0:0:
72,144,16485,5,0,0:0:0:0:
168,160,17031,1,0,0:0:0:0:
256,168,17576,1,0,0:0:0:0:
428,172,18122,2,0,B|488:172|488:172|360:168,1,170.000000596046,0|2,0:0|0:0,0:0:0:0:
192,192,19758,5,0,0:0:0:0:
80,176,20303,1,0,0:0:0:0:
184,208,20849,1,0,0:0:0:0:
304,192,21394,2,0,L|492:192,1,170.000000596046,0|2,0:0|0:0,0:0:0:0:
160,192,22485,5,0,0:0:0:0:
44,176,23031,1,0,0:0:0:0:
216,208,23576,1,0,0:0:0:0:
368,200,24122,1,0,0:0:0:0:
208,184,24667,2,0,L|36:184,1,170.000000596046,0|2,0:0|0:0,0:0:0:0:
208,184,25758,2,0,L|396:184,1,170.000000596046,0|2,0:0|0:0,0:0:0:0:
168,192,26849,5,0,0:0:0:0:
48,176,27394,1,8,0:0:0:0:
248,192,27940,2,0,L|444:192,1,170.000000596046,0|2,0:0|0:0,0:0:0:0:
448,184,29576,5,8,0:0:0:0:
344,168,30122,1,0,0:0:0:0:
248,176,30667,1,2,0:0:0:0:
360,164,31212,2,0,L|156:164,1,170.000000596046,0|8,0:0|0:0,0:0:0:0:
264,176,32849,5,2,0:0:0:0:
352,176,33394,1,0,0:0:0:0:
440,184,33940,1,8,0:0:0:0:
288,160,34485,2,0,P|240:136|296:60,1,170.000000596046,0|2,0:0|0:0,0:0:0:0:
56,160,35576,5,0,0:0:0:0:
202,183,36122,1,8,0:0:0:0:
56,160,36667,1,0,0:0:0:0:
202,183,37212,1,2,0:0:0:0:
360,175,37758,2,0,L|176:176,1,170.000000596046,0|8,0:0|0:0,0:0:0:0:
136,184,39394,5,2,0:0:0:0:
256,184,39940,1,0,0:0:0:0:
376,192,40485,1,8,0:0:0:0:
176,176,41031,2,0,P|128:152|176:64,1,170.000000596046,0|2,0:0|0:0,0:0:0:0:
296,200,42667,5,8,0:0:0:0:
400,184,43212,1,0,0:0:0:0:
256,192,43758,1,2,0:0:0:0:
136,168,44303,2,0,B|44:168|44:168|148:168,1,170.000000596046,0|8,0:0|0:0,0:0:0:0:
251,182,45940,5,2,0:0:0:0:
339,169,46485,1,0,0:0:0:0:
456,176,47031,1,8,0:0:0:0:
336,160,47576,2,0,P|276:136|232:36,1,170.000000596046,0|2,0:0|0:0,0:0:0:0:
88,184,48667,5,4,0:0:0:0:
208,192,49212,5,4,0:0:0:0:
409,195,49893,5,4,0:0:0:0:
247,192,50775,5,4,0:0:0:0:
46,181,51940,5,4,0:0:0:0:
256,192,52485,12,0,59576,1:0:0:0:
