osu file format v14

[General]
AudioFilename: audio.mp3
AudioLeadIn: 0
PreviewTime: 172602
Countdown: 1
SampleSet: Normal
StackLeniency: 0.7
Mode: 3
LetterboxInBreaks: 0
SpecialStyle: 0
WidescreenStoryboard: 0

[Editor]
Bookmarks: 45552,64752,104352,123702,172752,211077
DistanceSpacing: 0.8
BeatDivisor: 4
GridSize: 8
TimelineZoom: 3.299999

[Metadata]
Title:Yoru naku usagi wa yume wo miru
TitleUnicode:Yoru naku usagi wa yume wo miru
Artist:UNDEAD CORPORATION
ArtistUnicode:UNDEAD CORPORATION
Creator:Pagastone
Version:matuidi charo
Source:
Tags:
BeatmapID:1474769
BeatmapSetID:696162

[Difficulty]
HPDrainRate:9
CircleSize:4
OverallDifficulty:8
ApproachRate:5
SliderMultiplier:1.4
SliderTickRate:1

[Events]
//Background and Video events
0,0,"Fujiwara.no.Mokou.full.1428897_1.jpg",0,0
//Break Periods
//Storyboard Layer 0 (Background)
//Storyboard Layer 1 (Fail)
//Storyboard Layer 2 (Pass)
//Storyboard Layer 3 (Foreground)
//Storyboard Sound Samples

[TimingPoints]
1302,300,4,1,0,10,1,0
45552,-100,4,1,0,10,0,1
64752,-100,4,1,0,10,0,0
104352,300,4,1,0,10,1,1
123702,300,4,1,0,10,1,0
172752,-100,4,1,0,10,0,1
191802,-100,4,1,0,10,0,0
192252,-100,4,1,0,10,0,1
211077,-100,4,1,0,10,0,0

[HitObjects]
64,192,1302,5,0,0:0:0:0:
320,192,1302,1,0,0:0:0:0:
448,192,1302,1,0,0:0:0:0:
192,192,1452,1,0,0:0:0:0:
320,192,1452,1,0,0:0:0:0:
64,192,1602,1,0,0:0:0:0:
448,192,1602,1,0,0:0:0:0:
192,192,1752,1,0,0:0:0:0:
64,192,1752,1,0,0:0:0:0:
320,192,1752,1,0,0:0:0:0:
448,192,1902,1,0,0:0:0:0:
192,192,1902,1,0,0:0:0:0:
64,192,2052,1,0,0:0:0:0:
320,192,2052,1,0,0:0:0:0:
320,192,2202,1,0,0:0:0:0:
448,192,2202,1,0,0:0:0:0:
192,192,2202,1,0,0:0:0:0:
64,192,2352,1,0,0:0:0:0:
192,192,2352,1,0,0:0:0:0:
448,192,2502,1,0,0:0:0:0:
320,192,2502,1,0,0:0:0:0:
64,192,2577,1,0,0:0:0:0:
192,192,2577,1,0,0:0:0:0:
320,192,2652,1,0,0:0:0:0:
448,192,2652,1,0,0:0:0:0:
64,192,2727,1,0,0:0:0:0:
192,192,2727,1,0,0:0:0:0:
320,192,2802,1,0,0:0:0:0:
448,192,2802,1,0,0:0:0:0:
448,192,2952,1,0,0:0:0:0:
64,192,2952,1,0,0:0:0:0:
64,192,3102,1,0,0:0:0:0:
192,192,3102,1,0,0:0:0:0:
320,192,3102,1,0,0:0:0:0:
448,192,3252,1,0,0:0:0:0:
192,192,3252,1,0,0:0:0:0:
64,192,3402,1,0,0:0:0:0:
320,192,3402,1,0,0:0:0:0:
192,192,3552,1,0,0:0:0:0:
448,192,3552,1,0,0:0:0:0:
64,192,3702,1,0,0:0:0:0:
320,192,3702,1,0,0:0:0:0:
448,192,3702,1,0,0:0:0:0:
192,192,3852,1,0,0:0:0:0:
320,192,3852,1,0,0:0:0:0:
64,192,4002,1,0,0:0:0:0:
448,192,4002,1,0,0:0:0:0:
192,192,4152,1,0,0:0:0:0:
64,192,4152,1,0,0:0:0:0:
448,192,4152,1,0,0:0:0:0:
320,192,4302,1,0,0:0:0:0:
192,192,4302,1,0,0:0:0:0:
64,192,4452,1,0,0:0:0:0:
448,192,4452,1,0,0:0:0:0:
192,192,4602,1,0,0:0:0:0:
320,192,4602,1,0,0:0:0:0:
448,192,4602,1,0,0:0:0:0:
64,192,4752,1,0,0:0:0:0:
192,192,4752,1,0,0:0:0:0:
64,192,4902,1,0,0:0:0:0:
192,192,4902,1,0,0:0:0:0:
320,192,4977,1,0,0:0:0:0:
448,192,4977,1,0,0:0:0:0:
192,192,5052,1,0,0:0:0:0:
64,192,5052,1,0,0:0:0:0:
448,192,5127,1,0,0:0:0:0:
320,192,5127,1,0,0:0:0:0:
64,192,5202,1,0,0:0:0:0:
192,192,5202,1,0,0:0:0:0:
320,192,5352,1,0,0:0:0:0:
448,192,5352,1,0,0:0:0:0:
64,192,5502,1,0,0:0:0:0:
192,192,5502,1,0,0:0:0:0:
320,192,5602,1,0,0:0:0:0:
448,192,5602,1,0,0:0:0:0:
64,192,5702,1,0,0:0:0:0:
192,192,5702,1,0,0:0:0:0:
320,192,5802,1,0,0:0:0:0:
192,192,5902,1,0,0:0:0:0:
448,192,5902,1,0,0:0:0:0:
64,192,6002,1,0,0:0:0:0:
320,192,6002,1,0,0:0:0:0:
448,192,6102,1,0,0:0:0:0:
192,192,6102,1,0,0:0:0:0:
64,192,6402,1,0,0:0:0:0:
192,192,6402,1,0,0:0:0:0:
64,192,6552,1,0,0:0:0:0:
192,192,6552,1,0,0:0:0:0:
192,192,6702,1,0,0:0:0:0:
320,192,6702,1,0,0:0:0:0:
448,192,6702,1,0,0:0:0:0:
64,192,6852,1,0,0:0:0:0:
192,192,6852,1,0,0:0:0:0:
64,192,7152,1,0,0:0:0:0:
192,192,7152,1,0,0:0:0:0:
448,192,7302,1,0,0:0:0:0:
64,192,7452,1,0,0:0:0:0:
192,192,7452,1,0,0:0:0:0:
64,192,7752,1,0,0:0:0:0:
192,192,7752,1,0,0:0:0:0:
64,192,7902,1,0,0:0:0:0:
192,192,7902,1,0,0:0:0:0:
320,192,7902,1,0,0:0:0:0:
64,192,8052,1,0,0:0:0:0:
192,192,8052,1,0,0:0:0:0:
64,192,8202,1,0,0:0:0:0:
192,192,8202,1,0,0:0:0:0:
320,192,8502,1,0,0:0:0:0:
448,192,8502,1,0,0:0:0:0:
320,192,8652,1,0,0:0:0:0:
448,192,8652,1,0,0:0:0:0:
320,192,8802,1,0,0:0:0:0:
448,192,8802,1,0,0:0:0:0:
320,192,8952,1,0,0:0:0:0:
448,192,8952,1,0,0:0:0:0:
320,192,9102,1,0,0:0:0:0:
64,192,9102,1,0,0:0:0:0:
448,192,9102,1,0,0:0:0:0:
320,192,9252,1,0,0:0:0:0:
448,192,9252,1,0,0:0:0:0:
320,192,9552,1,0,0:0:0:0:
448,192,9552,1,0,0:0:0:0:
64,192,9702,1,0,0:0:0:0:
448,192,9702,1,0,0:0:0:0:
192,192,9702,1,0,0:0:0:0:
320,192,9852,1,0,0:0:0:0:
448,192,9852,1,0,0:0:0:0:
320,192,10152,1,0,0:0:0:0:
448,192,10152,1,0,0:0:0:0:
320,192,10302,1,0,0:0:0:0:
64,192,10302,1,0,0:0:0:0:
448,192,10302,1,0,0:0:0:0:
320,192,10452,1,0,0:0:0:0:
448,192,10452,1,0,0:0:0:0:
320,192,10602,1,0,0:0:0:0:
192,192,10602,1,0,0:0:0:0:
448,192,10677,1,0,0:0:0:0:
64,192,10677,1,0,0:0:0:0:
320,192,10752,1,0,0:0:0:0:
192,192,10752,1,0,0:0:0:0:
448,192,10827,1,0,0:0:0:0:
64,192,10827,1,0,0:0:0:0:
192,192,10902,1,0,0:0:0:0:
320,192,10902,1,0,0:0:0:0:
192,192,11052,1,0,0:0:0:0:
448,192,11052,1,0,0:0:0:0:
64,192,11202,1,0,0:0:0:0:
320,192,11202,1,0,0:0:0:0:
64,192,11352,1,0,0:0:0:0:
448,192,11352,1,0,0:0:0:0:
320,192,11352,1,0,0:0:0:0:
192,192,11502,1,0,0:0:0:0:
448,192,11502,1,0,0:0:0:0:
64,192,11652,1,0,0:0:0:0:
192,192,11652,1,0,0:0:0:0:
64,192,11802,1,0,0:0:0:0:
320,192,11802,1,0,0:0:0:0:
448,192,11802,1,0,0:0:0:0:
192,192,11952,1,0,0:0:0:0:
320,192,11952,1,0,0:0:0:0:
448,192,12102,1,0,0:0:0:0:
64,192,12102,1,0,0:0:0:0:
320,192,12177,1,0,0:0:0:0:
192,192,12177,1,0,0:0:0:0:
64,192,12252,1,0,0:0:0:0:
448,192,12252,1,0,0:0:0:0:
192,192,12327,1,0,0:0:0:0:
320,192,12327,1,0,0:0:0:0:
448,192,12402,1,0,0:0:0:0:
64,192,12402,1,0,0:0:0:0:
192,192,12552,1,0,0:0:0:0:
448,192,12552,1,0,0:0:0:0:
64,192,12702,1,0,0:0:0:0:
192,192,12702,1,0,0:0:0:0:
320,192,12702,1,0,0:0:0:0:
64,192,12852,1,0,0:0:0:0:
320,192,12852,1,0,0:0:0:0:
448,192,13002,1,0,0:0:0:0:
192,192,13002,1,0,0:0:0:0:
320,192,13152,1,0,0:0:0:0:
448,192,13152,1,0,0:0:0:0:
192,192,13302,1,0,0:0:0:0:
320,192,13302,1,0,0:0:0:0:
64,192,13302,1,0,0:0:0:0:
64,192,13452,1,0,0:0:0:0:
192,192,13452,1,0,0:0:0:0:
320,192,13602,1,0,0:0:0:0:
448,192,13602,1,0,0:0:0:0:
64,192,13752,1,0,0:0:0:0:
320,192,13752,1,0,0:0:0:0:
448,192,13752,1,0,0:0:0:0:
192,192,13902,1,0,0:0:0:0:
448,192,13902,1,0,0:0:0:0:
64,192,14052,1,0,0:0:0:0:
320,192,14052,1,0,0:0:0:0:
192,192,14202,1,0,0:0:0:0:
320,192,14202,1,0,0:0:0:0:
448,192,14202,1,0,0:0:0:0:
64,192,14352,1,0,0:0:0:0:
192,192,14352,1,0,0:0:0:0:
448,192,14502,1,0,0:0:0:0:
320,192,14502,1,0,0:0:0:0:
64,192,14652,1,0,0:0:0:0:
192,192,14652,1,0,0:0:0:0:
320,192,14802,1,0,0:0:0:0:
448,192,14802,1,0,0:0:0:0:
192,192,14952,1,0,0:0:0:0:
448,192,15102,1,0,0:0:0:0:
64,192,15102,1,0,0:0:0:0:
192,192,15252,1,0,0:0:0:0:
320,192,15252,1,0,0:0:0:0:
64,192,15402,1,0,0:0:0:0:
448,192,15402,1,0,0:0:0:0:
192,192,15552,1,0,0:0:0:0:
320,192,15552,1,0,0:0:0:0:
448,192,15702,1,0,0:0:0:0:
64,192,15702,1,0,0:0:0:0:
320,192,15852,1,0,0:0:0:0:
448,192,16002,1,0,0:0:0:0:
320,192,16152,1,0,0:0:0:0:
64,192,16302,1,0,0:0:0:0:
192,192,16452,1,0,0:0:0:0:
320,192,16602,1,0,0:0:0:0:
192,192,16752,1,0,0:0:0:0:
192,192,16902,1,0,0:0:0:0:
320,192,17052,1,0,0:0:0:0:
448,192,17202,1,0,0:0:0:0:
320,192,17352,1,0,0:0:0:0:
64,192,17502,1,0,0:0:0:0:
192,192,17652,1,0,0:0:0:0:
320,192,17802,1,0,0:0:0:0:
192,192,17952,1,0,0:0:0:0:
64,192,18102,1,0,0:0:0:0:
192,192,18252,1,0,0:0:0:0:
320,192,18402,1,0,0:0:0:0:
192,192,18552,1,0,0:0:0:0:
448,192,18702,1,0,0:0:0:0:
320,192,18852,1,0,0:0:0:0:
192,192,19002,1,0,0:0:0:0:
320,192,19152,1,0,0:0:0:0:
320,192,19302,1,0,0:0:0:0:
192,192,19452,1,0,0:0:0:0:
64,192,19602,1,0,0:0:0:0:
192,192,19752,1,0,0:0:0:0:
448,192,19902,1,0,0:0:0:0:
320,192,20052,1,0,0:0:0:0:
192,192,20202,1,0,0:0:0:0:
320,192,20352,1,0,0:0:0:0:
64,192,20502,1,0,0:0:0:0:
448,192,20502,1,0,0:0:0:0:
192,192,20652,1,0,0:0:0:0:
320,192,20802,1,0,0:0:0:0:
64,192,20802,1,0,0:0:0:0:
192,192,20952,1,0,0:0:0:0:
448,192,21102,1,0,0:0:0:0:
64,192,21102,1,0,0:0:0:0:
192,192,21252,1,0,0:0:0:0:
448,192,21402,1,0,0:0:0:0:
320,192,21402,1,0,0:0:0:0:
192,192,21552,1,0,0:0:0:0:
64,192,21702,1,0,0:0:0:0:
320,192,21702,1,0,0:0:0:0:
192,192,21852,1,0,0:0:0:0:
448,192,22002,1,0,0:0:0:0:
64,192,22002,1,0,0:0:0:0:
320,192,22152,1,0,0:0:0:0:
64,192,22302,1,0,0:0:0:0:
192,192,22302,1,0,0:0:0:0:
320,192,22452,1,0,0:0:0:0:
448,192,22602,1,0,0:0:0:0:
192,192,22602,1,0,0:0:0:0:
64,192,22752,1,0,0:0:0:0:
320,192,22902,1,0,0:0:0:0:
192,192,22902,1,0,0:0:0:0:
448,192,23052,1,0,0:0:0:0:
64,192,23202,1,0,0:0:0:0:
192,192,23202,1,0,0:0:0:0:
320,192,23352,1,0,0:0:0:0:
448,192,23502,1,0,0:0:0:0:
192,192,23502,1,0,0:0:0:0:
64,192,23652,1,0,0:0:0:0:
320,192,23802,1,0,0:0:0:0:
192,192,23802,1,0,0:0:0:0:
448,192,23952,1,0,0:0:0:0:
64,192,24102,1,0,0:0:0:0:
320,192,24102,1,0,0:0:0:0:
192,192,24252,1,0,0:0:0:0:
448,192,24402,1,0,0:0:0:0:
320,192,24477,1,0,0:0:0:0:
192,192,24552,1,0,0:0:0:0:
64,192,24627,1,0,0:0:0:0:
320,192,24702,1,0,0:0:0:0:
448,192,24777,1,0,0:0:0:0:
64,192,24852,1,0,0:0:0:0:
192,192,24927,1,0,0:0:0:0:
320,192,25002,1,0,0:0:0:0:
448,192,25077,1,0,0:0:0:0:
192,192,25152,1,0,0:0:0:0:
64,192,25227,1,0,0:0:0:0:
448,192,25302,1,0,0:0:0:0:
320,192,25302,1,0,0:0:0:0:
192,192,25452,1,0,0:0:0:0:
64,192,25602,1,0,0:0:0:0:
448,192,25602,1,0,0:0:0:0:
192,192,25752,1,0,0:0:0:0:
320,192,25752,1,0,0:0:0:0:
320,192,25902,1,0,0:0:0:0:
64,192,25902,1,0,0:0:0:0:
320,192,26052,1,0,0:0:0:0:
192,192,26202,1,0,0:0:0:0:
448,192,26202,1,0,0:0:0:0:
64,192,26352,1,0,0:0:0:0:
320,192,26502,1,0,0:0:0:0:
448,192,26502,1,0,0:0:0:0:
192,192,26652,1,0,0:0:0:0:
320,192,26727,1,0,0:0:0:0:
448,192,26802,1,0,0:0:0:0:
320,192,26952,1,0,0:0:0:0:
64,192,27102,1,0,0:0:0:0:
192,192,27102,1,0,0:0:0:0:
320,192,27102,1,0,0:0:0:0:
448,192,27252,1,0,0:0:0:0:
320,192,27402,1,0,0:0:0:0:
64,192,27402,1,0,0:0:0:0:
192,192,27552,1,0,0:0:0:0:
64,192,27702,1,0,0:0:0:0:
448,192,27702,1,0,0:0:0:0:
192,192,27777,1,0,0:0:0:0:
320,192,27852,1,0,0:0:0:0:
64,192,28002,1,0,0:0:0:0:
320,192,28152,1,0,0:0:0:0:
448,192,28152,1,0,0:0:0:0:
192,192,28302,1,0,0:0:0:0:
320,192,28452,1,0,0:0:0:0:
192,192,28602,1,0,0:0:0:0:
64,192,28602,1,0,0:0:0:0:
320,192,28752,1,0,0:0:0:0:
64,192,28902,1,0,0:0:0:0:
448,192,28902,1,0,0:0:0:0:
320,192,29052,1,0,0:0:0:0:
192,192,29127,1,0,0:0:0:0:
64,192,29202,1,0,0:0:0:0:
192,192,29352,1,0,0:0:0:0:
64,192,29502,1,0,0:0:0:0:
320,192,29502,1,0,0:0:0:0:
448,192,29502,1,0,0:0:0:0:
192,192,29652,1,0,0:0:0:0:
320,192,29802,1,0,0:0:0:0:
192,192,29952,1,0,0:0:0:0:
64,192,30102,1,0,0:0:0:0:
320,192,30102,1,0,0:0:0:0:
448,192,30102,1,0,0:0:0:0:
192,192,30252,1,0,0:0:0:0:
320,192,30402,1,0,0:0:0:0:
448,192,30552,1,0,0:0:0:0:
64,192,30552,1,0,0:0:0:0:
320,192,30702,1,0,0:0:0:0:
192,192,30852,1,0,0:0:0:0:
64,192,31002,1,0,0:0:0:0:
320,192,31002,1,0,0:0:0:0:
192,192,31152,1,0,0:0:0:0:
320,192,31302,1,0,0:0:0:0:
448,192,31302,1,0,0:0:0:0:
448,192,31452,1,0,0:0:0:0:
320,192,31527,1,0,0:0:0:0:
192,192,31602,1,0,0:0:0:0:
64,192,31752,1,0,0:0:0:0:
192,192,31902,1,0,0:0:0:0:
320,192,31902,1,0,0:0:0:0:
448,192,31902,1,0,0:0:0:0:
64,192,32052,1,0,0:0:0:0:
192,192,32202,1,0,0:0:0:0:
320,192,32202,1,0,0:0:0:0:
448,192,32352,1,0,0:0:0:0:
64,192,32502,1,0,0:0:0:0:
192,192,32577,1,0,0:0:0:0:
320,192,32652,1,0,0:0:0:0:
192,192,32802,1,0,0:0:0:0:
64,192,32952,1,0,0:0:0:0:
320,192,32952,1,0,0:0:0:0:
192,192,33102,1,0,0:0:0:0:
320,192,33252,1,0,0:0:0:0:
448,192,33402,1,0,0:0:0:0:
64,192,33402,1,0,0:0:0:0:
320,192,33552,1,0,0:0:0:0:
64,192,33702,1,0,0:0:0:0:
192,192,33702,1,0,0:0:0:0:
320,192,33702,1,0,0:0:0:0:
448,192,33852,1,0,0:0:0:0:
64,192,34002,1,0,0:0:0:0:
192,192,34002,1,0,0:0:0:0:
448,192,34002,1,0,0:0:0:0:
320,192,34152,1,0,0:0:0:0:
320,192,34302,1,0,0:0:0:0:
448,192,34302,1,0,0:0:0:0:
64,192,34302,1,0,0:0:0:0:
64,192,34452,1,0,0:0:0:0:
192,192,34452,1,0,0:0:0:0:
448,192,34602,1,0,0:0:0:0:
320,192,34602,1,0,0:0:0:0:
320,192,34752,1,0,0:0:0:0:
192,192,34752,1,0,0:0:0:0:
192,192,34902,1,0,0:0:0:0:
64,192,34902,1,0,0:0:0:0:
448,192,34902,128,0,35352:0:0:0:0:
320,192,35052,1,0,0:0:0:0:
64,192,35202,1,0,0:0:0:0:
192,192,35202,1,0,0:0:0:0:
320,192,35352,128,0,35952:0:0:0:0:
192,192,35352,1,0,0:0:0:0:
64,192,35502,1,0,0:0:0:0:
448,192,35652,1,0,0:0:0:0:
192,192,35802,1,0,0:0:0:0:
192,192,35952,128,0,36552:0:0:0:0:
64,192,35952,1,0,0:0:0:0:
448,192,35952,1,0,0:0:0:0:
64,192,36102,1,0,0:0:0:0:
448,192,36252,1,0,0:0:0:0:
320,192,36402,1,0,0:0:0:0:
448,192,36552,128,0,37302:0:0:0:0:
64,192,36552,1,0,0:0:0:0:
320,192,36552,1,0,0:0:0:0:
192,192,36702,1,0,0:0:0:0:
320,192,36852,1,0,0:0:0:0:
192,192,36927,1,0,0:0:0:0:
64,192,37002,1,0,0:0:0:0:
320,192,37002,1,0,0:0:0:0:
64,192,37152,1,0,0:0:0:0:
64,192,37302,128,0,37752:0:0:0:0:
192,192,37302,1,0,0:0:0:0:
320,192,37302,1,0,0:0:0:0:
320,192,37452,1,0,0:0:0:0:
192,192,37602,1,0,0:0:0:0:
192,192,37752,128,0,38352:0:0:0:0:
320,192,37752,1,0,0:0:0:0:
448,192,37752,1,0,0:0:0:0:
320,192,37902,1,0,0:0:0:0:
64,192,38052,1,0,0:0:0:0:
448,192,38202,1,0,0:0:0:0:
448,192,38352,128,0,38952:0:0:0:0:
320,192,38352,1,0,0:0:0:0:
64,192,38352,1,0,0:0:0:0:
320,192,38502,1,0,0:0:0:0:
64,192,38652,5,0,0:0:0:0:
192,192,38727,1,0,0:0:0:0:
64,192,38802,1,0,0:0:0:0:
320,192,38802,1,0,0:0:0:0:
192,192,38952,128,0,39702:0:0:0:0:
64,192,38952,1,0,0:0:0:0:
320,192,38952,1,0,0:0:0:0:
320,192,39252,1,0,0:0:0:0:
448,192,39252,1,0,0:0:0:0:
320,192,39402,1,0,0:0:0:0:
448,192,39402,1,0,0:0:0:0:
64,192,39702,5,0,0:0:0:0:
320,192,39702,1,0,0:0:0:0:
448,192,39702,1,0,0:0:0:0:
192,192,39852,1,0,0:0:0:0:
320,192,39852,1,0,0:0:0:0:
192,192,40002,1,0,0:0:0:0:
320,192,40002,1,0,0:0:0:0:
448,192,40002,1,0,0:0:0:0:
64,192,40152,1,0,0:0:0:0:
192,192,40152,1,0,0:0:0:0:
320,192,40302,1,0,0:0:0:0:
64,192,40302,1,0,0:0:0:0:
192,192,40302,1,0,0:0:0:0:
448,192,40452,1,0,0:0:0:0:
320,192,40452,1,0,0:0:0:0:
448,192,40602,1,0,0:0:0:0:
64,192,40602,1,0,0:0:0:0:
192,192,40602,1,0,0:0:0:0:
320,192,40752,1,0,0:0:0:0:
192,192,40752,1,0,0:0:0:0:
448,192,40902,1,0,0:0:0:0:
320,192,40902,1,0,0:0:0:0:
192,192,40902,1,0,0:0:0:0:
64,192,41052,1,0,0:0:0:0:
192,192,41052,1,0,0:0:0:0:
64,192,41202,1,0,0:0:0:0:
192,192,41202,1,0,0:0:0:0:
320,192,41202,1,0,0:0:0:0:
448,192,41352,1,0,0:0:0:0:
320,192,41352,1,0,0:0:0:0:
192,192,41502,1,0,0:0:0:0:
448,192,41502,1,0,0:0:0:0:
64,192,41502,1,0,0:0:0:0:
320,192,41652,1,0,0:0:0:0:
192,192,41652,1,0,0:0:0:0:
320,192,41802,1,0,0:0:0:0:
64,192,41802,1,0,0:0:0:0:
448,192,41802,1,0,0:0:0:0:
320,192,41952,1,0,0:0:0:0:
448,192,41952,1,0,0:0:0:0:
192,192,42027,1,0,0:0:0:0:
64,192,42027,1,0,0:0:0:0:
448,192,42102,128,0,43302:0:0:0:0:
320,192,42102,1,0,0:0:0:0:
320,192,42252,1,0,0:0:0:0:
192,192,42402,1,0,0:0:0:0:
64,192,42402,1,0,0:0:0:0:
320,192,42552,1,0,0:0:0:0:
192,192,42702,1,0,0:0:0:0:
320,192,42702,1,0,0:0:0:0:
64,192,42852,1,0,0:0:0:0:
64,192,43002,1,0,0:0:0:0:
320,192,43002,1,0,0:0:0:0:
192,192,43152,1,0,0:0:0:0:
320,192,43302,128,0,44502:0:0:0:0:
64,192,43302,1,0,0:0:0:0:
192,192,43302,1,0,0:0:0:0:
64,192,43452,1,0,0:0:0:0:
448,192,43452,1,0,0:0:0:0:
448,192,43602,1,0,0:0:0:0:
192,192,43677,1,0,0:0:0:0:
64,192,43752,1,0,0:0:0:0:
192,192,43827,1,0,0:0:0:0:
448,192,43902,1,0,0:0:0:0:
64,192,43977,1,0,0:0:0:0:
192,192,44052,1,0,0:0:0:0:
448,192,44127,1,0,0:0:0:0:
64,192,44202,1,0,0:0:0:0:
192,192,44277,1,0,0:0:0:0:
448,192,44352,1,0,0:0:0:0:
192,192,44427,1,0,0:0:0:0:
64,192,44502,1,0,0:0:0:0:
192,192,44652,1,0,0:0:0:0:
64,192,44802,1,0,0:0:0:0:
320,192,44802,1,0,0:0:0:0:
448,192,44802,1,0,0:0:0:0:
192,192,44952,1,0,0:0:0:0:
320,192,45027,1,0,0:0:0:0:
64,192,45102,1,0,0:0:0:0:
192,192,45102,1,0,0:0:0:0:
448,192,45102,1,0,0:0:0:0:
64,192,45252,1,0,0:0:0:0:
192,192,45252,1,0,0:0:0:0:
448,192,45252,1,0,0:0:0:0:
320,192,45402,1,0,0:0:0:0:
192,192,45552,1,0,0:0:0:0:
64,192,45552,1,0,0:0:0:0:
448,192,45552,1,0,0:0:0:0:
320,192,45627,1,0,0:0:0:0:
192,192,45702,1,0,0:0:0:0:
448,192,45702,1,0,0:0:0:0:
64,192,45777,1,0,0:0:0:0:
448,192,45852,1,0,0:0:0:0:
192,192,45852,1,0,0:0:0:0:
320,192,45927,1,0,0:0:0:0:
64,192,46002,1,0,0:0:0:0:
448,192,46002,1,0,0:0:0:0:
192,192,46002,1,0,0:0:0:0:
320,192,46077,1,0,0:0:0:0:
64,192,46152,1,0,0:0:0:0:
448,192,46152,1,0,0:0:0:0:
192,192,46227,1,0,0:0:0:0:
320,192,46302,1,0,0:0:0:0:
64,192,46302,1,0,0:0:0:0:
448,192,46377,1,0,0:0:0:0:
192,192,46452,1,0,0:0:0:0:
320,192,46452,1,0,0:0:0:0:
64,192,46527,1,0,0:0:0:0:
448,192,46602,1,0,0:0:0:0:
320,192,46602,1,0,0:0:0:0:
192,192,46602,1,0,0:0:0:0:
64,192,46677,1,0,0:0:0:0:
320,192,46752,1,0,0:0:0:0:
448,192,46752,1,0,0:0:0:0:
64,192,46827,1,0,0:0:0:0:
192,192,46827,1,0,0:0:0:0:
320,192,46902,1,0,0:0:0:0:
448,192,46902,1,0,0:0:0:0:
192,192,46977,1,0,0:0:0:0:
320,192,47052,1,0,0:0:0:0:
448,192,47052,1,0,0:0:0:0:
64,192,47127,1,0,0:0:0:0:
192,192,47202,1,0,0:0:0:0:
448,192,47202,1,0,0:0:0:0:
320,192,47202,1,0,0:0:0:0:
64,192,47277,1,0,0:0:0:0:
448,192,47352,1,0,0:0:0:0:
192,192,47352,1,0,0:0:0:0:
320,192,47427,1,0,0:0:0:0:
448,192,47502,1,0,0:0:0:0:
64,192,47502,1,0,0:0:0:0:
320,192,47577,1,0,0:0:0:0:
64,192,47652,1,0,0:0:0:0:
192,192,47652,1,0,0:0:0:0:
448,192,47727,1,0,0:0:0:0:
64,192,47802,1,0,0:0:0:0:
192,192,47802,1,0,0:0:0:0:
320,192,47802,1,0,0:0:0:0:
448,192,47877,1,0,0:0:0:0:
192,192,47952,1,0,0:0:0:0:
64,192,47952,1,0,0:0:0:0:
448,192,48027,1,0,0:0:0:0:
320,192,48027,1,0,0:0:0:0:
192,192,48102,1,0,0:0:0:0:
64,192,48102,1,0,0:0:0:0:
320,192,48177,1,0,0:0:0:0:
448,192,48252,1,0,0:0:0:0:
64,192,48252,1,0,0:0:0:0:
192,192,48327,1,0,0:0:0:0:
64,192,48402,1,0,0:0:0:0:
448,192,48402,1,0,0:0:0:0:
320,192,48402,1,0,0:0:0:0:
192,192,48477,1,0,0:0:0:0:
320,192,48552,1,0,0:0:0:0:
448,192,48552,1,0,0:0:0:0:
192,192,48627,1,0,0:0:0:0:
320,192,48702,1,0,0:0:0:0:
64,192,48702,1,0,0:0:0:0:
448,192,48777,1,0,0:0:0:0:
320,192,48852,1,0,0:0:0:0:
192,192,48852,1,0,0:0:0:0:
64,192,48927,1,0,0:0:0:0:
448,192,49002,1,0,0:0:0:0:
320,192,49002,1,0,0:0:0:0:
192,192,49002,1,0,0:0:0:0:
64,192,49077,1,0,0:0:0:0:
448,192,49152,1,0,0:0:0:0:
320,192,49152,1,0,0:0:0:0:
64,192,49227,1,0,0:0:0:0:
192,192,49227,1,0,0:0:0:0:
448,192,49302,1,0,0:0:0:0:
320,192,49302,1,0,0:0:0:0:
192,192,49377,1,0,0:0:0:0:
64,192,49452,1,0,0:0:0:0:
448,192,49452,1,0,0:0:0:0:
320,192,49527,1,0,0:0:0:0:
64,192,49602,1,0,0:0:0:0:
192,192,49602,1,0,0:0:0:0:
448,192,49602,1,0,0:0:0:0:
320,192,49677,1,0,0:0:0:0:
64,192,49752,1,0,0:0:0:0:
192,192,49752,1,0,0:0:0:0:
320,192,49827,1,0,0:0:0:0:
448,192,49827,1,0,0:0:0:0:
64,192,49902,1,0,0:0:0:0:
192,192,49902,1,0,0:0:0:0:
320,192,49977,1,0,0:0:0:0:
448,192,50052,1,0,0:0:0:0:
192,192,50052,1,0,0:0:0:0:
320,192,50127,1,0,0:0:0:0:
192,192,50202,1,0,0:0:0:0:
64,192,50202,1,0,0:0:0:0:
448,192,50202,1,0,0:0:0:0:
320,192,50277,1,0,0:0:0:0:
64,192,50352,1,0,0:0:0:0:
192,192,50352,1,0,0:0:0:0:
320,192,50427,1,0,0:0:0:0:
448,192,50427,1,0,0:0:0:0:
192,192,50502,1,0,0:0:0:0:
64,192,50502,1,0,0:0:0:0:
320,192,50577,1,0,0:0:0:0:
448,192,50652,1,0,0:0:0:0:
64,192,50652,1,0,0:0:0:0:
320,192,50727,1,0,0:0:0:0:
64,192,50802,1,0,0:0:0:0:
192,192,50802,1,0,0:0:0:0:
448,192,50802,1,0,0:0:0:0:
320,192,50877,1,0,0:0:0:0:
192,192,50952,1,0,0:0:0:0:
64,192,50952,1,0,0:0:0:0:
448,192,51027,1,0,0:0:0:0:
320,192,51102,1,0,0:0:0:0:
192,192,51102,1,0,0:0:0:0:
64,192,51177,1,0,0:0:0:0:
448,192,51252,1,0,0:0:0:0:
320,192,51252,1,0,0:0:0:0:
192,192,51327,1,0,0:0:0:0:
320,192,51402,1,0,0:0:0:0:
64,192,51402,1,0,0:0:0:0:
448,192,51402,1,0,0:0:0:0:
192,192,51477,1,0,0:0:0:0:
448,192,51552,1,0,0:0:0:0:
320,192,51552,1,0,0:0:0:0:
192,192,51627,1,0,0:0:0:0:
64,192,51627,1,0,0:0:0:0:
320,192,51702,1,0,0:0:0:0:
448,192,51702,1,0,0:0:0:0:
64,192,51777,1,0,0:0:0:0:
320,192,51852,1,0,0:0:0:0:
192,192,51852,1,0,0:0:0:0:
448,192,51927,1,0,0:0:0:0:
192,192,52002,1,0,0:0:0:0:
320,192,52002,1,0,0:0:0:0:
64,192,52002,1,0,0:0:0:0:
448,192,52077,1,0,0:0:0:0:
192,192,52152,1,0,0:0:0:0:
64,192,52152,1,0,0:0:0:0:
320,192,52227,1,0,0:0:0:0:
448,192,52302,1,0,0:0:0:0:
64,192,52302,1,0,0:0:0:0:
192,192,52377,1,0,0:0:0:0:
320,192,52452,1,0,0:0:0:0:
448,192,52452,1,0,0:0:0:0:
64,192,52527,1,0,0:0:0:0:
192,192,52602,1,0,0:0:0:0:
320,192,52602,1,0,0:0:0:0:
448,192,52602,1,0,0:0:0:0:
64,192,52677,1,0,0:0:0:0:
448,192,52752,1,0,0:0:0:0:
192,192,52752,1,0,0:0:0:0:
64,192,52827,1,0,0:0:0:0:
320,192,52827,1,0,0:0:0:0:
448,192,52902,1,0,0:0:0:0:
192,192,52902,1,0,0:0:0:0:
320,192,52977,1,0,0:0:0:0:
192,192,53052,1,0,0:0:0:0:
64,192,53052,1,0,0:0:0:0:
448,192,53127,1,0,0:0:0:0:
64,192,53202,1,0,0:0:0:0:
192,192,53202,1,0,0:0:0:0:
320,192,53202,1,0,0:0:0:0:
448,192,53277,1,0,0:0:0:0:
192,192,53352,1,0,0:0:0:0:
64,192,53352,1,0,0:0:0:0:
448,192,53427,1,0,0:0:0:0:
320,192,53427,1,0,0:0:0:0:
192,192,53502,1,0,0:0:0:0:
64,192,53502,1,0,0:0:0:0:
320,192,53577,1,0,0:0:0:0:
448,192,53652,1,0,0:0:0:0:
192,192,53652,1,0,0:0:0:0:
64,192,53727,1,0,0:0:0:0:
448,192,53802,1,0,0:0:0:0:
192,192,53802,1,0,0:0:0:0:
320,192,53802,1,0,0:0:0:0:
320,192,53952,1,0,0:0:0:0:
448,192,53952,1,0,0:0:0:0:
64,192,54027,1,0,0:0:0:0:
192,192,54027,1,0,0:0:0:0:
320,192,54102,1,0,0:0:0:0:
448,192,54102,1,0,0:0:0:0:
192,192,54177,1,0,0:0:0:0:
64,192,54252,1,0,0:0:0:0:
320,192,54252,1,0,0:0:0:0:
192,192,54327,1,0,0:0:0:0:
320,192,54402,1,0,0:0:0:0:
448,192,54402,1,0,0:0:0:0:
64,192,54402,1,0,0:0:0:0:
192,192,54477,1,0,0:0:0:0:
320,192,54552,1,0,0:0:0:0:
448,192,54552,1,0,0:0:0:0:
64,192,54627,1,0,0:0:0:0:
320,192,54702,1,0,0:0:0:0:
448,192,54702,1,0,0:0:0:0:
192,192,54702,1,0,0:0:0:0:
64,192,54777,1,0,0:0:0:0:
448,192,54852,1,0,0:0:0:0:
320,192,54852,1,0,0:0:0:0:
192,192,54927,1,0,0:0:0:0:
320,192,55002,1,0,0:0:0:0:
448,192,55002,1,0,0:0:0:0:
64,192,55002,1,0,0:0:0:0:
192,192,55077,1,0,0:0:0:0:
320,192,55152,1,0,0:0:0:0:
448,192,55152,1,0,0:0:0:0:
64,192,55227,1,0,0:0:0:0:
320,192,55302,1,0,0:0:0:0:
448,192,55302,1,0,0:0:0:0:
192,192,55302,1,0,0:0:0:0:
64,192,55377,1,0,0:0:0:0:
448,192,55452,1,0,0:0:0:0:
192,192,55452,1,0,0:0:0:0:
320,192,55527,1,0,0:0:0:0:
192,192,55602,1,0,0:0:0:0:
448,192,55602,1,0,0:0:0:0:
64,192,55602,1,0,0:0:0:0:
320,192,55677,1,0,0:0:0:0:
192,192,55752,1,0,0:0:0:0:
448,192,55752,1,0,0:0:0:0:
64,192,55827,1,0,0:0:0:0:
320,192,55902,1,0,0:0:0:0:
448,192,55902,1,0,0:0:0:0:
64,192,55977,1,0,0:0:0:0:
320,192,56052,1,0,0:0:0:0:
448,192,56052,1,0,0:0:0:0:
192,192,56127,1,0,0:0:0:0:
320,192,56202,1,0,0:0:0:0:
448,192,56202,1,0,0:0:0:0:
64,192,56202,1,0,0:0:0:0:
192,192,56277,1,0,0:0:0:0:
64,192,56352,1,0,0:0:0:0:
448,192,56352,1,0,0:0:0:0:
320,192,56427,1,0,0:0:0:0:
192,192,56427,1,0,0:0:0:0:
448,192,56502,1,0,0:0:0:0:
64,192,56502,1,0,0:0:0:0:
192,192,56577,1,0,0:0:0:0:
320,192,56652,1,0,0:0:0:0:
64,192,56652,1,0,0:0:0:0:
448,192,56727,1,0,0:0:0:0:
192,192,56802,1,0,0:0:0:0:
64,192,56802,1,0,0:0:0:0:
320,192,56802,1,0,0:0:0:0:
448,192,56877,1,0,0:0:0:0:
320,192,56952,1,0,0:0:0:0:
192,192,56952,1,0,0:0:0:0:
64,192,57027,1,0,0:0:0:0:
448,192,57102,1,0,0:0:0:0:
320,192,57177,1,0,0:0:0:0:
64,192,57177,1,0,0:0:0:0:
192,192,57252,1,0,0:0:0:0:
64,192,57327,1,0,0:0:0:0:
192,192,57402,1,0,0:0:0:0:
320,192,57402,1,0,0:0:0:0:
448,192,57402,1,0,0:0:0:0:
64,192,57477,1,0,0:0:0:0:
192,192,57552,1,0,0:0:0:0:
320,192,57552,1,0,0:0:0:0:
448,192,57627,1,0,0:0:0:0:
64,192,57627,1,0,0:0:0:0:
192,192,57702,1,0,0:0:0:0:
320,192,57702,1,0,0:0:0:0:
64,192,57777,1,0,0:0:0:0:
448,192,57852,1,0,0:0:0:0:
192,192,57852,1,0,0:0:0:0:
320,192,57927,1,0,0:0:0:0:
192,192,58002,1,0,0:0:0:0:
448,192,58002,1,0,0:0:0:0:
64,192,58002,1,0,0:0:0:0:
320,192,58077,1,0,0:0:0:0:
448,192,58152,1,0,0:0:0:0:
64,192,58152,1,0,0:0:0:0:
192,192,58227,1,0,0:0:0:0:
64,192,58302,1,0,0:0:0:0:
320,192,58302,1,0,0:0:0:0:
448,192,58377,1,0,0:0:0:0:
64,192,58452,1,0,0:0:0:0:
192,192,58452,1,0,0:0:0:0:
320,192,58527,1,0,0:0:0:0:
192,192,58602,1,0,0:0:0:0:
64,192,58602,1,0,0:0:0:0:
448,192,58602,1,0,0:0:0:0:
320,192,58677,1,0,0:0:0:0:
448,192,58752,1,0,0:0:0:0:
192,192,58752,1,0,0:0:0:0:
64,192,58827,1,0,0:0:0:0:
320,192,58827,1,0,0:0:0:0:
448,192,58902,1,0,0:0:0:0:
192,192,58902,1,0,0:0:0:0:
64,192,58977,1,0,0:0:0:0:
320,192,59052,1,0,0:0:0:0:
448,192,59052,1,0,0:0:0:0:
192,192,59127,1,0,0:0:0:0:
320,192,59202,1,0,0:0:0:0:
448,192,59202,1,0,0:0:0:0:
64,192,59202,1,0,0:0:0:0:
192,192,59277,1,0,0:0:0:0:
448,192,59352,1,0,0:0:0:0:
64,192,59352,1,0,0:0:0:0:
320,192,59427,1,0,0:0:0:0:
192,192,59427,1,0,0:0:0:0:
448,192,59502,1,0,0:0:0:0:
64,192,59502,1,0,0:0:0:0:
192,192,59577,1,0,0:0:0:0:
320,192,59652,1,0,0:0:0:0:
448,192,59652,1,0,0:0:0:0:
64,192,59727,1,0,0:0:0:0:
320,192,59802,1,0,0:0:0:0:
448,192,59802,1,0,0:0:0:0:
192,192,59802,1,0,0:0:0:0:
64,192,59877,1,0,0:0:0:0:
192,192,59952,1,0,0:0:0:0:
320,192,59952,1,0,0:0:0:0:
448,192,60027,1,0,0:0:0:0:
64,192,60027,1,0,0:0:0:0:
192,192,60102,1,0,0:0:0:0:
320,192,60102,1,0,0:0:0:0:
64,192,60177,1,0,0:0:0:0:
448,192,60252,1,0,0:0:0:0:
192,192,60252,1,0,0:0:0:0:
64,192,60327,1,0,0:0:0:0:
192,192,60402,1,0,0:0:0:0:
320,192,60402,1,0,0:0:0:0:
448,192,60402,1,0,0:0:0:0:
64,192,60477,1,0,0:0:0:0:
448,192,60552,1,0,0:0:0:0:
320,192,60552,1,0,0:0:0:0:
192,192,60627,1,0,0:0:0:0:
64,192,60702,1,0,0:0:0:0:
320,192,60702,1,0,0:0:0:0:
448,192,60777,1,0,0:0:0:0:
64,192,60852,1,0,0:0:0:0:
192,192,60852,1,0,0:0:0:0:
448,192,60927,1,0,0:0:0:0:
320,192,61002,1,0,0:0:0:0:
64,192,61002,1,0,0:0:0:0:
192,192,61002,1,0,0:0:0:0:
448,192,61077,1,0,0:0:0:0:
192,192,61152,1,0,0:0:0:0:
64,192,61152,1,0,0:0:0:0:
320,192,61227,1,0,0:0:0:0:
448,192,61227,1,0,0:0:0:0:
64,192,61302,1,0,0:0:0:0:
192,192,61302,1,0,0:0:0:0:
320,192,61377,1,0,0:0:0:0:
448,192,61452,1,0,0:0:0:0:
192,192,61452,1,0,0:0:0:0:
64,192,61527,1,0,0:0:0:0:
192,192,61602,1,0,0:0:0:0:
320,192,61602,1,0,0:0:0:0:
448,192,61602,1,0,0:0:0:0:
64,192,61677,1,0,0:0:0:0:
192,192,61752,1,0,0:0:0:0:
320,192,61752,1,0,0:0:0:0:
448,192,61827,1,0,0:0:0:0:
64,192,61902,1,0,0:0:0:0:
320,192,61902,1,0,0:0:0:0:
192,192,61977,1,0,0:0:0:0:
448,192,62052,1,0,0:0:0:0:
320,192,62052,1,0,0:0:0:0:
192,192,62127,1,0,0:0:0:0:
320,192,62202,1,0,0:0:0:0:
448,192,62202,1,0,0:0:0:0:
64,192,62202,1,0,0:0:0:0:
192,192,62277,1,0,0:0:0:0:
320,192,62352,1,0,0:0:0:0:
448,192,62352,1,0,0:0:0:0:
64,192,62427,1,0,0:0:0:0:
192,192,62427,1,0,0:0:0:0:
448,192,62502,1,0,0:0:0:0:
320,192,62502,1,0,0:0:0:0:
192,192,62577,1,0,0:0:0:0:
64,192,62652,1,0,0:0:0:0:
448,192,62652,1,0,0:0:0:0:
320,192,62727,1,0,0:0:0:0:
192,192,62802,1,0,0:0:0:0:
64,192,62802,1,0,0:0:0:0:
320,192,62877,1,0,0:0:0:0:
448,192,62877,1,0,0:0:0:0:
64,192,62952,1,0,0:0:0:0:
192,192,63027,1,0,0:0:0:0:
320,192,63102,1,0,0:0:0:0:
448,192,63177,1,0,0:0:0:0:
320,192,63252,1,0,0:0:0:0:
192,192,63327,1,0,0:0:0:0:
448,192,63402,1,0,0:0:0:0:
320,192,63402,1,0,0:0:0:0:
192,192,63477,1,0,0:0:0:0:
64,192,63477,1,0,0:0:0:0:
448,192,63552,1,0,0:0:0:0:
320,192,63627,1,0,0:0:0:0:
192,192,63702,1,0,0:0:0:0:
64,192,63777,1,0,0:0:0:0:
448,192,63852,1,0,0:0:0:0:
320,192,63927,1,0,0:0:0:0:
64,192,64002,1,0,0:0:0:0:
192,192,64077,1,0,0:0:0:0:
448,192,64152,1,0,0:0:0:0:
320,192,64227,1,0,0:0:0:0:
64,192,64302,1,0,0:0:0:0:
192,192,64302,1,0,0:0:0:0:
448,192,64302,1,0,0:0:0:0:
192,192,64452,1,0,0:0:0:0:
64,192,64452,1,0,0:0:0:0:
448,192,64452,1,0,0:0:0:0:
320,192,64602,1,0,0:0:0:0:
448,192,64602,1,0,0:0:0:0:
64,192,64602,1,0,0:0:0:0:
64,192,64752,1,0,0:0:0:0:
448,192,64752,1,0,0:0:0:0:
320,192,64752,1,0,0:0:0:0:
320,192,64902,1,0,0:0:0:0:
320,192,65202,1,0,0:0:0:0:
448,192,65502,1,0,0:0:0:0:
320,192,65652,1,0,0:0:0:0:
320,192,65952,1,0,0:0:0:0:
320,192,66252,1,0,0:0:0:0:
320,192,66552,1,0,0:0:0:0:
320,192,66702,1,0,0:0:0:0:
192,192,66702,1,0,0:0:0:0:
64,192,66702,1,0,0:0:0:0:
320,192,66852,1,0,0:0:0:0:
448,192,66852,1,0,0:0:0:0:
192,192,66852,1,0,0:0:0:0:
320,192,67002,1,0,0:0:0:0:
64,192,67002,1,0,0:0:0:0:
448,192,67002,1,0,0:0:0:0:
192,192,67152,1,0,0:0:0:0:
320,192,67302,1,0,0:0:0:0:
448,192,67302,1,0,0:0:0:0:
64,192,67302,1,0,0:0:0:0:
192,192,67452,1,0,0:0:0:0:
64,192,67602,1,0,0:0:0:0:
320,192,67602,1,0,0:0:0:0:
192,192,67752,1,0,0:0:0:0:
192,192,67902,1,0,0:0:0:0:
320,192,67902,1,0,0:0:0:0:
448,192,67902,1,0,0:0:0:0:
64,192,68052,1,0,0:0:0:0:
320,192,68202,1,0,0:0:0:0:
448,192,68352,1,0,0:0:0:0:
320,192,68352,1,0,0:0:0:0:
192,192,68427,1,0,0:0:0:0:
64,192,68427,1,0,0:0:0:0:
448,192,68502,1,0,0:0:0:0:
320,192,68502,1,0,0:0:0:0:
448,192,68652,1,0,0:0:0:0:
64,192,68652,1,0,0:0:0:0:
192,192,68727,1,0,0:0:0:0:
320,192,68727,1,0,0:0:0:0:
64,192,68802,1,0,0:0:0:0:
448,192,68802,1,0,0:0:0:0:
64,192,68952,1,0,0:0:0:0:
320,192,68952,1,0,0:0:0:0:
192,192,69027,1,0,0:0:0:0:
448,192,69027,1,0,0:0:0:0:
64,192,69102,1,0,0:0:0:0:
320,192,69102,1,0,0:0:0:0:
448,192,69252,1,0,0:0:0:0:
192,192,69252,1,0,0:0:0:0:
192,192,69402,1,0,0:0:0:0:
64,192,69402,1,0,0:0:0:0:
448,192,69477,1,0,0:0:0:0:
320,192,69477,1,0,0:0:0:0:
192,192,69552,1,0,0:0:0:0:
64,192,69552,1,0,0:0:0:0:
448,192,69627,1,0,0:0:0:0:
320,192,69627,1,0,0:0:0:0:
64,192,69702,5,0,0:0:0:0:
192,192,69702,1,0,0:0:0:0:
192,192,69852,1,0,0:0:0:0:
320,192,69852,1,0,0:0:0:0:
64,192,70002,1,0,0:0:0:0:
448,192,70002,1,0,0:0:0:0:
192,192,70152,1,0,0:0:0:0:
64,192,70152,1,0,0:0:0:0:
320,192,70152,1,0,0:0:0:0:
448,192,70302,1,0,0:0:0:0:
192,192,70302,1,0,0:0:0:0:
64,192,70452,1,0,0:0:0:0:
320,192,70452,1,0,0:0:0:0:
320,192,70602,1,0,0:0:0:0:
448,192,70602,1,0,0:0:0:0:
192,192,70602,1,0,0:0:0:0:
64,192,70752,1,0,0:0:0:0:
192,192,70752,1,0,0:0:0:0:
320,192,70902,1,0,0:0:0:0:
192,192,70902,1,0,0:0:0:0:
64,192,70977,1,0,0:0:0:0:
448,192,70977,1,0,0:0:0:0:
192,192,71052,1,0,0:0:0:0:
320,192,71052,1,0,0:0:0:0:
64,192,71127,1,0,0:0:0:0:
448,192,71127,1,0,0:0:0:0:
192,192,71202,1,0,0:0:0:0:
320,192,71202,1,0,0:0:0:0:
448,192,71352,1,0,0:0:0:0:
64,192,71352,1,0,0:0:0:0:
64,192,71502,1,0,0:0:0:0:
192,192,71502,1,0,0:0:0:0:
320,192,71502,1,0,0:0:0:0:
448,192,71652,1,0,0:0:0:0:
192,192,71652,1,0,0:0:0:0:
64,192,71802,1,0,0:0:0:0:
320,192,71802,1,0,0:0:0:0:
192,192,71952,1,0,0:0:0:0:
448,192,71952,1,0,0:0:0:0:
64,192,72102,1,0,0:0:0:0:
320,192,72102,1,0,0:0:0:0:
448,192,72102,1,0,0:0:0:0:
192,192,72252,1,0,0:0:0:0:
320,192,72252,1,0,0:0:0:0:
64,192,72402,1,0,0:0:0:0:
448,192,72402,1,0,0:0:0:0:
192,192,72552,1,0,0:0:0:0:
64,192,72552,1,0,0:0:0:0:
448,192,72552,1,0,0:0:0:0:
320,192,72702,1,0,0:0:0:0:
192,192,72702,1,0,0:0:0:0:
64,192,72852,1,0,0:0:0:0:
448,192,72852,1,0,0:0:0:0:
192,192,73002,1,0,0:0:0:0:
320,192,73002,1,0,0:0:0:0:
448,192,73002,1,0,0:0:0:0:
64,192,73152,1,0,0:0:0:0:
192,192,73152,1,0,0:0:0:0:
64,192,73302,1,0,0:0:0:0:
320,192,73302,1,0,0:0:0:0:
192,192,73377,1,0,0:0:0:0:
448,192,73377,1,0,0:0:0:0:
320,192,73452,1,0,0:0:0:0:
64,192,73452,1,0,0:0:0:0:
448,192,73527,1,0,0:0:0:0:
192,192,73527,1,0,0:0:0:0:
64,192,73602,1,0,0:0:0:0:
320,192,73602,1,0,0:0:0:0:
320,192,73752,1,0,0:0:0:0:
448,192,73752,1,0,0:0:0:0:
64,192,73902,1,0,0:0:0:0:
192,192,73902,1,0,0:0:0:0:
320,192,74002,1,0,0:0:0:0:
448,192,74002,1,0,0:0:0:0:
192,192,74102,1,0,0:0:0:0:
64,192,74102,1,0,0:0:0:0:
320,192,74202,1,0,0:0:0:0:
448,192,74302,1,0,0:0:0:0:
64,192,74302,1,0,0:0:0:0:
320,192,74402,1,0,0:0:0:0:
192,192,74402,1,0,0:0:0:0:
64,192,74502,1,0,0:0:0:0:
448,192,74502,1,0,0:0:0:0:
448,192,74802,1,0,0:0:0:0:
320,192,74802,1,0,0:0:0:0:
448,192,74952,1,0,0:0:0:0:
320,192,74952,1,0,0:0:0:0:
192,192,75102,1,0,0:0:0:0:
320,192,75102,1,0,0:0:0:0:
64,192,75102,1,0,0:0:0:0:
448,192,75252,1,0,0:0:0:0:
320,192,75252,1,0,0:0:0:0:
448,192,75552,1,0,0:0:0:0:
320,192,75552,1,0,0:0:0:0:
192,192,75702,1,0,0:0:0:0:
448,192,75852,1,0,0:0:0:0:
64,192,75852,1,0,0:0:0:0:
192,192,75852,1,0,0:0:0:0:
448,192,76152,1,0,0:0:0:0:
320,192,76152,1,0,0:0:0:0:
192,192,76302,1,0,0:0:0:0:
320,192,76302,1,0,0:0:0:0:
448,192,76302,1,0,0:0:0:0:
448,192,76452,1,0,0:0:0:0:
320,192,76452,1,0,0:0:0:0:
448,192,76602,1,0,0:0:0:0:
320,192,76602,1,0,0:0:0:0:
320,192,76902,1,0,0:0:0:0:
64,192,76902,1,0,0:0:0:0:
192,192,76902,1,0,0:0:0:0:
64,192,77052,1,0,0:0:0:0:
192,192,77052,1,0,0:0:0:0:
64,192,77202,1,0,0:0:0:0:
192,192,77202,1,0,0:0:0:0:
64,192,77352,1,0,0:0:0:0:
192,192,77352,1,0,0:0:0:0:
320,192,77502,1,0,0:0:0:0:
448,192,77502,1,0,0:0:0:0:
192,192,77502,1,0,0:0:0:0:
64,192,77652,1,0,0:0:0:0:
192,192,77652,1,0,0:0:0:0:
64,192,77952,1,0,0:0:0:0:
192,192,77952,1,0,0:0:0:0:
448,192,78102,1,0,0:0:0:0:
192,192,78102,1,0,0:0:0:0:
320,192,78102,1,0,0:0:0:0:
64,192,78252,1,0,0:0:0:0:
192,192,78252,1,0,0:0:0:0:
64,192,78552,1,0,0:0:0:0:
192,192,78552,1,0,0:0:0:0:
320,192,78702,1,0,0:0:0:0:
448,192,78702,1,0,0:0:0:0:
192,192,78702,1,0,0:0:0:0:
64,192,78852,1,0,0:0:0:0:
192,192,78852,1,0,0:0:0:0:
448,192,79002,1,0,0:0:0:0:
320,192,79002,1,0,0:0:0:0:
192,192,79077,1,0,0:0:0:0:
64,192,79077,1,0,0:0:0:0:
320,192,79152,1,0,0:0:0:0:
448,192,79152,1,0,0:0:0:0:
192,192,79227,1,0,0:0:0:0:
64,192,79227,1,0,0:0:0:0:
320,192,79302,1,0,0:0:0:0:
448,192,79302,1,0,0:0:0:0:
192,192,79452,1,0,0:0:0:0:
448,192,79452,1,0,0:0:0:0:
64,192,79602,1,0,0:0:0:0:
320,192,79602,1,0,0:0:0:0:
64,192,79752,1,0,0:0:0:0:
448,192,79752,1,0,0:0:0:0:
320,192,79752,1,0,0:0:0:0:
192,192,79902,1,0,0:0:0:0:
448,192,79902,1,0,0:0:0:0:
64,192,80052,1,0,0:0:0:0:
192,192,80052,1,0,0:0:0:0:
64,192,80202,1,0,0:0:0:0:
320,192,80202,1,0,0:0:0:0:
448,192,80202,1,0,0:0:0:0:
192,192,80352,1,0,0:0:0:0:
320,192,80352,1,0,0:0:0:0:
448,192,80502,1,0,0:0:0:0:
64,192,80502,1,0,0:0:0:0:
320,192,80577,1,0,0:0:0:0:
192,192,80577,1,0,0:0:0:0:
64,192,80652,1,0,0:0:0:0:
448,192,80652,1,0,0:0:0:0:
192,192,80727,1,0,0:0:0:0:
320,192,80727,1,0,0:0:0:0:
448,192,80802,1,0,0:0:0:0:
64,192,80802,1,0,0:0:0:0:
192,192,80952,1,0,0:0:0:0:
448,192,80952,1,0,0:0:0:0:
64,192,81102,1,0,0:0:0:0:
192,192,81102,1,0,0:0:0:0:
320,192,81102,1,0,0:0:0:0:
64,192,81252,1,0,0:0:0:0:
320,192,81252,1,0,0:0:0:0:
448,192,81402,1,0,0:0:0:0:
192,192,81402,1,0,0:0:0:0:
320,192,81552,1,0,0:0:0:0:
448,192,81552,1,0,0:0:0:0:
192,192,81702,1,0,0:0:0:0:
320,192,81702,1,0,0:0:0:0:
64,192,81702,1,0,0:0:0:0:
64,192,81852,1,0,0:0:0:0:
192,192,81852,1,0,0:0:0:0:
320,192,82002,1,0,0:0:0:0:
448,192,82002,1,0,0:0:0:0:
64,192,82152,1,0,0:0:0:0:
320,192,82152,1,0,0:0:0:0:
448,192,82152,1,0,0:0:0:0:
192,192,82302,1,0,0:0:0:0:
448,192,82302,1,0,0:0:0:0:
64,192,82452,1,0,0:0:0:0:
320,192,82452,1,0,0:0:0:0:
192,192,82602,1,0,0:0:0:0:
320,192,82602,1,0,0:0:0:0:
448,192,82602,1,0,0:0:0:0:
64,192,82752,1,0,0:0:0:0:
192,192,82752,1,0,0:0:0:0:
320,192,82902,1,0,0:0:0:0:
448,192,82902,1,0,0:0:0:0:
192,192,82902,1,0,0:0:0:0:
64,192,83052,1,0,0:0:0:0:
320,192,83052,1,0,0:0:0:0:
192,192,83202,1,0,0:0:0:0:
320,192,83202,1,0,0:0:0:0:
448,192,83352,1,0,0:0:0:0:
320,192,83352,1,0,0:0:0:0:
320,192,83502,1,0,0:0:0:0:
192,192,83502,1,0,0:0:0:0:
448,192,83652,1,0,0:0:0:0:
192,192,83652,1,0,0:0:0:0:
64,192,83802,1,0,0:0:0:0:
320,192,83802,1,0,0:0:0:0:
320,192,83952,1,0,0:0:0:0:
448,192,83952,1,0,0:0:0:0:
64,192,84102,1,0,0:0:0:0:
192,192,84102,1,0,0:0:0:0:
448,192,84102,1,0,0:0:0:0:
320,192,84252,1,0,0:0:0:0:
192,192,84402,1,0,0:0:0:0:
320,192,84402,1,0,0:0:0:0:
64,192,84552,1,0,0:0:0:0:
64,192,84702,1,0,0:0:0:0:
192,192,84702,1,0,0:0:0:0:
320,192,84852,1,0,0:0:0:0:
192,192,85002,1,0,0:0:0:0:
320,192,85002,1,0,0:0:0:0:
448,192,85152,1,0,0:0:0:0:
320,192,85302,1,0,0:0:0:0:
448,192,85302,1,0,0:0:0:0:
192,192,85452,1,0,0:0:0:0:
192,192,85602,1,0,0:0:0:0:
320,192,85602,1,0,0:0:0:0:
448,192,85752,1,0,0:0:0:0:
448,192,85902,1,0,0:0:0:0:
320,192,85902,1,0,0:0:0:0:
192,192,86052,1,0,0:0:0:0:
320,192,86202,1,0,0:0:0:0:
192,192,86202,1,0,0:0:0:0:
64,192,86352,1,0,0:0:0:0:
64,192,86502,1,0,0:0:0:0:
448,192,86502,1,0,0:0:0:0:
320,192,86652,1,0,0:0:0:0:
192,192,86802,1,0,0:0:0:0:
320,192,86802,1,0,0:0:0:0:
448,192,86952,1,0,0:0:0:0:
64,192,87102,1,0,0:0:0:0:
448,192,87102,1,0,0:0:0:0:
192,192,87252,1,0,0:0:0:0:
448,192,87402,1,0,0:0:0:0:
192,192,87402,1,0,0:0:0:0:
64,192,87552,1,0,0:0:0:0:
64,192,87702,1,0,0:0:0:0:
320,192,87702,1,0,0:0:0:0:
192,192,87852,1,0,0:0:0:0:
64,192,88002,1,0,0:0:0:0:
192,192,88077,1,0,0:0:0:0:
320,192,88152,1,0,0:0:0:0:
448,192,88227,1,0,0:0:0:0:
192,192,88302,1,0,0:0:0:0:
64,192,88377,1,0,0:0:0:0:
320,192,88452,1,0,0:0:0:0:
448,192,88527,1,0,0:0:0:0:
64,192,88602,1,0,0:0:0:0:
192,192,88677,1,0,0:0:0:0:
320,192,88752,1,0,0:0:0:0:
448,192,88827,1,0,0:0:0:0:
320,192,88902,1,0,0:0:0:0:
192,192,88902,1,0,0:0:0:0:
64,192,88902,1,0,0:0:0:0:
64,192,89052,1,0,0:0:0:0:
192,192,89202,1,0,0:0:0:0:
320,192,89352,1,0,0:0:0:0:
448,192,89502,1,0,0:0:0:0:
320,192,89652,1,0,0:0:0:0:
192,192,89802,1,0,0:0:0:0:
448,192,89952,1,0,0:0:0:0:
320,192,90102,1,0,0:0:0:0:
192,192,90102,1,0,0:0:0:0:
64,192,90252,1,0,0:0:0:0:
192,192,90327,1,0,0:0:0:0:
320,192,90402,1,0,0:0:0:0:
192,192,90552,1,0,0:0:0:0:
448,192,90702,1,0,0:0:0:0:
320,192,90702,1,0,0:0:0:0:
64,192,90702,1,0,0:0:0:0:
192,192,90852,1,0,0:0:0:0:
448,192,91002,1,0,0:0:0:0:
320,192,91152,1,0,0:0:0:0:
64,192,91302,1,0,0:0:0:0:
192,192,91377,1,0,0:0:0:0:
320,192,91452,1,0,0:0:0:0:
448,192,91602,1,0,0:0:0:0:
64,192,91752,1,0,0:0:0:0:
192,192,91752,1,0,0:0:0:0:
320,192,91902,1,0,0:0:0:0:
448,192,92052,1,0,0:0:0:0:
320,192,92202,1,0,0:0:0:0:
192,192,92352,1,0,0:0:0:0:
64,192,92502,1,0,0:0:0:0:
192,192,92502,1,0,0:0:0:0:
320,192,92502,1,0,0:0:0:0:
448,192,92652,1,0,0:0:0:0:
320,192,92727,1,0,0:0:0:0:
192,192,92802,1,0,0:0:0:0:
64,192,92802,1,0,0:0:0:0:
448,192,92802,1,0,0:0:0:0:
320,192,92952,1,0,0:0:0:0:
192,192,93102,1,0,0:0:0:0:
64,192,93102,1,0,0:0:0:0:
448,192,93102,1,0,0:0:0:0:
448,192,93702,128,0,94152:0:0:0:0:
64,192,93702,1,0,0:0:0:0:
192,192,93702,1,0,0:0:0:0:
320,192,94002,1,0,0:0:0:0:
192,192,94077,1,0,0:0:0:0:
320,192,94152,128,0,94752:0:0:0:0:
64,192,94152,1,0,0:0:0:0:
192,192,94452,1,0,0:0:0:0:
448,192,94602,1,0,0:0:0:0:
64,192,94602,1,0,0:0:0:0:
192,192,94752,128,0,95352:0:0:0:0:
64,192,94752,1,0,0:0:0:0:
448,192,94752,1,0,0:0:0:0:
448,192,95052,1,0,0:0:0:0:
64,192,95052,1,0,0:0:0:0:
320,192,95202,1,0,0:0:0:0:
448,192,95202,1,0,0:0:0:0:
448,192,95352,128,0,96102:0:0:0:0:
64,192,95352,1,0,0:0:0:0:
320,192,95352,1,0,0:0:0:0:
64,192,95652,1,0,0:0:0:0:
192,192,95727,1,0,0:0:0:0:
64,192,95802,1,0,0:0:0:0:
320,192,95802,1,0,0:0:0:0:
64,192,96102,128,0,96552:0:0:0:0:
192,192,96102,1,0,0:0:0:0:
320,192,96102,1,0,0:0:0:0:
448,192,96402,1,0,0:0:0:0:
192,192,96402,1,0,0:0:0:0:
192,192,96552,128,0,97152:0:0:0:0:
320,192,96552,1,0,0:0:0:0:
448,192,96552,1,0,0:0:0:0:
320,192,96852,1,0,0:0:0:0:
448,192,97002,1,0,0:0:0:0:
64,192,97002,1,0,0:0:0:0:
320,192,97152,128,0,97752:0:0:0:0:
64,192,97152,1,0,0:0:0:0:
448,192,97152,1,0,0:0:0:0:
64,192,97452,1,0,0:0:0:0:
192,192,97527,1,0,0:0:0:0:
448,192,97602,1,0,0:0:0:0:
64,192,97602,1,0,0:0:0:0:
64,192,97752,128,0,98502:0:0:0:0:
448,192,97752,1,0,0:0:0:0:
192,192,97752,1,0,0:0:0:0:
192,192,98052,1,0,0:0:0:0:
320,192,98127,1,0,0:0:0:0:
192,192,98202,1,0,0:0:0:0:
448,192,98202,1,0,0:0:0:0:
448,192,98352,1,0,0:0:0:0:
320,192,98427,1,0,0:0:0:0:
192,192,98502,1,0,0:0:0:0:
448,192,98502,1,0,0:0:0:0:
448,192,98652,1,0,0:0:0:0:
64,192,98802,1,0,0:0:0:0:
192,192,98802,1,0,0:0:0:0:
320,192,98802,1,0,0:0:0:0:
64,192,98952,1,0,0:0:0:0:
192,192,98952,1,0,0:0:0:0:
192,192,99102,1,0,0:0:0:0:
320,192,99102,1,0,0:0:0:0:
448,192,99102,1,0,0:0:0:0:
320,192,99252,1,0,0:0:0:0:
192,192,99252,1,0,0:0:0:0:
64,192,99402,1,0,0:0:0:0:
192,192,99402,1,0,0:0:0:0:
448,192,99402,1,0,0:0:0:0:
192,192,99552,1,0,0:0:0:0:
320,192,99552,1,0,0:0:0:0:
448,192,99702,1,0,0:0:0:0:
320,192,99702,1,0,0:0:0:0:
64,192,99702,1,0,0:0:0:0:
64,192,99852,1,0,0:0:0:0:
192,192,99852,1,0,0:0:0:0:
448,192,100002,1,0,0:0:0:0:
320,192,100002,1,0,0:0:0:0:
192,192,100002,1,0,0:0:0:0:
320,192,100152,1,0,0:0:0:0:
448,192,100152,1,0,0:0:0:0:
64,192,100302,1,0,0:0:0:0:
192,192,100302,1,0,0:0:0:0:
448,192,100302,1,0,0:0:0:0:
64,192,100452,1,0,0:0:0:0:
320,192,100452,1,0,0:0:0:0:
320,192,100602,1,0,0:0:0:0:
192,192,100602,1,0,0:0:0:0:
448,192,100602,1,0,0:0:0:0:
64,192,100752,1,0,0:0:0:0:
192,192,100752,1,0,0:0:0:0:
320,192,100827,1,0,0:0:0:0:
448,192,100827,1,0,0:0:0:0:
64,192,100902,1,0,0:0:0:0:
192,192,100902,1,0,0:0:0:0:
448,192,101052,1,0,0:0:0:0:
320,192,101052,1,0,0:0:0:0:
64,192,101202,1,0,0:0:0:0:
192,192,101202,1,0,0:0:0:0:
320,192,101202,1,0,0:0:0:0:
320,192,101352,1,0,0:0:0:0:
64,192,101352,1,0,0:0:0:0:
64,192,101502,1,0,0:0:0:0:
192,192,101502,1,0,0:0:0:0:
448,192,101502,1,0,0:0:0:0:
192,192,101652,1,0,0:0:0:0:
448,192,101652,1,0,0:0:0:0:
448,192,101802,1,0,0:0:0:0:
320,192,101802,1,0,0:0:0:0:
192,192,101802,1,0,0:0:0:0:
320,192,101952,1,0,0:0:0:0:
64,192,101952,1,0,0:0:0:0:
448,192,102102,1,0,0:0:0:0:
192,192,102102,1,0,0:0:0:0:
64,192,102102,1,0,0:0:0:0:
320,192,102177,1,0,0:0:0:0:
192,192,102252,1,0,0:0:0:0:
64,192,102327,1,0,0:0:0:0:
320,192,102402,1,0,0:0:0:0:
192,192,102477,1,0,0:0:0:0:
448,192,102552,1,0,0:0:0:0:
320,192,102552,1,0,0:0:0:0:
64,192,102552,1,0,0:0:0:0:
192,192,102627,1,0,0:0:0:0:
448,192,102702,1,0,0:0:0:0:
320,192,102777,1,0,0:0:0:0:
192,192,102852,1,0,0:0:0:0:
64,192,102927,1,0,0:0:0:0:
448,192,103002,1,0,0:0:0:0:
320,192,103002,1,0,0:0:0:0:
192,192,103002,1,0,0:0:0:0:
64,192,103077,1,0,0:0:0:0:
448,192,103152,1,0,0:0:0:0:
192,192,103227,1,0,0:0:0:0:
320,192,103302,1,0,0:0:0:0:
448,192,103302,1,0,0:0:0:0:
192,192,103377,1,0,0:0:0:0:
64,192,103377,1,0,0:0:0:0:
320,192,103452,1,0,0:0:0:0:
448,192,103452,1,0,0:0:0:0:
64,192,103527,1,0,0:0:0:0:
192,192,103527,1,0,0:0:0:0:
320,192,103602,1,0,0:0:0:0:
448,192,103602,1,0,0:0:0:0:
64,192,103677,1,0,0:0:0:0:
192,192,103677,1,0,0:0:0:0:
320,192,103752,1,0,0:0:0:0:
448,192,103752,1,0,0:0:0:0:
192,192,103827,1,0,0:0:0:0:
64,192,103827,1,0,0:0:0:0:
448,192,103902,1,0,0:0:0:0:
320,192,103977,1,0,0:0:0:0:
192,192,104052,1,0,0:0:0:0:
64,192,104127,1,0,0:0:0:0:
448,192,104202,1,0,0:0:0:0:
320,192,104277,1,0,0:0:0:0:
192,192,104352,1,0,0:0:0:0:
64,192,104352,1,0,0:0:0:0:
320,192,104427,1,0,0:0:0:0:
448,192,104427,1,0,0:0:0:0:
192,192,104502,1,0,0:0:0:0:
64,192,104502,1,0,0:0:0:0:
320,192,104577,1,0,0:0:0:0:
448,192,104652,1,0,0:0:0:0:
64,192,104652,1,0,0:0:0:0:
192,192,104727,1,0,0:0:0:0:
64,192,104802,1,0,0:0:0:0:
320,192,104802,1,0,0:0:0:0:
448,192,104802,1,0,0:0:0:0:
192,192,104877,1,0,0:0:0:0:
64,192,104952,1,0,0:0:0:0:
320,192,104952,1,0,0:0:0:0:
448,192,105027,1,0,0:0:0:0:
192,192,105102,1,0,0:0:0:0:
64,192,105102,1,0,0:0:0:0:
320,192,105177,1,0,0:0:0:0:
448,192,105252,1,0,0:0:0:0:
192,192,105252,1,0,0:0:0:0:
64,192,105327,1,0,0:0:0:0:
448,192,105402,1,0,0:0:0:0:
320,192,105402,1,0,0:0:0:0:
192,192,105402,1,0,0:0:0:0:
64,192,105477,1,0,0:0:0:0:
320,192,105552,1,0,0:0:0:0:
448,192,105552,1,0,0:0:0:0:
192,192,105627,1,0,0:0:0:0:
64,192,105627,1,0,0:0:0:0:
320,192,105702,1,0,0:0:0:0:
448,192,105702,1,0,0:0:0:0:
192,192,105777,1,0,0:0:0:0:
64,192,105852,1,0,0:0:0:0:
448,192,105852,1,0,0:0:0:0:
320,192,105927,1,0,0:0:0:0:
192,192,106002,1,0,0:0:0:0:
448,192,106002,1,0,0:0:0:0:
64,192,106002,1,0,0:0:0:0:
320,192,106077,1,0,0:0:0:0:
448,192,106152,1,0,0:0:0:0:
192,192,106152,1,0,0:0:0:0:
64,192,106227,1,0,0:0:0:0:
320,192,106302,1,0,0:0:0:0:
448,192,106302,1,0,0:0:0:0:
192,192,106377,1,0,0:0:0:0:
64,192,106452,1,0,0:0:0:0:
320,192,106452,1,0,0:0:0:0:
448,192,106527,1,0,0:0:0:0:
64,192,106602,1,0,0:0:0:0:
192,192,106602,1,0,0:0:0:0:
320,192,106602,1,0,0:0:0:0:
448,192,106677,1,0,0:0:0:0:
192,192,106752,1,0,0:0:0:0:
64,192,106752,1,0,0:0:0:0:
320,192,106827,1,0,0:0:0:0:
448,192,106827,1,0,0:0:0:0:
192,192,106902,1,0,0:0:0:0:
64,192,106902,1,0,0:0:0:0:
320,192,106977,1,0,0:0:0:0:
64,192,107052,1,0,0:0:0:0:
448,192,107052,1,0,0:0:0:0:
320,192,107127,1,0,0:0:0:0:
64,192,107202,1,0,0:0:0:0:
192,192,107202,1,0,0:0:0:0:
448,192,107202,1,0,0:0:0:0:
320,192,107277,1,0,0:0:0:0:
192,192,107352,1,0,0:0:0:0:
64,192,107352,1,0,0:0:0:0:
448,192,107427,1,0,0:0:0:0:
320,192,107502,1,0,0:0:0:0:
192,192,107502,1,0,0:0:0:0:
64,192,107577,1,0,0:0:0:0:
320,192,107652,1,0,0:0:0:0:
448,192,107652,1,0,0:0:0:0:
192,192,107727,1,0,0:0:0:0:
64,192,107802,1,0,0:0:0:0:
448,192,107802,1,0,0:0:0:0:
320,192,107802,1,0,0:0:0:0:
192,192,107877,1,0,0:0:0:0:
448,192,107952,1,0,0:0:0:0:
320,192,107952,1,0,0:0:0:0:
64,192,108027,1,0,0:0:0:0:
192,192,108027,1,0,0:0:0:0:
320,192,108102,1,0,0:0:0:0:
448,192,108102,1,0,0:0:0:0:
64,192,108177,1,0,0:0:0:0:
448,192,108252,1,0,0:0:0:0:
320,192,108252,1,0,0:0:0:0:
192,192,108327,1,0,0:0:0:0:
64,192,108402,1,0,0:0:0:0:
320,192,108402,1,0,0:0:0:0:
448,192,108402,1,0,0:0:0:0:
192,192,108477,1,0,0:0:0:0:
320,192,108552,1,0,0:0:0:0:
64,192,108552,1,0,0:0:0:0:
448,192,108627,1,0,0:0:0:0:
192,192,108627,1,0,0:0:0:0:
64,192,108702,1,0,0:0:0:0:
320,192,108702,1,0,0:0:0:0:
448,192,108777,1,0,0:0:0:0:
192,192,108852,1,0,0:0:0:0:
64,192,108852,1,0,0:0:0:0:
320,192,108927,1,0,0:0:0:0:
448,192,109002,1,0,0:0:0:0:
192,192,109002,1,0,0:0:0:0:
64,192,109002,1,0,0:0:0:0:
320,192,109077,1,0,0:0:0:0:
448,192,109152,1,0,0:0:0:0:
192,192,109152,1,0,0:0:0:0:
320,192,109227,1,0,0:0:0:0:
64,192,109227,1,0,0:0:0:0:
448,192,109302,1,0,0:0:0:0:
192,192,109302,1,0,0:0:0:0:
320,192,109377,1,0,0:0:0:0:
64,192,109452,1,0,0:0:0:0:
192,192,109452,1,0,0:0:0:0:
320,192,109527,1,0,0:0:0:0:
64,192,109602,1,0,0:0:0:0:
192,192,109602,1,0,0:0:0:0:
448,192,109602,1,0,0:0:0:0:
320,192,109677,1,0,0:0:0:0:
64,192,109752,1,0,0:0:0:0:
448,192,109752,1,0,0:0:0:0:
192,192,109827,1,0,0:0:0:0:
64,192,109902,1,0,0:0:0:0:
320,192,109902,1,0,0:0:0:0:
448,192,109977,1,0,0:0:0:0:
64,192,110052,1,0,0:0:0:0:
192,192,110052,1,0,0:0:0:0:
320,192,110127,1,0,0:0:0:0:
64,192,110202,1,0,0:0:0:0:
192,192,110202,1,0,0:0:0:0:
448,192,110202,1,0,0:0:0:0:
320,192,110277,1,0,0:0:0:0:
448,192,110352,1,0,0:0:0:0:
64,192,110352,1,0,0:0:0:0:
192,192,110427,1,0,0:0:0:0:
320,192,110427,1,0,0:0:0:0:
64,192,110502,1,0,0:0:0:0:
448,192,110502,1,0,0:0:0:0:
192,192,110577,1,0,0:0:0:0:
320,192,110652,1,0,0:0:0:0:
64,192,110652,1,0,0:0:0:0:
448,192,110727,1,0,0:0:0:0:
64,192,110802,1,0,0:0:0:0:
192,192,110802,1,0,0:0:0:0:
320,192,110802,1,0,0:0:0:0:
448,192,110877,1,0,0:0:0:0:
320,192,110952,1,0,0:0:0:0:
64,192,110952,1,0,0:0:0:0:
192,192,111027,1,0,0:0:0:0:
448,192,111102,1,0,0:0:0:0:
320,192,111102,1,0,0:0:0:0:
192,192,111177,1,0,0:0:0:0:
448,192,111252,1,0,0:0:0:0:
320,192,111252,1,0,0:0:0:0:
64,192,111327,1,0,0:0:0:0:
192,192,111402,1,0,0:0:0:0:
448,192,111402,1,0,0:0:0:0:
320,192,111402,1,0,0:0:0:0:
64,192,111477,1,0,0:0:0:0:
320,192,111552,1,0,0:0:0:0:
448,192,111552,1,0,0:0:0:0:
192,192,111627,1,0,0:0:0:0:
64,192,111627,1,0,0:0:0:0:
320,192,111702,1,0,0:0:0:0:
448,192,111702,1,0,0:0:0:0:
192,192,111777,1,0,0:0:0:0:
64,192,111852,1,0,0:0:0:0:
448,192,111852,1,0,0:0:0:0:
320,192,111927,1,0,0:0:0:0:
64,192,112002,1,0,0:0:0:0:
192,192,112002,1,0,0:0:0:0:
448,192,112002,1,0,0:0:0:0:
320,192,112077,1,0,0:0:0:0:
448,192,112152,1,0,0:0:0:0:
64,192,112227,1,0,0:0:0:0:
192,192,112227,1,0,0:0:0:0:
320,192,112302,1,0,0:0:0:0:
448,192,112302,1,0,0:0:0:0:
192,192,112377,1,0,0:0:0:0:
64,192,112377,1,0,0:0:0:0:
320,192,112452,1,0,0:0:0:0:
448,192,112527,1,0,0:0:0:0:
64,192,112602,1,0,0:0:0:0:
192,192,112602,1,0,0:0:0:0:
320,192,112602,1,0,0:0:0:0:
448,192,112677,1,0,0:0:0:0:
320,192,112752,1,0,0:0:0:0:
192,192,112752,1,0,0:0:0:0:
64,192,112827,1,0,0:0:0:0:
448,192,112827,1,0,0:0:0:0:
192,192,112902,1,0,0:0:0:0:
320,192,112902,1,0,0:0:0:0:
448,192,112977,1,0,0:0:0:0:
64,192,113052,1,0,0:0:0:0:
192,192,113052,1,0,0:0:0:0:
320,192,113127,1,0,0:0:0:0:
448,192,113202,1,0,0:0:0:0:
64,192,113202,1,0,0:0:0:0:
192,192,113202,1,0,0:0:0:0:
320,192,113277,1,0,0:0:0:0:
64,192,113352,1,0,0:0:0:0:
192,192,113352,1,0,0:0:0:0:
448,192,113427,1,0,0:0:0:0:
320,192,113502,1,0,0:0:0:0:
64,192,113502,1,0,0:0:0:0:
192,192,113502,1,0,0:0:0:0:
448,192,113577,1,0,0:0:0:0:
64,192,113652,1,0,0:0:0:0:
192,192,113652,1,0,0:0:0:0:
320,192,113727,1,0,0:0:0:0:
448,192,113802,1,0,0:0:0:0:
64,192,113802,1,0,0:0:0:0:
192,192,113802,1,0,0:0:0:0:
320,192,113877,1,0,0:0:0:0:
64,192,113952,1,0,0:0:0:0:
192,192,113952,1,0,0:0:0:0:
320,192,114027,1,0,0:0:0:0:
448,192,114027,1,0,0:0:0:0:
64,192,114102,1,0,0:0:0:0:
192,192,114102,1,0,0:0:0:0:
320,192,114177,1,0,0:0:0:0:
448,192,114252,1,0,0:0:0:0:
192,192,114252,1,0,0:0:0:0:
64,192,114327,1,0,0:0:0:0:
192,192,114402,1,0,0:0:0:0:
320,192,114402,1,0,0:0:0:0:
448,192,114402,1,0,0:0:0:0:
64,192,114477,1,0,0:0:0:0:
320,192,114552,1,0,0:0:0:0:
448,192,114552,1,0,0:0:0:0:
192,192,114627,1,0,0:0:0:0:
64,192,114702,1,0,0:0:0:0:
448,192,114702,1,0,0:0:0:0:
320,192,114777,1,0,0:0:0:0:
448,192,114852,1,0,0:0:0:0:
192,192,114852,1,0,0:0:0:0:
320,192,114927,1,0,0:0:0:0:
64,192,115002,1,0,0:0:0:0:
192,192,115002,1,0,0:0:0:0:
448,192,115002,1,0,0:0:0:0:
320,192,115077,1,0,0:0:0:0:
192,192,115152,1,0,0:0:0:0:
64,192,115152,1,0,0:0:0:0:
320,192,115227,1,0,0:0:0:0:
448,192,115227,1,0,0:0:0:0:
64,192,115302,1,0,0:0:0:0:
192,192,115302,1,0,0:0:0:0:
448,192,115377,1,0,0:0:0:0:
320,192,115452,1,0,0:0:0:0:
192,192,115452,1,0,0:0:0:0:
64,192,115527,1,0,0:0:0:0:
192,192,115602,1,0,0:0:0:0:
320,192,115602,1,0,0:0:0:0:
448,192,115602,1,0,0:0:0:0:
64,192,115677,1,0,0:0:0:0:
448,192,115752,1,0,0:0:0:0:
320,192,115752,1,0,0:0:0:0:
192,192,115827,1,0,0:0:0:0:
64,192,115902,1,0,0:0:0:0:
320,192,115902,1,0,0:0:0:0:
448,192,115977,1,0,0:0:0:0:
192,192,116052,1,0,0:0:0:0:
64,192,116052,1,0,0:0:0:0:
320,192,116127,1,0,0:0:0:0:
64,192,116202,1,0,0:0:0:0:
192,192,116202,1,0,0:0:0:0:
448,192,116202,1,0,0:0:0:0:
320,192,116277,1,0,0:0:0:0:
192,192,116352,1,0,0:0:0:0:
64,192,116352,1,0,0:0:0:0:
320,192,116427,1,0,0:0:0:0:
448,192,116427,1,0,0:0:0:0:
64,192,116502,1,0,0:0:0:0:
192,192,116502,1,0,0:0:0:0:
320,192,116577,1,0,0:0:0:0:
448,192,116652,1,0,0:0:0:0:
192,192,116652,1,0,0:0:0:0:
64,192,116727,1,0,0:0:0:0:
192,192,116802,1,0,0:0:0:0:
320,192,116802,1,0,0:0:0:0:
448,192,116802,1,0,0:0:0:0:
64,192,116877,1,0,0:0:0:0:
448,192,116952,1,0,0:0:0:0:
320,192,116952,1,0,0:0:0:0:
192,192,117027,1,0,0:0:0:0:
64,192,117102,1,0,0:0:0:0:
320,192,117102,1,0,0:0:0:0:
192,192,117177,1,0,0:0:0:0:
448,192,117252,1,0,0:0:0:0:
64,192,117252,1,0,0:0:0:0:
320,192,117327,1,0,0:0:0:0:
64,192,117402,1,0,0:0:0:0:
192,192,117402,1,0,0:0:0:0:
448,192,117402,1,0,0:0:0:0:
320,192,117477,1,0,0:0:0:0:
64,192,117552,1,0,0:0:0:0:
192,192,117552,1,0,0:0:0:0:
320,192,117627,1,0,0:0:0:0:
448,192,117627,1,0,0:0:0:0:
64,192,117702,1,0,0:0:0:0:
192,192,117702,1,0,0:0:0:0:
320,192,117777,1,0,0:0:0:0:
448,192,117852,1,0,0:0:0:0:
192,192,117852,1,0,0:0:0:0:
64,192,117927,1,0,0:0:0:0:
192,192,118002,1,0,0:0:0:0:
320,192,118002,1,0,0:0:0:0:
448,192,118002,1,0,0:0:0:0:
64,192,118077,1,0,0:0:0:0:
320,192,118152,1,0,0:0:0:0:
448,192,118152,1,0,0:0:0:0:
192,192,118227,1,0,0:0:0:0:
64,192,118227,1,0,0:0:0:0:
448,192,118302,1,0,0:0:0:0:
320,192,118302,1,0,0:0:0:0:
192,192,118377,1,0,0:0:0:0:
448,192,118452,1,0,0:0:0:0:
64,192,118452,1,0,0:0:0:0:
320,192,118527,1,0,0:0:0:0:
64,192,118602,1,0,0:0:0:0:
192,192,118602,1,0,0:0:0:0:
448,192,118602,1,0,0:0:0:0:
320,192,118677,1,0,0:0:0:0:
192,192,118752,1,0,0:0:0:0:
64,192,118752,1,0,0:0:0:0:
320,192,118827,1,0,0:0:0:0:
448,192,118827,1,0,0:0:0:0:
192,192,118902,1,0,0:0:0:0:
64,192,118902,1,0,0:0:0:0:
320,192,118977,1,0,0:0:0:0:
448,192,119052,1,0,0:0:0:0:
64,192,119052,1,0,0:0:0:0:
192,192,119127,1,0,0:0:0:0:
64,192,119202,1,0,0:0:0:0:
320,192,119202,1,0,0:0:0:0:
448,192,119202,1,0,0:0:0:0:
192,192,119277,1,0,0:0:0:0:
448,192,119352,1,0,0:0:0:0:
320,192,119352,1,0,0:0:0:0:
192,192,119427,1,0,0:0:0:0:
64,192,119502,1,0,0:0:0:0:
320,192,119502,1,0,0:0:0:0:
448,192,119577,1,0,0:0:0:0:
192,192,119652,1,0,0:0:0:0:
64,192,119652,1,0,0:0:0:0:
320,192,119727,1,0,0:0:0:0:
64,192,119802,1,0,0:0:0:0:
192,192,119802,1,0,0:0:0:0:
448,192,119802,1,0,0:0:0:0:
320,192,119877,1,0,0:0:0:0:
192,192,119952,1,0,0:0:0:0:
64,192,119952,1,0,0:0:0:0:
320,192,120027,1,0,0:0:0:0:
448,192,120027,1,0,0:0:0:0:
64,192,120102,1,0,0:0:0:0:
192,192,120102,1,0,0:0:0:0:
448,192,120177,1,0,0:0:0:0:
320,192,120252,1,0,0:0:0:0:
64,192,120252,1,0,0:0:0:0:
192,192,120327,1,0,0:0:0:0:
64,192,120402,1,0,0:0:0:0:
320,192,120402,1,0,0:0:0:0:
448,192,120402,1,0,0:0:0:0:
192,192,120477,1,0,0:0:0:0:
448,192,120552,1,0,0:0:0:0:
320,192,120552,1,0,0:0:0:0:
64,192,120627,1,0,0:0:0:0:
192,192,120702,1,0,0:0:0:0:
448,192,120702,1,0,0:0:0:0:
320,192,120777,1,0,0:0:0:0:
64,192,120852,1,0,0:0:0:0:
192,192,120852,1,0,0:0:0:0:
448,192,120927,1,0,0:0:0:0:
320,192,121002,1,0,0:0:0:0:
64,192,121002,1,0,0:0:0:0:
192,192,121002,1,0,0:0:0:0:
448,192,121077,1,0,0:0:0:0:
64,192,121152,1,0,0:0:0:0:
192,192,121227,1,0,0:0:0:0:
320,192,121302,1,0,0:0:0:0:
448,192,121377,1,0,0:0:0:0:
320,192,121452,1,0,0:0:0:0:
192,192,121527,1,0,0:0:0:0:
320,192,121602,1,0,0:0:0:0:
192,192,121677,1,0,0:0:0:0:
448,192,121752,1,0,0:0:0:0:
64,192,121827,1,0,0:0:0:0:
448,192,121902,1,0,0:0:0:0:
320,192,121902,1,0,0:0:0:0:
192,192,121977,1,0,0:0:0:0:
64,192,121977,1,0,0:0:0:0:
320,192,122052,1,0,0:0:0:0:
448,192,122052,1,0,0:0:0:0:
192,192,122127,1,0,0:0:0:0:
64,192,122127,1,0,0:0:0:0:
448,192,122202,1,0,0:0:0:0:
320,192,122202,1,0,0:0:0:0:
192,192,122277,1,0,0:0:0:0:
64,192,122352,1,0,0:0:0:0:
448,192,122427,1,0,0:0:0:0:
320,192,122502,1,0,0:0:0:0:
192,192,122577,1,0,0:0:0:0:
448,192,122652,1,0,0:0:0:0:
320,192,122727,1,0,0:0:0:0:
448,192,122802,1,0,0:0:0:0:
64,192,122877,1,0,0:0:0:0:
192,192,122952,1,0,0:0:0:0:
320,192,123027,1,0,0:0:0:0:
448,192,123102,1,0,0:0:0:0:
192,192,123102,1,0,0:0:0:0:
320,192,123177,1,0,0:0:0:0:
64,192,123177,1,0,0:0:0:0:
192,192,123252,1,0,0:0:0:0:
448,192,123252,1,0,0:0:0:0:
320,192,123327,1,0,0:0:0:0:
64,192,123402,1,0,0:0:0:0:
192,192,123477,1,0,0:0:0:0:
320,192,123552,1,0,0:0:0:0:
448,192,123627,1,0,0:0:0:0:
320,192,123702,1,0,0:0:0:0:
192,192,123702,1,0,0:0:0:0:
64,192,123777,1,0,0:0:0:0:
448,192,123777,1,0,0:0:0:0:
192,192,123852,1,0,0:0:0:0:
320,192,123852,1,0,0:0:0:0:
64,192,124002,1,0,0:0:0:0:
192,192,124002,1,0,0:0:0:0:
448,192,124152,1,0,0:0:0:0:
320,192,124152,1,0,0:0:0:0:
192,192,124302,1,0,0:0:0:0:
320,192,124302,1,0,0:0:0:0:
64,192,124452,1,0,0:0:0:0:
448,192,124452,1,0,0:0:0:0:
64,192,124602,1,0,0:0:0:0:
192,192,124602,1,0,0:0:0:0:
448,192,124602,1,0,0:0:0:0:
192,192,124752,1,0,0:0:0:0:
320,192,124752,1,0,0:0:0:0:
64,192,124902,1,0,0:0:0:0:
320,192,124902,1,0,0:0:0:0:
192,192,124977,1,0,0:0:0:0:
448,192,124977,1,0,0:0:0:0:
64,192,125052,1,0,0:0:0:0:
320,192,125052,1,0,0:0:0:0:
448,192,125202,1,0,0:0:0:0:
192,192,125202,1,0,0:0:0:0:
64,192,125352,1,0,0:0:0:0:
192,192,125352,1,0,0:0:0:0:
448,192,125502,1,0,0:0:0:0:
320,192,125502,1,0,0:0:0:0:
192,192,125652,1,0,0:0:0:0:
320,192,125652,1,0,0:0:0:0:
64,192,125802,1,0,0:0:0:0:
192,192,125802,1,0,0:0:0:0:
320,192,125952,1,0,0:0:0:0:
448,192,125952,1,0,0:0:0:0:
64,192,126102,1,0,0:0:0:0:
192,192,126102,1,0,0:0:0:0:
448,192,126177,1,0,0:0:0:0:
320,192,126177,1,0,0:0:0:0:
192,192,126252,1,0,0:0:0:0:
64,192,126252,1,0,0:0:0:0:
64,192,126402,1,0,0:0:0:0:
192,192,126402,1,0,0:0:0:0:
448,192,126402,1,0,0:0:0:0:
320,192,126552,1,0,0:0:0:0:
448,192,126552,1,0,0:0:0:0:
192,192,126702,1,0,0:0:0:0:
320,192,126702,1,0,0:0:0:0:
64,192,126852,1,0,0:0:0:0:
448,192,126852,1,0,0:0:0:0:
192,192,127002,1,0,0:0:0:0:
320,192,127002,1,0,0:0:0:0:
64,192,127152,1,0,0:0:0:0:
320,192,127152,1,0,0:0:0:0:
64,192,127302,1,0,0:0:0:0:
448,192,127302,1,0,0:0:0:0:
320,192,127377,1,0,0:0:0:0:
192,192,127377,1,0,0:0:0:0:
64,192,127452,1,0,0:0:0:0:
448,192,127452,1,0,0:0:0:0:
192,192,127602,1,0,0:0:0:0:
320,192,127602,1,0,0:0:0:0:
448,192,127752,1,0,0:0:0:0:
192,192,127752,1,0,0:0:0:0:
64,192,127902,1,0,0:0:0:0:
320,192,127902,1,0,0:0:0:0:
192,192,128052,1,0,0:0:0:0:
320,192,128052,1,0,0:0:0:0:
64,192,128202,1,0,0:0:0:0:
192,192,128202,1,0,0:0:0:0:
448,192,128202,1,0,0:0:0:0:
320,192,128352,1,0,0:0:0:0:
448,192,128352,1,0,0:0:0:0:
64,192,128502,1,0,0:0:0:0:
192,192,128502,1,0,0:0:0:0:
320,192,128577,1,0,0:0:0:0:
448,192,128577,1,0,0:0:0:0:
192,192,128652,1,0,0:0:0:0:
64,192,128652,1,0,0:0:0:0:
64,192,128802,1,0,0:0:0:0:
192,192,128802,1,0,0:0:0:0:
320,192,128802,1,0,0:0:0:0:
320,192,128952,1,0,0:0:0:0:
448,192,128952,1,0,0:0:0:0:
192,192,129102,1,0,0:0:0:0:
320,192,129102,1,0,0:0:0:0:
448,192,129102,1,0,0:0:0:0:
64,192,129252,1,0,0:0:0:0:
192,192,129252,1,0,0:0:0:0:
192,192,129402,1,0,0:0:0:0:
320,192,129402,1,0,0:0:0:0:
320,192,129552,1,0,0:0:0:0:
448,192,129552,1,0,0:0:0:0:
64,192,129702,1,0,0:0:0:0:
320,192,129702,1,0,0:0:0:0:
448,192,129777,1,0,0:0:0:0:
192,192,129777,1,0,0:0:0:0:
64,192,129852,1,0,0:0:0:0:
320,192,129852,1,0,0:0:0:0:
192,192,130002,1,0,0:0:0:0:
448,192,130002,1,0,0:0:0:0:
64,192,130002,1,0,0:0:0:0:
192,192,130152,1,0,0:0:0:0:
320,192,130152,1,0,0:0:0:0:
64,192,130302,1,0,0:0:0:0:
448,192,130302,1,0,0:0:0:0:
192,192,130377,1,0,0:0:0:0:
320,192,130377,1,0,0:0:0:0:
448,192,130452,1,0,0:0:0:0:
64,192,130452,1,0,0:0:0:0:
320,192,130602,1,0,0:0:0:0:
448,192,130602,1,0,0:0:0:0:
64,192,130677,1,0,0:0:0:0:
192,192,130677,1,0,0:0:0:0:
320,192,130752,1,0,0:0:0:0:
448,192,130752,1,0,0:0:0:0:
192,192,130827,1,0,0:0:0:0:
448,192,130902,1,0,0:0:0:0:
64,192,130902,1,0,0:0:0:0:
192,192,130977,1,0,0:0:0:0:
320,192,130977,1,0,0:0:0:0:
448,192,131052,1,0,0:0:0:0:
64,192,131052,1,0,0:0:0:0:
192,192,131202,1,0,0:0:0:0:
320,192,131202,1,0,0:0:0:0:
448,192,131352,1,0,0:0:0:0:
320,192,131352,1,0,0:0:0:0:
64,192,131502,1,0,0:0:0:0:
192,192,131502,1,0,0:0:0:0:
192,192,131652,1,0,0:0:0:0:
320,192,131652,1,0,0:0:0:0:
192,192,131802,1,0,0:0:0:0:
320,192,131802,1,0,0:0:0:0:
448,192,131802,1,0,0:0:0:0:
64,192,131952,1,0,0:0:0:0:
192,192,131952,1,0,0:0:0:0:
64,192,132102,1,0,0:0:0:0:
320,192,132102,1,0,0:0:0:0:
192,192,132177,1,0,0:0:0:0:
448,192,132177,1,0,0:0:0:0:
64,192,132252,1,0,0:0:0:0:
320,192,132252,1,0,0:0:0:0:
320,192,132402,1,0,0:0:0:0:
448,192,132402,1,0,0:0:0:0:
192,192,132552,1,0,0:0:0:0:
320,192,132552,1,0,0:0:0:0:
64,192,132702,1,0,0:0:0:0:
320,192,132702,1,0,0:0:0:0:
448,192,132702,1,0,0:0:0:0:
64,192,132852,1,0,0:0:0:0:
192,192,132852,1,0,0:0:0:0:
192,192,133002,1,0,0:0:0:0:
448,192,133002,1,0,0:0:0:0:
320,192,133152,1,0,0:0:0:0:
64,192,133152,1,0,0:0:0:0:
64,192,133302,1,0,0:0:0:0:
192,192,133302,1,0,0:0:0:0:
320,192,133377,1,0,0:0:0:0:
448,192,133377,1,0,0:0:0:0:
192,192,133452,1,0,0:0:0:0:
64,192,133452,1,0,0:0:0:0:
192,192,133602,1,0,0:0:0:0:
320,192,133602,1,0,0:0:0:0:
448,192,133602,1,0,0:0:0:0:
64,192,133752,1,0,0:0:0:0:
448,192,133752,1,0,0:0:0:0:
192,192,133902,1,0,0:0:0:0:
320,192,133902,1,0,0:0:0:0:
320,192,134052,1,0,0:0:0:0:
64,192,134052,1,0,0:0:0:0:
192,192,134202,1,0,0:0:0:0:
448,192,134202,1,0,0:0:0:0:
448,192,134352,1,0,0:0:0:0:
320,192,134352,1,0,0:0:0:0:
192,192,134502,1,0,0:0:0:0:
320,192,134502,1,0,0:0:0:0:
64,192,134577,1,0,0:0:0:0:
448,192,134577,1,0,0:0:0:0:
192,192,134652,1,0,0:0:0:0:
320,192,134652,1,0,0:0:0:0:
64,192,134802,1,0,0:0:0:0:
192,192,134802,1,0,0:0:0:0:
192,192,134952,1,0,0:0:0:0:
320,192,134952,1,0,0:0:0:0:
448,192,135102,1,0,0:0:0:0:
64,192,135102,1,0,0:0:0:0:
192,192,135252,1,0,0:0:0:0:
448,192,135252,1,0,0:0:0:0:
192,192,135402,1,0,0:0:0:0:
64,192,135402,1,0,0:0:0:0:
320,192,135402,1,0,0:0:0:0:
448,192,135552,1,0,0:0:0:0:
64,192,135552,1,0,0:0:0:0:
320,192,135702,1,0,0:0:0:0:
448,192,135702,1,0,0:0:0:0:
192,192,135777,1,0,0:0:0:0:
64,192,135777,1,0,0:0:0:0:
320,192,135852,1,0,0:0:0:0:
448,192,135852,1,0,0:0:0:0:
64,192,136002,1,0,0:0:0:0:
192,192,136002,1,0,0:0:0:0:
448,192,136152,1,0,0:0:0:0:
320,192,136152,1,0,0:0:0:0:
64,192,136302,1,0,0:0:0:0:
448,192,136302,1,0,0:0:0:0:
192,192,136302,1,0,0:0:0:0:
192,192,136452,1,0,0:0:0:0:
320,192,136452,1,0,0:0:0:0:
448,192,136602,1,0,0:0:0:0:
64,192,136602,1,0,0:0:0:0:
192,192,136677,1,0,0:0:0:0:
320,192,136677,1,0,0:0:0:0:
64,192,136752,1,0,0:0:0:0:
448,192,136752,1,0,0:0:0:0:
320,192,136827,1,0,0:0:0:0:
64,192,136902,1,0,0:0:0:0:
192,192,136902,1,0,0:0:0:0:
320,192,136977,1,0,0:0:0:0:
448,192,136977,1,0,0:0:0:0:
64,192,137052,1,0,0:0:0:0:
192,192,137052,1,0,0:0:0:0:
192,192,137202,1,0,0:0:0:0:
320,192,137202,1,0,0:0:0:0:
448,192,137202,1,0,0:0:0:0:
64,192,137352,1,0,0:0:0:0:
192,192,137352,1,0,0:0:0:0:
64,192,137502,1,0,0:0:0:0:
192,192,137502,1,0,0:0:0:0:
320,192,137502,1,0,0:0:0:0:
320,192,137652,1,0,0:0:0:0:
448,192,137652,1,0,0:0:0:0:
192,192,137802,1,0,0:0:0:0:
448,192,137802,1,0,0:0:0:0:
64,192,137802,1,0,0:0:0:0:
192,192,137952,1,0,0:0:0:0:
320,192,137952,1,0,0:0:0:0:
64,192,138102,1,0,0:0:0:0:
320,192,138102,1,0,0:0:0:0:
64,192,138402,1,0,0:0:0:0:
320,192,138402,1,0,0:0:0:0:
320,192,138702,1,0,0:0:0:0:
64,192,138702,1,0,0:0:0:0:
64,192,138852,1,0,0:0:0:0:
320,192,138852,1,0,0:0:0:0:
192,192,139002,1,0,0:0:0:0:
64,192,139152,1,0,0:0:0:0:
320,192,139152,1,0,0:0:0:0:
192,192,139302,1,0,0:0:0:0:
320,192,139302,1,0,0:0:0:0:
448,192,139302,1,0,0:0:0:0:
64,192,139452,1,0,0:0:0:0:
320,192,139452,1,0,0:0:0:0:
64,192,139752,1,0,0:0:0:0:
320,192,139752,1,0,0:0:0:0:
64,192,139902,1,0,0:0:0:0:
320,192,139902,1,0,0:0:0:0:
64,192,140052,1,0,0:0:0:0:
320,192,140052,1,0,0:0:0:0:
64,192,140202,1,0,0:0:0:0:
320,192,140202,1,0,0:0:0:0:
64,192,140352,1,0,0:0:0:0:
320,192,140352,1,0,0:0:0:0:
448,192,140502,1,0,0:0:0:0:
192,192,140502,1,0,0:0:0:0:
64,192,140502,1,0,0:0:0:0:
320,192,140577,1,0,0:0:0:0:
448,192,140652,1,0,0:0:0:0:
448,192,140802,1,0,0:0:0:0:
192,192,140802,1,0,0:0:0:0:
448,192,141102,1,0,0:0:0:0:
192,192,141102,1,0,0:0:0:0:
448,192,141252,1,0,0:0:0:0:
192,192,141252,1,0,0:0:0:0:
64,192,141402,1,0,0:0:0:0:
320,192,141477,1,0,0:0:0:0:
448,192,141552,1,0,0:0:0:0:
192,192,141552,1,0,0:0:0:0:
192,192,141702,1,0,0:0:0:0:
320,192,141702,1,0,0:0:0:0:
448,192,141702,1,0,0:0:0:0:
448,192,141852,1,0,0:0:0:0:
192,192,141852,1,0,0:0:0:0:
448,192,142152,1,0,0:0:0:0:
192,192,142152,1,0,0:0:0:0:
320,192,142227,1,0,0:0:0:0:
448,192,142302,1,0,0:0:0:0:
192,192,142302,1,0,0:0:0:0:
64,192,142302,1,0,0:0:0:0:
448,192,142452,1,0,0:0:0:0:
192,192,142452,1,0,0:0:0:0:
448,192,142602,1,0,0:0:0:0:
192,192,142602,1,0,0:0:0:0:
64,192,142602,1,0,0:0:0:0:
448,192,142752,1,0,0:0:0:0:
192,192,142752,1,0,0:0:0:0:
320,192,142902,1,0,0:0:0:0:
192,192,142902,1,0,0:0:0:0:
64,192,142902,1,0,0:0:0:0:
448,192,142977,1,0,0:0:0:0:
320,192,143052,1,0,0:0:0:0:
320,192,143202,1,0,0:0:0:0:
192,192,143202,1,0,0:0:0:0:
320,192,143502,1,0,0:0:0:0:
192,192,143502,1,0,0:0:0:0:
448,192,143502,1,0,0:0:0:0:
192,192,143652,1,0,0:0:0:0:
64,192,143652,1,0,0:0:0:0:
320,192,143952,1,0,0:0:0:0:
192,192,143952,1,0,0:0:0:0:
320,192,144252,1,0,0:0:0:0:
192,192,144252,1,0,0:0:0:0:
320,192,144552,1,0,0:0:0:0:
192,192,144552,1,0,0:0:0:0:
320,192,144702,1,0,0:0:0:0:
448,192,144702,1,0,0:0:0:0:
192,192,144702,1,0,0:0:0:0:
320,192,144852,1,0,0:0:0:0:
192,192,144852,1,0,0:0:0:0:
320,192,145002,1,0,0:0:0:0:
192,192,145002,1,0,0:0:0:0:
320,192,145152,1,0,0:0:0:0:
192,192,145152,1,0,0:0:0:0:
64,192,145152,1,0,0:0:0:0:
64,192,145302,1,0,0:0:0:0:
448,192,145302,1,0,0:0:0:0:
192,192,145377,1,0,0:0:0:0:
320,192,145452,1,0,0:0:0:0:
64,192,145602,1,0,0:0:0:0:
448,192,145602,1,0,0:0:0:0:
64,192,145902,1,0,0:0:0:0:
192,192,145902,1,0,0:0:0:0:
448,192,145902,1,0,0:0:0:0:
320,192,146052,1,0,0:0:0:0:
448,192,146052,1,0,0:0:0:0:
64,192,146052,1,0,0:0:0:0:
192,192,146202,1,0,0:0:0:0:
64,192,146352,1,0,0:0:0:0:
448,192,146352,1,0,0:0:0:0:
64,192,146652,1,0,0:0:0:0:
448,192,146652,1,0,0:0:0:0:
64,192,146952,1,0,0:0:0:0:
448,192,146952,1,0,0:0:0:0:
448,192,147102,1,0,0:0:0:0:
320,192,147102,1,0,0:0:0:0:
64,192,147102,1,0,0:0:0:0:
64,192,147252,1,0,0:0:0:0:
448,192,147252,1,0,0:0:0:0:
64,192,147402,1,0,0:0:0:0:
448,192,147402,1,0,0:0:0:0:
64,192,147552,1,0,0:0:0:0:
448,192,147552,1,0,0:0:0:0:
64,192,147702,1,0,0:0:0:0:
192,192,147702,1,0,0:0:0:0:
320,192,147702,1,0,0:0:0:0:
320,192,147852,1,0,0:0:0:0:
448,192,147852,1,0,0:0:0:0:
192,192,148002,1,0,0:0:0:0:
320,192,148002,1,0,0:0:0:0:
64,192,148152,1,0,0:0:0:0:
192,192,148152,1,0,0:0:0:0:
448,192,148152,1,0,0:0:0:0:
192,192,148302,1,0,0:0:0:0:
320,192,148302,1,0,0:0:0:0:
64,192,148452,1,0,0:0:0:0:
192,192,148452,1,0,0:0:0:0:
192,192,148602,1,0,0:0:0:0:
320,192,148602,1,0,0:0:0:0:
448,192,148602,1,0,0:0:0:0:
64,192,148752,1,0,0:0:0:0:
192,192,148752,1,0,0:0:0:0:
64,192,148902,1,0,0:0:0:0:
448,192,148902,1,0,0:0:0:0:
192,192,148977,1,0,0:0:0:0:
320,192,148977,1,0,0:0:0:0:
64,192,149052,1,0,0:0:0:0:
448,192,149052,1,0,0:0:0:0:
192,192,149127,1,0,0:0:0:0:
320,192,149127,1,0,0:0:0:0:
448,192,149202,1,0,0:0:0:0:
64,192,149202,1,0,0:0:0:0:
192,192,149352,1,0,0:0:0:0:
320,192,149352,1,0,0:0:0:0:
64,192,149502,1,0,0:0:0:0:
192,192,149502,1,0,0:0:0:0:
448,192,149502,1,0,0:0:0:0:
64,192,149652,1,0,0:0:0:0:
192,192,149652,1,0,0:0:0:0:
192,192,149802,1,0,0:0:0:0:
320,192,149802,1,0,0:0:0:0:
320,192,149952,1,0,0:0:0:0:
448,192,149952,1,0,0:0:0:0:
64,192,150102,1,0,0:0:0:0:
192,192,150102,1,0,0:0:0:0:
448,192,150102,1,0,0:0:0:0:
320,192,150252,1,0,0:0:0:0:
192,192,150252,1,0,0:0:0:0:
192,192,150402,1,0,0:0:0:0:
64,192,150402,1,0,0:0:0:0:
64,192,150552,1,0,0:0:0:0:
448,192,150552,1,0,0:0:0:0:
320,192,150552,1,0,0:0:0:0:
192,192,150702,1,0,0:0:0:0:
448,192,150702,1,0,0:0:0:0:
64,192,150852,1,0,0:0:0:0:
320,192,150852,1,0,0:0:0:0:
64,192,151002,1,0,0:0:0:0:
192,192,151002,1,0,0:0:0:0:
448,192,151002,1,0,0:0:0:0:
64,192,151152,1,0,0:0:0:0:
320,192,151152,1,0,0:0:0:0:
320,192,151302,1,0,0:0:0:0:
448,192,151302,1,0,0:0:0:0:
192,192,151377,1,0,0:0:0:0:
64,192,151377,1,0,0:0:0:0:
448,192,151452,1,0,0:0:0:0:
320,192,151452,1,0,0:0:0:0:
192,192,151527,1,0,0:0:0:0:
64,192,151527,1,0,0:0:0:0:
320,192,151602,1,0,0:0:0:0:
448,192,151602,1,0,0:0:0:0:
64,192,151752,1,0,0:0:0:0:
192,192,151752,1,0,0:0:0:0:
64,192,151902,1,0,0:0:0:0:
192,192,151902,1,0,0:0:0:0:
320,192,152002,1,0,0:0:0:0:
448,192,152002,1,0,0:0:0:0:
64,192,152102,1,0,0:0:0:0:
192,192,152102,1,0,0:0:0:0:
320,192,152202,1,0,0:0:0:0:
192,192,152302,1,0,0:0:0:0:
448,192,152302,1,0,0:0:0:0:
64,192,152402,1,0,0:0:0:0:
320,192,152402,1,0,0:0:0:0:
192,192,152502,1,0,0:0:0:0:
448,192,152502,1,0,0:0:0:0:
448,192,152802,1,0,0:0:0:0:
192,192,152802,1,0,0:0:0:0:
64,192,153102,1,0,0:0:0:0:
320,192,153102,1,0,0:0:0:0:
192,192,153102,1,0,0:0:0:0:
192,192,153252,1,0,0:0:0:0:
448,192,153252,1,0,0:0:0:0:
192,192,153552,1,0,0:0:0:0:
448,192,153552,1,0,0:0:0:0:
64,192,153852,1,0,0:0:0:0:
192,192,153852,1,0,0:0:0:0:
320,192,153852,1,0,0:0:0:0:
448,192,154002,1,0,0:0:0:0:
192,192,154002,1,0,0:0:0:0:
192,192,154152,1,0,0:0:0:0:
320,192,154152,1,0,0:0:0:0:
64,192,154302,1,0,0:0:0:0:
320,192,154302,1,0,0:0:0:0:
448,192,154302,1,0,0:0:0:0:
192,192,154452,1,0,0:0:0:0:
448,192,154452,1,0,0:0:0:0:
192,192,154602,1,0,0:0:0:0:
448,192,154602,1,0,0:0:0:0:
192,192,154752,1,0,0:0:0:0:
448,192,154752,1,0,0:0:0:0:
64,192,154902,1,0,0:0:0:0:
320,192,154902,1,0,0:0:0:0:
64,192,155052,1,0,0:0:0:0:
320,192,155052,1,0,0:0:0:0:
64,192,155202,1,0,0:0:0:0:
320,192,155202,1,0,0:0:0:0:
64,192,155352,1,0,0:0:0:0:
320,192,155352,1,0,0:0:0:0:
64,192,155502,1,0,0:0:0:0:
320,192,155502,1,0,0:0:0:0:
448,192,155502,1,0,0:0:0:0:
64,192,155652,1,0,0:0:0:0:
320,192,155652,1,0,0:0:0:0:
64,192,155952,1,0,0:0:0:0:
320,192,155952,1,0,0:0:0:0:
64,192,156102,1,0,0:0:0:0:
192,192,156102,1,0,0:0:0:0:
320,192,156102,1,0,0:0:0:0:
448,192,156252,1,0,0:0:0:0:
320,192,156252,1,0,0:0:0:0:
192,192,156327,1,0,0:0:0:0:
64,192,156327,1,0,0:0:0:0:
320,192,156402,1,0,0:0:0:0:
448,192,156402,1,0,0:0:0:0:
64,192,156552,1,0,0:0:0:0:
192,192,156552,1,0,0:0:0:0:
320,192,156627,1,0,0:0:0:0:
448,192,156627,1,0,0:0:0:0:
192,192,156702,1,0,0:0:0:0:
64,192,156702,1,0,0:0:0:0:
320,192,156852,1,0,0:0:0:0:
448,192,157002,1,0,0:0:0:0:
320,192,157002,1,0,0:0:0:0:
192,192,157077,1,0,0:0:0:0:
64,192,157077,1,0,0:0:0:0:
320,192,157152,1,0,0:0:0:0:
448,192,157152,1,0,0:0:0:0:
64,192,157227,1,0,0:0:0:0:
192,192,157227,1,0,0:0:0:0:
320,192,157302,1,0,0:0:0:0:
448,192,157302,1,0,0:0:0:0:
64,192,157452,1,0,0:0:0:0:
192,192,157452,1,0,0:0:0:0:
448,192,157602,1,0,0:0:0:0:
192,192,157602,1,0,0:0:0:0:
64,192,157752,1,0,0:0:0:0:
192,192,157752,1,0,0:0:0:0:
320,192,157752,1,0,0:0:0:0:
64,192,157902,1,0,0:0:0:0:
320,192,157902,1,0,0:0:0:0:
448,192,158052,1,0,0:0:0:0:
64,192,158052,1,0,0:0:0:0:
64,192,158202,1,0,0:0:0:0:
192,192,158202,1,0,0:0:0:0:
320,192,158202,1,0,0:0:0:0:
192,192,158352,1,0,0:0:0:0:
320,192,158352,1,0,0:0:0:0:
64,192,158502,1,0,0:0:0:0:
448,192,158502,1,0,0:0:0:0:
192,192,158577,1,0,0:0:0:0:
320,192,158577,1,0,0:0:0:0:
64,192,158652,1,0,0:0:0:0:
448,192,158652,1,0,0:0:0:0:
64,192,158802,1,0,0:0:0:0:
192,192,158802,1,0,0:0:0:0:
320,192,158802,1,0,0:0:0:0:
448,192,158952,1,0,0:0:0:0:
320,192,158952,1,0,0:0:0:0:
64,192,159102,1,0,0:0:0:0:
192,192,159102,1,0,0:0:0:0:
320,192,159102,1,0,0:0:0:0:
64,192,159252,1,0,0:0:0:0:
320,192,159252,1,0,0:0:0:0:
192,192,159402,1,0,0:0:0:0:
448,192,159402,1,0,0:0:0:0:
320,192,159552,1,0,0:0:0:0:
192,192,159552,1,0,0:0:0:0:
64,192,159702,1,0,0:0:0:0:
192,192,159702,1,0,0:0:0:0:
448,192,159702,1,0,0:0:0:0:
64,192,159852,1,0,0:0:0:0:
448,192,159852,1,0,0:0:0:0:
320,192,160002,1,0,0:0:0:0:
192,192,160002,1,0,0:0:0:0:
64,192,160152,1,0,0:0:0:0:
192,192,160152,1,0,0:0:0:0:
320,192,160152,1,0,0:0:0:0:
448,192,160302,1,0,0:0:0:0:
320,192,160302,1,0,0:0:0:0:
192,192,160452,1,0,0:0:0:0:
64,192,160452,1,0,0:0:0:0:
64,192,160602,1,0,0:0:0:0:
192,192,160602,1,0,0:0:0:0:
320,192,160602,1,0,0:0:0:0:
64,192,160752,1,0,0:0:0:0:
448,192,160752,1,0,0:0:0:0:
320,192,160902,1,0,0:0:0:0:
448,192,160902,1,0,0:0:0:0:
64,192,160902,1,0,0:0:0:0:
320,192,161052,1,0,0:0:0:0:
448,192,161052,1,0,0:0:0:0:
64,192,161202,1,0,0:0:0:0:
192,192,161202,1,0,0:0:0:0:
320,192,161352,1,0,0:0:0:0:
448,192,161352,1,0,0:0:0:0:
192,192,161502,1,0,0:0:0:0:
448,192,161652,1,0,0:0:0:0:
64,192,161652,1,0,0:0:0:0:
192,192,161802,1,0,0:0:0:0:
64,192,161802,1,0,0:0:0:0:
320,192,161877,1,0,0:0:0:0:
448,192,161877,1,0,0:0:0:0:
192,192,161952,1,0,0:0:0:0:
64,192,161952,1,0,0:0:0:0:
320,192,162027,1,0,0:0:0:0:
448,192,162027,1,0,0:0:0:0:
64,192,162102,1,0,0:0:0:0:
192,192,162102,1,0,0:0:0:0:
320,192,162252,1,0,0:0:0:0:
448,192,162252,1,0,0:0:0:0:
448,192,162402,1,0,0:0:0:0:
192,192,162402,1,0,0:0:0:0:
64,192,162552,1,0,0:0:0:0:
320,192,162552,1,0,0:0:0:0:
320,192,162702,1,0,0:0:0:0:
448,192,162702,1,0,0:0:0:0:
64,192,162702,1,0,0:0:0:0:
320,192,162852,1,0,0:0:0:0:
192,192,162852,1,0,0:0:0:0:
320,192,163002,1,0,0:0:0:0:
448,192,163002,1,0,0:0:0:0:
192,192,163152,1,0,0:0:0:0:
64,192,163152,1,0,0:0:0:0:
192,192,163302,1,0,0:0:0:0:
320,192,163302,1,0,0:0:0:0:
192,192,163452,1,0,0:0:0:0:
448,192,163452,1,0,0:0:0:0:
192,192,163602,1,0,0:0:0:0:
320,192,163602,1,0,0:0:0:0:
448,192,163752,1,0,0:0:0:0:
64,192,163752,1,0,0:0:0:0:
448,192,163902,1,0,0:0:0:0:
192,192,163902,1,0,0:0:0:0:
320,192,163902,1,0,0:0:0:0:
448,192,164052,1,0,0:0:0:0:
320,192,164052,1,0,0:0:0:0:
448,192,164202,1,0,0:0:0:0:
192,192,164202,1,0,0:0:0:0:
448,192,164352,1,0,0:0:0:0:
64,192,164352,1,0,0:0:0:0:
64,192,164502,1,0,0:0:0:0:
192,192,164502,1,0,0:0:0:0:
64,192,164652,1,0,0:0:0:0:
320,192,164652,1,0,0:0:0:0:
64,192,164802,1,0,0:0:0:0:
448,192,164802,1,0,0:0:0:0:
192,192,164952,1,0,0:0:0:0:
320,192,164952,1,0,0:0:0:0:
192,192,165102,1,0,0:0:0:0:
320,192,165102,1,0,0:0:0:0:
448,192,165102,1,0,0:0:0:0:
192,192,165252,1,0,0:0:0:0:
64,192,165252,1,0,0:0:0:0:
192,192,165402,1,0,0:0:0:0:
320,192,165402,1,0,0:0:0:0:
320,192,165552,1,0,0:0:0:0:
448,192,165552,1,0,0:0:0:0:
192,192,165702,1,0,0:0:0:0:
64,192,165702,1,0,0:0:0:0:
320,192,165852,1,0,0:0:0:0:
448,192,165852,1,0,0:0:0:0:
320,192,166002,1,0,0:0:0:0:
192,192,166002,1,0,0:0:0:0:
192,192,166152,1,0,0:0:0:0:
64,192,166152,1,0,0:0:0:0:
192,192,166302,1,0,0:0:0:0:
320,192,166302,1,0,0:0:0:0:
448,192,166302,1,0,0:0:0:0:
64,192,166452,1,0,0:0:0:0:
320,192,166452,1,0,0:0:0:0:
192,192,166527,1,0,0:0:0:0:
448,192,166527,1,0,0:0:0:0:
64,192,166602,1,0,0:0:0:0:
320,192,166602,1,0,0:0:0:0:
64,192,166902,1,0,0:0:0:0:
192,192,166902,1,0,0:0:0:0:
448,192,166902,1,0,0:0:0:0:
320,192,166902,1,0,0:0:0:0:
192,192,167052,1,0,0:0:0:0:
320,192,167052,1,0,0:0:0:0:
64,192,167202,1,0,0:0:0:0:
448,192,167202,1,0,0:0:0:0:
320,192,167202,1,0,0:0:0:0:
64,192,167352,1,0,0:0:0:0:
192,192,167352,1,0,0:0:0:0:
192,192,167502,1,0,0:0:0:0:
320,192,167502,1,0,0:0:0:0:
448,192,167502,1,0,0:0:0:0:
320,192,167652,1,0,0:0:0:0:
448,192,167652,1,0,0:0:0:0:
64,192,167802,1,0,0:0:0:0:
192,192,167802,1,0,0:0:0:0:
320,192,167802,1,0,0:0:0:0:
192,192,167952,1,0,0:0:0:0:
320,192,167952,1,0,0:0:0:0:
448,192,168102,1,0,0:0:0:0:
320,192,168102,1,0,0:0:0:0:
192,192,168102,1,0,0:0:0:0:
64,192,168102,1,0,0:0:0:0:
64,192,168252,1,0,0:0:0:0:
192,192,168252,1,0,0:0:0:0:
448,192,168402,1,0,0:0:0:0:
320,192,168402,1,0,0:0:0:0:
64,192,168402,1,0,0:0:0:0:
320,192,168552,1,0,0:0:0:0:
448,192,168552,1,0,0:0:0:0:
64,192,168702,1,0,0:0:0:0:
192,192,168702,1,0,0:0:0:0:
448,192,168702,1,0,0:0:0:0:
64,192,168852,1,0,0:0:0:0:
320,192,168852,1,0,0:0:0:0:
192,192,169002,1,0,0:0:0:0:
320,192,169002,1,0,0:0:0:0:
448,192,169002,1,0,0:0:0:0:
64,192,169152,1,0,0:0:0:0:
192,192,169152,1,0,0:0:0:0:
320,192,169227,1,0,0:0:0:0:
192,192,169302,1,0,0:0:0:0:
64,192,169302,128,0,170502:0:0:0:0:
448,192,169302,1,0,0:0:0:0:
448,192,169452,1,0,0:0:0:0:
192,192,169602,1,0,0:0:0:0:
320,192,169602,1,0,0:0:0:0:
192,192,169752,1,0,0:0:0:0:
448,192,169902,1,0,0:0:0:0:
320,192,169902,1,0,0:0:0:0:
320,192,170052,1,0,0:0:0:0:
192,192,170202,1,0,0:0:0:0:
448,192,170202,1,0,0:0:0:0:
448,192,170352,1,0,0:0:0:0:
192,192,170502,128,0,171702:0:0:0:0:
320,192,170502,1,0,0:0:0:0:
448,192,170502,1,0,0:0:0:0:
448,192,170727,1,0,0:0:0:0:
64,192,170727,1,0,0:0:0:0:
320,192,170802,1,0,0:0:0:0:
64,192,170952,1,0,0:0:0:0:
320,192,171027,1,0,0:0:0:0:
448,192,171102,1,0,0:0:0:0:
320,192,171177,1,0,0:0:0:0:
64,192,171252,1,0,0:0:0:0:
320,192,171402,1,0,0:0:0:0:
448,192,171552,1,0,0:0:0:0:
64,192,171702,1,0,0:0:0:0:
320,192,171702,1,0,0:0:0:0:
448,192,171702,1,0,0:0:0:0:
192,192,171927,1,0,0:0:0:0:
320,192,172002,1,0,0:0:0:0:
448,192,172002,1,0,0:0:0:0:
64,192,172002,1,0,0:0:0:0:
192,192,172152,1,0,0:0:0:0:
64,192,172302,1,0,0:0:0:0:
320,192,172302,1,0,0:0:0:0:
448,192,172302,1,0,0:0:0:0:
64,192,172452,1,0,0:0:0:0:
192,192,172452,1,0,0:0:0:0:
320,192,172452,1,0,0:0:0:0:
64,192,172602,128,0,172752:0:0:0:0:
320,192,172602,128,0,172752:0:0:0:0:
192,192,172752,1,0,0:0:0:0:
448,192,172752,1,0,0:0:0:0:
320,192,172827,1,0,0:0:0:0:
192,192,172902,1,0,0:0:0:0:
64,192,172902,1,0,0:0:0:0:
320,192,172977,1,0,0:0:0:0:
448,192,173052,1,0,0:0:0:0:
64,192,173052,1,0,0:0:0:0:
192,192,173127,1,0,0:0:0:0:
64,192,173202,1,0,0:0:0:0:
448,192,173202,1,0,0:0:0:0:
320,192,173202,1,0,0:0:0:0:
192,192,173277,1,0,0:0:0:0:
320,192,173352,1,0,0:0:0:0:
448,192,173352,1,0,0:0:0:0:
64,192,173427,1,0,0:0:0:0:
192,192,173502,1,0,0:0:0:0:
320,192,173502,1,0,0:0:0:0:
448,192,173577,1,0,0:0:0:0:
64,192,173652,1,0,0:0:0:0:
192,192,173652,1,0,0:0:0:0:
320,192,173727,1,0,0:0:0:0:
64,192,173802,1,0,0:0:0:0:
192,192,173802,1,0,0:0:0:0:
448,192,173802,1,0,0:0:0:0:
320,192,173877,1,0,0:0:0:0:
192,192,173952,1,0,0:0:0:0:
64,192,173952,1,0,0:0:0:0:
320,192,174027,1,0,0:0:0:0:
448,192,174027,1,0,0:0:0:0:
192,192,174102,1,0,0:0:0:0:
64,192,174102,1,0,0:0:0:0:
320,192,174177,1,0,0:0:0:0:
448,192,174252,1,0,0:0:0:0:
192,192,174252,1,0,0:0:0:0:
64,192,174327,1,0,0:0:0:0:
192,192,174402,1,0,0:0:0:0:
320,192,174402,1,0,0:0:0:0:
448,192,174402,1,0,0:0:0:0:
64,192,174477,1,0,0:0:0:0:
192,192,174552,1,0,0:0:0:0:
320,192,174552,1,0,0:0:0:0:
448,192,174627,1,0,0:0:0:0:
64,192,174702,1,0,0:0:0:0:
192,192,174702,1,0,0:0:0:0:
320,192,174777,1,0,0:0:0:0:
448,192,174852,1,0,0:0:0:0:
64,192,174852,1,0,0:0:0:0:
320,192,174927,1,0,0:0:0:0:
64,192,175002,1,0,0:0:0:0:
192,192,175002,1,0,0:0:0:0:
448,192,175002,1,0,0:0:0:0:
320,192,175077,1,0,0:0:0:0:
64,192,175152,1,0,0:0:0:0:
192,192,175152,1,0,0:0:0:0:
320,192,175227,1,0,0:0:0:0:
448,192,175227,1,0,0:0:0:0:
64,192,175302,1,0,0:0:0:0:
192,192,175302,1,0,0:0:0:0:
448,192,175377,1,0,0:0:0:0:
320,192,175452,1,0,0:0:0:0:
192,192,175452,1,0,0:0:0:0:
64,192,175527,1,0,0:0:0:0:
192,192,175602,1,0,0:0:0:0:
320,192,175602,1,0,0:0:0:0:
448,192,175602,1,0,0:0:0:0:
64,192,175677,1,0,0:0:0:0:
448,192,175752,1,0,0:0:0:0:
320,192,175752,1,0,0:0:0:0:
192,192,175827,1,0,0:0:0:0:
64,192,175902,1,0,0:0:0:0:
320,192,175902,1,0,0:0:0:0:
448,192,175977,1,0,0:0:0:0:
192,192,176052,1,0,0:0:0:0:
64,192,176052,1,0,0:0:0:0:
320,192,176127,1,0,0:0:0:0:
64,192,176202,1,0,0:0:0:0:
192,192,176202,1,0,0:0:0:0:
448,192,176202,1,0,0:0:0:0:
320,192,176277,1,0,0:0:0:0:
64,192,176352,1,0,0:0:0:0:
192,192,176352,1,0,0:0:0:0:
320,192,176427,1,0,0:0:0:0:
448,192,176427,1,0,0:0:0:0:
64,192,176502,1,0,0:0:0:0:
192,192,176502,1,0,0:0:0:0:
448,192,176577,1,0,0:0:0:0:
320,192,176652,1,0,0:0:0:0:
64,192,176652,1,0,0:0:0:0:
192,192,176727,1,0,0:0:0:0:
64,192,176802,1,0,0:0:0:0:
320,192,176802,1,0,0:0:0:0:
448,192,176802,1,0,0:0:0:0:
192,192,176877,1,0,0:0:0:0:
320,192,176952,1,0,0:0:0:0:
448,192,176952,1,0,0:0:0:0:
64,192,177027,1,0,0:0:0:0:
192,192,177027,1,0,0:0:0:0:
320,192,177102,1,0,0:0:0:0:
448,192,177102,1,0,0:0:0:0:
64,192,177177,1,0,0:0:0:0:
448,192,177252,1,0,0:0:0:0:
192,192,177252,1,0,0:0:0:0:
320,192,177327,1,0,0:0:0:0:
64,192,177402,1,0,0:0:0:0:
192,192,177402,1,0,0:0:0:0:
448,192,177402,1,0,0:0:0:0:
320,192,177477,1,0,0:0:0:0:
64,192,177552,1,0,0:0:0:0:
192,192,177552,1,0,0:0:0:0:
320,192,177627,1,0,0:0:0:0:
448,192,177627,1,0,0:0:0:0:
64,192,177702,1,0,0:0:0:0:
192,192,177702,1,0,0:0:0:0:
448,192,177777,1,0,0:0:0:0:
320,192,177852,1,0,0:0:0:0:
192,192,177852,1,0,0:0:0:0:
64,192,177927,1,0,0:0:0:0:
192,192,178002,1,0,0:0:0:0:
320,192,178002,1,0,0:0:0:0:
448,192,178002,1,0,0:0:0:0:
64,192,178077,1,0,0:0:0:0:
320,192,178152,1,0,0:0:0:0:
448,192,178152,1,0,0:0:0:0:
192,192,178152,1,0,0:0:0:0:
64,192,178227,1,0,0:0:0:0:
448,192,178302,1,0,0:0:0:0:
192,192,178302,1,0,0:0:0:0:
320,192,178377,1,0,0:0:0:0:
192,192,178452,1,0,0:0:0:0:
64,192,178452,1,0,0:0:0:0:
448,192,178527,1,0,0:0:0:0:
64,192,178602,1,0,0:0:0:0:
192,192,178602,1,0,0:0:0:0:
320,192,178602,1,0,0:0:0:0:
448,192,178677,1,0,0:0:0:0:
64,192,178752,1,0,0:0:0:0:
320,192,178752,1,0,0:0:0:0:
448,192,178827,1,0,0:0:0:0:
192,192,178827,1,0,0:0:0:0:
64,192,178902,1,0,0:0:0:0:
320,192,178902,1,0,0:0:0:0:
192,192,178977,1,0,0:0:0:0:
448,192,179052,1,0,0:0:0:0:
320,192,179052,1,0,0:0:0:0:
64,192,179127,1,0,0:0:0:0:
192,192,179202,1,0,0:0:0:0:
320,192,179202,1,0,0:0:0:0:
448,192,179202,1,0,0:0:0:0:
64,192,179277,1,0,0:0:0:0:
192,192,179352,1,0,0:0:0:0:
320,192,179352,1,0,0:0:0:0:
448,192,179427,1,0,0:0:0:0:
64,192,179502,1,0,0:0:0:0:
192,192,179502,1,0,0:0:0:0:
320,192,179577,1,0,0:0:0:0:
448,192,179652,1,0,0:0:0:0:
192,192,179652,1,0,0:0:0:0:
64,192,179727,1,0,0:0:0:0:
192,192,179802,1,0,0:0:0:0:
320,192,179802,1,0,0:0:0:0:
448,192,179802,1,0,0:0:0:0:
64,192,179877,1,0,0:0:0:0:
320,192,179952,1,0,0:0:0:0:
448,192,179952,1,0,0:0:0:0:
192,192,180027,1,0,0:0:0:0:
64,192,180027,1,0,0:0:0:0:
320,192,180102,1,0,0:0:0:0:
448,192,180102,1,0,0:0:0:0:
192,192,180177,1,0,0:0:0:0:
64,192,180252,1,0,0:0:0:0:
320,192,180252,1,0,0:0:0:0:
448,192,180327,1,0,0:0:0:0:
64,192,180402,1,0,0:0:0:0:
192,192,180402,1,0,0:0:0:0:
320,192,180402,1,0,0:0:0:0:
448,192,180477,1,0,0:0:0:0:
320,192,180552,1,0,0:0:0:0:
192,192,180552,1,0,0:0:0:0:
64,192,180627,1,0,0:0:0:0:
448,192,180627,1,0,0:0:0:0:
192,192,180702,1,0,0:0:0:0:
320,192,180702,1,0,0:0:0:0:
64,192,180777,1,0,0:0:0:0:
448,192,180852,1,0,0:0:0:0:
320,192,180852,1,0,0:0:0:0:
192,192,180927,1,0,0:0:0:0:
64,192,181002,1,0,0:0:0:0:
320,192,181002,1,0,0:0:0:0:
448,192,181002,1,0,0:0:0:0:
192,192,181077,1,0,0:0:0:0:
320,192,181152,1,0,0:0:0:0:
448,192,181152,1,0,0:0:0:0:
64,192,181227,1,0,0:0:0:0:
192,192,181227,1,0,0:0:0:0:
320,192,181302,1,0,0:0:0:0:
448,192,181302,1,0,0:0:0:0:
64,192,181377,1,0,0:0:0:0:
448,192,181452,1,0,0:0:0:0:
192,192,181452,1,0,0:0:0:0:
320,192,181527,1,0,0:0:0:0:
64,192,181602,1,0,0:0:0:0:
192,192,181602,1,0,0:0:0:0:
448,192,181602,1,0,0:0:0:0:
320,192,181677,1,0,0:0:0:0:
192,192,181752,1,0,0:0:0:0:
448,192,181752,1,0,0:0:0:0:
64,192,181827,1,0,0:0:0:0:
320,192,181827,1,0,0:0:0:0:
192,192,181902,1,0,0:0:0:0:
448,192,181902,1,0,0:0:0:0:
64,192,181977,1,0,0:0:0:0:
320,192,182052,1,0,0:0:0:0:
448,192,182052,1,0,0:0:0:0:
192,192,182127,1,0,0:0:0:0:
320,192,182202,1,0,0:0:0:0:
448,192,182202,1,0,0:0:0:0:
64,192,182202,1,0,0:0:0:0:
192,192,182277,1,0,0:0:0:0:
448,192,182352,1,0,0:0:0:0:
320,192,182352,1,0,0:0:0:0:
64,192,182427,1,0,0:0:0:0:
192,192,182427,1,0,0:0:0:0:
448,192,182502,1,0,0:0:0:0:
320,192,182502,1,0,0:0:0:0:
64,192,182577,1,0,0:0:0:0:
192,192,182652,1,0,0:0:0:0:
320,192,182652,1,0,0:0:0:0:
448,192,182727,1,0,0:0:0:0:
64,192,182802,1,0,0:0:0:0:
192,192,182802,1,0,0:0:0:0:
320,192,182802,1,0,0:0:0:0:
448,192,182877,1,0,0:0:0:0:
320,192,182952,1,0,0:0:0:0:
192,192,182952,1,0,0:0:0:0:
64,192,183027,1,0,0:0:0:0:
448,192,183102,1,0,0:0:0:0:
320,192,183102,1,0,0:0:0:0:
192,192,183177,1,0,0:0:0:0:
64,192,183252,1,0,0:0:0:0:
320,192,183252,1,0,0:0:0:0:
448,192,183327,1,0,0:0:0:0:
64,192,183402,1,0,0:0:0:0:
192,192,183402,1,0,0:0:0:0:
320,192,183402,1,0,0:0:0:0:
448,192,183477,1,0,0:0:0:0:
320,192,183552,1,0,0:0:0:0:
192,192,183552,1,0,0:0:0:0:
64,192,183627,1,0,0:0:0:0:
448,192,183627,1,0,0:0:0:0:
192,192,183702,1,0,0:0:0:0:
320,192,183702,1,0,0:0:0:0:
64,192,183777,1,0,0:0:0:0:
448,192,183852,1,0,0:0:0:0:
320,192,183852,1,0,0:0:0:0:
192,192,183927,1,0,0:0:0:0:
64,192,184002,1,0,0:0:0:0:
320,192,184002,1,0,0:0:0:0:
448,192,184002,1,0,0:0:0:0:
192,192,184077,1,0,0:0:0:0:
64,192,184152,1,0,0:0:0:0:
448,192,184152,1,0,0:0:0:0:
320,192,184227,1,0,0:0:0:0:
192,192,184302,1,0,0:0:0:0:
64,192,184302,1,0,0:0:0:0:
320,192,184377,1,0,0:0:0:0:
448,192,184452,1,0,0:0:0:0:
192,192,184452,1,0,0:0:0:0:
64,192,184527,1,0,0:0:0:0:
192,192,184602,1,0,0:0:0:0:
448,192,184602,1,0,0:0:0:0:
320,192,184602,1,0,0:0:0:0:
64,192,184677,1,0,0:0:0:0:
320,192,184752,1,0,0:0:0:0:
448,192,184752,1,0,0:0:0:0:
192,192,184827,1,0,0:0:0:0:
64,192,184827,1,0,0:0:0:0:
320,192,184902,1,0,0:0:0:0:
448,192,184902,1,0,0:0:0:0:
192,192,184977,1,0,0:0:0:0:
64,192,185052,1,0,0:0:0:0:
320,192,185052,1,0,0:0:0:0:
448,192,185127,1,0,0:0:0:0:
64,192,185202,1,0,0:0:0:0:
192,192,185202,1,0,0:0:0:0:
320,192,185202,1,0,0:0:0:0:
448,192,185277,1,0,0:0:0:0:
192,192,185352,1,0,0:0:0:0:
64,192,185352,1,0,0:0:0:0:
320,192,185427,1,0,0:0:0:0:
448,192,185502,1,0,0:0:0:0:
192,192,185502,1,0,0:0:0:0:
64,192,185577,1,0,0:0:0:0:
448,192,185652,1,0,0:0:0:0:
320,192,185652,1,0,0:0:0:0:
192,192,185727,1,0,0:0:0:0:
320,192,185802,1,0,0:0:0:0:
448,192,185802,1,0,0:0:0:0:
64,192,185802,1,0,0:0:0:0:
192,192,185877,1,0,0:0:0:0:
320,192,185952,1,0,0:0:0:0:
448,192,185952,1,0,0:0:0:0:
64,192,186027,1,0,0:0:0:0:
192,192,186027,1,0,0:0:0:0:
320,192,186102,1,0,0:0:0:0:
448,192,186102,1,0,0:0:0:0:
64,192,186177,1,0,0:0:0:0:
192,192,186252,1,0,0:0:0:0:
320,192,186252,1,0,0:0:0:0:
448,192,186327,1,0,0:0:0:0:
320,192,186402,1,0,0:0:0:0:
64,192,186402,1,0,0:0:0:0:
192,192,186402,1,0,0:0:0:0:
448,192,186477,1,0,0:0:0:0:
192,192,186552,1,0,0:0:0:0:
320,192,186552,1,0,0:0:0:0:
64,192,186627,1,0,0:0:0:0:
448,192,186627,1,0,0:0:0:0:
192,192,186702,1,0,0:0:0:0:
320,192,186702,1,0,0:0:0:0:
64,192,186777,1,0,0:0:0:0:
448,192,186852,1,0,0:0:0:0:
320,192,186852,1,0,0:0:0:0:
192,192,186927,1,0,0:0:0:0:
320,192,187002,1,0,0:0:0:0:
448,192,187002,1,0,0:0:0:0:
64,192,187002,1,0,0:0:0:0:
192,192,187077,1,0,0:0:0:0:
64,192,187152,1,0,0:0:0:0:
320,192,187152,1,0,0:0:0:0:
192,192,187227,1,0,0:0:0:0:
448,192,187227,1,0,0:0:0:0:
64,192,187302,1,0,0:0:0:0:
320,192,187302,1,0,0:0:0:0:
448,192,187377,1,0,0:0:0:0:
192,192,187452,1,0,0:0:0:0:
320,192,187452,1,0,0:0:0:0:
64,192,187527,1,0,0:0:0:0:
192,192,187602,1,0,0:0:0:0:
320,192,187602,1,0,0:0:0:0:
448,192,187602,1,0,0:0:0:0:
64,192,187677,1,0,0:0:0:0:
448,192,187752,1,0,0:0:0:0:
320,192,187752,1,0,0:0:0:0:
192,192,187827,1,0,0:0:0:0:
64,192,187902,1,0,0:0:0:0:
320,192,187902,1,0,0:0:0:0:
448,192,187977,1,0,0:0:0:0:
64,192,188052,1,0,0:0:0:0:
192,192,188052,1,0,0:0:0:0:
320,192,188127,1,0,0:0:0:0:
192,192,188202,1,0,0:0:0:0:
64,192,188202,1,0,0:0:0:0:
448,192,188202,1,0,0:0:0:0:
320,192,188277,1,0,0:0:0:0:
192,192,188352,1,0,0:0:0:0:
64,192,188352,1,0,0:0:0:0:
320,192,188427,1,0,0:0:0:0:
448,192,188427,1,0,0:0:0:0:
192,192,188502,1,0,0:0:0:0:
64,192,188502,1,0,0:0:0:0:
448,192,188577,1,0,0:0:0:0:
320,192,188652,1,0,0:0:0:0:
64,192,188652,1,0,0:0:0:0:
192,192,188727,1,0,0:0:0:0:
64,192,188802,1,0,0:0:0:0:
448,192,188802,1,0,0:0:0:0:
320,192,188802,1,0,0:0:0:0:
192,192,188877,1,0,0:0:0:0:
448,192,188952,1,0,0:0:0:0:
320,192,188952,1,0,0:0:0:0:
64,192,189027,1,0,0:0:0:0:
192,192,189102,1,0,0:0:0:0:
448,192,189102,1,0,0:0:0:0:
320,192,189177,1,0,0:0:0:0:
64,192,189252,1,0,0:0:0:0:
192,192,189252,1,0,0:0:0:0:
320,192,189327,1,0,0:0:0:0:
192,192,189402,1,0,0:0:0:0:
64,192,189402,1,0,0:0:0:0:
448,192,189402,1,0,0:0:0:0:
320,192,189477,1,0,0:0:0:0:
192,192,189552,1,0,0:0:0:0:
64,192,189552,1,0,0:0:0:0:
320,192,189627,1,0,0:0:0:0:
448,192,189627,1,0,0:0:0:0:
192,192,189702,1,0,0:0:0:0:
64,192,189702,1,0,0:0:0:0:
448,192,189777,1,0,0:0:0:0:
320,192,189852,1,0,0:0:0:0:
64,192,189852,1,0,0:0:0:0:
192,192,189927,1,0,0:0:0:0:
64,192,190002,1,0,0:0:0:0:
320,192,190002,1,0,0:0:0:0:
448,192,190002,1,0,0:0:0:0:
192,192,190077,1,0,0:0:0:0:
320,192,190152,1,0,0:0:0:0:
448,192,190152,1,0,0:0:0:0:
64,192,190227,1,0,0:0:0:0:
448,192,190302,1,0,0:0:0:0:
320,192,190302,1,0,0:0:0:0:
192,192,190302,1,0,0:0:0:0:
64,192,190377,1,0,0:0:0:0:
192,192,190452,1,0,0:0:0:0:
320,192,190452,1,0,0:0:0:0:
448,192,190527,1,0,0:0:0:0:
64,192,190602,1,0,0:0:0:0:
192,192,190602,1,0,0:0:0:0:
320,192,190602,1,0,0:0:0:0:
448,192,190677,1,0,0:0:0:0:
192,192,190752,1,0,0:0:0:0:
64,192,190752,1,0,0:0:0:0:
448,192,190827,1,0,0:0:0:0:
192,192,190902,1,0,0:0:0:0:
64,192,190902,1,0,0:0:0:0:
320,192,190902,1,0,0:0:0:0:
448,192,190977,1,0,0:0:0:0:
64,192,191052,1,0,0:0:0:0:
192,192,191052,1,0,0:0:0:0:
320,192,191127,1,0,0:0:0:0:
64,192,191202,1,0,0:0:0:0:
192,192,191202,1,0,0:0:0:0:
448,192,191202,1,0,0:0:0:0:
320,192,191277,1,0,0:0:0:0:
192,192,191352,1,0,0:0:0:0:
448,192,191352,1,0,0:0:0:0:
64,192,191427,1,0,0:0:0:0:
192,192,191502,1,0,0:0:0:0:
320,192,191502,1,0,0:0:0:0:
448,192,191502,1,0,0:0:0:0:
64,192,191577,1,0,0:0:0:0:
192,192,191652,1,0,0:0:0:0:
448,192,191652,1,0,0:0:0:0:
320,192,191727,1,0,0:0:0:0:
192,192,191802,128,0,191952:0:0:0:0:
64,192,191802,128,0,191952:0:0:0:0:
320,192,191952,128,0,192252:0:0:0:0:
448,192,191952,128,0,192252:0:0:0:0:
64,192,192252,1,0,0:0:0:0:
192,192,192252,1,0,0:0:0:0:
320,192,192327,1,0,0:0:0:0:
448,192,192327,1,0,0:0:0:0:
64,192,192402,1,0,0:0:0:0:
192,192,192402,1,0,0:0:0:0:
320,192,192477,1,0,0:0:0:0:
192,192,192552,1,0,0:0:0:0:
64,192,192552,1,0,0:0:0:0:
448,192,192627,1,0,0:0:0:0:
320,192,192702,1,0,0:0:0:0:
192,192,192702,1,0,0:0:0:0:
64,192,192777,1,0,0:0:0:0:
448,192,192852,1,0,0:0:0:0:
192,192,192852,1,0,0:0:0:0:
64,192,192927,1,0,0:0:0:0:
192,192,193002,1,0,0:0:0:0:
320,192,193002,1,0,0:0:0:0:
448,192,193002,1,0,0:0:0:0:
64,192,193077,1,0,0:0:0:0:
320,192,193152,1,0,0:0:0:0:
448,192,193152,1,0,0:0:0:0:
192,192,193227,1,0,0:0:0:0:
64,192,193227,1,0,0:0:0:0:
320,192,193302,1,0,0:0:0:0:
448,192,193302,1,0,0:0:0:0:
192,192,193377,1,0,0:0:0:0:
64,192,193452,1,0,0:0:0:0:
320,192,193452,1,0,0:0:0:0:
448,192,193527,1,0,0:0:0:0:
64,192,193602,1,0,0:0:0:0:
192,192,193602,1,0,0:0:0:0:
320,192,193602,1,0,0:0:0:0:
448,192,193677,1,0,0:0:0:0:
192,192,193752,1,0,0:0:0:0:
64,192,193752,1,0,0:0:0:0:
320,192,193827,1,0,0:0:0:0:
192,192,193902,1,0,0:0:0:0:
448,192,193902,1,0,0:0:0:0:
64,192,193977,1,0,0:0:0:0:
320,192,194052,1,0,0:0:0:0:
448,192,194052,1,0,0:0:0:0:
192,192,194127,1,0,0:0:0:0:
64,192,194202,1,0,0:0:0:0:
320,192,194202,1,0,0:0:0:0:
448,192,194202,1,0,0:0:0:0:
192,192,194277,1,0,0:0:0:0:
320,192,194352,1,0,0:0:0:0:
64,192,194352,1,0,0:0:0:0:
448,192,194427,1,0,0:0:0:0:
192,192,194427,1,0,0:0:0:0:
64,192,194502,1,0,0:0:0:0:
320,192,194502,1,0,0:0:0:0:
448,192,194577,1,0,0:0:0:0:
64,192,194652,1,0,0:0:0:0:
192,192,194652,1,0,0:0:0:0:
320,192,194727,1,0,0:0:0:0:
64,192,194802,1,0,0:0:0:0:
192,192,194802,1,0,0:0:0:0:
448,192,194802,1,0,0:0:0:0:
320,192,194877,1,0,0:0:0:0:
448,192,194952,1,0,0:0:0:0:
64,192,194952,1,0,0:0:0:0:
192,192,195027,1,0,0:0:0:0:
64,192,195102,1,0,0:0:0:0:
448,192,195102,1,0,0:0:0:0:
320,192,195102,1,0,0:0:0:0:
192,192,195177,1,0,0:0:0:0:
320,192,195252,1,0,0:0:0:0:
448,192,195252,1,0,0:0:0:0:
64,192,195327,1,0,0:0:0:0:
192,192,195402,1,0,0:0:0:0:
320,192,195402,1,0,0:0:0:0:
448,192,195402,1,0,0:0:0:0:
64,192,195477,1,0,0:0:0:0:
320,192,195552,1,0,0:0:0:0:
448,192,195552,1,0,0:0:0:0:
192,192,195627,1,0,0:0:0:0:
320,192,195702,1,0,0:0:0:0:
448,192,195702,1,0,0:0:0:0:
64,192,195702,1,0,0:0:0:0:
192,192,195777,1,0,0:0:0:0:
320,192,195852,1,0,0:0:0:0:
448,192,195852,1,0,0:0:0:0:
64,192,195927,1,0,0:0:0:0:
320,192,196002,1,0,0:0:0:0:
448,192,196002,1,0,0:0:0:0:
192,192,196002,1,0,0:0:0:0:
64,192,196077,1,0,0:0:0:0:
320,192,196152,1,0,0:0:0:0:
192,192,196152,1,0,0:0:0:0:
448,192,196227,1,0,0:0:0:0:
64,192,196302,1,0,0:0:0:0:
192,192,196302,1,0,0:0:0:0:
320,192,196302,1,0,0:0:0:0:
448,192,196377,1,0,0:0:0:0:
64,192,196452,1,0,0:0:0:0:
192,192,196452,1,0,0:0:0:0:
448,192,196527,1,0,0:0:0:0:
64,192,196602,1,0,0:0:0:0:
192,192,196602,1,0,0:0:0:0:
320,192,196602,1,0,0:0:0:0:
448,192,196677,1,0,0:0:0:0:
320,192,196752,1,0,0:0:0:0:
192,192,196752,1,0,0:0:0:0:
64,192,196827,1,0,0:0:0:0:
448,192,196827,1,0,0:0:0:0:
192,192,196902,1,0,0:0:0:0:
320,192,196902,1,0,0:0:0:0:
64,192,196977,1,0,0:0:0:0:
448,192,197052,1,0,0:0:0:0:
320,192,197052,1,0,0:0:0:0:
192,192,197127,1,0,0:0:0:0:
64,192,197202,1,0,0:0:0:0:
320,192,197202,1,0,0:0:0:0:
448,192,197202,1,0,0:0:0:0:
192,192,197277,1,0,0:0:0:0:
64,192,197352,1,0,0:0:0:0:
320,192,197352,1,0,0:0:0:0:
448,192,197427,1,0,0:0:0:0:
64,192,197502,1,0,0:0:0:0:
192,192,197502,1,0,0:0:0:0:
320,192,197577,1,0,0:0:0:0:
192,192,197652,1,0,0:0:0:0:
448,192,197652,1,0,0:0:0:0:
64,192,197727,1,0,0:0:0:0:
192,192,197802,1,0,0:0:0:0:
320,192,197802,1,0,0:0:0:0:
448,192,197802,1,0,0:0:0:0:
64,192,197877,1,0,0:0:0:0:
320,192,197952,1,0,0:0:0:0:
448,192,197952,1,0,0:0:0:0:
64,192,198027,1,0,0:0:0:0:
192,192,198027,1,0,0:0:0:0:
320,192,198102,1,0,0:0:0:0:
448,192,198102,1,0,0:0:0:0:
192,192,198177,1,0,0:0:0:0:
64,192,198252,1,0,0:0:0:0:
320,192,198252,1,0,0:0:0:0:
448,192,198327,1,0,0:0:0:0:
64,192,198402,1,0,0:0:0:0:
192,192,198402,1,0,0:0:0:0:
320,192,198402,1,0,0:0:0:0:
448,192,198477,1,0,0:0:0:0:
192,192,198552,1,0,0:0:0:0:
64,192,198552,1,0,0:0:0:0:
320,192,198627,1,0,0:0:0:0:
192,192,198702,1,0,0:0:0:0:
448,192,198702,1,0,0:0:0:0:
64,192,198777,1,0,0:0:0:0:
448,192,198852,1,0,0:0:0:0:
320,192,198852,1,0,0:0:0:0:
192,192,198927,1,0,0:0:0:0:
64,192,199002,1,0,0:0:0:0:
320,192,199002,1,0,0:0:0:0:
448,192,199002,1,0,0:0:0:0:
192,192,199077,1,0,0:0:0:0:
320,192,199152,1,0,0:0:0:0:
64,192,199152,1,0,0:0:0:0:
192,192,199227,1,0,0:0:0:0:
448,192,199227,1,0,0:0:0:0:
64,192,199302,1,0,0:0:0:0:
320,192,199302,1,0,0:0:0:0:
448,192,199377,1,0,0:0:0:0:
192,192,199452,1,0,0:0:0:0:
320,192,199452,1,0,0:0:0:0:
64,192,199527,1,0,0:0:0:0:
192,192,199602,1,0,0:0:0:0:
320,192,199602,1,0,0:0:0:0:
448,192,199602,1,0,0:0:0:0:
64,192,199677,1,0,0:0:0:0:
320,192,199752,1,0,0:0:0:0:
448,192,199752,1,0,0:0:0:0:
64,192,199827,1,0,0:0:0:0:
192,192,199827,1,0,0:0:0:0:
320,192,199902,1,0,0:0:0:0:
448,192,199902,1,0,0:0:0:0:
192,192,199977,1,0,0:0:0:0:
64,192,200052,1,0,0:0:0:0:
320,192,200052,1,0,0:0:0:0:
448,192,200127,1,0,0:0:0:0:
64,192,200202,1,0,0:0:0:0:
192,192,200202,1,0,0:0:0:0:
320,192,200202,1,0,0:0:0:0:
448,192,200277,1,0,0:0:0:0:
320,192,200352,1,0,0:0:0:0:
192,192,200352,1,0,0:0:0:0:
64,192,200427,1,0,0:0:0:0:
448,192,200427,1,0,0:0:0:0:
192,192,200502,1,0,0:0:0:0:
320,192,200502,1,0,0:0:0:0:
64,192,200577,1,0,0:0:0:0:
448,192,200652,1,0,0:0:0:0:
320,192,200652,1,0,0:0:0:0:
192,192,200727,1,0,0:0:0:0:
64,192,200802,1,0,0:0:0:0:
320,192,200802,1,0,0:0:0:0:
448,192,200802,1,0,0:0:0:0:
192,192,200877,1,0,0:0:0:0:
320,192,200952,1,0,0:0:0:0:
448,192,200952,1,0,0:0:0:0:
64,192,201027,1,0,0:0:0:0:
192,192,201027,1,0,0:0:0:0:
320,192,201102,1,0,0:0:0:0:
448,192,201102,1,0,0:0:0:0:
64,192,201177,1,0,0:0:0:0:
192,192,201252,1,0,0:0:0:0:
320,192,201252,1,0,0:0:0:0:
448,192,201327,1,0,0:0:0:0:
64,192,201402,1,0,0:0:0:0:
192,192,201402,1,0,0:0:0:0:
320,192,201402,1,0,0:0:0:0:
448,192,201477,1,0,0:0:0:0:
320,192,201552,1,0,0:0:0:0:
192,192,201552,1,0,0:0:0:0:
64,192,201627,1,0,0:0:0:0:
448,192,201627,1,0,0:0:0:0:
192,192,201702,1,0,0:0:0:0:
320,192,201702,1,0,0:0:0:0:
64,192,201777,1,0,0:0:0:0:
448,192,201852,1,0,0:0:0:0:
320,192,201852,1,0,0:0:0:0:
192,192,201927,1,0,0:0:0:0:
64,192,202002,1,0,0:0:0:0:
320,192,202002,1,0,0:0:0:0:
448,192,202002,1,0,0:0:0:0:
192,192,202077,1,0,0:0:0:0:
64,192,202152,1,0,0:0:0:0:
448,192,202152,1,0,0:0:0:0:
320,192,202227,1,0,0:0:0:0:
192,192,202302,1,0,0:0:0:0:
64,192,202302,1,0,0:0:0:0:
448,192,202377,1,0,0:0:0:0:
320,192,202452,1,0,0:0:0:0:
192,192,202452,1,0,0:0:0:0:
64,192,202527,1,0,0:0:0:0:
192,192,202602,1,0,0:0:0:0:
320,192,202602,1,0,0:0:0:0:
448,192,202602,1,0,0:0:0:0:
64,192,202677,1,0,0:0:0:0:
320,192,202752,1,0,0:0:0:0:
448,192,202752,1,0,0:0:0:0:
64,192,202827,1,0,0:0:0:0:
192,192,202827,1,0,0:0:0:0:
320,192,202902,1,0,0:0:0:0:
448,192,202902,1,0,0:0:0:0:
192,192,202977,1,0,0:0:0:0:
64,192,203052,1,0,0:0:0:0:
320,192,203052,1,0,0:0:0:0:
448,192,203127,1,0,0:0:0:0:
64,192,203202,1,0,0:0:0:0:
192,192,203202,1,0,0:0:0:0:
320,192,203202,1,0,0:0:0:0:
448,192,203277,1,0,0:0:0:0:
64,192,203352,1,0,0:0:0:0:
192,192,203352,1,0,0:0:0:0:
320,192,203427,1,0,0:0:0:0:
448,192,203502,1,0,0:0:0:0:
192,192,203502,1,0,0:0:0:0:
64,192,203577,1,0,0:0:0:0:
448,192,203652,1,0,0:0:0:0:
320,192,203652,1,0,0:0:0:0:
192,192,203727,1,0,0:0:0:0:
64,192,203802,1,0,0:0:0:0:
320,192,203802,1,0,0:0:0:0:
448,192,203802,1,0,0:0:0:0:
192,192,203877,1,0,0:0:0:0:
320,192,203952,1,0,0:0:0:0:
64,192,203952,1,0,0:0:0:0:
192,192,204027,1,0,0:0:0:0:
448,192,204027,1,0,0:0:0:0:
64,192,204102,1,0,0:0:0:0:
320,192,204102,1,0,0:0:0:0:
448,192,204177,1,0,0:0:0:0:
192,192,204252,1,0,0:0:0:0:
320,192,204252,1,0,0:0:0:0:
64,192,204327,1,0,0:0:0:0:
192,192,204402,1,0,0:0:0:0:
320,192,204402,1,0,0:0:0:0:
448,192,204402,1,0,0:0:0:0:
64,192,204477,1,0,0:0:0:0:
320,192,204552,1,0,0:0:0:0:
448,192,204552,1,0,0:0:0:0:
192,192,204627,1,0,0:0:0:0:
64,192,204702,1,0,0:0:0:0:
320,192,204702,1,0,0:0:0:0:
448,192,204702,1,0,0:0:0:0:
192,192,204777,1,0,0:0:0:0:
64,192,204852,1,0,0:0:0:0:
320,192,204852,1,0,0:0:0:0:
448,192,204927,1,0,0:0:0:0:
64,192,205002,1,0,0:0:0:0:
192,192,205002,1,0,0:0:0:0:
320,192,205002,1,0,0:0:0:0:
448,192,205077,1,0,0:0:0:0:
320,192,205152,1,0,0:0:0:0:
192,192,205152,1,0,0:0:0:0:
448,192,205227,1,0,0:0:0:0:
64,192,205302,1,0,0:0:0:0:
192,192,205302,1,0,0:0:0:0:
320,192,205302,1,0,0:0:0:0:
448,192,205377,1,0,0:0:0:0:
64,192,205452,1,0,0:0:0:0:
192,192,205452,1,0,0:0:0:0:
320,192,205527,1,0,0:0:0:0:
64,192,205602,1,0,0:0:0:0:
192,192,205602,1,0,0:0:0:0:
448,192,205602,1,0,0:0:0:0:
320,192,205677,1,0,0:0:0:0:
192,192,205752,1,0,0:0:0:0:
64,192,205752,1,0,0:0:0:0:
320,192,205827,1,0,0:0:0:0:
64,192,205902,1,0,0:0:0:0:
192,192,205902,1,0,0:0:0:0:
448,192,205902,1,0,0:0:0:0:
320,192,205977,1,0,0:0:0:0:
448,192,206052,1,0,0:0:0:0:
192,192,206052,1,0,0:0:0:0:
64,192,206127,1,0,0:0:0:0:
192,192,206202,1,0,0:0:0:0:
320,192,206202,1,0,0:0:0:0:
448,192,206202,1,0,0:0:0:0:
64,192,206277,1,0,0:0:0:0:
320,192,206352,1,0,0:0:0:0:
448,192,206352,1,0,0:0:0:0:
64,192,206427,1,0,0:0:0:0:
192,192,206427,1,0,0:0:0:0:
320,192,206502,1,0,0:0:0:0:
448,192,206502,1,0,0:0:0:0:
192,192,206577,1,0,0:0:0:0:
64,192,206652,1,0,0:0:0:0:
320,192,206652,1,0,0:0:0:0:
448,192,206727,1,0,0:0:0:0:
64,192,206802,1,0,0:0:0:0:
192,192,206802,1,0,0:0:0:0:
320,192,206802,1,0,0:0:0:0:
448,192,206877,1,0,0:0:0:0:
64,192,206952,1,0,0:0:0:0:
192,192,206952,1,0,0:0:0:0:
320,192,207027,1,0,0:0:0:0:
448,192,207102,1,0,0:0:0:0:
192,192,207102,1,0,0:0:0:0:
64,192,207177,1,0,0:0:0:0:
448,192,207252,1,0,0:0:0:0:
320,192,207252,1,0,0:0:0:0:
192,192,207327,1,0,0:0:0:0:
64,192,207402,1,0,0:0:0:0:
320,192,207402,1,0,0:0:0:0:
448,192,207402,1,0,0:0:0:0:
192,192,207477,1,0,0:0:0:0:
320,192,207552,1,0,0:0:0:0:
64,192,207552,1,0,0:0:0:0:
448,192,207627,5,0,0:0:0:0:
192,192,207627,1,0,0:0:0:0:
64,192,207702,1,0,0:0:0:0:
320,192,207702,1,0,0:0:0:0:
448,192,207777,1,0,0:0:0:0:
192,192,207852,1,0,0:0:0:0:
320,192,207852,1,0,0:0:0:0:
64,192,207927,1,0,0:0:0:0:
192,192,208002,1,0,0:0:0:0:
320,192,208002,1,0,0:0:0:0:
448,192,208002,1,0,0:0:0:0:
64,192,208077,1,0,0:0:0:0:
448,192,208152,1,0,0:0:0:0:
320,192,208152,1,0,0:0:0:0:
192,192,208227,1,0,0:0:0:0:
64,192,208302,1,0,0:0:0:0:
448,192,208302,1,0,0:0:0:0:
320,192,208377,1,0,0:0:0:0:
192,192,208452,1,0,0:0:0:0:
64,192,208452,1,0,0:0:0:0:
320,192,208527,1,0,0:0:0:0:
64,192,208602,1,0,0:0:0:0:
192,192,208602,1,0,0:0:0:0:
448,192,208602,1,0,0:0:0:0:
320,192,208677,1,0,0:0:0:0:
192,192,208752,1,0,0:0:0:0:
64,192,208827,1,0,0:0:0:0:
448,192,208902,1,0,0:0:0:0:
320,192,208977,1,0,0:0:0:0:
448,192,209052,1,0,0:0:0:0:
192,192,209052,1,0,0:0:0:0:
320,192,209127,1,0,0:0:0:0:
64,192,209127,1,0,0:0:0:0:
192,192,209202,1,0,0:0:0:0:
448,192,209202,1,0,0:0:0:0:
64,192,209277,1,0,0:0:0:0:
320,192,209277,1,0,0:0:0:0:
192,192,209352,1,0,0:0:0:0:
64,192,209427,1,0,0:0:0:0:
448,192,209502,1,0,0:0:0:0:
320,192,209502,1,0,0:0:0:0:
192,192,209577,1,0,0:0:0:0:
64,192,209577,1,0,0:0:0:0:
320,192,209652,1,0,0:0:0:0:
448,192,209652,1,0,0:0:0:0:
192,192,209727,1,0,0:0:0:0:
64,192,209727,1,0,0:0:0:0:
320,192,209802,1,0,0:0:0:0:
448,192,209802,1,0,0:0:0:0:
64,192,209877,1,0,0:0:0:0:
192,192,209877,1,0,0:0:0:0:
320,192,209952,1,0,0:0:0:0:
448,192,209952,1,0,0:0:0:0:
64,192,210027,1,0,0:0:0:0:
192,192,210102,1,0,0:0:0:0:
320,192,210177,1,0,0:0:0:0:
448,192,210252,1,0,0:0:0:0:
192,192,210252,1,0,0:0:0:0:
64,192,210327,1,0,0:0:0:0:
320,192,210327,1,0,0:0:0:0:
192,192,210402,1,0,0:0:0:0:
448,192,210402,1,0,0:0:0:0:
64,192,210477,1,0,0:0:0:0:
192,192,210552,1,0,0:0:0:0:
320,192,210627,1,0,0:0:0:0:
448,192,210702,1,0,0:0:0:0:
320,192,210777,1,0,0:0:0:0:
64,192,210852,1,0,0:0:0:0:
192,192,210852,1,0,0:0:0:0:
448,192,210927,1,0,0:0:0:0:
320,192,211002,1,0,0:0:0:0:
448,192,211077,1,0,0:0:0:0:
64,192,211077,1,0,0:0:0:0:
192,192,211077,1,0,0:0:0:0:
64,192,211377,1,0,0:0:0:0:
192,192,211752,1,0,0:0:0:0:
320,192,211952,1,0,0:0:0:0:
448,192,212102,1,0,0:0:0:0:
320,192,212502,1,0,0:0:0:0:
192,192,212802,1,0,0:0:0:0:
192,192,213202,1,0,0:0:0:0:
192,192,213602,1,0,0:0:0:0:
64,192,214002,1,0,0:0:0:0:
64,192,214202,1,0,0:0:0:0:
192,192,214402,1,0,0:0:0:0:
192,192,214902,1,0,0:0:0:0:
320,192,215102,1,0,0:0:0:0:
448,192,215302,1,0,0:0:0:0:
448,192,215802,1,0,0:0:0:0:
320,192,216302,1,0,0:0:0:0:
320,192,216852,1,0,0:0:0:0:
320,192,217602,128,0,222102:0:0:0:0:
