osu file format v14

[General]
AudioFilename: audio.mp3
AudioLeadIn: 0
PreviewTime: -1
Countdown: 1
SampleSet: Soft
StackLeniency: 0.7
Mode: 0
LetterboxInBreaks: 0
WidescreenStoryboard: 0

[Editor]
Bookmarks: 15562,25162,34762,45412,64762,83962
DistanceSpacing: 0.9
BeatDivisor: 4
GridSize: 16
TimelineZoom: 1

[Metadata]
Title:Yoru Naku Usagi wa Yume o Miru
TitleUnicode:Yoru Naku Usagi wa Yume o Miru
Artist:UNDEAD CORPORATION
ArtistUnicode:UNDEAD CORPORATION
Creator:ksg
Version:sdfjkaksdfa
Source:
Tags:
BeatmapID:1425021
BeatmapSetID:673321

[Difficulty]
HPDrainRate:5
CircleSize:4.5
OverallDifficulty:9
ApproachRate:9.5
SliderMultiplier:2
SliderTickRate:1

[Events]
//Background and Video events
//Break Periods
//Storyboard Layer 0 (Background)
//Storyboard Layer 1 (Fail)
//Storyboard Layer 2 (Pass)
//Storyboard Layer 3 (Foreground)
//Storyboard Layer 4 (Overlay)
//Storyboard Sound Samples

[TimingPoints]
562,600,4,2,0,60,1,0
862,-66.6666666666667,4,2,0,60,0,0
1162,300,4,2,0,60,1,0
1162,-100,4,2,0,60,0,0
10762,-66.6666666666667,4,2,0,60,0,0
20362,-133.333333333333,4,2,0,60,0,0
24562,-200,4,2,0,60,0,0
24862,-333.333333333333,4,2,0,60,0,0
25162,-133.333333333333,4,2,0,60,0,0
32962,-100,4,2,0,60,0,0
34762,-76.9230769230769,4,2,0,60,0,0
66562,-100,4,2,0,60,0,0
123562,300,6,2,0,60,1,0
137962,300,4,2,0,60,1,0
210562,342.857142857143,4,2,0,60,1,0
211257,361.44578313253,4,2,0,60,1,0
212702,384.615384615385,4,2,0,60,1,0
213481,408.163265306122,4,2,0,60,1,0
214297,447.761194029851,4,2,0,60,1,0
215185,476.190476190476,4,2,0,60,1,0
215661,500,4,2,0,60,1,0
216178,560.747663551402,4,2,0,60,1,0
216749,666.666666666667,4,2,0,60,1,0
217465,705.882352941176,4,2,0,60,1,0

[HitObjects]
139,103,562,6,0,P|156:120|214:107,1,75
219,42,862,2,0,P|269:21|317:48,1,112.500004291535
294,190,1162,6,0,L|303:119,1,50
121,82,1312,1,0,0:0:0:0:
153,247,1462,1,0,0:0:0:0:
298,111,1612,6,0,L|251:67,1,50
93,191,1762,1,0,0:0:0:0:
241,255,1912,1,0,0:0:0:0:
233,52,2062,6,0,L|176:79,1,50
145,266,2212,1,0,0:0:0:0:
327,190,2362,5,0,0:0:0:0:
277,182,2437,1,0,0:0:0:0:
228,175,2512,1,0,0:0:0:0:
178,167,2587,1,0,0:0:0:0:
129,160,2662,1,0,0:0:0:0:
208,329,2812,1,0,0:0:0:0:
304,103,2962,5,0,0:0:0:0:
322,347,3112,1,0,0:0:0:0:
409,152,3262,1,0,0:0:0:0:
216,351,3412,1,0,0:0:0:0:
77,101,3562,6,0,L|130:80,1,50
211,217,3712,1,0,0:0:0:0:
52,206,3862,1,0,0:0:0:0:
159,71,4012,6,0,L|203:124,1,50
103,270,4162,1,0,0:0:0:0:
2,145,4312,1,0,0:0:0:0:
213,142,4462,6,0,L|190:208,1,50
32,221,4612,1,0,0:0:0:0:
127,76,4762,5,0,0:0:0:0:
123,125,4837,1,0,0:0:0:0:
119,175,4912,1,0,0:0:0:0:
115,225,4987,1,0,0:0:0:0:
112,275,5062,1,0,0:0:0:0:
13,126,5212,1,0,0:0:0:0:
173,11,5362,5,0,0:0:0:0:
206,79,5462,1,0,0:0:0:0:
281,56,5562,1,0,0:0:0:0:
310,134,5662,5,0,0:0:0:0:
399,113,5762,1,0,0:0:0:0:
430,198,5862,1,0,0:0:0:0:
507,171,5962,6,0,B|481:67|481:67|479:132,1,150
407,210,6262,2,0,L|379:341,1,100
235,178,6562,6,0,L|293:165,1,50
411,133,6712,1,0,0:0:0:0:
298,247,6862,1,0,0:0:0:0:
295,44,7012,6,0,B|277:90|277:90|302:133,1,100
209,250,7312,2,0,B|235:294|235:294|217:340,1,100
11,193,7612,2,0,L|81:181,1,50
126,44,7762,5,0,0:0:0:0:
79,301,7912,1,0,0:0:0:0:
170,103,8062,1,0,0:0:0:0:
3,305,8212,1,0,0:0:0:0:
223,231,8362,6,0,B|125:205|125:205|189:191,1,150
311,193,8662,2,0,L|421:167,1,100
215,51,8962,2,0,L|203:127,1,50
288,270,9112,1,0,0:0:0:0:
336,113,9262,1,0,0:0:0:0:
177,172,9412,6,0,B|127:164|127:164|96:117,1,100
210,319,9712,2,0,B|260:311|260:311|291:264,1,100
44,209,10012,2,0,L|59:283,1,50
82,370,10162,5,0,0:0:0:0:
99,122,10312,2,0,L|114:196,1,50
157,378,10462,5,0,0:0:0:0:
205,367,10537,1,0,0:0:0:0:
254,356,10612,1,0,0:0:0:0:
303,345,10687,1,0,0:0:0:0:
352,335,10762,6,0,B|399:307|399:307|452:318|452:318|508:301,1,150.000005722046
253,248,11062,1,0,0:0:0:0:
399,92,11212,6,0,B|424:72|424:72|404:151|404:151|405:208,1,150.000005722046
276,25,11512,1,0,0:0:0:0:
180,230,11662,6,0,B|254:248|254:248|336:169,1,150.000005722046
42,80,11962,5,0,0:0:0:0:
47,135,12037,1,0,0:0:0:0:
52,191,12112,1,0,0:0:0:0:
57,247,12187,1,0,0:0:0:0:
63,303,12262,5,0,0:0:0:0:
154,40,12412,1,0,0:0:0:0:
214,348,12562,1,0,0:0:0:0:
148,117,12712,1,0,0:0:0:0:
130,368,12862,1,0,0:0:0:0:
318,181,13012,1,0,0:0:0:0:
34,119,13162,6,0,B|43:171|43:171|25:218|25:218|34:263,1,150.000005722046
154,40,13462,1,0,0:0:0:0:
242,267,13612,6,0,B|205:252|205:252|173:228|173:228|102:226,1,150.000005722046
313,165,13912,1,0,0:0:0:0:
397,358,14062,6,0,B|402:295|402:295|422:249|422:249|410:200|410:200|416:138,1,225.000008583069
430,2,14362,5,0,0:0:0:0:
450,52,14437,1,0,0:0:0:0:
426,102,14512,1,0,0:0:0:0:
374,118,14587,1,0,0:0:0:0:
326,92,14662,1,0,0:0:0:0:
272,100,14737,1,0,0:0:0:0:
238,143,14812,1,0,0:0:0:0:
242,198,14887,1,0,0:0:0:0:
282,235,14962,6,0,P|339:240|376:217,1,75.0000028610231
203,82,15112,2,0,L|187:-9,1,75.0000028610231
90,260,15262,2,0,L|77:333,1,75.0000028610231
313,165,15412,1,0,0:0:0:0:
183,128,20362,6,0,B|180:179|198:229|198:229|215:205|241:195,1,150.000005722046
308,194,20812,1,0,0:0:0:0:
353,257,20962,2,0,P|348:309|312:341,1,75.0000028610231
236,324,21262,2,0,P|217:291|218:254,1,75.0000028610231
318,182,21562,2,0,P|336:149|335:112,1,75.0000028610231
237,26,21862,2,0,P|236:63|254:95,1,75.0000028610231
401,4,22162,1,0,0:0:0:0:
401,4,22462,1,0,0:0:0:0:
335,112,22612,1,0,0:0:0:0:
217,46,22762,6,0,B|162:52|115:35|115:35|103:69|127:100,1,150.000005722046
165,144,23212,1,0,0:0:0:0:
88,153,23362,2,0,P|64:207|70:246,1,75.0000028610231
97,298,23662,2,0,P|126:329|164:335,1,75.0000028610231
246,76,23962,6,0,P|270:130|264:169,1,75.0000028610231
239,229,24262,2,0,L|185:213,3,37.5000014305115
252,301,24562,2,0,L|286:289,3,25
240,372,24862,2,0,L|216:368,3,14.9999995422363
345,338,25162,6,0,B|451:300|451:300|437:288|430:270,1,150.000005722046
415,135,25612,1,0,0:0:0:0:
308,232,25762,2,0,L|404:201,1,75.0000028610231
190,134,26062,2,0,L|118:110,1,75.0000028610231
293,9,26362,6,0,L|282:118,1,75.0000028610231
306,129,26587,1,0,0:0:0:0:
306,129,26662,1,0,0:0:0:0:
365,49,26812,1,0,0:0:0:0:
213,58,26962,2,0,L|120:33,1,75.0000028610231
53,149,27262,1,0,0:0:0:0:
25,26,27412,1,0,0:0:0:0:
53,149,27562,6,0,B|82:259|82:259|136:286,1,150.000005722046
253,328,28012,1,0,0:0:0:0:
220,179,28162,2,0,L|192:279,1,75.0000028610231
377,198,28462,2,0,L|303:253,1,75.0000028610231
478,331,28762,5,0,0:0:0:0:
508,183,28912,1,0,0:0:0:0:
508,183,28987,1,0,0:0:0:0:
508,183,29062,1,0,0:0:0:0:
390,276,29212,1,0,0:0:0:0:
512,345,29362,2,0,L|489:241,1,75.0000028610231
403,165,29662,1,0,0:0:0:0:
453,32,29812,1,0,0:0:0:0:
403,165,29962,6,0,B|340:164|340:164|286:144|286:144|259:157,1,150.000005722046
157,241,30412,1,0,0:0:0:0:
250,340,30562,2,0,L|260:246,1,75.0000028610231
141,145,30862,2,0,L|133:219,1,75.0000028610231
234,80,31162,5,0,0:0:0:0:
114,43,31312,1,0,0:0:0:0:
114,43,31387,1,0,0:0:0:0:
114,43,31462,2,0,L|25:53,1,75.0000028610231
154,166,31762,2,0,L|243:176,1,75.0000028610231
371,200,32062,1,0,0:0:0:0:
346,79,32212,1,0,0:0:0:0:
403,221,32362,6,0,B|384:327|384:327|345:359,1,150.000005722046
282,189,32812,1,0,0:0:0:0:
357,58,32962,2,0,L|455:77,1,100
273,213,33262,2,0,L|174:232,1,100
105,40,33562,5,0,0:0:0:0:
500,250,33862,5,0,0:0:0:0:
220,353,34162,5,0,0:0:0:0:
164,148,34312,1,0,0:0:0:0:
234,265,34462,1,0,0:0:0:0:
250,174,34612,1,0,0:0:0:0:
36,301,34762,6,0,B|105:273|105:273|144:290|144:290|228:275,1,194.999991073609
314,260,35062,1,0,0:0:0:0:
118,89,35212,6,0,B|150:218|150:218|180:152,1,194.999991073609
213,78,35512,1,0,0:0:0:0:
11,10,35662,1,0,0:0:0:0:
15,224,35812,6,0,B|134:182|134:182|210:214,1,194.999991073609
314,261,36112,1,0,0:0:0:0:
360,65,36262,1,0,0:0:0:0:
468,264,36412,6,0,B|433:320|433:320|391:175,1,194.999991073609
377,131,36712,1,0,0:0:0:0:
371,111,36787,1,0,0:0:0:0:
365,93,36862,1,0,0:0:0:0:
85,65,37162,6,0,B|107:130|107:130|100:232|100:232|121:192,1,194.999991073609
195,278,37462,1,0,0:0:0:0:
8,168,37612,2,0,B|179:131|179:131|217:153,1,194.999991073609
292,211,37912,1,0,0:0:0:0:
161,42,38062,1,0,0:0:0:0:
187,250,38212,6,0,B|215:363|215:363|309:338,1,194.999991073609
388,307,38512,1,0,0:0:0:0:
394,287,38587,1,0,0:0:0:0:
400,269,38662,1,0,0:0:0:0:
277,76,38812,2,0,L|309:269,1,194.999991073609
367,131,39112,1,0,0:0:0:0:
130,58,39262,1,0,0:0:0:0:
150,312,39412,5,0,0:0:0:0:
150,312,39487,1,0,0:0:0:0:
150,312,39562,1,0,0:0:0:0:
59,123,39712,1,0,0:0:0:0:
195,219,39862,1,0,0:0:0:0:
279,75,40012,1,0,0:0:0:0:
280,297,40162,5,0,0:0:0:0:
162,42,40312,1,0,0:0:0:0:
61,233,40462,1,0,0:0:0:0:
237,149,40612,1,0,0:0:0:0:
306,377,40762,5,0,0:0:0:0:
408,175,40912,1,0,0:0:0:0:
461,308,41062,1,0,0:0:0:0:
326,120,41212,1,0,0:0:0:0:
155,256,41362,1,0,0:0:0:0:
64,41,41512,1,0,0:0:0:0:
17,299,41662,1,0,0:0:0:0:
191,145,41812,5,0,0:0:0:0:
191,145,41887,1,0,0:0:0:0:
191,145,41962,6,0,B|207:14|207:14|155:67,1,194.999991073609
87,133,42262,2,0,L|108:222,1,64.9999970245363
131,342,42412,1,0,0:0:0:0:
259,157,42562,5,0,0:0:0:0:
360,334,42712,1,0,0:0:0:0:
457,52,42862,1,0,0:0:0:0:
311,245,43012,1,0,0:0:0:0:
182,22,43162,6,0,B|122:15|122:15|61:40|61:40|2:4,1,194.999991073609
24,133,43462,5,0,0:0:0:0:
25,196,43537,1,0,0:0:0:0:
65,246,43612,1,0,0:0:0:0:
127,261,43687,1,0,0:0:0:0:
186,236,43762,1,0,0:0:0:0:
217,180,43837,1,0,0:0:0:0:
208,117,43912,1,0,0:0:0:0:
244,65,43987,1,0,0:0:0:0:
307,55,44062,1,0,0:0:0:0:
357,93,44137,1,0,0:0:0:0:
364,156,44212,1,0,0:0:0:0:
324,205,44287,1,0,0:0:0:0:
261,214,44362,5,0,0:0:0:0:
318,17,44512,1,0,0:0:0:0:
282,335,44662,5,0,0:0:0:0:
225,117,44812,2,0,L|205:36,1,64.9999970245363
76,293,44962,5,0,0:0:0:0:
449,170,45112,1,0,0:0:0:0:
232,138,45262,1,0,0:0:0:0:
291,364,45412,6,0,B|296:382|296:382|302:274|302:274|321:230|321:230|296:127,1,259.999988098145
93,171,45862,2,0,B|131:202|131:202|215:218,1,129.999994049073
479,191,46162,1,0,0:0:0:0:
295,115,46312,1,0,0:0:0:0:
413,282,46462,1,0,0:0:0:0:
442,52,46612,6,0,B|429:1|429:1|379:87|379:87|399:199,1,259.999988098145
430,364,47062,1,0,0:0:0:0:
297,96,47212,1,0,0:0:0:0:
241,332,47362,1,0,0:0:0:0:
97,66,47512,1,0,0:0:0:0:
97,66,47587,1,0,0:0:0:0:
97,66,47662,1,0,0:0:0:0:
8,364,47812,6,0,B|75:315|75:315|196:280|196:280|160:327,1,259.999988098145
27,235,48262,1,0,0:0:0:0:
113,27,48412,1,0,0:0:0:0:
241,179,48562,2,0,B|175:196|175:196|118:164,1,129.999994049073
326,115,48862,1,0,0:0:0:0:
382,291,49012,6,0,B|301:233|301:233|123:279,1,259.999988098145
403,373,49462,1,0,0:0:0:0:
336,144,49612,1,0,0:0:0:0:
200,351,49762,1,0,0:0:0:0:
475,229,49912,1,0,0:0:0:0:
475,229,49987,1,0,0:0:0:0:
475,229,50062,1,0,0:0:0:0:
301,21,50212,6,0,B|231:4|231:4|143:44|143:44|51:51,1,259.999988098145
216,206,50662,2,0,B|250:150|250:150|242:86,1,129.999994049073
69,283,50962,1,0,0:0:0:0:
295,245,51112,1,0,0:0:0:0:
109,144,51262,1,0,0:0:0:0:
224,365,51412,6,0,B|361:329|361:329|446:363|446:363|513:345,1,259.999988098145
448,108,51862,1,0,0:0:0:0:
386,260,52012,1,0,0:0:0:0:
342,67,52162,1,0,0:0:0:0:
491,284,52312,1,0,0:0:0:0:
491,284,52387,1,0,0:0:0:0:
491,284,52462,1,0,0:0:0:0:
267,199,52612,6,0,B|151:221|151:221|107:257|107:257|53:236|53:236|26:243,1,259.999988098145
121,52,53062,2,0,B|128:118|128:118|95:172,1,129.999994049073
285,379,53362,1,0,0:0:0:0:
388,183,53512,1,0,0:0:0:0:
388,183,53587,1,0,0:0:0:0:
388,183,53662,1,0,0:0:0:0:
450,345,53812,1,0,0:0:0:0:
255,227,53962,6,0,L|97:259,1,129.999994049073
0,280,54187,1,0,0:0:0:0:
0,280,54262,1,0,0:0:0:0:
207,361,54412,1,0,0:0:0:0:
242,125,54562,1,0,0:0:0:0:
424,270,54712,1,0,0:0:0:0:
424,270,54787,1,0,0:0:0:0:
424,270,54862,1,0,0:0:0:0:
492,46,55012,6,0,B|401:40|401:40|341:83|341:83|252:49,1,259.999988098145
432,253,55462,2,0,B|460:193|460:193|434:120,1,129.999994049073
218,35,55762,1,0,0:0:0:0:
280,329,55912,1,0,0:0:0:0:
354,200,56062,1,0,0:0:0:0:
123,91,56212,6,0,B|59:57|59:57|90:253,1,259.999988098145
283,141,56662,2,0,L|146:171,1,129.999994049073
432,253,56962,1,0,0:0:0:0:
400,18,57112,1,0,0:0:0:0:
400,18,57187,1,0,0:0:0:0:
400,18,57262,1,0,0:0:0:0:
316,260,57412,6,0,B|328:324|328:324|385:354|385:354|439:316|439:316|429:233,1,259.999988098145
115,115,57862,2,0,L|83:264,1,129.999994049073
254,67,58162,1,0,0:0:0:0:
25,12,58312,1,0,0:0:0:0:
25,12,58387,1,0,0:0:0:0:
25,12,58462,1,0,0:0:0:0:
0,295,58612,6,0,B|-7:361|-7:361|185:326,1,259.999988098145
411,288,59062,1,0,0:0:0:0:
265,90,59212,1,0,0:0:0:0:
256,315,59362,1,0,0:0:0:0:
388,59,59512,1,0,0:0:0:0:
388,59,59587,1,0,0:0:0:0:
388,59,59662,1,0,0:0:0:0:
482,310,59812,6,0,B|405:305|405:305|350:269|350:269|258:299|258:299|209:282,1,259.999988098145
25,91,60262,2,0,B|42:154|42:154|11:218,1,129.999994049073
185,46,60562,1,0,0:0:0:0:
131,296,60712,1,0,0:0:0:0:
255,151,60862,1,0,0:0:0:0:
13,283,61012,6,0,B|0:202|0:202|24:151|24:151|5:92|5:92|34:7,1,259.999988098145
241,278,61462,1,0,0:0:0:0:
75,218,61612,1,0,0:0:0:0:
215,16,61762,2,0,L|226:145,1,129.999994049073
241,278,61987,1,0,0:0:0:0:
241,278,62062,1,0,0:0:0:0:
89,39,62212,6,0,B|210:26|210:26|216:29|216:29|222:24|222:24|345:12,1,259.999988098145
446,248,62662,6,0,L|429:326,1,64.9999970245363
342,95,62812,2,0,L|363:192,1,64.9999970245363
251,304,62962,2,0,L|274:374,1,64.9999970245363
155,129,63112,2,0,L|138:207,1,64.9999970245363
51,364,63262,1,0,0:0:0:0:
45,299,63337,1,0,0:0:0:0:
40,234,63412,1,0,0:0:0:0:
35,169,63487,1,0,0:0:0:0:
29,104,63562,5,0,0:0:0:0:
178,351,63712,1,0,0:0:0:0:
245,38,63862,1,0,0:0:0:0:
155,272,64012,5,0,0:0:0:0:
155,272,64087,1,0,0:0:0:0:
155,272,64162,1,0,0:0:0:0:
444,208,64312,1,0,0:0:0:0:
117,156,64462,1,0,0:0:0:0:
457,120,64612,1,0,0:0:0:0:
84,38,64762,1,0,0:0:0:0:
82,59,66562,5,0,0:0:0:0:
424,115,66712,1,0,0:0:0:0:
144,147,66862,2,0,B|144:111|144:111|160:80|160:80|161:31,1,100
391,229,67162,6,0,B|361:229|361:229|330:244|330:244|294:245,1,100
81,317,67462,2,0,B|110:316|110:316|141:301|141:301|177:300,1,100
234,121,67762,1,0,0:0:0:0:
249,365,67912,2,0,B|249:329|249:329|265:298|265:298|266:249,1,100
217,108,68212,6,0,L|217:47,2,50
328,168,68512,2,0,L|328:218,2,50
302,82,68812,6,0,L|363:82,2,50
242,193,69112,2,0,L|192:193,1,50
75,143,69262,5,0,0:0:0:0:
79,192,69337,1,0,0:0:0:0:
83,242,69412,1,0,0:0:0:0:
87,292,69487,1,0,0:0:0:0:
91,342,69562,5,0,0:0:0:0:
