osu file format v14

[General]
AudioFilename: audio.mp3
AudioLeadIn: 0
PreviewTime: 103987
Countdown: 0
SampleSet: None
StackLeniency: 0.2
Mode: 0
LetterboxInBreaks: 0
WidescreenStoryboard: 0

[Editor]
Bookmarks: 1162,44362,83962,123562,161962,191812
DistanceSpacing: 0.7
BeatDivisor: 4
GridSize: 32
TimelineZoom: 2

[Metadata]
Title:Yoru Naku Usagi wa Yume o Miru
TitleUnicode:夜啼く兎は夢を見る
Artist:UNDEAD CORPORATION
ArtistUnicode:UNDEAD CORPORATION
Creator:MaridiuS
Version:ReaLCFC's Lunatic
Source:東方永夜抄 ~ Imperishable Night.
Tags:LOLI JOA Ayyri Len Revia Realazy LowComboFC eiri- Chekito Lince Bergy ranko Touhou Eiyashou 東方Project C82 Comiket82 Benisome no Oni ga Naku 紅染の鬼が哭く 狂気の瞳 ~ Invisible Full Moon Kyouki no Hitomi Reisen Udongein theme
BeatmapID:1532662
BeatmapSetID:695743

[Difficulty]
HPDrainRate:6
CircleSize:4
OverallDifficulty:8
ApproachRate:9.2
SliderMultiplier:1.5
SliderTickRate:1

[Events]
//Background and Video events
0,0,"stfu_lcfc.jpg",0,0
//Break Periods
2,138167,145612
//Storyboard Layer 0 (Background)
//Storyboard Layer 1 (Fail)
//Storyboard Layer 2 (Pass)
//Storyboard Layer 3 (Foreground)
//Storyboard Sound Samples

[TimingPoints]
-33,300,4,2,1,70,1,0
-33,-200,4,2,1,70,0,0
792,-200,4,2,1,5,0,0
867,-153.846153846154,4,2,1,70,0,0
1092,-153.846153846154,4,2,1,5,0,0
1167,-100,4,2,1,70,0,0
5967,-111.111111111111,4,2,10,70,0,0
6192,-111.111111111111,4,2,10,5,0,0
6267,-111.111111111111,4,2,10,70,0,0
6492,-111.111111111111,4,2,10,5,0,0
6567,-111.111111111111,4,2,10,70,0,0
7242,-111.111111111111,4,2,10,5,0,0
7317,-111.111111111111,4,2,10,70,0,0
7992,-111.111111111111,4,2,10,5,0,0
8067,-111.111111111111,4,2,10,70,0,0
8292,-111.111111111111,4,2,10,5,0,0
8367,-111.111111111111,4,2,10,70,0,0
8592,-111.111111111111,4,2,10,5,0,0
8667,-111.111111111111,4,2,10,70,0,0
10767,-100,4,2,1,70,0,0
15567,-133.333333333333,4,2,5,70,0,0
25167,-117.647058823529,4,2,1,70,0,0
33792,-117.647058823529,4,2,1,5,0,0
33867,-117.647058823529,4,2,1,70,0,0
34092,-117.647058823529,4,2,1,5,0,0
34167,-117.647058823529,4,2,1,70,0,0
34767,-100,4,2,10,70,0,0
44367,-100,4,2,1,70,0,0
45417,-80,4,3,10,80,0,1
63567,-100,4,3,10,80,0,1
64767,-100,4,2,1,45,0,0
66567,-111.111111111111,4,2,1,70,0,0
69567,-100,4,2,1,70,0,0
74367,-111.111111111111,4,2,10,70,0,0
74592,-111.111111111111,4,2,10,5,0,0
74667,-111.111111111111,4,2,10,70,0,0
74892,-111.111111111111,4,2,10,5,0,0
74967,-111.111111111111,4,2,10,70,0,0
75642,-111.111111111111,4,2,10,5,0,0
75717,-111.111111111111,4,2,10,70,0,0
76392,-111.111111111111,4,2,10,5,0,0
76467,-111.111111111111,4,2,10,70,0,0
76692,-111.111111111111,4,2,10,5,0,0
76767,-111.111111111111,4,2,10,70,0,0
76992,-111.111111111111,4,2,10,5,0,0
77067,-111.111111111111,4,2,10,70,0,0
79167,-100,4,2,1,70,0,0
83967,-133.333333333333,4,2,5,70,0,0
87567,-133.333333333333,4,2,1,70,0,0
88767,-117.647058823529,4,2,1,70,0,0
93567,-100,4,2,10,70,0,0
104217,-80,4,3,10,70,0,1
123567,-80,4,2,10,70,0,0
137067,-66.6666666666667,4,2,1,70,0,0
142767,-66.6666666666667,4,2,10,70,0,0
145392,-66.6666666666667,4,2,10,5,0,0
145467,-66.6666666666667,4,2,10,70,0,0
145692,-66.6666666666667,4,2,10,5,0,0
145767,-66.6666666666667,4,2,10,70,0,0
146517,-100,4,2,10,70,0,0
147567,-100,4,2,1,70,0,0
152367,-111.111111111111,4,2,10,70,0,0
152592,-111.111111111111,4,2,10,5,0,0
152667,-111.111111111111,4,2,10,70,0,0
152892,-111.111111111111,4,2,10,5,0,0
152967,-111.111111111111,4,2,10,70,0,0
153642,-111.111111111111,4,2,10,5,0,0
153717,-111.111111111111,4,2,10,70,0,0
154392,-111.111111111111,4,2,10,5,0,0
154467,-111.111111111111,4,2,10,70,0,0
154692,-111.111111111111,4,2,10,5,0,0
154767,-111.111111111111,4,2,10,70,0,0
154992,-111.111111111111,4,2,10,5,0,0
155067,-111.111111111111,4,2,10,70,0,0
157167,-100,4,2,1,70,0,0
161967,-100,4,2,10,70,0,0
172617,-80,4,3,10,70,0,1
191817,-133.333333333333,4,2,1,70,0,0
192267,-80,4,3,10,70,0,1
210417,322.58064516129,4,3,10,70,1,0
210417,-80,4,3,10,70,0,0
210739,348.837209302326,4,2,1,70,1,0
211262,361.44578313253,4,2,1,50,1,0
212707,389.61038961039,4,2,1,50,1,0
213486,408.163265306122,4,2,1,50,1,0
214302,444.444444444444,4,2,1,50,1,0
215190,476.190476190476,4,2,1,50,1,0
215666,517.241379310345,4,2,1,50,1,0
215666,-133.333333333333,4,2,1,50,0,0
216183,571.428571428571,4,2,1,40,1,0
216754,714.285714285714,4,2,1,30,1,0
217646,-100,4,2,1,5,0,0

[Colours]
Combo1 : 129,120,207
Combo2 : 114,165,220
Combo3 : 241,54,73
Combo4 : 186,90,186

[HitObjects]
267,30,567,6,0,L|273:85,1,56.25,0|0,0:0|0:0,0:0:0:0:
283,98,867,2,0,L|273:170,1,73.1249966526033,0|0,0:0|0:0,0:0:0:0:
263,196,1167,6,0,P|298:185|336:186,1,75,12|2,0:2|0:2,0:0:0:0:
462,286,1467,1,0,3:2:0:0:
462,286,1617,2,0,P|424:286|388:275,1,75,12|2,0:2|0:2,0:0:0:0:
335,185,1917,1,0,3:2:0:0:
242,330,2067,1,12,0:2:0:0:
242,330,2217,1,2,0:2:0:0:
131,229,2367,5,0,1:2:0:0:
134,206,2442,1,0,1:2:0:0:
138,184,2517,1,0,1:2:0:0:
142,162,2592,1,0,1:2:0:0:
146,140,2667,2,0,L|132:66,1,75,14|0,0:2|0:2,0:0:0:0:
304,45,2967,2,0,L|290:118,1,75,14|0,0:2|0:2,0:0:0:0:
335,185,3267,1,2,3:2:0:0:
412,94,3417,1,0,1:2:0:0:
443,271,3567,6,0,B|407:255|371:271|371:271|335:286|299:271,1,150,12|0,0:2|3:2,0:0:0:0:
216,155,4017,1,12,0:2:0:0:
216,155,4167,2,0,P|208:118|215:82,1,75,2|0,0:2|3:2,0:0:0:0:
335,185,4467,1,12,0:2:0:0:
335,185,4617,1,2,0:2:0:0:
193,249,4767,5,0,1:2:0:0:
170,251,4842,1,0,1:2:0:0:
148,248,4917,1,0,1:2:0:0:
126,242,4992,1,0,1:2:0:0:
106,231,5067,2,0,P|71:215|34:214,1,75,14|0,0:2|0:2,0:0:0:0:
106,62,5367,2,0,L|100:12,2,50,14|0|0,1:2|1:2|1:2,0:0:0:0:
174,98,5667,2,0,L|168:148,2,50,0|0|0,1:2|1:2|1:2,0:0:0:0:
241,61,5967,6,0,P|275:57|308:63,1,67.4999979400635,6|0,0:2|0:0,0:0:0:0:
396,143,6267,2,0,P|362:138|329:143,1,67.4999979400635,2|0,0:2|0:0,0:0:0:0:
193,249,6567,1,10,0:2:0:0:
193,249,6717,1,0,1:2:0:0:
200,278,7017,1,0,3:2:0:0:
207,306,7317,1,8,0:2:0:0:
327,282,7467,6,0,P|306:272|284:269,2,44.999998626709,2|0|0,0:2|0:0|0:0,0:0:0:0:
380,332,7767,2,0,P|370:282|383:234,1,101.249996910095,14|0,0:2|0:2,0:0:0:0:
400,204,8067,2,0,P|418:156|414:106,1,101.249996910095,2|0,0:2|0:2,0:0:0:0:
402,75,8367,6,0,L|334:73,1,67.4999979400635,6|0,0:2|0:0,0:0:0:0:
244,139,8667,2,0,L|176:137,1,67.4999979400635,2|0,3:2|0:2,0:0:0:0:
63,57,8967,1,10,0:2:0:0:
63,57,9117,1,0,1:2:0:0:
70,28,9417,1,0,3:2:0:0:
176,137,9567,6,0,L|164:203,1,67.4999979400635,10|0,0:2|1:2,0:0:0:0:
250,87,9867,2,0,L|260:153,1,67.4999979400635,2|0,1:2|3:2,0:0:0:0:
359,233,10167,1,8,0:2:0:0:
388,229,10242,1,0,0:0:0:0:
415,216,10317,1,0,0:0:0:0:
435,194,10392,1,0,3:2:0:0:
446,167,10467,5,2,3:3:0:0:
448,189,10542,1,2,3:3:0:0:
451,211,10617,1,2,3:3:0:0:
454,233,10692,1,2,3:3:0:0:
457,256,10767,6,0,L|449:330,1,75,12|2,0:2|0:2,0:0:0:0:
292,275,11067,1,0,0:2:0:0:
292,275,11217,2,0,L|299:349,1,75,12|2,0:2|0:2,0:0:0:0:
359,233,11517,1,0,0:2:0:0:
202,310,11667,1,12,0:2:0:0:
202,310,11817,1,2,0:2:0:0:
125,227,11967,1,0,1:2:0:0:
119,206,12042,1,0,1:2:0:0:
116,184,12117,1,0,1:2:0:0:
118,161,12192,1,0,1:2:0:0:
125,140,12267,6,0,P|133:103|125:67,1,75,14|0,0:2|0:2,0:0:0:0:
224,182,12567,2,0,P|249:154|260:119,1,75,14|0,0:2|1:2,0:0:0:0:
197,34,12867,1,2,3:2:0:0:
125,140,13017,1,0,1:2:0:0:
295,43,13167,6,0,P|368:27|435:56,1,150,12|0,0:2|0:2,0:0:0:0:
361,220,13617,1,12,0:2:0:0:
361,220,13767,2,0,P|352:184|356:147,1,75,2|0,0:2|0:2,0:0:0:0:
467,301,14067,1,12,0:2:0:0:
467,301,14217,1,2,0:2:0:0:
279,353,14367,5,14,1:2:0:0:
218,233,14517,1,0,1:0:0:0:
218,233,14592,1,0,1:0:0:0:
218,233,14667,2,0,L|222:158,1,75,0|0,3:0|3:0,0:0:0:0:
170,83,14967,1,8,0:0:0:0:
62,191,15117,1,0,1:0:0:0:
63,206,15192,1,0,1:0:0:0:
64,221,15267,2,0,L|68:295,1,75,0|0,1:0|0:0,0:0:0:0:
161,349,15567,6,0,P|208:322|264:324,1,112.500004291535,2|0,0:0|0:0,0:0:0:0:
331,366,16017,1,0,0:0:0:0:
331,366,16167,2,0,P|318:312|342:262,1,112.500004291535,2|0,0:0|0:0,0:0:0:0:
476,177,16767,2,0,B|421:192|421:192|370:169,2,112.500004291535,2|0|2,0:0|0:0|0:0,0:0:0:0:
476,177,17967,6,0,B|425:154|425:154|370:169,1,112.500004291535,2|0,0:0|0:0,0:0:0:0:
299,205,18417,1,0,0:0:0:0:
299,205,18567,2,0,B|244:220|244:220|193:197,1,112.500004291535,2|0,0:0|0:0,0:0:0:0:
240,33,19167,2,0,P|263:83|253:137,2,112.500004291535,2|0|2,0:0|0:0|0:0,0:0:0:0:
240,33,20367,6,0,P|289:57|345:54,1,112.500004291535,2|0,1:2|1:2,0:0:0:0:
424,11,20817,1,0,0:2:0:0:
424,11,20967,2,0,L|436:141,1,112.500004291535,2|0,1:2|1:2,0:0:0:0:
504,290,21567,6,0,P|476:285|448:290,1,56.2500021457673,2|0,1:2|0:2,0:0:0:0:
433,203,21867,2,0,P|406:213|385:230,1,56.2500021457673,0|0,1:2|0:2,0:0:0:0:
328,163,22167,2,0,P|310:184|300:211,1,56.2500021457673,2|0,1:2|0:2,0:0:0:0:
251,286,22467,1,0,1:2:0:0:
251,286,22617,1,0,0:2:0:0:
251,286,22767,6,0,P|199:268|145:279,1,112.500004291535,2|0,1:2|1:2,0:0:0:0:
78,340,23217,1,0,0:2:0:0:
145,279,23367,2,0,P|163:226|152:172,1,112.500004291535,2|0,1:2|1:2,0:0:0:0:
251,20,23967,6,0,P|257:47|257:75,1,56.2500021457673,6|0,1:2|0:0,0:0:0:0:
240,182,24267,1,0,1:0:0:0:
253,179,24342,1,0,1:0:0:0:
266,176,24417,2,0,L|293:171,1,28.1250010728836,0|0,1:0|1:0,1:0:0:0:
303,244,24567,2,0,L|247:253,1,56.2500021457673,8|0,3:0|3:0,0:0:0:0:
144,278,24867,1,0,3:0:0:0:
144,278,24942,1,0,3:0:0:0:
144,278,25017,1,0,3:0:0:0:
64,178,25167,6,0,P|61:115|91:60,1,127.50000243187,4|0,0:2|0:2,0:0:0:0:
181,15,25617,1,0,3:2:0:0:
252,86,25767,2,0,P|316:91|374:67,1,127.50000243187,2|2,0:2|3:2,0:0:0:0:
373,67,26217,1,0,0:2:0:0:
470,158,26367,5,0,3:2:0:0:
388,209,26517,1,0,1:2:0:0:
388,209,26592,1,0,1:2:0:0:
388,209,26667,2,0,P|358:198|326:198,1,63.7500012159348,2|0,1:2|0:2,0:0:0:0:
209,262,26967,1,10,0:1:0:0:
209,262,27267,1,0,3:2:0:0:
239,166,27417,1,0,1:2:0:0:
321,313,27567,5,0,1:2:0:0:
321,313,27642,1,0,1:2:0:0:
321,313,27717,1,0,1:2:0:0:
221,369,27867,2,0,P|189:368|159:357,1,63.7500012159348,2|0,1:2|3:2,0:0:0:0:
82,272,28167,2,0,P|100:211|84:150,1,127.50000243187,2|2,0:2|3:2,0:0:0:0:
84,150,28617,1,0,0:2:0:0:
236,78,28767,5,4,3:3:0:0:
187,162,28917,1,0,1:2:0:0:
187,162,28992,1,0,1:2:0:0:
187,162,29067,2,0,P|179:192|180:224,1,63.7500012159348,2|0,1:2|3:2,0:0:0:0:
138,77,29367,1,10,0:1:0:0:
138,77,29667,1,0,0:2:0:0:
187,162,29817,1,0,0:2:0:0:
329,51,29967,6,0,P|361:48|392:54,1,63.7500012159348,4|0,3:2|0:2,0:0:0:0:
488,110,30267,1,2,1:2:0:0:
455,0,30417,1,0,3:2:0:0:
488,109,30567,2,0,L|483:204,1,95.6250018239022,2|0,0:2|0:0,0:0:0:0:
473,217,30867,2,0,P|441:211|410:216,1,63.7500012159348,2|0,3:2|0:2,0:0:0:0:
305,285,31167,5,0,3:2:0:0:
261,194,31317,1,0,1:2:0:0:
261,194,31392,1,0,1:2:0:0:
261,194,31467,2,0,P|292:187|323:193,1,63.7500012159348,2|0,1:2|3:2,0:0:0:0:
204,278,31767,1,10,0:1:0:0:
204,278,32067,1,2,3:2:0:0:
261,194,32217,1,0,1:2:0:0:
120,221,32367,5,2,1:2:0:0:
120,221,32442,1,0,1:0:0:0:
120,221,32517,1,0,1:2:0:0:
177,137,32667,1,2,1:2:0:0:
204,278,32817,1,0,3:2:0:0:
322,192,32967,2,0,P|385:188|435:225,1,127.50000243187,2|2,0:2|3:2,0:0:0:0:
435,225,33417,1,2,3:2:0:0:
314,56,33567,6,0,P|345:60|377:58,1,63.7500012159348,4|0,0:0|0:0,0:0:0:0:
177,137,33867,2,0,P|208:139|240:134,1,63.7500012159348,4|0,0:0|0:0,0:0:0:0:
105,46,34167,1,8,0:1:0:0:
69,146,34317,1,8,0:1:0:0:
129,233,34467,1,8,0:1:0:0:
100,313,34617,1,8,0:1:0:0:
234,212,34767,6,0,P|288:203|341:222,1,112.5,4|0,1:0|0:0,0:0:0:0:
369,250,35067,1,8,0:0:0:0:
488,106,35217,2,0,P|427:147|354:140,1,150,4|0,0:0|0:0,0:0:0:0:
234,22,35667,1,8,0:0:0:0:
140,123,35817,2,0,L|154:272,1,150,4|0,1:0|0:0,0:0:0:0:
63,92,36267,1,8,0:0:0:0:
231,201,36417,2,0,P|304:194|353:140,1,150,4|0,0:0|1:0,0:0:0:0:
361,123,36792,1,0,1:0:0:0:
368,105,36867,1,8,0:0:0:0:
348,11,37017,1,0,0:0:0:0:
460,158,37167,6,0,L|453:307,1,150,4|8,1:0|0:0,0:0:0:0:
273,125,37617,2,0,L|279:274,1,150,4|0,0:0|0:0,0:0:0:0:
368,105,38067,1,8,0:0:0:0:
209,38,38217,2,0,P|136:47|92:105,1,150,4|0,1:0|0:0,0:0:0:0:
89,131,38592,1,0,0:0:0:0:
85,157,38667,1,8,0:0:0:0:
199,202,38817,2,0,L|183:129,1,75,4|0,0:0|0:0,0:0:0:0:
128,304,39117,1,12,0:0:0:0:
273,125,39267,1,12,0:0:0:0:
360,241,39417,1,0,1:0:0:0:
360,241,39492,1,0,1:0:0:0:
360,241,39567,6,0,L|433:228,1,75,12|0,0:0|1:0,0:0:0:0:
346,111,39867,2,0,L|273:124,1,75,8|0,0:0|1:0,0:0:0:0:
384,260,40167,2,0,L|457:247,1,75,8|0,0:0|1:0,0:0:0:0:
322,92,40467,2,0,L|249:105,1,75,8|0,0:0|1:0,0:0:0:0:
237,376,40767,6,0,P|272:355|295:321,1,75,8|0,0:0|1:0,0:0:0:0:
182,201,41067,2,0,P|182:241|200:278,1,75,8|0,0:0|1:0,0:0:0:0:
360,241,41367,2,0,P|324:220|283:217,1,75,8|0,0:0|0:0,0:0:0:0:
114,277,41667,2,0,L|76:275,1,37.5,8|0,3:0|3:0,0:0:0:0:
24,199,41817,1,0,3:0:0:0:
24,199,41892,1,0,3:0:0:0:
24,199,41967,6,0,L|98:202,1,75,12|0,0:0|0:0,0:0:0:0:
212,120,42267,1,8,0:0:0:0:
157,34,42417,1,0,1:0:0:0:
309,115,42567,2,0,P|345:106|374:84,1,75,8|0,0:0|1:0,0:0:0:0:
265,201,42867,2,0,P|300:212|337:207,1,75,8|0,0:0|1:0,0:0:0:0:
281,34,43167,6,0,L|243:37,1,37.5,12|0,0:0|0:0,0:0:0:0:
140,117,43317,1,0,3:0:0:0:
140,117,43392,1,0,3:0:0:0:
140,117,43467,1,8,3:2:0:0:
144,154,43542,1,8,0:0:0:0:
148,191,43617,2,0,L|144:228,1,37.5,8|0,3:2|3:0,0:0:0:0:
72,318,43767,1,0,3:0:0:0:
99,303,43842,1,0,3:0:0:0:
128,297,43917,1,0,3:0:0:0:
158,300,43992,1,0,3:0:0:0:
185,312,44067,2,0,L|222:308,3,37.5,2|2|2|2,3:0|3:0|3:0|3:0,0:0:0:0:
301,266,44367,6,0,P|338:267|374:276,1,75,12|0,0:0|0:0,0:0:0:0:
240,188,44667,1,12,0:0:0:0:
433,122,44817,1,0,1:0:0:0:
433,122,44892,1,0,1:0:0:0:
433,122,44967,1,8,1:2:0:0:
330,146,45117,2,0,P|331:109|340:73,1,75,8|0,0:0|3:0,0:0:0:0:
340,73,45417,6,0,P|252:57|200:129,1,187.5,4|0,0:1|3:2,0:0:0:0:
289,299,45867,2,0,P|287:252|268:210,1,93.75,8|0,0:2|3:2,0:0:0:0:
104,117,46167,1,0,1:2:0:0:
18,275,46317,1,0,3:2:0:0:
190,205,46467,1,8,0:2:0:0:
42,198,46617,6,0,P|49:267|69:335,1,140.625,4|0,0:1|2:0,0:0:0:0:
78,346,46917,1,0,1:2:0:0:
257,303,47067,2,0,L|268:209,1,93.75,8|0,0:2|1:2,0:0:0:0:
158,77,47367,1,0,3:2:0:0:
327,155,47517,1,0,1:2:0:0:
327,155,47592,1,0,1:2:0:0:
327,155,47667,1,8,1:2:0:0:
139,175,47817,6,0,P|80:139|74:29,1,187.5,4|0,0:1|1:2,0:0:0:0:
312,17,48267,2,0,P|298:65|258:92,1,93.75,8|0,0:2|1:2,0:0:0:0:
250,87,48492,1,0,1:2:0:0:
236,84,48567,1,0,1:2:0:0:
168,0,48717,1,0,0:2:0:0:
230,173,48867,1,8,0:2:0:0:
27,123,49017,6,0,B|74:94|74:94|157:76,1,140.625,4|0,0:1|2:0,0:0:0:0:
172,87,49317,1,0,1:2:0:0:
35,218,49467,1,8,1:2:0:0:
276,242,49617,2,0,B|229:213|229:213|145:195,1,140.625,4|0,0:2|0:0,0:0:0:0:
131,206,49917,2,0,L|139:252,1,46.875,0|0,1:2|1:2,0:0:0:0:
210,302,50067,1,8,1:2:0:0:
243,133,50217,6,0,P|327:105|392:166,1,187.5,4|0,0:1|0:0,0:0:0:0:
506,236,50667,2,0,P|459:237|423:266,1,93.75,8|0,1:2|1:2,0:0:0:0:
237,310,50967,1,0,1:2:0:0:
397,357,51117,1,0,0:2:0:0:
308,259,51267,1,8,0:2:0:0:
158,296,51417,6,0,P|97:313|25:353,1,140.625,4|0,0:1|2:0,0:0:0:0:
18,364,51717,1,0,1:2:0:0:
227,224,51867,2,0,P|241:179|242:132,1,93.75,8|0,0:2|1:2,0:0:0:0:
117,15,52167,1,0,3:2:0:0:
35,151,52317,1,0,1:2:0:0:
35,151,52392,1,0,1:2:0:0:
35,151,52467,1,8,1:2:0:0:
181,71,52617,6,0,B|108:62|108:62|42:45,1,140.625,4|0,0:1|2:2,0:0:0:0:
28,34,52917,1,0,1:2:0:0:
245,10,53067,1,8,0:2:0:0:
213,160,53217,2,0,B|286:155|286:155|348:122,1,140.625,4|0,0:2|2:2,0:0:0:0:
356,109,53517,2,0,L|362:55,1,46.875,0|0,1:2|1:2,0:0:0:0:
265,46,53667,1,8,0:2:0:0:
258,250,53817,6,0,B|186:257|186:257|130:218,1,140.625,4|0,0:2|2:0,0:0:0:0:
120,199,54117,2,0,L|126:145,1,46.875,0|0,1:2|1:2,0:0:0:0:
181,71,54267,1,8,1:2:0:0:
175,292,54417,1,0,0:2:0:0:
213,160,54567,1,8,0:2:0:0:
54,266,54717,1,8,0:2:0:0:
236,358,54867,1,8,0:2:0:0:
236,358,54942,1,0,0:0:0:0:
236,358,55017,6,0,P|289:328|424:318,1,187.5,4|0,0:1|0:2,0:0:0:0:
381,147,55467,2,0,P|359:188|353:234,1,93.75,8|0,0:2|0:2,0:0:0:0:
480,362,55767,1,0,3:2:0:0:
453,224,55917,1,0,1:2:0:0:
453,224,55992,1,0,1:2:0:0:
453,224,56067,1,8,1:2:0:0:
290,288,56217,6,0,P|250:260|240:167,1,140.625,4|0,0:1|2:0,0:0:0:0:
250,161,56517,1,0,1:2:0:0:
403,73,56667,2,0,P|361:94|315:100,1,93.75,8|0,0:2|1:2,0:0:0:0:
125,44,56967,1,0,3:2:0:0:
241,26,57117,1,0,1:2:0:0:
241,26,57192,1,0,1:2:0:0:
241,26,57267,1,8,0:2:0:0:
100,154,57417,6,0,P|133:242|149:334,1,187.5,4|0,0:1|1:2,0:0:0:0:
5,366,57867,2,0,P|22:322|55:290,1,93.75,8|0,1:2|1:2,0:0:0:0:
337,303,58167,2,0,P|290:309|246:297,1,93.75,0|0,0:2|1:2,0:0:0:0:
236,286,58392,1,0,1:2:0:0:
226,275,58467,1,8,1:2:0:0:
205,40,58617,6,0,B|225:87|225:87|212:182,1,140.625,4|0,1:0|2:0,0:0:0:0:
200,189,58917,1,0,1:2:0:0:
315,80,59067,1,8,0:2:0:0:
125,129,59217,2,0,B|105:176|105:176|118:271,1,140.625,4|0,0:2|0:2,0:0:0:0:
130,278,59517,2,0,L|62:269,1,46.875,0|0,1:2|1:2,0:0:0:0:
21,331,59667,1,8,1:2:0:0:
226,357,59817,6,0,P|295:301|280:212,1,187.5,4|0,0:1|0:2,0:0:0:0:
203,93,60267,2,0,P|244:118|292:117,1,93.75,8|0,0:2|0:2,0:0:0:0:
436,6,60567,1,0,3:2:0:0:
274,29,60717,1,0,1:2:0:0:
274,29,60792,1,0,1:2:0:0:
274,29,60867,1,8,1:2:0:0:
320,199,61017,6,0,P|329:129|349:62,1,140.625,4|0,0:1|2:0,0:0:0:0:
363,48,61317,1,0,1:2:0:0:
401,216,61467,2,0,P|446:202|483:173,1,93.75,8|0,0:2|1:2,0:0:0:0:
288,117,61767,1,0,3:2:0:0:
310,306,61917,1,0,1:2:0:0:
310,306,61992,1,0,1:2:0:0:
310,306,62067,1,8,1:2:0:0:
401,295,62217,6,0,P|300:277|215:267,1,187.5,4|0,0:1|0:2,0:0:0:0:
56,357,62667,1,8,0:2:0:0:
96,333,62742,1,8,0:2:0:0:
120,294,62817,1,8,0:2:0:0:
124,248,62892,1,8,0:2:0:0:
104,204,62967,1,2,3:0:0:0:
86,175,63042,1,2,3:0:0:0:
82,140,63117,1,2,3:0:0:0:
92,107,63192,1,2,3:0:0:0:
116,82,63267,2,0,P|135:58|137:24,3,46.875,8|8|8|8,1:2|0:2|0:2|0:2,0:0:0:0:
8,115,63567,5,0,0:2:0:0:
172,148,63717,2,0,P|217:143|304:80,1,150,0|2,0:2|3:0,0:0:0:0:
295,70,64092,1,2,3:0:0:0:
289,56,64167,5,8,3:2:0:0:
199,31,64317,1,8,0:2:0:0:
309,183,64467,5,8,0:2:0:0:
451,129,64617,1,8,0:2:0:0:
366,121,64767,5,4,3:2:0:0:
366,121,66567,5,8,0:1:0:0:
359,200,66717,1,8,0:1:0:0:
442,96,66867,5,8,0:1:0:0:
283,225,67017,1,8,0:1:0:0:
475,299,67167,6,0,P|409:295|359:338,1,134.999995880127,2|2,3:2|0:0,0:0:0:0:
359,338,67617,1,0,0:0:0:0:
202,271,67767,1,14,0:0:0:0:
167,185,67917,2,0,P|232:181|282:224,1,134.999995880127,0|0,1:0|3:2,0:0:0:0:
286,237,68292,1,0,3:2:0:0:
289,249,68367,5,10,3:2:0:0:
134,336,68517,1,0,3:2:0:0:
121,330,68592,1,0,3:2:0:0:
108,324,68667,1,2,3:2:0:0:
4,209,68817,1,0,3:2:0:0:
17,203,68892,1,0,3:0:0:0:
30,197,68967,1,8,0:0:0:0:
112,233,69117,1,2,3:2:0:0:
244,147,69267,1,2,3:0:0:0:
248,134,69342,1,2,3:0:0:0:
253,121,69417,1,2,3:0:0:0:
258,108,69492,1,2,3:0:0:0:
262,94,69567,6,0,P|231:74|195:67,1,75,12|2,0:0|0:0,0:0:0:0:
105,88,69867,1,0,3:0:0:0:
4,209,70017,2,0,P|35:188|71:181,1,75,12|2,0:0|0:0,0:0:0:0:
233,250,70317,1,0,3:0:0:0:
140,370,70467,2,0,P|103:362|72:342,1,75,12|2,0:0|0:0,0:0:0:0:
138,287,70767,5,0,1:0:0:0:
142,272,70842,1,0,1:0:0:0:
146,258,70917,1,0,1:0:0:0:
149,243,70992,1,0,1:0:0:0:
153,228,71067,2,0,L|136:142,1,75,14|0,0:0|0:0,0:0:0:0:
277,21,71367,2,0,L|262:94,1,75,14|0,0:0|1:0,0:0:0:0:
64,123,71667,1,2,3:2:0:0:
187,55,71817,1,0,1:0:0:0:
261,171,71967,6,0,P|335:159|404:129,1,150,12|0,0:0|3:0,0:0:0:0:
500,27,72417,1,12,0:0:0:0:
425,53,72567,2,0,P|387:50|342:36,1,75,2|0,0:0|3:0,0:0:0:0:
160,144,72867,2,0,P|196:133|233:131,1,75,12|2,0:0|0:0,0:0:0:0:
400,224,73167,5,0,1:0:0:0:
397,238,73242,1,0,1:0:0:0:
394,252,73317,1,0,1:0:0:0:
391,266,73392,1,0,1:0:0:0:
388,280,73467,2,0,L|301:300,1,75,14|0,0:0|0:0,0:0:0:0:
261,171,73767,2,0,L|294:207,2,50,14|0|0,1:2|1:0|1:0,0:0:0:0:
234,314,74067,2,0,L|219:362,2,50,0|0|0,1:0|1:0|1:0,0:0:0:0:
314,296,74367,6,0,L|386:281,1,67.4999979400635,6|0,0:0|0:0,0:0:0:0:
475,200,74667,2,0,L|403:184,1,67.4999979400635,2|0,0:0|0:0,0:0:0:0:
337,115,74967,1,12,0:0:0:0:
337,115,75117,1,0,1:0:0:0:
333,93,75417,1,2,3:2:0:0:
329,71,75717,1,8,0:0:0:0:
400,6,75867,6,0,L|445:15,2,44.999998626709,2|0|0,0:0|0:0|0:0,0:0:0:0:
325,49,76167,2,0,P|279:59|221:64,1,101.249996910095,10|0,0:0|0:0,0:0:0:0:
204,33,76467,2,0,P|158:22|100:18,1,101.249996910095,2|0,0:0|0:0,0:0:0:0:
74,35,76767,6,0,L|95:122,1,67.4999979400635,6|0,3:2|0:0,0:0:0:0:
253,149,77067,2,0,L|237:214,1,67.4999979400635,2|0,3:2|1:0,0:0:0:0:
50,246,77367,1,12,0:0:0:0:
50,246,77517,1,0,1:0:0:0:
70,238,77817,1,0,3:0:0:0:
183,288,77967,6,0,P|183:328|165:364,1,67.4999979400635,14|0,0:0|1:0,0:0:0:0:
159,355,78192,1,0,1:0:0:0:
145,357,78267,1,0,1:0:0:0:
60,328,78417,1,0,3:0:0:0:
150,203,78567,2,0,P|150:163|132:127,1,67.4999979400635,14|0,0:0|0:0,0:0:0:0:
50,96,78867,1,2,3:0:0:0:
50,96,78942,1,2,3:0:0:0:
50,96,79017,1,2,3:0:0:0:
219,10,79167,6,0,L|208:84,1,75,12|2,0:0|0:0,0:0:0:0:
139,137,79467,1,0,3:0:0:0:
80,312,79617,2,0,L|69:237,1,75,12|2,0:0|0:0,0:0:0:0:
0,185,79917,1,0,3:0:0:0:
224,114,80067,2,0,L|213:188,1,75,12|2,0:0|0:0,0:0:0:0:
175,310,80367,5,0,1:0:0:0:
189,313,80442,1,0,1:0:0:0:
203,316,80517,1,0,1:0:0:0:
217,319,80592,1,0,1:0:0:0:
231,322,80667,2,0,P|260:286|270:237,1,75,14|0,0:0|0:0,0:0:0:0:
261,51,80967,2,0,P|232:87|222:136,1,75,14|0,0:0|0:0,0:0:0:0:
392,174,81267,1,0,3:0:0:0:
419,72,81417,1,0,1:0:0:0:
248,148,81567,6,0,P|188:159|119:93,1,150,12|0,0:0|3:0,0:0:0:0:
79,10,82017,1,12,0:0:0:0:
228,16,82167,2,0,P|218:62|184:92,1,75,2|0,0:0|3:0,0:0:0:0:
17,177,82467,2,0,P|27:131|61:101,1,75,12|2,0:0|0:0,0:0:0:0:
248,148,82767,5,8,3:2:0:0:
150,251,82917,1,0,1:0:0:0:
150,251,82992,1,0,1:0:0:0:
150,251,83067,2,0,L|69:238,1,75,0|0,3:0|3:0,0:0:0:0:
255,248,83367,5,10,3:2:0:0:
353,350,83517,1,0,1:0:0:0:
353,350,83592,1,0,1:0:0:0:
353,350,83667,2,0,L|434:337,1,75,0|2,1:0|3:2,0:0:0:0:
204,340,83967,6,0,P|167:312|150:242,1,112.500004291535,6|0,1:2|1:0,0:0:0:0:
192,185,84417,1,0,0:0:0:0:
192,184,84567,2,0,P|206:131|193:76,1,112.500004291535,2|0,1:2|1:0,0:0:0:0:
35,135,85167,6,0,L|91:130,1,56.2500021457673,2|0,1:2|0:0,0:0:0:0:
119,210,85467,2,0,L|62:214,1,56.2500021457673,0|0,1:2|0:0,0:0:0:0:
89,293,85767,2,0,L|201:284,1,112.500004291535,2|0,1:2|1:0,0:0:0:0:
345,368,86367,6,0,P|323:318|333:264,1,112.500004291535,2|0,1:2|1:0,0:0:0:0:
394,205,86817,1,0,0:0:0:0:
333,146,86967,2,0,L|221:161,1,112.500004291535,2|0,1:2|1:0,0:0:0:0:
77,71,87567,6,0,P|117:85|157:76,1,84.3750032186509,6|0,1:2|0:0,0:0:0:0:
188,46,87867,1,8,0:1:0:0:
184,88,87942,1,8,0:1:0:0:
180,130,88017,1,8,0:1:0:0:
176,172,88092,1,8,0:1:0:0:
172,214,88167,2,0,L|165:241,3,28.1250010728836,8|0|0|0,1:0|3:0|3:0|3:0,0:0:0:0:
96,297,88467,5,0,1:0:0:0:
124,285,88542,1,0,1:0:0:0:
155,283,88617,1,0,1:0:0:0:
296,348,88767,6,0,L|422:331,1,127.50000243187,6|0,0:0|1:0,0:0:0:0:
509,375,89217,1,0,3:0:0:0:
376,256,89367,2,0,P|357:195|377:136,1,127.50000243187,2|2,0:0|0:0,0:0:0:0:
377,136,89817,1,2,1:2:0:0:
248,239,89967,6,0,L|185:226,1,63.7500012159348,4|0,0:0|1:0,0:0:0:0:
178,231,90192,1,0,1:0:0:0:
171,235,90267,1,0,1:0:0:0:
244,319,90417,1,0,3:0:0:0:
99,262,90567,2,0,P|92:231|95:199,1,63.7500012159348,8|0,0:1|0:0,0:0:0:0:
147,59,90867,1,2,3:2:0:0:
53,104,91017,1,0,1:0:0:0:
192,152,91167,5,2,1:2:0:0:
212,149,91242,1,0,1:0:0:0:
231,145,91317,1,0,1:0:0:0:
250,141,91392,1,0,1:0:0:0:
270,137,91467,2,0,L|332:151,1,63.7500012159348,2|0,3:2|1:0,0:0:0:0:
425,55,91767,2,0,P|413:85|414:117,1,63.7500012159348,2|0,0:0|0:0,0:0:0:0:
450,221,92067,2,0,P|450:252|439:282,1,63.7500012159348,2|2,3:2|1:2,0:0:0:0:
304,348,92367,6,0,L|368:341,1,63.7500012159348,4|0,0:0|0:0,0:0:0:0:
223,278,92667,2,0,L|197:336,1,63.7500012159348,4|0,0:0|0:0,0:0:0:0:
324,242,92967,2,0,L|285:190,1,63.7500012159348,8|0,0:0|0:0,0:0:0:0:
242,130,93267,1,2,0:0:0:0:
273,60,93417,1,2,0:0:0:0:
211,200,93567,6,0,P|156:208|106:184,1,112.5,4|0,1:0|0:0,0:0:0:0:
77,148,93867,1,8,0:0:0:0:
140,283,94017,2,0,P|214:282|279:245,1,150,4|0,0:0|1:0,0:0:0:0:
381,148,94467,1,8,0:0:0:0:
467,339,94617,2,0,P|392:338|327:301,1,150,4|0,1:0|1:0,0:0:0:0:
185,156,95067,1,8,0:0:0:0:
398,69,95217,2,0,P|454:114|451:186,1,150,4|0,0:0|1:0,0:0:0:0:
442,203,95592,1,0,1:0:0:0:
434,219,95667,1,8,0:0:0:0:
327,301,95817,1,0,1:0:0:0:
242,102,95967,6,0,P|191:79|138:94,1,112.5,4|0,1:0|0:0,0:0:0:0:
106,125,96267,1,8,0:0:0:0:
263,16,96417,2,0,P|332:40|403:18,1,150,4|0,0:0|1:0,0:0:0:0:
487,167,96867,1,8,0:0:0:0:
264,187,97017,2,0,P|312:131|384:114,1,150,4|0,1:0|0:0,0:0:0:0:
405,121,97392,1,0,0:0:0:0:
426,128,97467,1,8,0:0:0:0:
297,303,97617,2,0,P|233:263|159:260,1,150,4|2,0:0|3:0,0:0:0:0:
146,266,97992,1,2,3:0:0:0:
131,271,98067,1,2,3:0:0:0:
60,140,98217,1,2,3:0:0:0:
74,146,98292,1,2,3:0:0:0:
87,152,98367,6,0,L|160:139,1,75,12|0,0:0|1:0,0:0:0:0:
131,271,98667,2,0,L|57:258,1,75,8|0,0:0|1:0,0:0:0:0:
121,115,98967,2,0,L|194:102,1,75,8|0,0:0|1:0,0:0:0:0:
86,294,99267,2,0,L|12:280,1,75,8|0,0:0|1:0,0:0:0:0:
236,261,99567,6,0,P|260:289|272:324,1,75,8|0,0:0|1:0,0:0:0:0:
295,163,99867,2,0,P|330:175|358:199,1,75,8|0,0:0|1:0,0:0:0:0:
297,49,100167,2,0,P|333:42|370:49,1,75,8|0,0:0|1:0,0:0:0:0:
194,178,100467,1,2,3:0:0:0:
178,173,100542,1,2,3:0:0:0:
157,163,100617,1,2,3:0:0:0:
139,150,100692,1,2,3:0:0:0:
123,133,100767,6,0,P|90:114|53:113,1,75,8|0,0:0|0:0,0:0:0:0:
156,259,101067,1,8,0:0:0:0:
295,163,101217,1,0,1:0:0:0:
290,384,101367,2,0,P|271:351|267:314,1,75,8|0,0:0|1:0,0:0:0:0:
409,238,101667,2,0,P|427:270|431:307,1,75,8|0,0:0|1:0,0:0:0:0:
295,163,101967,6,0,L|332:160,1,37.5,4|2,3:1|3:0,0:0:0:0:
465,162,102117,1,2,3:0:0:0:
465,162,102192,1,8,3:0:0:0:
465,162,102267,1,8,3:0:0:0:
240,95,102417,6,0,L|277:92,1,37.5,4|2,3:1|3:0,0:0:0:0:
410,94,102567,1,2,3:0:0:0:
410,94,102642,1,8,3:0:0:0:
410,94,102717,1,8,3:0:0:0:
185,27,102867,6,0,L|222:24,1,37.5,4|0,3:1|3:0,0:0:0:0:
355,26,103017,2,0,L|317:28,1,37.5,2|2,3:0|3:0,0:0:0:0:
136,108,103167,5,2,3:0:0:0:
116,139,103242,1,2,3:0:0:0:
108,175,103317,1,8,3:2:0:0:
112,212,103392,1,8,3:2:0:0:
129,246,103467,2,0,P|135:263|136:282,3,37.5,8|8|8|8,3:2|3:2|3:2|3:2,0:0:0:0:
92,361,103767,5,8,0:2:0:0:
118,357,103842,1,0,1:0:0:0:
144,354,103917,1,0,1:0:0:0:
170,351,103992,1,0,1:0:0:0:
196,348,104067,2,0,L|233:343,1,37.5,0|0,0:0|0:0,0:0:0:0:
358,382,104217,6,0,P|333:297|395:232,1,187.5,4|0,0:1|0:2,0:0:0:0:
511,330,104667,2,0,L|419:318,1,93.75,8|0,0:2|0:2,0:0:0:0:
274,215,104967,1,0,1:2:0:0:
233,342,105117,1,0,0:2:0:0:
395,232,105267,1,8,0:2:0:0:
192,79,105417,6,0,B|214:124|192:169|192:169|169:214|192:259,1,187.5,4|0,0:1|1:2,0:0:0:0:
20,126,105867,2,0,P|64:114|110:124,1,93.75,8|0,0:2|1:2,0:0:0:0:
274,215,106167,2,0,P|318:227|364:216,1,93.75,0|0,1:2|1:2,0:0:0:0:
380,207,106392,1,0,1:2:0:0:
395,196,106467,1,8,1:2:0:0:
502,375,106617,6,0,P|435:311|343:306,1,187.5,4|0,0:1|1:2,0:0:0:0:
142,358,107067,1,8,0:2:0:0:
232,238,107217,1,0,1:2:0:0:
60,198,107367,2,0,L|66:244,1,46.875,0|0,1:2|1:0,0:0:0:0:
114,148,107517,1,0,1:2:0:0:
110,124,107592,1,0,1:0:0:0:
107,101,107667,1,8,1:2:0:0:
232,238,107817,6,0,P|322:239|381:170,1,187.5,4|0,0:1|1:2,0:0:0:0:
278,23,108267,1,8,0:2:0:0:
173,198,108417,2,0,L|185:290,1,93.75,4|0,0:2|0:2,0:0:0:0:
279,142,108717,1,0,1:2:0:0:
279,142,108792,1,0,1:2:0:0:
279,142,108867,1,8,0:2:0:0:
93,246,109017,6,0,B|30:178|30:178|39:83,1,187.5,4|0,0:1|0:2,0:0:0:0:
192,20,109467,2,0,L|182:113,1,93.75,8|0,0:2|0:2,0:0:0:0:
93,246,109767,1,0,1:2:0:0:
113,86,109917,1,0,1:2:0:0:
90,284,110067,1,8,0:2:0:0:
271,181,110217,6,0,B|316:159|361:181|361:181|406:204|451:181,1,187.5,4|0,0:1|0:2,0:0:0:0:
419,8,110667,2,0,P|404:52|407:99,1,93.75,8|0,0:2|1:2,0:0:0:0:
491,247,110967,2,0,P|448:265|401:270,1,93.75,0|0,0:2|1:2,0:0:0:0:
382,268,111192,1,0,1:2:0:0:
363,265,111267,1,8,0:2:0:0:
232,379,111417,6,0,P|251:288|222:200,1,187.5,4|0,0:1|1:2,0:0:0:0:
85,299,111867,1,8,0:2:0:0:
364,264,112017,6,0,P|335:175|266:114,1,187.5,4|0,0:2|1:2,0:0:0:0:
249,107,112392,1,0,1:2:0:0:
230,100,112467,1,8,1:2:0:0:
420,96,112617,6,0,P|351:33|260:14,1,187.5,4|0,0:2|1:2,0:0:0:0:
242,18,112992,1,0,1:2:0:0:
222,22,113067,1,8,1:2:0:0:
42,91,113217,1,0,0:2:0:0:
192,213,113367,1,8,0:2:0:0:
123,33,113517,1,8,1:2:0:0:
123,33,113592,1,0,1:2:0:0:
123,33,113667,1,8,1:2:0:0:
87,260,113817,6,0,P|176:241|260:279,1,187.5,4|0,0:1|0:2,0:0:0:0:
383,374,114267,2,0,P|372:328|380:275,1,93.75,8|0,0:2|0:2,0:0:0:0:
475,148,114567,1,0,1:2:0:0:
500,324,114717,1,0,1:2:0:0:
500,324,114792,1,0,1:2:0:0:
500,324,114867,1,8,0:2:0:0:
366,178,115017,6,0,P|273:171|191:213,1,187.5,4|0,0:1|1:2,0:0:0:0:
347,310,115467,2,0,P|306:286|260:279,1,93.75,8|0,0:2|1:2,0:0:0:0:
66,296,115767,1,0,1:2:0:0:
180,113,115917,1,0,1:2:0:0:
180,113,115992,1,0,1:2:0:0:
180,113,116067,1,8,1:2:0:0:
109,378,116217,6,0,L|88:191,1,187.5,4|0,0:1|1:2,0:0:0:0:
162,15,116667,1,8,0:2:0:0:
272,169,116817,1,0,0:2:0:0:
133,110,116967,2,0,L|179:112,1,46.875,0|0,1:2|1:2,0:0:0:0:
269,66,117117,1,0,1:2:0:0:
292,67,117192,1,0,1:2:0:0:
315,68,117267,1,8,1:2:0:0:
357,296,117417,6,0,P|276:259|272:170,1,187.5,4|0,0:1|1:2,0:0:0:0:
346,0,117867,1,8,0:2:0:0:
348,210,118017,2,0,P|273:258|199:209,1,187.5,4|0,0:2|1:2,0:0:0:0:
192,191,118392,1,0,1:2:0:0:
185,173,118467,1,8,1:2:0:0:
9,357,118617,6,0,P|79:300|171:308,1,187.5,4|0,0:1|0:2,0:0:0:0:
351,370,119067,2,0,P|397:367|435:340,1,93.75,8|0,0:2|0:2,0:0:0:0:
491,164,119367,1,0,1:2:0:0:
368,281,119517,1,0,1:2:0:0:
368,281,119592,1,0,1:2:0:0:
368,281,119667,1,8,1:2:0:0:
284,66,119817,6,0,L|270:253,1,187.5,4|0,0:1|1:2,0:0:0:0:
445,105,120267,2,0,P|399:98|355:115,1,93.75,8|0,0:2|0:2,0:0:0:0:
198,203,120567,2,0,P|154:220|109:214,1,93.75,0|0,0:2|1:2,0:0:0:0:
93,203,120792,1,0,1:2:0:0:
78,190,120867,1,8,1:2:0:0:
212,316,121017,6,0,B|302:294|302:294|394:313,1,187.5,4|4,0:1|1:2,0:0:0:0:
412,319,121392,1,4,1:2:0:0:
429,325,121467,1,4,1:2:0:0:
512,189,121617,2,0,B|419:157|419:157|335:187,1,187.5,0|8,0:2|0:2,0:0:0:0:
318,196,121992,1,8,0:2:0:0:
301,204,122067,2,0,L|294:250,2,46.875,8|8|8,0:2|0:2|0:2,0:0:0:0:
212,80,122367,6,0,P|166:78|124:99,1,93.75,0|4,0:2|1:2,0:0:0:0:
110,111,122592,1,4,1:2:0:0:
98,126,122667,1,4,0:2:0:0:
301,204,122817,6,0,P|261:178|215:175,1,93.75,0|8,0:2|0:2,0:0:0:0:
196,178,123042,1,8,0:2:0:0:
178,185,123117,1,8,0:2:0:0:
80,237,123267,1,0,0:2:0:0:
80,237,123417,1,0,0:2:0:0:
222,353,123567,6,0,P|293:327|405:317,1,187.5,14|0,0:2|3:2,0:0:0:0:
467,363,124017,1,0,1:2:0:0:
459,262,124167,2,0,P|412:239|365:233,1,93.75,2|0,0:2|0:2,0:0:0:0:
229,265,124467,2,0,P|203:194|193:82,1,187.5,10|0,0:2|1:2,0:0:0:0:
180,69,124842,1,0,1:2:0:0:
166,55,124917,1,0,1:2:0:0:
152,42,124992,1,0,1:2:0:0:
138,29,125067,2,0,P|115:76|109:123,1,93.75,2|0,1:2|1:2,0:0:0:0:
292,199,125367,6,0,P|364:147|353:58,1,187.5,6|0,0:2|3:2,0:0:0:0:
271,44,125817,1,0,1:2:0:0:
205,174,125967,2,0,L|228:264,1,93.75,2|0,1:2|1:2,0:0:0:0:
110,299,126267,2,0,P|37:247|48:158,1,187.5,10|4,0:2|3:2,0:0:0:0:
131,144,126717,1,0,1:2:0:0:
197,274,126867,2,0,L|173:364,1,93.75,2|2,3:2|1:2,0:0:0:0:
205,174,127167,6,0,B|281:119|281:119|374:129,1,187.5,10|2,0:2|1:2,0:0:0:0:
440,172,127617,1,0,1:2:0:0:
304,201,127767,2,0,P|306:257|331:299,1,93.75,6|0,3:2|1:2,0:0:0:0:
271,90,128067,6,0,B|195:35|195:35|101:45,1,187.5,10|0,0:2|1:2,0:0:0:0:
92,61,128442,1,0,1:2:0:0:
82,77,128517,1,0,1:2:0:0:
73,93,128592,1,0,1:2:0:0:
64,109,128667,2,0,P|106:128|152:127,1,93.75,14|0,0:2|1:2,0:0:0:0:
242,18,128967,6,0,P|284:-1|330:0,1,93.75,14|0,0:2|0:2,0:0:0:0:
403,57,129267,1,2,1:2:0:0:
398,75,129342,1,2,1:2:0:0:
394,93,129417,1,2,1:2:0:0:
295,165,129567,1,0,3:2:0:0:
300,183,129642,1,0,3:2:0:0:
304,201,129717,1,2,3:2:0:0:
457,262,129867,6,0,L|436:353,1,93.75,6|0,0:2|0:2,0:0:0:0:
417,355,130092,1,2,1:2:0:0:
398,357,130167,1,2,1:2:0:0:
183,263,130317,2,0,L|227:248,1,46.875,12|0,0:2|0:0,0:0:0:0:
302,291,130467,2,0,L|291:336,1,46.875,0|2,0:2|1:2,0:0:0:0:
218,380,130617,2,0,L|183:348,1,46.875,2|0,1:2|0:2,0:0:0:0:
99,242,130767,6,0,P|99:150|142:67,1,187.5,14|0,0:2|3:2,0:0:0:0:
223,37,131217,1,0,1:2:0:0:
183,171,131367,2,0,P|192:213|225:263,1,93.75,6|0,0:2|0:2,0:0:0:0:
412,141,131667,2,0,P|412:233|369:316,1,187.5,10|0,0:2|1:2,0:0:0:0:
355,302,132042,1,0,1:2:0:0:
341,288,132117,1,0,1:2:0:0:
327,274,132192,1,0,1:2:0:0:
313,260,132267,2,0,P|304:218|271:168,1,93.75,2|0,3:2|0:2,0:0:0:0:
51,102,132567,6,0,P|94:179|182:170,1,187.5,10|0,0:2|3:2,0:0:0:0:
229,94,133017,1,0,1:2:0:0:
309,219,133167,2,0,P|271:245|225:246,1,93.75,6|0,0:2|0:2,0:0:0:0:
317,41,133467,2,0,P|394:84|385:172,1,187.5,14|0,0:2|3:2,0:0:0:0:
309,219,133917,1,0,1:2:0:0:
434,299,134067,2,0,P|460:261|461:215,1,93.75,6|0,3:2|1:2,0:0:0:0:
318,124,134367,6,0,L|132:154,1,187.5,14|0,0:2|3:2,0:0:0:0:
48,114,134817,1,0,1:2:0:0:
159,28,134967,2,0,L|260:47,1,93.75,6|0,3:2|1:2,0:0:0:0:
384,202,135267,6,0,L|198:232,1,187.5,10|4,0:2|1:2,0:0:0:0:
181,224,135642,1,0,1:2:0:0:
163,216,135717,1,0,1:2:0:0:
145,208,135792,1,0,1:2:0:0:
127,200,135867,2,0,L|108:301,1,93.75,2|0,3:2|1:2,0:0:0:0:
323,88,136167,6,0,L|137:118,1,187.5,14|2,0:2|3:0,0:0:0:0:
120,110,136542,1,2,3:0:0:0:
102,102,136617,1,2,3:0:0:0:
84,94,136692,1,2,3:0:0:0:
66,86,136767,2,0,L|47:187,1,93.75,2|2,3:2|3:0,0:0:0:0:
217,318,137067,6,0,P|250:250|179:224,1,168.750006437302,12|0,0:0|0:0,0:0:0:0:
26,281,137367,2,0,P|68:343|126:295,1,168.750006437302,12|0,0:0|0:0,0:0:0:0:
153,134,137667,2,0,P|77:139|90:213,1,168.750006437302,12|0,0:0|0:0,0:0:0:0:
180,223,137967,5,0,3:0:0:0:
58,49,146517,5,0,1:2:0:0:
63,62,146592,1,0,1:2:0:0:
68,75,146667,1,2,1:2:0:0:
159,169,146817,1,0,1:2:0:0:
164,156,146892,1,0,1:0:0:0:
169,142,146967,2,0,P|215:113|270:119,1,112.5,12|0,0:0|0:0,0:0:0:0:
277,132,147267,2,0,P|323:161|378:155,1,112.5,2|0,3:0|0:0,0:0:0:0:
417,80,147567,6,0,P|448:59|494:56,1,75,12|2,0:0|0:0,0:0:0:0:
476,134,147867,1,0,1:0:0:0:
378,242,148017,2,0,P|375:204|395:163,1,75,12|2,0:0|0:0,0:0:0:0:
454,217,148317,1,0,1:0:0:0:
497,355,148467,2,0,P|464:339|442:310,1,75,12|2,0:0|0:0,0:0:0:0:
389,170,148767,5,0,1:0:0:0:
374,166,148842,1,0,1:0:0:0:
359,162,148917,1,0,1:0:0:0:
344,158,148992,1,0,1:0:0:0:
329,154,149067,2,0,L|248:165,1,75,14|0,0:0|0:0,0:0:0:0:
97,290,149367,2,0,L|171:300,1,75,14|0,0:0|0:0,0:0:0:0:
268,263,149667,1,2,3:0:0:0:
186,104,149817,1,0,1:0:0:0:
27,186,149967,6,0,B|15:131|15:131|51:44,1,150,12|0,0:0|3:0,0:0:0:0:
210,18,150417,1,12,0:0:0:0:
260,92,150567,2,0,L|185:103,1,75,2|0,0:0|3:0,0:0:0:0:
111,206,150867,2,0,L|185:217,1,75,12|2,0:0|0:0,0:0:0:0:
373,196,151167,5,0,1:0:0:0:
375,181,151242,1,0,1:0:0:0:
377,166,151317,1,0,1:0:0:0:
379,151,151392,1,0,1:0:0:0:
381,136,151467,2,0,L|369:61,1,75,14|0,0:0|0:0,0:0:0:0:
243,123,151767,2,0,L|313:149,2,50,14|0|0,1:2|1:0|1:0,0:0:0:0:
306,13,152067,2,0,L|248:60,2,50,0|0|0,1:0|1:0|1:0,0:0:0:0:
385,34,152367,6,0,L|397:109,1,67.4999979400635,6|0,0:2|0:0,0:0:0:0:
490,171,152667,2,0,L|478:246,1,67.4999979400635,2|0,0:2|0:0,0:0:0:0:
374,290,152967,1,14,0:2:0:0:
374,290,153117,1,0,1:2:0:0:
355,282,153417,1,2,3:2:0:0:
336,274,153717,1,8,0:2:0:0:
258,323,153867,6,0,L|271:374,2,44.999998626709,2|0|0,3:2|0:0|0:0,0:0:0:0:
317,266,154167,2,0,P|341:214|342:151,1,101.249996910095,10|0,0:2|0:2,0:0:0:0:
316,155,154467,2,0,P|292:103|291:40,1,101.249996910095,2|0,0:2|0:2,0:0:0:0:
317,44,154767,6,0,L|391:55,1,67.4999979400635,6|0,0:2|0:0,0:0:0:0:
215,132,155067,2,0,L|148:141,1,67.4999979400635,0|0,3:2|1:2,0:0:0:0:
46,53,155367,1,8,3:2:0:0:
46,53,155517,1,0,1:2:0:0:
67,41,155817,1,2,3:2:0:0:
123,134,155967,6,0,P|117:179|101:198,1,67.4999979400635,8|0,0:2|1:2,0:0:0:0:
90,198,156192,1,0,1:2:0:0:
77,201,156267,1,2,1:2:0:0:
22,135,156417,1,0,3:2:0:0:
59,287,156567,2,0,P|92:288|121:272,1,67.4999979400635,8|0,0:2|0:0,0:0:0:0:
210,129,156867,1,2,3:0:0:0:
210,129,156942,1,2,3:0:0:0:
210,129,157017,1,2,3:3:0:0:
110,60,157167,6,0,L|124:144,1,75,12|2,0:2|0:2,0:0:0:0:
183,209,157467,1,0,3:2:0:0:
235,357,157617,2,0,L|249:273,1,75,12|2,0:2|0:2,0:0:0:0:
308,208,157917,1,0,3:2:0:0:
360,60,158067,2,0,L|374:144,1,75,12|2,0:2|0:2,0:0:0:0:
445,282,158367,5,0,1:2:0:0:
430,277,158442,1,0,1:2:0:0:
415,272,158517,1,0,1:2:0:0:
400,266,158592,1,0,1:2:0:0:
385,261,158667,2,0,P|358:296|355:333,1,75,14|0,0:2|0:2,0:0:0:0:
482,210,158967,2,0,P|509:175|512:138,1,75,14|0,3:2|1:2,0:0:0:0:
449,72,159267,1,2,3:2:0:0:
359,175,159417,1,0,1:2:0:0:
239,128,159567,6,0,P|284:68|354:47,1,150,12|0,0:2|3:2,0:0:0:0:
449,72,160017,1,12,0:2:0:0:
512,145,160167,2,0,P|506:181|482:210,1,75,2|0,0:2|3:2,0:0:0:0:
288,272,160467,2,0,P|322:259|359:266,1,75,12|2,0:2|0:2,0:0:0:0:
437,351,160767,5,8,3:2:0:0:
512,257,160917,1,0,3:0:0:0:
512,257,160992,1,0,0:0:0:0:
512,257,161067,2,0,L|419:276,1,75,0|2,3:0|3:0,0:0:0:0:
301,353,161367,2,0,L|240:345,2,50,2|0|0,3:0|0:0|0:0,0:0:0:0:
209,268,161667,2,0,L|270:260,2,50,0|0|0,3:0|0:0|0:0,0:0:0:0:
301,183,161967,6,0,L|189:167,1,112.5,4|0,3:2|0:2,0:0:0:0:
176,174,162267,1,0,0:0:0:0:
315,93,162417,2,0,L|464:114,1,150,2|0,0:0|0:2,0:0:0:0:
301,183,162867,1,2,0:2:0:0:
181,47,163017,6,0,P|109:59|70:120,1,150,2|0,3:2|0:2,0:0:0:0:
169,210,163467,2,0,P|172:173|161:138,1,75,2|2,0:2|0:2,0:0:0:0:
94,264,163767,2,0,P|165:240|237:257,1,150,8|0,0:2|0:2,0:0:0:0:
372,350,164217,1,0,0:2:0:0:
336,146,164367,6,0,P|315:197|322:252,1,112.5,2|0,3:2|0:2,0:0:0:0:
328,266,164667,1,0,0:0:0:0:
412,107,164817,2,0,P|354:63|284:80,1,150,2|0,0:0|0:2,0:0:0:0:
170,175,165267,1,2,0:2:0:0:
126,9,165417,6,0,L|199:24,1,75,2|0,3:2|0:2,0:0:0:0:
82,159,165717,2,0,L|58:87,1,75,0|2,0:2|0:2,0:0:0:0:
220,119,166017,1,2,0:2:0:0:
79,246,166167,1,10,3:0:0:0:
118,224,166242,1,2,3:0:0:0:
162,220,166317,1,2,3:0:0:0:
205,234,166392,1,2,3:0:0:0:
239,263,166467,1,8,2:0:0:0:
239,263,166767,6,0,L|234:188,1,75,12|0,0:0|1:0,0:0:0:0:
364,118,167067,2,0,L|368:192,1,75,8|0,0:0|1:0,0:0:0:0:
238,263,167367,6,0,L|246:188,1,75,8|0,0:0|1:0,0:0:0:0:
377,118,167667,2,0,L|368:192,1,75,8|0,0:0|1:0,0:0:0:0:
238,263,167967,6,0,L|259:191,1,75,8|0,0:0|1:0,0:0:0:0:
149,67,168267,2,0,L|170:138,1,75,8|0,0:0|1:0,0:0:0:0:
60,263,168567,2,0,L|81:191,1,75,8|0,0:0|0:0,0:0:0:0:
226,55,168867,1,0,3:0:0:0:
246,46,168942,1,0,3:0:0:0:
269,44,169017,1,0,3:0:0:0:
291,48,169092,1,0,3:0:0:0:
310,58,169167,6,0,P|344:72|381:71,1,75,12|0,0:0|0:0,0:0:0:0:
494,13,169467,1,8,0:0:0:0:
455,197,169617,2,0,P|440:162|441:125,1,75,0|8,1:0|0:0,0:0:0:0:
386,271,169917,2,0,P|356:248|338:215,1,75,0|8,1:0|0:0,0:0:0:0:
363,369,170217,1,0,1:0:0:0:
250,260,170367,5,4,3:0:0:0:
158,253,170592,1,8,3:0:0:0:
66,247,170817,2,0,L|66:209,1,37.5,0|0,3:0|0:0,0:0:0:0:
122,142,170967,1,8,3:0:0:0:
122,123,171042,1,8,3:0:0:0:
122,104,171117,1,0,3:0:0:0:
43,25,171267,2,0,P|78:36|115:30,1,75,2|2,3:0|3:0,0:0:0:0:
257,2,171567,5,8,0:0:0:0:
226,101,171717,1,0,3:0:0:0:
357,54,171867,5,8,0:0:0:0:
293,136,172017,1,0,3:0:0:0:
433,137,172167,5,8,0:0:0:0:
226,101,172317,1,0,3:0:0:0:
357,54,172467,1,0,3:0:0:0:
236,220,172617,6,0,P|152:182|69:219,1,187.5,4|0,0:1|0:0,0:0:0:0:
115,381,173067,2,0,P|140:342|153:297,1,93.7499999999999,8|0,0:2|0:2,0:0:0:0:
54,115,173367,1,0,1:2:0:0:
8,266,173517,1,0,0:2:0:0:
142,94,173667,1,8,0:2:0:0:
323,201,173817,6,0,L|507:168,1,187.5,4|0,0:1|1:2,0:0:0:0:
286,13,174267,2,0,P|290:59|271:101,1,93.7499999999999,8|0,0:2|1:2,0:0:0:0:
191,254,174567,1,0,3:2:0:0:
142,94,174717,1,0,1:2:0:0:
142,94,174792,1,0,1:2:0:0:
142,94,174867,1,8,1:2:0:0:
17,296,175017,6,0,B|68:255|68:255|190:253,1,187.5,4|0,0:1|1:2,0:0:0:0:
382,288,175467,1,8,0:2:0:0:
245,356,175617,1,0,0:2:0:0:
297,176,175767,2,0,L|356:179,1,46.875,0|0,1:2|1:2,0:0:0:0:
431,137,175917,1,0,1:2:0:0:
431,137,175992,1,0,1:2:0:0:
431,137,176067,1,8,1:2:0:0:
195,16,176217,6,0,B|234:100|234:100|195:186,1,187.5,4|0,0:1|0:2,0:0:0:0:
33,43,176667,1,8,0:2:0:0:
25,229,176817,2,0,B|97:177|97:177|194:186,1,187.5,4|0,0:2|1:2,0:0:0:0:
213,189,177192,1,0,1:2:0:0:
231,191,177267,1,8,1:2:0:0:
85,365,177417,6,0,P|107:280|194:280,1,187.5,4|0,0:1|0:0,0:0:0:0:
354,382,177867,2,0,P|307:379|265:359,1,93.75,8|0,0:2|1:2,0:0:0:0:
367,155,178167,1,0,1:2:0:0:
401,309,178317,1,0,0:2:0:0:
195,186,178467,1,8,0:2:0:0:
415,91,178617,6,0,P|444:174|380:234,1,187.5,4|0,0:1|1:2,0:0:0:0:
191,105,179067,2,0,P|235:116|266:150,1,93.75,8|0,0:2|1:2,0:0:0:0:
401,309,179367,1,0,1:2:0:0:
367,155,179517,1,0,1:2:0:0:
367,155,179592,1,0,1:2:0:0:
367,155,179667,1,8,1:2:0:0:
242,362,179817,6,0,L|189:181,1,187.5,4|0,0:1|1:2,0:0:0:0:
401,309,180267,1,8,0:2:0:0:
149,345,180417,6,0,L|193:162,1,187.5,4|0,0:2|1:2,0:0:0:0:
199,144,180792,1,0,1:2:0:0:
204,126,180867,1,8,1:2:0:0:
69,280,181017,6,0,L|198:144,1,187.5,4|0,0:2|1:0,0:0:0:0:
212,130,181392,1,0,1:0:0:0:
226,117,181467,1,8,1:2:0:0:
9,180,181617,6,0,L|188:126,1,187.5,4|0,0:0|1:0,0:0:0:0:
207,121,181992,1,0,1:0:0:0:
226,117,182067,1,8,1:2:0:0:
304,326,182217,6,0,P|219:294|197:206,1,187.5,4|0,0:1|0:0,0:0:0:0:
392,121,182667,2,0,P|399:166|388:211,1,93.75,8|0,0:2|0:2,0:0:0:0:
318,35,182967,1,0,1:2:0:0:
487,145,183117,1,0,1:2:0:0:
487,145,183192,1,0,1:2:0:0:
487,145,183267,1,8,1:2:0:0:
304,326,183417,6,0,P|213:307|126:338,1,187.5,4|0,0:1|0:2,0:0:0:0:
203,125,183867,2,0,P|214:169|206:215,1,93.75,8|0,0:2|0:2,0:0:0:0:
108,174,184167,1,0,0:2:0:0:
248,35,184317,1,0,1:2:0:0:
248,35,184392,1,0,1:2:0:0:
248,35,184467,1,8,1:2:0:0:
116,265,184617,6,0,L|99:78,1,187.5,4|0,0:1|1:2,0:0:0:0:
0,251,185067,1,8,0:2:0:0:
108,174,185217,1,0,0:2:0:0:
191,310,185367,2,0,L|236:297,1,46.875,0|0,0:2|1:0,0:0:0:0:
330,348,185517,1,0,1:2:0:0:
330,348,185592,1,0,1:2:0:0:
330,348,185667,1,8,1:2:0:0:
439,172,185817,6,0,P|470:259|439:346,1,187.5,4|0,0:1|1:2,0:0:0:0:
236,297,186267,1,8,0:2:0:0:
371,49,186417,2,0,L|349:235,1,187.5,4|0,0:2|1:2,0:0:0:0:
348,253,186792,1,0,1:2:0:0:
347,271,186867,1,8,1:2:0:0:
202,120,187017,6,0,P|117:86|35:125,1,187.5,4|0,0:1|0:0,0:0:0:0:
135,295,187467,2,0,L|121:202,1,93.75,8|0,0:2|0:2,0:0:0:0:
40,363,187767,1,0,1:2:0:0:
244,305,187917,1,0,1:0:0:0:
244,305,187992,1,0,1:0:0:0:
244,305,188067,1,8,1:2:0:0:
9,216,188217,6,0,P|35:128|116:86,1,187.5,4|0,0:1|1:2,0:0:0:0:
209,208,188667,2,0,P|163:217|120:202,1,93.75,8|0,0:2|0:2,0:0:0:0:
283,81,188967,1,0,0:2:0:0:
347,254,189117,1,0,1:2:0:0:
347,254,189192,1,0,1:2:0:0:
347,254,189267,1,8,1:2:0:0:
213,19,189417,6,0,B|298:-12|298:-12|375:46,1,187.5,4|0,2:1|0:0,0:0:0:0:
512,208,189867,1,8,0:2:0:0:
283,81,190017,1,0,0:0:0:0:
504,13,190167,1,8,0:2:0:0:
347,254,190317,1,0,0:0:0:0:
347,254,190392,1,0,0:0:0:0:
347,254,190467,1,8,0:2:0:0:
237,71,190617,6,0,L|282:80,1,46.875,4|0,0:0|0:0,0:0:0:0:
375,46,190767,2,0,L|360:138,1,93.75,8|0,3:0|3:0,0:0:0:0:
358,157,190992,1,0,3:0:0:0:
356,175,191067,1,8,3:2:0:0:
151,11,191217,2,0,L|165:103,1,93.75,0|8,3:0|3:2,0:0:0:0:
168,122,191442,1,2,3:0:0:0:
170,140,191517,1,2,3:0:0:0:
117,267,191667,5,0,2:0:0:0:
117,267,191817,2,0,P|73:233|19:240,1,112.500004291535,0|0,0:0|1:0,0:0:0:0:
16,254,192192,1,0,1:0:0:0:
11,268,192267,6,0,L|36:368,1,93.75,12|0,0:2|0:2,0:0:0:0:
207,299,192567,1,0,1:2:0:0:
187,209,192717,1,0,0:2:0:0:
60,376,192867,1,8,0:2:0:0:
287,352,193017,6,0,B|327:319|327:319|349:207,1,140.625,4|0,0:1|0:0,0:0:0:0:
338,218,193317,1,0,1:2:0:0:
243,50,193467,2,0,L|259:142,1,93.75,8|0,0:2|0:2,0:0:0:0:
440,197,193767,1,0,0:2:0:0:
366,118,193917,1,0,1:2:0:0:
366,118,193992,1,0,1:2:0:0:
366,118,194067,1,8,1:2:0:0:
186,209,194217,6,0,P|97:217|45:145,1,187.5,4|0,0:1|1:2,0:0:0:0:
102,0,194667,5,8,0:2:0:0:
133,138,194817,1,0,0:2:0:0:
302,25,194967,5,8,0:2:0:0:
274,182,195117,1,0,3:2:0:0:
274,182,195192,1,0,3:0:0:0:
274,182,195267,5,8,3:2:0:0:
494,171,195417,1,0,0:2:0:0:
266,96,195567,5,12,0:2:0:0:
447,35,195717,1,0,0:2:0:0:
376,182,195867,5,8,0:2:0:0:
190,135,196017,1,0,0:2:0:0:
302,25,196167,5,12,0:2:0:0:
442,122,196317,1,0,3:2:0:0:
442,122,196392,1,0,3:0:0:0:
442,122,196467,1,8,3:2:0:0:
447,35,196617,6,0,B|389:44|389:44|351:99|351:99|290:110,1,187.5,4|0,0:1|0:2,0:0:0:0:
210,11,197067,2,0,L|302:25,1,93.75,8|0,0:2|0:2,0:0:0:0:
435,116,197367,1,0,0:2:0:0:
333,183,197517,1,0,1:2:0:0:
378,0,197667,1,8,0:2:0:0:
505,70,197817,6,0,P|517:138|474:191,1,140.625,4|0,0:1|0:0,0:0:0:0:
460,195,198117,1,0,0:2:0:0:
258,142,198267,2,0,P|291:108|336:98,1,93.75,8|0,1:2|1:2,0:0:0:0:
435,116,198567,1,2,0:3:0:0:
360,267,198717,1,2,0:3:0:0:
360,267,198792,1,2,0:3:0:0:
360,267,198867,1,8,0:2:0:0:
423,333,199017,6,0,B|341:362|341:362|240:367,1,187.5,4|0,0:1|1:2,0:0:0:0:
180,313,199467,1,8,0:2:0:0:
23,193,199617,6,0,B|103:238|103:238|198:228,1,187.5,4|0,0:1|1:2,0:0:0:0:
209,219,199992,1,0,1:2:0:0:
220,210,200067,1,8,0:2:0:0:
419,94,200217,6,0,B|349:154|349:154|256:132,1,187.5,4|0,0:1|1:2,0:0:0:0:
245,123,200592,1,0,1:2:0:0:
234,113,200667,1,8,0:2:0:0:
27,11,200817,6,0,B|81:87|81:87|170:56,1,187.5,4|0,0:1|1:2,0:0:0:0:
178,44,201192,1,0,1:2:0:0:
186,32,201267,1,8,0:2:0:0:
56,163,201417,6,0,B|25:213|61:255|61:255|93:289|76:335,1,187.5,4|0,0:1|0:2,0:0:0:0:
135,203,201867,2,0,P|180:207|215:238,1,93.75,8|0,0:2|0:2,0:0:0:0:
218,332,202167,1,0,0:2:0:0:
69,362,202317,1,0,1:2:0:0:
69,362,202392,1,0,1:2:0:0:
69,362,202467,1,8,0:2:0:0:
214,238,202617,6,0,P|277:206|346:195,1,140.625,4|0,0:1|0:0,0:0:0:0:
359,201,202917,1,0,1:2:0:0:
502,300,203067,2,0,P|455:297|413:277,1,93.75,8|0,0:2|1:2,0:0:0:0:
358,109,203367,1,0,1:2:0:0:
482,215,203517,1,0,1:2:0:0:
482,215,203592,1,0,1:2:0:0:
482,215,203667,1,8,0:2:0:0:
367,344,203817,6,0,P|278:347|227:273,1,187.5,4|0,0:1|1:2,0:0:0:0:
279,162,204267,5,8,0:2:0:0:
132,262,204417,1,0,0:2:0:0:
37,120,204567,5,8,0:2:0:0:
171,93,204717,1,0,0:2:0:0:
171,93,204792,1,0,3:0:0:0:
171,93,204867,5,8,0:2:0:0:
67,203,205017,1,0,0:2:0:0:
226,272,205167,5,12,0:2:0:0:
256,77,205317,1,0,0:2:0:0:
363,234,205467,5,8,0:2:0:0:
176,178,205617,1,0,0:2:0:0:
303,11,205767,5,12,0:2:0:0:
400,142,205917,1,0,0:2:0:0:
400,142,205992,1,0,3:0:0:0:
400,142,206067,1,8,0:2:0:0:
256,77,206217,6,0,P|219:162|212:255,1,187.5,4|0,0:1|0:2,0:0:0:0:
402,337,206667,2,0,P|361:313|316:300,1,93.75,8|0,0:2|0:2,0:0:0:0:
121,340,206967,1,0,0:2:0:0:
230,355,207117,1,0,1:2:0:0:
230,355,207192,1,0,1:2:0:0:
230,355,207267,1,8,0:2:0:0:
62,267,207417,6,0,P|31:203|17:135,1,140.625,4|0,0:1|0:0,0:0:0:0:
25,122,207717,1,0,1:2:0:0:
256,77,207867,2,0,P|243:122|219:162,1,93.75,8|0,0:2|1:2,0:0:0:0:
66,46,208167,1,0,1:2:0:0:
198,8,208317,1,0,1:2:0:0:
198,8,208392,1,0,1:2:0:0:
198,8,208467,1,8,0:2:0:0:
120,170,208617,6,0,P|205:207|305:221,1,187.5,4|0,0:1|1:2,0:0:0:0:
309,213,208992,1,0,1:2:0:0:
320,205,209067,1,12,0:2:0:0:
256,77,209217,1,2,0:0:0:0:
198,246,209367,1,2,0:0:0:0:
202,259,209442,1,2,0:0:0:0:
206,272,209517,1,8,0:2:0:0:
210,285,209592,1,8,0:2:0:0:
214,298,209667,1,8,0:2:0:0:
498,256,209817,6,0,P|412:218|312:204,1,187.5,4|0,0:1|1:2,0:0:0:0:
309,213,210192,1,0,1:2:0:0:
298,221,210267,1,4,1:2:0:0:
106,150,210417,6,0,P|170:119|238:103,1,140.625,0|0,0:2|0:0,0:0:0:0:
256,108,210739,1,0,0:2:0:0:
298,221,210913,6,0,B|261:200|261:200|220:191,1,75,8|0,0:2|0:0,0:0:0:0:
149,222,211262,1,2,0:2:0:0:
