osu file format v14

[General]
AudioFilename: audio.mp3
AudioLeadIn: 0
PreviewTime: 103987
Countdown: 0
SampleSet: Soft
StackLeniency: 0.2
Mode: 0
LetterboxInBreaks: 0
WidescreenStoryboard: 1

[Editor]
Bookmarks: 2362,30562,45412,50212,55012,58612,98362,123487,161962,191962
DistanceSpacing: 0.6
BeatDivisor: 4
GridSize: 32
TimelineZoom: 3.099999

[Metadata]
Title:Yoru Naku Usagi wa Yume o Miru
TitleUnicode:夜啼く兎は夢を見る
Artist:UNDEAD CORPORATION
ArtistUnicode:UNDEAD CORPORATION
Creator:MaridiuS
Version:Madness
Source:東方永夜抄 ~ Imperishable Night.
Tags:LOLI JOA Ayyri Len Revia Realazy LowComboFC eiri- Chekito Lince Bergy ranko Touhou Eiyashou 東方Project C82 Comiket82 Benisome no Oni ga Naku 紅染の鬼が哭く 狂気の瞳 ~ Invisible Full Moon Kyouki no Hitomi Reisen Udongein theme
BeatmapID:1474012
BeatmapSetID:695743

[Difficulty]
HPDrainRate:6
CircleSize:3.8
OverallDifficulty:9.2
ApproachRate:9.6
SliderMultiplier:2.2
SliderTickRate:1

[Events]
//Background and Video events
0,0,"03b5dc8d1eb147aafaf20977363d0651_waifu2x_art_noise2_scale_tta_1.jpg",0,0
//Break Periods
2,138167,142258
//Storyboard Layer 0 (Background)
//Storyboard Layer 1 (Fail)
//Storyboard Layer 2 (Pass)
//Storyboard Layer 3 (Foreground)
//Storyboard Sound Samples

[TimingPoints]
-33,300,4,2,1,70,1,0
5967,-100,4,2,10,70,0,0
6192,-100,4,2,10,5,0,0
6267,-100,4,2,10,70,0,0
6492,-100,4,2,10,5,0,0
6567,-100,4,2,10,70,0,0
7242,-100,4,2,10,5,0,0
7317,-100,4,2,10,70,0,0
7992,-100,4,2,10,5,0,0
8067,-100,4,2,10,70,0,0
8292,-100,4,2,10,5,0,0
8367,-100,4,2,10,70,0,0
8592,-100,4,2,10,5,0,0
8667,-100,4,2,10,70,0,0
10767,-100,4,2,1,70,0,0
15567,-200,4,2,5,70,0,0
20367,-133.333333333333,4,2,5,70,0,0
23367,-111.111111111111,4,2,5,70,0,0
23667,-90.9090909090909,4,2,5,70,0,0
25167,-133.333333333333,4,2,1,70,0,0
33567,-66.6666666666667,4,2,1,70,0,0
33792,-66.6666666666667,4,2,1,5,0,0
33867,-66.6666666666667,4,2,1,70,0,0
34092,-66.6666666666667,4,2,1,5,0,0
34167,-66.6666666666667,4,2,1,70,0,0
34767,-80,4,2,10,70,0,0
44367,-80,4,2,1,70,0,0
45417,-90.9090909090909,4,3,10,80,0,1
64767,-90.9090909090909,4,2,1,45,0,0
66567,-90.9090909090909,4,2,1,70,0,0
67167,-111.111111111111,4,2,1,70,0,0
69567,-100,4,2,1,70,0,0
74367,-100,4,2,10,70,0,0
74592,-100,4,2,10,5,0,0
74667,-100,4,2,10,70,0,0
74892,-100,4,2,10,5,0,0
74967,-100,4,2,10,70,0,0
75642,-100,4,2,10,5,0,0
75717,-100,4,2,10,70,0,0
76392,-100,4,2,10,5,0,0
76467,-100,4,2,10,70,0,0
76692,-100,4,2,10,5,0,0
76767,-100,4,2,10,70,0,0
76992,-100,4,2,10,5,0,0
77067,-100,4,2,10,70,0,0
79167,-100,4,2,1,70,0,0
83967,-133.333333333333,4,2,5,70,0,0
87567,-100,4,2,1,70,0,0
88167,-133.333333333333,4,2,1,70,0,0
92367,-66.6666666666667,4,2,1,70,0,0
93567,-80,4,2,10,70,0,0
104217,-90.9090909090909,4,3,10,70,0,1
123567,-111.111111111111,4,2,10,70,0,0
137067,-90.9090909090908,4,2,1,70,0,0
142767,-100,4,2,10,70,0,0
145392,-100,4,2,10,5,0,0
145467,-100,4,2,10,70,0,0
145692,-100,4,2,10,5,0,0
145767,-100,4,2,10,70,0,0
147567,-100,4,2,1,70,0,0
152367,-100,4,2,10,70,0,0
152592,-100,4,2,10,5,0,0
152667,-100,4,2,10,70,0,0
152892,-100,4,2,10,5,0,0
152967,-100,4,2,10,70,0,0
153642,-100,4,2,10,5,0,0
153717,-100,4,2,10,70,0,0
154392,-100,4,2,10,5,0,0
154467,-100,4,2,10,70,0,0
154692,-100,4,2,10,5,0,0
154767,-100,4,2,10,70,0,0
154992,-100,4,2,10,5,0,0
155067,-100,4,2,10,70,0,0
157167,-100,4,2,1,70,0,0
161967,-100,4,2,10,70,0,0
168567,-80,4,2,10,70,0,0
172617,-90.9090909090909,4,3,10,70,0,1
191817,-200,4,2,1,70,0,0
192267,-80,4,3,10,70,0,1
199017,-86.9565217391304,4,3,10,70,0,1
199617,-80,4,3,10,70,0,1
200217,-74.0740740740741,4,3,10,70,0,1
200817,-68.9655172413793,4,3,10,70,0,1
201417,-80,4,3,10,70,0,1
209817,-68.9655172413793,4,3,10,70,0,1
210417,322.58064516129,4,3,10,70,1,0
210417,-142.857142857143,4,3,10,70,0,0
210739,348.837209302326,4,2,1,70,1,0
211262,361.44578313253,4,2,1,50,1,0
212707,389.61038961039,4,2,1,50,1,0
213486,408.163265306122,4,2,1,50,1,0
214302,444.444444444444,4,2,1,50,1,0
215190,476.190476190476,4,2,1,50,1,0
215666,517.241379310345,4,2,1,50,1,0
215666,-133.333333333333,4,2,1,50,0,0
216183,571.428571428571,4,2,1,40,1,0
216754,714.285714285714,4,2,1,30,1,0
217646,-100,4,2,1,5,0,0

[Colours]
Combo1 : 79,219,89
Combo2 : 30,135,240
Combo3 : 248,22,62
Combo4 : 186,105,184

[HitObjects]
158,189,1167,6,0,P|212:122|278:113,1,110,12|2,0:2|0:2,0:2:0:0:
234,371,1467,1,0,3:2:0:0:
150,160,1617,2,0,P|204:93|270:84,1,110,12|2,0:2|0:2,0:2:0:0:
242,384,1917,1,0,3:2:0:0:
142,131,2067,2,0,P|196:64|262:55,1,110,12|2,0:2|0:2,0:2:0:0:
88,337,2367,5,0,1:2:0:0:
89,320,2442,1,0,1:2:0:0:
90,303,2517,1,0,1:2:0:0:
91,286,2592,1,0,1:2:0:0:
82,265,2667,6,0,L|201:236,1,110,14|0,0:2|0:2,0:2:0:0:
347,53,2967,2,0,L|240:26,1,110,14|0,0:2|0:2,0:2:0:0:
87,80,3267,1,2,3:2:0:0:
87,80,3417,1,0,1:2:0:0:
402,159,3567,6,0,P|419:202|413:281,1,110,12|2,0:2|0:2,0:2:0:0:
239,24,3867,1,0,3:2:0:0:
426,166,4017,2,0,P|443:209|437:288,1,110,12|2,0:2|0:2,0:2:0:0:
222,15,4317,1,0,3:2:0:0:
450,173,4467,2,0,P|467:216|461:295,1,110,12|2,0:2|0:2,0:2:0:0:
215,196,4767,5,0,1:2:0:0:
231,197,4842,1,0,1:2:0:0:
246,198,4917,1,0,1:2:0:0:
262,199,4992,1,0,1:2:0:0:
280,178,5067,6,0,L|309:297,1,110,14|0,0:2|0:2,0:2:0:0:
195,95,5367,1,14,1:2:0:0:
145,83,5467,1,0,1:2:0:0:
104,114,5567,1,0,1:2:0:0:
103,165,5667,1,0,1:2:0:0:
136,204,5767,1,0,1:2:0:0:
143,254,5867,1,0,1:2:0:0:
116,297,5967,6,0,B|159:318|159:318|300:297,1,165,6|0,0:2|0:2,0:2:0:0:
105,313,6267,2,0,B|148:334|148:334|289:313,1,165,2|0,0:2|0:2,0:2:0:0:
371,250,6567,1,10,0:2:0:0:
205,148,6717,1,0,1:2:0:0:
197,165,7017,6,0,P|243:165|339:70,1,165,0|0,3:2|0:2,0:2:0:0:
331,7,7317,1,8,0:2:0:0:
331,7,7467,2,0,P|347:45|439:66,1,110,2|0,0:2|0:2,0:2:0:0:
145,77,7767,6,0,P|99:146|143:246,1,165,14|0,0:2|0:2,0:2:0:0:
134,75,8067,2,0,P|88:144|132:244,1,165,2|0,0:2|0:2,0:2:0:0:
196,274,8367,2,0,B|230:289|230:289|196:164,1,165,6|0,0:2|0:2,0:2:0:0:
134,75,8667,1,2,3:2:0:0:
134,75,8817,1,0,0:2:0:0:
124,348,8967,5,10,0:2:0:0:
352,208,9117,1,0,1:2:0:0:
344,226,9417,5,0,3:2:0:0:
124,348,9567,1,10,0:2:0:0:
207,202,9717,1,0,1:2:0:0:
207,202,9792,1,0,1:2:0:0:
207,202,9867,1,2,1:2:0:0:
270,370,10017,1,0,3:2:0:0:
94,154,10167,6,0,P|165:100|264:109,1,165,8|0,0:2|3:2,0:2:0:0:
293,201,10467,5,2,3:3:0:0:
325,205,10542,1,2,3:3:0:0:
358,201,10617,1,2,3:3:0:0:
389,190,10692,1,2,3:3:0:0:
436,183,10767,6,0,P|453:217|454:315,1,110,12|2,0:2|0:2,0:2:0:0:
402,53,11067,1,0,0:2:0:0:
370,278,11217,2,0,P|367:316|319:401,1,110,12|2,0:2|0:2,0:2:0:0:
415,44,11517,1,0,0:2:0:0:
271,306,11667,2,0,P|249:338|165:387,1,110,12|2,0:2|0:2,0:2:0:0:
324,131,11967,5,0,1:2:0:0:
309,136,12042,1,0,1:2:0:0:
294,141,12117,1,0,1:2:0:0:
279,146,12192,1,0,1:2:0:0:
258,169,12267,6,0,L|268:55,1,110,14|0,0:2|0:2,0:2:0:0:
171,316,12567,1,14,0:2:0:0:
111,155,12717,1,0,1:2:0:0:
165,331,12867,1,2,3:2:0:0:
117,140,13017,1,0,1:2:0:0:
430,140,13167,6,0,B|456:196|456:196|442:259,1,110,12|2,0:2|0:2,0:2:0:0:
390,0,13467,1,0,0:2:0:0:
304,202,13617,2,0,B|241:196|241:196|194:151,1,110,12|2,0:2|0:2,0:2:0:0:
445,242,13917,1,0,0:2:0:0:
310,66,14067,2,0,B|345:15|345:15|407:-4,1,110,12|2,0:2|0:2,0:2:0:0:
334,275,14367,5,14,1:2:0:0:
304,286,14442,1,0,1:0:0:0:
271,290,14517,1,0,1:0:0:0:
238,286,14592,1,0,1:0:0:0:
207,275,14667,2,0,P|180:267|147:241,1,55,0|0,3:0|3:0,3:0:0:0:
279,197,14817,2,0,P|300:178|339:162,1,55,0|0,3:0|3:0,3:0:0:0:
428,232,14967,5,8,0:0:0:0:
267,384,15117,1,0,1:0:0:0:
267,384,15192,1,0,1:0:0:0:
267,384,15267,1,0,1:0:0:0:
382,339,15417,1,0,0:0:0:0:
428,232,15567,6,0,L|412:142,1,55,2|0,0:0|0:0,0:0:0:0:
340,123,15867,1,0,0:0:0:0:
333,144,16017,1,0,0:0:0:0:
235,222,16167,2,0,L|243:143,1,55,2|0,0:0|0:0,0:0:0:0:
146,144,16467,2,0,L|154:65,1,55
320,25,16767,5,2,0:0:0:0:
337,38,16917,1,0,0:0:0:0:
455,69,17067,1,0,0:0:0:0:
435,77,17217,1,0,0:0:0:0:
355,134,17367,2,0,L|346:188,1,55,2|0,0:0|0:0,0:0:0:0:
326,280,17667,1,0,0:0:0:0:
333,300,17817,1,0,0:0:0:0:
261,216,17967,5,2,0:0:0:0:
239,209,18117,1,0,0:0:0:0:
217,202,18267,1,0,0:0:0:0:
195,195,18417,1,0,0:0:0:0:
96,151,18567,2,0,L|88:72,1,55,2|0,0:0|0:0,0:0:0:0:
185,73,18867,2,0,L|177:-6,1,55
385,182,19167,2,0,L|393:103,1,55,2|0,0:0|0:0,0:0:0:0:
292,114,19467,2,0,L|300:35,1,55
296,204,19767,5,2,0:0:0:0:
312,304,19917,1,0,0:0:0:0:
216,204,20067,1,0,0:0:0:0:
200,304,20217,1,0,0:0:0:0:
111,158,20367,6,0,P|74:168|16:176,1,82.5000031471254,2|0,1:2|0:2,0:2:0:0:
176,69,20667,1,0,1:2:0:0:
176,69,20817,1,0,0:2:0:0:
207,204,20967,2,0,P|180:231|133:267,1,82.5000031471254,2|0,1:2|0:2,0:2:0:0:
313,195,21267,2,0,P|304:231|281:286,1,82.5000031471254,0|0,1:2|0:2,0:2:0:0:
443,36,21567,6,0,P|473:65|499:98,1,82.5000031471254,2|0,1:2|0:2,0:2:0:0:
400,133,21868,2,0,P|411:173|417:214,1,82.5000031471254,0|0,1:2|0:2,0:2:0:0:
313,195,22167,1,2,1:2:0:0:
207,204,22317,1,0,0:2:0:0:
310,232,22467,1,0,1:2:0:0:
404,226,22617,1,0,0:2:0:0:
285,109,22767,6,0,P|268:73|260:7,1,82.5000031471254,2|0,1:2|0:2,0:2:0:0:
359,42,23067,1,0,1:2:0:0:
359,42,23217,1,0,0:2:0:0:
186,78,23367,6,0,B|136:91|136:91|54:80,1,98.9999969787599,2|0,1:2|0:2,0:2:0:0:
10,241,23667,6,0,B|72:239|72:239|173:201,1,121.000003692627,0|0,1:2|0:2,0:2:0:0:
318,245,23967,6,0,P|255:243|322:174,1,181.500005538941,6|0,1:2|0:0,0:0:0:0:
369,182,24267,1,0,3:0:0:0:
374,184,24342,1,0,3:0:0:0:
379,186,24417,1,0,3:0:0:0:
384,188,24492,1,0,3:0:0:0:
389,190,24567,5,8,3:0:0:0:
293,325,24717,1,0,3:0:0:0:
147,222,24867,1,0,3:0:0:0:
250,76,25017,1,0,3:0:0:0:
250,76,25167,6,0,L|245:175,1,82.5000031471254,4|0,0:2|0:2,0:2:0:0:
285,260,25467,1,0,0:2:0:0:
299,239,25617,1,0,3:2:0:0:
387,203,25767,2,0,L|393:285,1,82.5000031471254,2|0,0:2|0:2,0:2:0:0:
391,98,26067,2,0,L|398:181,1,82.5000031471254,2|0,3:2|0:2,0:2:0:0:
302,136,26367,5,0,3:2:0:0:
208,165,26517,1,0,1:2:0:0:
208,165,26592,1,0,1:2:0:0:
208,165,26667,1,2,1:2:0:0:
170,73,26817,1,0,0:2:0:0:
204,259,26967,2,0,L|212:355,1,82.5000031471254,10|0,0:1|0:2,0:2:0:0:
117,299,27267,1,0,3:2:0:0:
107,275,27417,1,0,1:2:0:0:
301,288,27567,5,0,1:2:0:0:
301,288,27642,1,0,1:2:0:0:
301,288,27717,1,0,1:2:0:0:
286,192,27867,1,2,1:2:0:0:
292,168,28017,1,0,3:2:0:0:
351,73,28167,2,0,L|269:86,1,82.5000031471254,2|0,0:2|0:2,0:2:0:0:
439,35,28467,2,0,L|358:49,1,82.5000031471254,2|0,3:2|0:2,0:2:0:0:
192,159,28767,6,0,L|110:145,1,82.5000031471254,4|0,3:3|1:2,0:2:0:0:
98,140,28992,1,0,1:2:0:0:
98,140,29067,1,2,1:2:0:0:
140,251,29217,1,0,3:2:0:0:
284,166,29367,2,0,P|368:194|430:151,1,165.000006294251,10|0,0:1|0:2,0:2:0:0:
350,95,29817,1,0,0:2:0:0:
238,273,29967,6,0,L|226:369,1,82.5000031471254,4|0,3:2|0:2,0:2:0:0:
128,355,30267,1,2,1:2:0:0:
124,330,30417,1,0,3:2:0:0:
327,297,30567,2,0,L|423:309,1,82.5000031471254,2|0,0:2|0:2,0:2:0:0:
238,273,30867,2,0,L|319:283,1,82.5000031471254,2|0,3:2|0:2,0:2:0:0:
394,215,31167,5,0,3:2:0:0:
372,109,31317,1,0,1:2:0:0:
372,109,31392,1,0,1:2:0:0:
372,109,31467,1,2,1:2:0:0:
430,23,31617,1,0,3:2:0:0:
262,133,31767,2,0,L|155:143,1,82.5000031471254,10|0,0:1|0:2,0:2:0:0:
262,222,32067,5,2,3:2:0:0:
302,217,32217,1,0,1:2:0:0:
254,126,32367,2,0,L|172:134,1,82.5000031471254,2|0,0:2|0:2,0:2:0:0:
92,248,32667,5,2,1:2:0:0:
172,238,32817,1,0,3:2:0:0:
246,119,32967,2,0,L|163:126,1,82.5000031471254,2|0,0:2|0:2,0:2:0:0:
143,328,33267,5,2,3:2:0:0:
312,299,33417,1,2,3:2:0:0:
74,117,33567,6,0,P|69:77|165:140,1,247.500009441376,4|0,0:0|0:0,0:0:0:0:
311,120,33867,2,0,P|316:160|220:97,1,247.500009441376,4|0,0:0|0:0,0:0:0:0:
256,0,34167,5,8,0:1:0:0:
311,120,34317,1,8,0:1:0:0:
256,240,34467,1,8,0:1:0:0:
311,359,34617,1,8,0:1:0:0:
192,128,34767,6,0,B|139:170|139:170|114:310,1,206.25,4|0,1:0|0:0,0:0:0:0:
256,240,35067,1,8,0:0:0:0:
91,74,35217,6,0,B|145:31|145:31|305:26,1,206.25,4|0,0:0|0:0,0:0:0:0:
192,128,35517,1,0,0:0:0:0:
24,0,35667,1,8,0:0:0:0:
383,80,35817,6,0,B|329:123|329:123|169:128,1,206.25,4|0,1:0|0:0,0:0:0:0:
84,167,36117,1,0,0:0:0:0:
282,26,36267,1,8,0:0:0:0:
136,380,36417,6,0,P|133:334|319:226,1,275,4|0,0:0|1:0,0:0:0:0:
353,322,36792,1,0,1:0:0:0:
353,322,36867,1,8,0:0:0:0:
44,269,37017,1,0,0:0:0:0:
461,289,37167,6,0,P|397:213|298:219,1,206.25,4|0,1:0|0:0,0:0:0:0:
353,322,37467,1,8,0:0:0:0:
368,55,37617,6,0,P|291:119|297:218,1,206.25,4|0,0:0|0:0,0:0:0:0:
392,164,37917,1,0,0:0:0:0:
207,25,38067,1,8,0:0:0:0:
227,381,38217,6,0,P|303:316|297:217,1,206.25,4|0,1:0|0:0,0:0:0:0:
206,274,38517,2,8,L|112:290,1,68.75
33,267,38667,1,8,0:0:0:0:
206,153,38817,6,0,P|227:89|207:25,1,137.5,4|0,0:0|0:0,0:0:0:0:
110,194,39117,5,12,0:0:0:0:
470,296,39267,1,12,0:0:0:0:
470,296,39417,2,0,L|383:283,1,68.75,0|0,1:0|1:0,1:0:0:0:
240,224,39567,5,12,0:0:0:0:
438,161,39717,1,0,1:0:0:0:
178,142,39867,5,8,0:0:0:0:
358,226,40017,1,0,1:0:0:0:
75,198,40167,5,8,0:0:0:0:
212,24,40317,1,0,1:0:0:0:
148,285,40467,5,8,0:0:0:0:
82,65,40617,1,0,1:0:0:0:
87,384,40767,5,8,0:0:0:0:
366,277,40917,1,0,1:0:0:0:
6,286,41067,5,8,0:0:0:0:
299,384,41217,1,0,1:0:0:0:
16,186,41367,6,0,P|73:151|153:162,1,137.5,8|0,0:0|0:0,0:0:0:0:
389,243,41667,1,8,3:0:0:0:
411,208,41742,1,0,3:0:0:0:
424,169,41817,1,0,3:0:0:0:
426,128,41892,1,0,3:0:0:0:
411,89,41967,6,0,B|386:74|375:51|375:51|329:86|329:86|283:65|220:91,1,206.25,12|0,0:0|0:0,0:0:0:0:
142,157,42267,1,8,0:0:0:0:
222,347,42417,1,0,1:0:0:0:
326,181,42567,1,8,0:0:0:0:
222,362,42717,1,0,1:0:0:0:
251,92,42867,5,8,0:0:0:0:
222,378,43017,1,0,1:0:0:0:
510,130,43167,6,0,P|448:182|302:166,1,206.25,12|0,0:0|0:0,0:0:0:0:
251,92,43467,1,8,0:0:0:0:
214,133,43542,1,8,0:0:0:0:
209,187,43617,5,8,3:2:0:0:
213,214,43692,1,0,3:0:0:0:
224,238,43767,1,0,3:0:0:0:
235,262,43842,1,0,3:0:0:0:
239,289,43917,1,0,3:0:0:0:
234,316,43992,1,0,3:0:0:0:
240,369,44067,5,2,3:0:0:0:
195,384,44142,1,2,3:0:0:0:
149,370,44217,1,2,3:0:0:0:
120,332,44292,1,2,3:0:0:0:
110,286,44367,6,0,P|138:226|219:190,1,137.5,12|0,0:0|0:0,0:0:0:0:
466,76,44667,2,0,P|414:115|338:116,1,137.5,12|0,0:0|1:0,0:0:0:0:
290,192,44892,1,0,1:0:0:0:
290,192,44967,2,0,L|282:269,1,68.75,8|0,1:2|0:0,0:0:0:0:
379,287,45117,2,0,L|371:218,1,68.75,8|0,0:0|0:0,0:0:0:0:
343,117,45267,1,0,3:0:0:0:
129,342,45417,6,0,B|91:296|91:296|99:175|99:175|62:112,1,242.000007385254,4|0,0:1|3:2,0:2:0:0:
192,253,45867,2,0,L|204:111,1,121.000003692627,8|0,0:2|3:2,0:2:0:0:
239,351,46167,1,0,1:2:0:0:
136,55,46317,1,0,3:2:0:0:
23,374,46467,1,8,0:2:0:0:
332,105,46617,6,0,P|357:158|366:237,1,121.000003692627,4|0,0:1|2:2,0:2:0:0:
235,4,46917,1,0,1:2:0:0:
497,180,47067,1,8,0:2:0:0:
233,205,47217,1,0,1:2:0:0:
233,205,47292,1,0,1:2:0:0:
233,205,47367,2,0,L|158:219,1,60.5000018463135,0|0,1:2|2:2,0:2:0:0:
76,161,47517,2,0,L|15:149,1,60.5000018463135,0|0,0:2|2:2,0:2:0:0:
140,325,47667,1,8,0:2:0:0:
481,353,47817,6,0,P|505:304|496:176,1,181.500005538941,4|0,0:1|2:2,0:2:0:0:
404,89,48117,1,0,1:2:0:0:
229,249,48267,1,8,0:2:0:0:
402,251,48417,1,0,1:2:0:0:
376,234,48492,1,0,1:2:0:0:
345,231,48567,1,0,1:2:0:0:
273,356,48717,1,0,0:2:0:0:
493,203,48867,1,8,0:2:0:0:
178,17,49017,6,0,P|152:70|144:149,1,121.000003692627,4|0,0:1|0:2,0:2:0:0:
356,49,49317,1,0,1:2:0:0:
326,40,49392,1,0,1:2:0:0:
296,31,49467,1,8,1:2:0:0:
49,32,49617,1,4,0:2:0:0:
272,134,49767,6,0,P|297:187|306:266,1,121.000003692627,0|0,1:2|1:2,0:2:0:0:
235,324,49992,1,0,1:2:0:0:
235,324,50067,1,8,1:2:0:0:
472,89,50217,6,0,B|501:146|501:146|489:193|489:193|521:258|488:319,1,242.000007385254,4|0,0:1|0:2,0:2:0:0:
360,34,50667,2,0,P|369:93|394:148,1,121.000003692627,8|0,1:2|1:2,0:2:0:0:
249,22,50967,1,0,1:2:0:0:
367,250,51117,1,0,0:2:0:0:
455,0,51267,1,8,0:2:0:0:
151,183,51417,6,0,B|135:112|135:112|148:66,1,121.000003692627,4|0,0:1|2:2,0:2:0:0:
116,283,51717,1,0,1:2:0:0:
43,18,51867,1,8,0:2:0:0:
250,121,52017,1,0,1:2:0:0:
250,121,52092,1,0,1:2:0:0:
250,121,52167,2,0,L|328:106,1,60.5000018463135,0|0,1:2|2:2,0:2:0:0:
410,72,52317,2,0,L|469:83,1,60.5000018463135,0|0,0:2|2:2,0:2:0:0:
510,259,52467,1,8,0:2:0:0:
168,297,52617,6,0,P|129:232|142:93,1,181.500005538941,4|0,0:1|2:2,0:2:0:0:
228,66,52917,1,0,1:2:0:0:
13,75,53067,1,8,0:2:0:0:
235,179,53217,2,0,P|262:178|305:156,1,60.5000018463135,4|0,0:2|2:2,0:2:0:0:
396,44,53367,2,0,P|369:45|326:67,1,60.5000018463135,0|0,1:2|2:2,0:2:0:0:
411,154,53517,1,0,1:2:0:0:
411,154,53592,1,0,1:2:0:0:
411,154,53667,2,0,L|426:296,1,121.000003692627,8|4,0:2|0:2,0:2:0:0:
229,384,53967,6,0,L|240:263,1,121.000003692627,0|0,0:2|1:2,0:2:0:0:
240,263,54192,1,0,1:2:0:0:
240,263,54267,1,8,1:2:0:0:
115,336,54417,1,0,0:2:0:0:
235,155,54567,2,0,L|305:148,1,60.5000018463135,8|0,0:2|2:2,0:2:0:0:
302,47,54717,2,0,L|372:40,1,60.5000018463135,8|0,0:2|2:2,0:2:0:0:
393,131,54867,1,8,0:2:0:0:
78,30,55017,6,0,B|46:89|46:89|63:158|63:158|38:276,1,242.000007385254,4|0,0:1|0:2,0:2:0:0:
168,105,55467,2,0,B|182:153|182:153|166:251,1,121.000003692627,8|0,0:2|0:2,0:2:0:0:
179,2,55767,1,0,1:2:0:0:
118,309,55917,1,0,1:2:0:0:
118,309,55992,1,0,1:2:0:0:
118,309,56067,2,0,L|192:317,1,60.5000018463135,8|0,1:2|2:2,0:2:0:0:
308,182,56217,6,0,P|333:238|324:318,1,121.000003692627,4|0,0:1|0:2,0:2:0:0:
190,160,56517,1,0,1:2:0:0:
435,170,56667,1,8,0:2:0:0:
309,73,56817,1,0,1:2:0:0:
309,73,56892,1,0,1:2:0:0:
309,73,56967,2,0,L|231:57,1,60.5000018463135,0|0,1:2|2:2,0:2:0:0:
151,16,57117,2,0,L|91:28,1,60.5000018463135,0|0,0:2|2:2,0:2:0:0:
308,182,57267,1,8,0:2:0:0:
23,119,57417,6,0,P|-2:175|7:255,1,121.000003692627,4|0,0:1|0:2,0:2:0:0:
166,114,57717,1,0,1:2:0:0:
166,114,57792,1,0,1:2:0:0:
166,114,57867,1,8,1:2:0:0:
92,307,58017,1,0,1:2:0:0:
273,194,58167,1,0,0:2:0:0:
15,91,58317,1,0,1:2:0:0:
23,119,58392,1,0,1:2:0:0:
31,147,58467,1,8,1:2:0:0:
365,35,58617,6,0,B|390:91|390:91|381:171,1,121.000003692627,4|0,1:0|0:2,0:2:0:0:
149,328,58917,1,0,1:2:0:0:
211,20,59067,1,8,0:2:0:0:
427,271,59217,1,4,0:2:0:0:
102,136,59367,2,0,P|65:136|27:150,1,60.5000018463135,0|0,0:2|0:2,0:2:0:0:
21,257,59517,1,0,1:2:0:0:
21,257,59592,1,0,1:2:0:0:
21,257,59667,1,8,1:2:0:0:
346,67,59817,6,0,B|379:119|379:119|343:161|343:161|365:197|334:294,1,242.000007385254,4|0,0:1|0:2,0:2:0:0:
467,75,60267,2,0,P|477:134|452:188,1,121.000003692627,8|0,0:2|0:2,0:2:0:0:
408,0,60567,1,0,1:2:0:0:
436,284,60717,1,0,0:2:0:0:
436,284,60792,1,0,0:2:0:0:
436,284,60867,1,8,0:2:0:0:
162,29,61017,6,0,P|138:83|139:143,1,121.000003692627,4|0,0:1|0:2,0:2:0:0:
197,300,61317,1,0,1:2:0:0:
345,76,61467,1,8,0:2:0:0:
332,334,61617,1,0,1:2:0:0:
332,334,61692,1,0,1:2:0:0:
332,334,61767,2,0,L|327:260,1,60.5000018463135,0|0,1:2|2:2,0:2:0:0:
226,147,61917,2,0,L|292:179,1,60.5000018463135,0|0,0:2|2:2,0:2:0:0:
394,182,62067,1,8,0:2:0:0:
53,334,62217,6,0,P|33:263|126:278,1,181.500005538941,4|0,0:1|2:2,0:2:0:0:
150,353,62517,1,0,0:2:0:0:
226,146,62667,1,8,0:2:0:0:
239,87,62742,1,8,0:2:0:0:
290,50,62817,1,8,0:2:0:0:
349,41,62892,1,8,0:2:0:0:
400,69,62967,5,2,3:0:0:0:
372,78,63042,1,2,3:0:0:0:
342,78,63117,1,2,3:0:0:0:
313,68,63192,1,2,3:0:0:0:
290,50,63267,5,8,1:2:0:0:
239,17,63342,1,8,0:2:0:0:
180,19,63417,1,8,0:2:0:0:
131,53,63492,1,8,0:2:0:0:
110,109,63567,6,0,L|119:221,1,60.5000018463135,0|0,0:2|0:2,0:2:0:0:
370,212,63717,2,0,L|361:323,1,60.5000018463135,0|0,0:2|0:2,0:2:0:0:
263,295,63867,1,2,3:0:0:0:
233,302,63942,1,2,3:0:0:0:
204,300,64017,1,2,3:0:0:0:
176,287,64092,1,2,3:0:0:0:
155,266,64167,5,8,3:2:0:0:
369,2,64317,1,8,0:2:0:0:
337,384,64467,1,8,0:2:0:0:
95,54,64617,1,8,0:2:0:0:
255,191,64767,5,4,3:2:0:0:
255,191,65067,5,0,3:0:0:0:
255,191,65367,5,0,3:0:0:0:
255,191,65517,1,0,3:0:0:0:
255,191,65817,5,0,3:0:0:0:
255,191,66117,5,0,3:0:0:0:
255,191,66417,5,0,3:0:0:0:
395,102,66567,5,8,0:1:0:0:
117,102,66717,1,8,0:1:0:0:
436,282,66867,1,8,0:1:0:0:
75,282,67017,1,8,0:1:0:0:
255,191,67167,5,2,3:2:0:0:
257,179,67242,1,2,3:0:0:0:
260,167,67317,1,2,3:0:0:0:
405,188,67467,2,0,P|424:233|437:289,1,98.9999969787599,2|0,0:0|0:0,0:0:0:0:
303,298,67767,1,14,0:0:0:0:
353,67,67917,1,0,1:0:0:0:
343,84,68217,5,0,3:2:0:0:
349,107,68292,1,0,3:2:0:0:
355,130,68367,1,10,3:2:0:0:
236,140,68517,5,0,3:2:0:0:
229,162,68592,1,0,3:2:0:0:
223,185,68667,1,2,3:2:0:0:
115,134,68817,5,0,3:2:0:0:
98,152,68892,1,0,3:0:0:0:
86,173,68967,1,8,3:2:0:0:
81,197,69042,1,0,3:0:0:0:
83,221,69117,1,2,3:2:0:0:
91,244,69192,1,0,3:0:0:0:
104,264,69267,5,2,3:0:0:0:
113,312,69342,1,2,3:0:0:0:
96,358,69417,1,2,3:0:0:0:
48,373,69492,1,2,3:0:0:0:
3,346,69567,6,0,B|11:289|11:289|45:249,1,110,12|2,0:0|0:0,0:0:0:0:
227,62,69867,1,0,3:0:0:0:
14,353,70017,2,0,B|22:296|22:296|56:256,1,110,12|2,0:0|0:0,0:0:0:0:
242,59,70317,1,0,3:0:0:0:
25,360,70467,2,0,B|33:303|33:303|67:263,1,110,12|2,0:0|0:0,0:0:0:0:
254,319,70767,5,0,1:0:0:0:
249,304,70842,1,0,1:0:0:0:
244,289,70917,1,0,1:0:0:0:
238,274,70992,1,0,1:0:0:0:
217,252,71067,6,0,L|326:261,1,110,14|0,0:0|0:0,0:0:0:0:
129,138,71367,1,14,0:0:0:0:
268,130,71517,1,0,1:0:0:0:
133,156,71667,1,2,3:2:0:0:
337,44,71817,1,0,1:0:0:0:
327,262,71967,6,0,P|341:320|377:370,1,110,12|2,0:0|0:0,0:0:0:0:
240,38,72267,1,0,3:0:0:0:
315,270,72417,2,0,P|323:329|355:382,1,110,12|2,0:0|0:0,0:0:0:0:
237,22,72717,1,0,3:0:0:0:
303,278,72867,2,0,P|306:338|333:393,1,110,12|2,0:0|0:0,0:0:0:0:
114,191,73167,5,0,1:0:0:0:
130,187,73242,1,0,1:0:0:0:
146,183,73317,1,0,1:0:0:0:
162,179,73392,1,0,1:0:0:0:
202,181,73467,6,0,L|176:297,1,110,14|0,0:0|0:0,0:0:0:0:
354,200,73767,1,14,1:2:0:0:
328,155,73867,1,0,1:0:0:0:
341,105,73967,1,0,1:0:0:0:
339,53,74067,1,0,1:0:0:0:
300,18,74167,1,0,1:0:0:0:
249,25,74267,1,0,1:0:0:0:
225,70,74367,6,0,B|205:91|205:116|205:116|179:91|125:77|57:106,1,165,6|0,0:0|0:0,0:0:0:0:
230,81,74667,2,0,B|210:102|210:129|210:129|185:106|130:88|75:117,1,165,2|0,0:0|0:0,0:0:0:0:
19,38,74967,1,12,0:0:0:0:
135,207,75117,1,0,1:0:0:0:
125,224,75417,6,0,P|173:240|297:216,1,165,2|0,3:2|0:0,0:0:0:0:
338,169,75717,1,8,0:0:0:0:
338,169,75867,2,0,P|329:226|359:303,1,110,2|0,0:0|1:0,0:0:0:0:
403,28,76167,6,0,P|334:66|229:49,1,165,10|0,0:0|0:0,0:0:0:0:
179,28,76467,2,0,P|243:78|324:84,1,165,2|0,0:0|0:0,0:0:0:0:
338,169,76767,6,0,B|343:288|343:288|285:230,1,165,6|0,3:2|0:0,0:0:0:0:
243,173,77067,1,2,3:2:0:0:
243,173,77217,1,0,1:0:0:0:
441,343,77367,5,12,0:0:0:0:
237,337,77517,1,0,1:0:0:0:
223,352,77817,5,0,3:0:0:0:
441,343,77967,1,14,0:0:0:0:
395,177,78117,1,0,1:0:0:0:
395,177,78192,1,0,1:0:0:0:
395,177,78267,1,0,1:0:0:0:
326,283,78417,1,0,3:0:0:0:
466,87,78567,6,0,P|429:68|291:101,1,165,14|0,0:0|0:0,0:0:0:0:
212,201,78867,5,2,3:0:0:0:
179,201,78942,1,2,3:0:0:0:
147,193,79017,1,2,3:0:0:0:
118,178,79092,1,2,3:0:0:0:
86,141,79167,6,0,P|70:180|59:269,1,110,12|2,0:0|0:0,0:0:0:0:
303,17,79467,1,0,3:0:0:0:
35,206,79617,2,0,P|30:247|42:336,1,110,12|2,0:0|0:0,0:0:0:0:
240,84,79917,1,0,3:0:0:0:
4,276,80067,2,0,P|10:317|44:400,1,110,12|2,0:0|0:0,0:0:0:0:
274,209,80367,5,0,1:0:0:0:
271,225,80442,1,0,1:0:0:0:
269,241,80517,1,0,1:0:0:0:
267,257,80592,1,0,1:0:0:0:
277,288,80667,6,0,L|164:255,1,110,14|0,0:0|0:0,0:0:0:0:
289,70,80967,2,0,L|402:37,1,110,14|0,0:0|0:0,0:0:0:0:
423,206,81267,1,0,3:0:0:0:
423,206,81417,1,0,1:0:0:0:
78,162,81567,6,0,P|49:116|56:62,1,110,12|2,0:0|0:0,0:0:0:0:
43,300,81867,1,0,3:0:0:0:
180,13,82017,6,0,P|233:11|276:43,1,110,12|2,0:0|0:0,0:0:0:0:
6,14,82317,1,0,3:0:0:0:
258,175,82467,6,0,P|232:222|182:243,1,110,12|2,0:0|0:0,0:0:0:0:
162,129,82767,1,8,3:2:0:0:
353,229,82917,1,0,1:0:0:0:
353,229,82992,1,0,1:0:0:0:
353,229,83067,2,0,L|438:239,1,55,0|0,3:0|0:0,0:0:0:0:
350,122,83217,2,0,L|435:132,1,55,0|0,3:0|0:0,0:0:0:0:
356,20,83367,5,10,3:2:0:0:
258,175,83517,1,0,1:0:0:0:
258,175,83592,1,0,1:0:0:0:
258,175,83667,1,0,1:0:0:0:
258,70,83817,1,2,3:2:0:0:
164,1,83967,6,0,L|147:91,1,82.5000031471254,6|0,1:2|0:0,0:0:0:0:
131,185,84267,1,0,1:0:0:0:
136,209,84417,1,0,0:0:0:0:
210,267,84567,2,0,L|300:284,1,82.5000031471254,2|0,1:2|0:0,0:0:0:0:
392,283,84867,2,0,L|311:268,1,82.5000031471254,0|0,1:0|0:0,0:0:0:0:
285,180,85167,5,2,1:2:0:0:
279,155,85317,1,0,0:0:0:0:
233,63,85467,2,0,L|126:73,1,82.5000031471254,0|0,1:2|0:0,0:0:0:0:
81,150,85767,1,2,1:2:0:0:
75,175,85917,1,0,0:0:0:0:
183,195,86067,1,0,1:0:0:0:
184,170,86217,1,0,0:0:0:0:
335,47,86367,6,0,L|421:59,1,82.5000031471254,2|0,1:2|0:0,0:0:0:0:
368,137,86667,1,0,1:0:0:0:
374,160,86817,1,0,0:0:0:0:
413,277,86967,2,0,L|331:265,1,82.5000031471254,2|0,1:2|0:0,0:0:0:0:
231,236,87267,2,0,L|313:248,1,82.5000031471254,0|0,1:0|0:0,0:0:0:0:
140,306,87567,6,0,P|119:240|159:146,1,165,6|0,1:2|0:0,0:0:0:0:
247,134,87867,1,8,0:1:0:0:
276,147,87942,1,8,0:1:0:0:
309,153,88017,1,8,0:1:0:0:
342,150,88092,1,8,0:1:0:0:
372,138,88167,2,0,L|411:118,1,41.2500015735627,8|0,1:0|3:0,0:0:0:0:
358,45,88317,2,0,L|321:63,1,41.2500015735627,0|0,3:0|3:0,3:0:0:0:
359,239,88467,1,0,1:0:0:0:
381,251,88542,1,0,1:0:0:0:
403,262,88617,2,0,L|439:280,1,41.2500015735627,0|0,1:0|3:0,0:0:0:0:
193,212,88767,6,0,L|86:236,1,82.5000031471254,6|0,0:0|0:0,0:0:0:0:
200,307,89067,1,0,1:0:0:0:
200,331,89217,1,0,3:0:0:0:
278,257,89367,2,0,L|358:238,1,82.5000031471254,2|0,0:0|0:0,0:0:0:0:
446,196,89667,1,2,0:0:0:0:
366,215,89817,1,2,1:2:0:0:
455,111,89967,6,0,L|473:30,1,82.5000031471254,4|0,0:0|1:0,0:0:0:0:
473,30,90192,1,0,1:0:0:0:
473,30,90267,1,0,1:0:0:0:
446,196,90417,1,0,3:0:0:0:
245,120,90567,2,0,L|164:101,1,82.5000031471254,10|0,0:1|0:0,0:0:0:0:
73,123,90867,1,2,3:2:0:0:
50,132,91017,1,0,1:0:0:0:
216,24,91167,5,2,1:2:0:0:
216,24,91242,1,0,1:0:0:0:
216,24,91317,1,0,1:0:0:0:
153,196,91467,1,2,3:2:0:0:
100,23,91617,1,0,1:0:0:0:
245,120,91767,6,0,L|325:101,1,82.5000031471254,2|0,0:0|0:0,0:0:0:0:
152,102,92067,1,2,3:2:0:0:
345,117,92217,1,2,1:2:0:0:
91,252,92367,6,0,P|35:278|136:303,1,247.500009441376,4|0,0:0|0:0,0:0:0:0:
173,247,92667,2,0,P|223:211|194:311,1,247.500009441376,4|0,0:0|0:0,0:0:0:0:
133,320,92967,5,8,0:0:0:0:
133,320,93567,6,0,P|93:269|172:114,1,206.25,4|0,1:0|0:0,0:0:0:0:
215,55,93867,1,8,0:0:0:0:
312,309,94017,6,0,P|261:349|106:270,1,206.25,4|0,0:0|0:0,0:0:0:0:
217,227,94317,1,0,1:0:0:0:
453,351,94467,1,8,0:0:0:0:
122,140,94617,6,0,P|173:100|328:179,1,206.25,4|0,1:0|0:0,0:0:0:0:
389,222,94917,1,0,1:0:0:0:
188,0,95067,1,8,0:0:0:0:
64,243,95217,6,0,B|26:303|26:303|215:227,1,275,4|0,0:0|1:0,0:0:0:0:
301,129,95592,1,0,1:0:0:0:
301,129,95667,1,8,0:0:0:0:
209,361,95817,1,0,1:0:0:0:
239,32,95967,6,0,B|308:13|308:13|443:86,1,206.25,4|0,1:0|0:0,0:0:0:0:
485,177,96267,1,8,0:0:0:0:
239,32,96417,6,0,B|110:70|110:70|75:133,1,206.25,4|0,0:0|0:0,0:0:0:0:
46,260,96717,1,0,1:0:0:0:
301,129,96867,1,8,0:0:0:0:
111,359,97017,6,0,B|165:312|165:312|183:160,1,206.25,4|0,1:0|0:0,0:0:0:0:
105,70,97317,2,8,L|74:131,1,68.75
46,260,97467,1,8,0:0:0:0:
352,131,97617,6,0,L|216:84,1,137.5,4|0,0:0|0:0,0:0:0:0:
264,308,97917,1,2,3:0:0:0:
297,284,97992,1,2,3:0:0:0:
333,265,98067,1,8,3:2:0:0:
373,253,98142,1,2,3:0:0:0:
413,247,98217,1,2,3:0:0:0:
455,249,98292,1,2,3:0:0:0:
494,262,98367,5,12,0:0:0:0:
450,149,98517,1,0,1:0:0:0:
231,231,98667,5,8,0:0:0:0:
339,186,98817,1,0,1:0:0:0:
407,349,98967,5,8,0:0:0:0:
339,186,99117,1,0,1:0:0:0:
176,254,99267,5,8,0:0:0:0:
339,186,99417,1,0,1:0:0:0:
293,377,99567,5,8,0:0:0:0:
239,127,99717,1,0,1:0:0:0:
16,307,99867,5,8,0:0:0:0:
266,253,100017,1,0,1:0:0:0:
95,73,100167,6,0,L|109:140,1,68.75,8|0,0:0|0:0,0:0:0:0:
133,240,100317,1,0,1:0:0:0:
339,186,100467,5,2,3:0:0:0:
377,153,100542,1,2,3:0:0:0:
388,104,100617,1,2,3:0:0:0:
367,58,100692,1,2,3:0:0:0:
322,34,100767,6,0,P|262:45|270:185,1,206.25,8|0,0:0|0:0,0:0:0:0:
339,186,101067,1,8,0:0:0:0:
141,46,101217,1,0,1:0:0:0:
355,189,101367,5,8,0:0:0:0:
140,297,101517,1,0,1:0:0:0:
371,192,101667,5,8,0:0:0:0:
57,170,101817,1,0,1:0:0:0:
317,77,101967,5,4,3:1:0:0:
364,64,102042,1,2,3:0:0:0:
409,84,102117,1,2,3:0:0:0:
433,127,102192,1,8,3:0:0:0:
416,174,102267,1,8,3:0:0:0:
371,192,102342,1,8,3:0:0:0:
321,183,102417,5,4,3:1:0:0:
281,154,102492,1,2,3:0:0:0:
233,142,102567,1,2,3:0:0:0:
184,147,102642,1,8,3:0:0:0:
140,167,102717,1,8,3:0:0:0:
97,190,102792,1,8,3:0:0:0:
55,167,102867,5,4,3:1:0:0:
55,118,102942,1,0,3:0:0:0:
97,94,103017,1,2,3:0:0:0:
138,117,103092,1,2,3:0:0:0:
140,167,103167,1,2,3:0:0:0:
121,213,103242,1,2,3:0:0:0:
126,260,103317,5,8,3:2:0:0:
155,311,103392,1,8,3:2:0:0:
210,335,103467,1,8,3:2:0:0:
269,322,103542,1,8,3:2:0:0:
308,277,103617,1,8,3:2:0:0:
312,217,103692,1,8,3:2:0:0:
275,168,103767,6,0,P|241:143|197:136,1,68.75,8|0,0:2|1:0,0:0:0:0:
124,103,103917,2,0,P|119:136|127:170,1,68.75,0|0,1:0|1:0,1:0:0:0:
143,265,104067,2,0,P|174:253|200:230,1,68.75
451,110,104217,6,0,B|483:171|444:231|444:231|412:284|454:345,1,242.000007385254,4|0,0:1|0:2,0:2:0:0:
355,45,104667,2,0,P|335:100|345:159,1,121.000003692627,8|0,0:2|0:2,0:2:0:0:
249,0,104967,1,0,1:2:0:0:
330,275,105117,1,0,0:2:0:0:
458,14,105267,1,8,0:2:0:0:
171,235,105417,6,0,P|149:181|154:97,1,121.000003692627,4|0,0:1|0:2,0:2:0:0:
237,337,105717,1,0,1:2:0:0:
35,138,105867,1,8,0:2:0:0:
265,103,106017,1,0,1:2:0:0:
265,103,106092,1,0,1:2:0:0:
265,103,106167,2,0,P|292:111|349:113,1,60.5000018463135,0|0,1:2|2:2,0:2:0:0:
453,20,106317,2,0,P|425:28|369:30,1,60.5000018463135,0|0,0:2|2:2,0:2:0:0:
181,22,106467,1,8,0:2:0:0:
428,135,106617,6,0,P|428:195|350:296,1,181.500005538941,4|0,0:1|0:2,0:2:0:0:
244,238,106917,1,0,1:2:0:0:
393,31,107067,1,8,0:2:0:0:
359,290,107217,1,0,1:2:0:0:
354,325,107292,1,0,1:2:0:0:
348,360,107367,1,0,1:2:0:0:
344,157,107517,1,0,1:2:0:0:
510,306,107667,1,8,0:2:0:0:
152,129,107817,6,0,P|156:69|188:18,1,121.000003692627,4|0,0:1|0:2,0:2:0:0:
182,236,108117,2,0,P|195:280|193:335,1,60.5000018463135,0|0,1:2|2:2,0:2:0:0:
138,378,108267,1,8,0:2:0:0:
257,159,108417,1,4,0:2:0:0:
69,213,108567,2,0,P|25:226|-30:224,1,60.5000018463135,0|0,0:2|2:2,0:2:0:0:
13,126,108717,1,0,1:2:0:0:
13,126,108792,1,0,1:2:0:0:
13,126,108867,1,8,0:2:0:0:
400,112,109017,6,0,B|423:186|423:186|404:275|404:275|435:362,1,242.000007385254,4|0,0:1|0:2,0:2:0:0:
268,72,109467,2,0,L|304:192,1,121.000003692627,8|0,0:2|0:2,0:2:0:0:
363,0,109767,1,0,1:2:0:0:
511,273,109917,1,0,1:2:0:0:
151,144,110067,1,8,0:2:0:0:
480,156,110217,6,0,B|497:102|497:102|479:38,1,121.000003692627,4|0,0:1|0:2,0:2:0:0:
511,273,110517,1,0,0:2:0:0:
346,13,110667,1,8,0:2:0:0:
367,290,110817,2,0,L|379:207,1,60.5000018463135,0|0,1:2|1:2,1:2:0:0:
391,108,110967,2,0,L|258:138,1,121.000003692627,0|0,0:2|1:2,0:2:0:0:
270,235,111192,1,0,1:2:0:0:
270,235,111267,1,8,0:2:0:0:
79,29,111417,6,0,P|38:70|21:195,1,181.500005538941,4|0,0:1|0:2,0:2:0:0:
8,306,111717,1,0,1:2:0:0:
126,130,111867,1,8,0:2:0:0:
194,384,112017,2,0,P|207:353|205:313,1,60.5000018463135,4|0,0:2|2:2,0:2:0:0:
102,228,112167,2,0,P|103:258|115:285,1,60.5000018463135,0|0,0:2|2:2,0:2:0:0:
211,234,112317,1,0,1:2:0:0:
211,234,112392,1,0,1:2:0:0:
211,234,112467,1,8,1:2:0:0:
18,187,112617,1,4,0:2:0:0:
346,254,112767,6,0,P|349:204|317:113,1,121.000003692627,0|0,0:2|1:2,0:2:0:0:
330,136,112992,1,0,1:2:0:0:
330,136,113067,1,8,1:2:0:0:
437,320,113217,1,0,0:2:0:0:
436,149,113367,2,0,L|447:89,1,60.5000018463135,8|0,0:2|2:2,0:2:0:0:
239,133,113516,2,0,L|227:73,1,60.5000018463135,8|0,0:2|2:2,0:2:0:0:
337,30,113667,1,8,0:2:0:0:
62,281,113817,6,0,B|30:220|69:160|69:160|101:107|59:46,1,242.000007385254,4|0,0:1|0:2,0:2:0:0:
143,348,114267,2,0,P|163:291|152:233,1,121.000003692627,8|0,0:2|0:2,0:2:0:0:
37,384,114567,1,0,1:2:0:0:
169,135,114717,1,0,1:2:0:0:
169,135,114792,1,0,1:2:0:0:
169,135,114867,2,0,L|241:148,1,60.5000018463135,8|0,0:2|2:2,0:2:0:0:
439,46,115017,6,0,B|458:105|458:105|437:183,1,121.000003692627,4|0,0:1|0:2,0:2:0:0:
263,269,115317,1,0,1:2:0:0:
328,58,115467,1,8,0:2:0:0:
432,255,115617,1,0,1:2:0:0:
432,255,115692,1,0,1:2:0:0:
432,255,115767,2,0,L|361:237,1,60.5000018463135,0|0,1:2|2:2,0:2:0:0:
275,168,115917,2,0,L|346:150,1,60.5000018463135,0|0,0:2|2:2,0:2:0:0:
456,352,116067,1,8,0:2:0:0:
143,183,116217,6,0,P|123:242|128:349,1,121.000003692627,4|0,0:1|0:2,0:2:0:0:
205,58,116517,2,0,P|233:48|303:43,1,60.5000018463135,0|0,1:2|2:2,0:2:0:0:
275,168,116667,2,0,P|269:197|238:260,1,60.5000018463135,8|0,0:2|2:2,0:2:0:0:
143,183,116817,2,0,P|120:163|81:105,1,60.5000018463135,0|0,0:2|2:2,0:2:0:0:
55,255,116967,1,0,1:2:0:0:
51,285,117042,1,0,1:2:0:0:
45,314,117117,2,0,L|34:373,1,60.5000018463135,0|0,1:2|0:2,0:2:0:0:
0,178,117267,1,8,0:2:0:0:
367,299,117417,6,0,B|385:237|385:237|366:166,1,121.000003692627,4|0,0:1|0:2,0:2:0:0:
145,66,117717,1,0,1:2:0:0:
172,369,117867,1,8,0:2:0:0:
335,61,118017,1,4,0:2:0:0:
52,244,118167,2,0,P|37:216|30:169,1,60.5000018463135,0|0,0:2|2:2,0:2:0:0:
32,68,118317,1,0,1:2:0:0:
32,68,118392,1,0,1:2:0:0:
32,68,118467,1,8,1:2:0:0:
312,154,118617,6,0,B|305:184|305:184|332:231|332:231|287:271|277:320|310:376,1,242.000007385254,4|0,0:1|0:2,0:2:0:0:
223,103,119067,2,0,P|204:161|207:221,1,121.000003692627,8|0,0:2|0:2,0:2:0:0:
314,27,119367,1,0,1:2:0:0:
397,325,119517,1,0,1:2:0:0:
397,325,119592,1,0,1:2:0:0:
397,325,119667,1,8,1:2:0:0:
103,164,119817,6,0,P|107:224|139:275,1,121.000003692627,4|0,0:1|0:2,0:2:0:0:
160,54,120117,1,0,1:2:0:0:
223,361,120267,1,8,0:2:0:0:
278,82,120417,2,0,L|258:173,1,60.5000018463135,0|0,0:2|2:2,0:2:0:0:
299,291,120567,2,0,L|230:228,1,60.5000018463135,0|0,0:2|2:2,0:2:0:0:
162,182,120717,1,0,1:2:0:0:
162,182,120792,1,0,1:2:0:0:
162,182,120867,1,8,1:2:0:0:
487,165,121017,6,0,B|497:109|497:109|470:35,1,121.000003692627,4|0,0:1|0:2,0:2:0:0:
440,290,121317,1,4,1:2:0:0:
407,333,121392,1,4,1:2:0:0:
353,340,121467,2,0,P|317:329|276:289,1,60.5000018463135,4|0,1:2|2:2,0:2:0:0:
203,220,121617,2,0,P|239:228|295:214,1,60.5000018463135,0|0,0:2|2:2,0:2:0:0:
371,233,121767,5,8,0:2:0:0:
410,187,121842,1,8,0:2:0:0:
412,126,121917,1,8,0:2:0:0:
374,78,121992,1,8,0:2:0:0:
314,65,122067,1,8,0:2:0:0:
259,91,122142,1,8,0:2:0:0:
235,146,122217,2,0,P|236:180|257:218,1,60.5000018463135,8|0,0:2|0:2,0:2:0:0:
212,357,122367,5,0,0:2:0:0:
325,153,122517,1,4,1:2:0:0:
339,205,122592,1,4,1:2:0:0:
328,258,122667,2,0,P|305:280|261:289,1,60.5000018463135,4|0,0:2|2:2,0:2:0:0:
184,272,122817,2,0,P|155:261|134:240,1,60.5000018463135,0|0,0:2|2:2,0:2:0:0:
192,60,122967,5,8,0:2:0:0:
241,25,123042,1,8,0:2:0:0:
301,19,123117,1,8,0:2:0:0:
358,39,123192,1,8,0:2:0:0:
392,88,123267,6,0,L|404:159,1,60.5000018463135,0|0,0:2|2:2,0:2:0:0:
413,252,123417,2,0,L|401:323,1,60.5000018463135,0|0,0:2|2:2,0:2:0:0:
283,137,123567,6,0,P|234:118|174:117,1,98.9999969787599,14|0,0:2|0:2,0:2:0:0:
212,213,123867,1,0,3:2:0:0:
212,213,124017,1,0,1:2:0:0:
409,212,124167,2,0,P|360:230|300:232,1,98.9999969787599,2|0,0:2|0:2,0:2:0:0:
18,211,124467,6,0,L|127:197,1,98.9999969787599,10|0,0:2|0:2,0:2:0:0:
317,224,124767,1,0,1:2:0:0:
313,233,124842,1,0,1:2:0:0:
309,242,124917,1,0,1:2:0:0:
305,251,124992,1,0,1:2:0:0:
301,260,125067,2,0,P|298:309|309:357,1,98.9999969787599,2|0,1:2|1:2,1:2:0:0:
431,209,125367,6,0,P|434:160|423:112,1,98.9999969787599,6|0,0:2|0:2,0:2:0:0:
317,224,125667,1,0,3:2:0:0:
457,307,125817,1,0,1:2:0:0:
324,116,125967,1,2,1:2:0:0:
324,116,126042,1,0,1:2:0:0:
324,116,126117,1,0,1:2:0:0:
201,288,126267,6,0,L|103:302,1,98.9999969787599,10|0,0:2|0:2,0:2:0:0:
145,198,126567,1,4,3:2:0:0:
208,109,126717,1,0,1:2:0:0:
285,353,126867,1,2,3:2:0:0:
48,178,127017,1,2,1:2:0:0:
315,133,127167,6,0,L|417:128,1,98.9999969787599,10|0,0:2|1:2,0:2:0:0:
413,128,127392,1,0,1:2:0:0:
413,128,127467,1,2,1:2:0:0:
346,229,127617,1,0,1:2:0:0:
491,217,127767,1,6,3:2:0:0:
414,29,127917,1,0,1:2:0:0:
241,227,128067,6,0,L|228:344,1,98.9999969787599,10|0,0:2|0:2,0:2:0:0:
199,132,128367,1,0,1:2:0:0:
197,117,128442,1,0,1:2:0:0:
195,102,128517,1,0,1:2:0:0:
194,87,128592,1,0,1:2:0:0:
192,72,128667,1,14,0:2:0:0:
120,218,128817,1,0,1:2:0:0:
301,73,128967,6,0,P|345:71|408:97,1,98.9999969787599,14|0,0:2|0:2,0:2:0:0:
455,187,129267,1,2,1:2:0:0:
458,196,129342,1,2,1:2:0:0:
462,204,129417,1,2,1:2:0:0:
337,168,129567,2,0,L|272:183,3,49.4999984893799,0|0|2|0,3:2|3:2|3:2|3:2,3:2:0:0:
216,239,129867,6,0,L|202:354,1,98.9999969787599,14|0,0:2|0:2,0:2:0:0:
124,362,130092,1,2,1:2:0:0:
124,362,130167,2,0,L|189:350,1,49.4999984893799,2|0,1:2|0:2,1:2:0:0:
304,308,130317,2,0,P|330:289|403:286,1,98.9999969787599,12|0,0:2|0:2,0:2:0:0:
437,355,130542,1,2,1:2:0:0:
437,355,130617,2,0,L|423:288,1,49.4999984893799,2|0,1:2|0:2,1:2:0:0:
414,53,130767,6,0,P|368:48|309:75,1,98.9999969787599,14|0,0:2|0:2,0:2:0:0:
378,147,131067,1,0,3:2:0:0:
378,147,131217,1,0,1:2:0:0:
187,175,131367,2,0,P|233:180|292:153,1,98.9999969787599,6|0,0:2|0:2,0:2:0:0:
475,163,131667,6,0,L|347:142,1,98.9999969787599,10|2,0:2|0:2,0:2:0:0:
434,261,131967,1,0,1:2:0:0:
436,270,132042,1,0,1:2:0:0:
438,279,132117,1,0,1:2:0:0:
440,288,132192,1,0,1:2:0:0:
442,297,132267,2,0,P|410:321|332:345,1,98.9999969787599,2|0,3:2|0:2,0:2:0:0:
127,272,132567,6,0,B|169:245|169:245|232:237,1,98.9999969787599,10|0,0:2|0:2,0:2:0:0:
94,381,132867,1,0,3:2:0:0:
83,175,133017,1,0,1:2:0:0:
210,344,133167,1,6,0:2:0:0:
210,344,133242,1,0,0:2:0:0:
210,344,133317,1,0,0:2:0:0:
275,118,133467,6,0,B|226:127|226:127|184:157,1,98.9999969787599,14|0,0:2|0:2,0:2:0:0:
273,220,133767,1,0,3:2:0:0:
373,294,133917,1,0,1:2:0:0:
193,297,134067,1,6,3:2:0:0:
433,204,134217,1,0,1:2:0:0:
165,100,134367,6,0,L|47:89,1,98.9999969787599,14|0,0:2|1:2,0:2:0:0:
66,90,134592,1,0,1:2:0:0:
66,90,134667,1,0,3:2:0:0:
172,1,134817,1,0,1:2:0:0:
263,88,134967,1,6,3:2:0:0:
194,227,135117,1,0,1:2:0:0:
375,65,135267,6,0,P|419:48|480:54,1,98.9999969787599,10|0,0:2|0:2,0:2:0:0:
341,180,135567,1,4,1:2:0:0:
340,189,135642,1,0,1:2:0:0:
341,198,135717,1,0,1:2:0:0:
341,207,135792,1,0,1:2:0:0:
343,216,135867,1,2,3:2:0:0:
439,148,136017,1,0,1:2:0:0:
239,221,136167,6,0,P|241:272|265:329,1,98.9999969787599,14|0,0:2|0:2,0:2:0:0:
194,115,136467,1,2,3:0:0:0:
234,108,136542,1,2,3:0:0:0:
273,115,136617,1,2,3:0:0:0:
307,136,136692,1,2,3:0:0:0:
331,168,136767,2,0,P|341:203|342:241,1,49.4999984893799,2|0,3:2|1:0,0:0:0:0:
257,316,136917,2,0,P|246:351|246:389,1,49.4999984893799,2|0,3:0|1:0,0:0:0:0:
444,273,137067,6,0,B|457:218|457:218|414:71,1,181.500005538941,12|0,0:0|0:0,0:0:0:0:
417,0,137367,2,0,B|362:15|362:15|257:126,1,181.500005538941,12|0,0:0|0:0,0:0:0:0:
194,159,137667,2,0,B|234:197|234:197|383:234,1,181.500005538941,12|0,0:0|0:0,0:0:0:0:
364,141,137967,5,0,3:0:0:0:
290,147,142767,6,0,B|227:133|227:133|90:191,1,165,2|0,0:2|0:2,0:2:0:0:
64,248,143067,1,0,3:2:0:0:
64,248,143217,1,0,1:2:0:0:
235,231,143367,5,14,0:2:0:0:
255,332,143517,2,0,P|201:329|155:300,1,110,0|2,1:2|0:2,0:2:0:0:
388,175,143817,5,0,3:2:0:0:
415,222,143892,1,0,3:2:0:0:
407,276,143967,1,4,0:2:0:0:
316,104,144117,5,0,3:2:0:0:
289,151,144192,1,0,3:2:0:0:
297,205,144267,1,2,0:2:0:0:
421,82,144417,5,0,1:2:0:0:
421,82,144492,1,0,1:2:0:0:
421,82,144567,1,8,1:2:0:0:
334,11,144717,1,0,1:2:0:0:
437,101,144867,1,0,3:2:0:0:
224,36,145017,1,0,1:2:0:0:
260,270,145167,6,0,P|225:303|110:301,1,165,6|0,0:2|0:2,0:2:0:0:
261,281,145467,2,0,P|226:314|111:312,1,165,0|0,3:2|0:2,0:2:0:0:
32,202,145767,5,8,0:2:0:0:
283,188,145917,1,8,0:2:0:0:
264,178,146217,6,0,P|316:151|370:148,1,110,2|0,3:2|0:2,0:2:0:0:
169,139,146517,5,0,1:2:0:0:
166,171,146592,1,0,1:2:0:0:
162,203,146667,1,2,1:2:0:0:
346,264,146817,1,0,3:2:0:0:
211,3,146967,6,0,P|174:72|173:157,1,146.666666666667,12|0,0:0|0:0,0:0:0:0:
333,225,147267,2,0,L|247:180,2,73.3333333333333,2|2|2,3:0|3:0|3:0,3:0:0:0:
179,225,147567,6,0,P|140:241|42:246,1,110,12|2,0:0|0:0,0:0:0:0:
257,23,147867,1,0,1:0:0:0:
333,225,148017,2,0,P|371:241|470:246,1,110,12|2,0:0|0:0,0:0:0:0:
257,2,148317,1,0,1:0:0:0:
257,274,148467,2,0,L|257:385,1,110,12|2,0:0|0:0,0:0:0:0:
173,154,148767,5,0,1:0:0:0:
189,151,148842,1,0,1:0:0:0:
205,148,148917,1,0,1:0:0:0:
221,145,148992,1,0,1:0:0:0:
241,158,149067,6,0,B|260:109|260:109|232:27,1,110,14|0,0:0|0:0,0:0:0:0:
377,170,149367,2,0,B|358:219|358:219|386:301,1,110,14|0,0:0|0:0,0:0:0:0:
259,274,149667,1,2,3:0:0:0:
259,274,149817,1,0,1:0:0:0:
363,58,149967,6,0,L|476:36,1,110,12|2,0:0|0:0,0:0:0:0:
259,298,150267,1,0,3:0:0:0:
149,58,150417,2,0,L|36:36,1,110,12|2,0:0|0:0,0:0:0:0:
259,322,150717,1,0,3:0:0:0:
256,97,150867,2,0,L|256:-16,1,110,12|2,0:0|0:0,0:0:0:0:
133,239,151167,5,0,1:0:0:0:
129,222,151242,1,0,1:0:0:0:
125,205,151317,1,0,1:0:0:0:
121,188,151392,1,0,1:0:0:0:
96,169,151467,6,0,P|146:166|221:208,1,110,14|0,0:0|0:0,0:0:0:0:
391,93,151767,1,14,1:2:0:0:
347,66,151867,1,0,1:0:0:0:
301,91,151967,1,0,1:0:0:0:
296,143,152067,1,0,1:0:0:0:
324,186,152167,1,0,1:0:0:0:
323,239,152267,1,0,1:0:0:0:
287,276,152367,6,0,B|249:292|206:278|206:278|162:308|106:294,1,165,6|0,0:2|0:2,0:2:0:0:
288,287,152667,2,0,B|250:303|207:289|207:289|163:319|107:305,1,165,2|0,0:2|0:2,0:2:0:0:
144,210,152967,1,14,0:2:0:0:
410,329,153117,1,0,1:2:0:0:
397,308,153417,6,0,P|406:257|331:162,1,165,2|0,3:2|0:2,0:2:0:0:
297,105,153717,1,8,0:2:0:0:
298,105,153867,2,0,P|305:158|285:209,1,110,2|0,3:2|1:2,0:2:0:0:
51,164,154167,6,0,P|124:127|204:138,1,165,10|0,0:2|0:2,0:2:0:0:
285,209,154467,2,0,P|245:144|120:113,1,165,2|0,0:2|0:2,0:2:0:0:
125,266,154767,6,0,P|146:287|129:239,1,165,6|0,0:2|0:2,0:2:0:0:
27,262,155067,1,0,3:2:0:0:
27,262,155217,1,0,1:2:0:0:
285,209,155367,1,8,3:2:0:0:
274,43,155517,1,0,1:2:0:0:
283,25,155817,5,2,3:2:0:0:
285,209,155967,1,8,0:2:0:0:
196,122,156117,1,0,1:2:0:0:
196,122,156192,1,0,1:2:0:0:
196,122,156267,1,2,1:2:0:0:
375,126,156417,2,0,L|448:136,1,55,0|0,3:2|3:2,3:2:0:0:
476,196,156567,6,0,B|427:144|427:144|287:127,1,165,8|0,0:2|0:2,0:2:0:0:
285,209,156867,1,2,3:0:0:0:
282,241,156942,1,2,3:0:0:0:
278,273,157017,2,0,L|189:256,1,55,2|2,3:3|3:0,3:0:0:0:
65,201,157167,6,0,B|108:164|108:164|184:159,1,110,12|2,0:2|0:2,0:2:0:0:
254,357,157467,1,0,3:2:0:0:
441,143,157617,2,0,B|397:106|397:106|322:101,1,110,12|2,0:2|0:2,0:2:0:0:
255,375,157917,1,0,3:2:0:0:
65,85,158067,2,0,B|108:48|108:48|184:43,1,110,12|2,0:2|0:2,0:2:0:0:
103,293,158367,5,0,1:2:0:0:
106,276,158442,1,0,1:2:0:0:
109,259,158517,1,0,1:2:0:0:
113,243,158592,1,0,1:2:0:0:
131,221,158667,6,0,L|16:250,1,110,14|0,0:2|0:2,0:2:0:0:
345,170,158967,1,14,3:2:0:0:
229,279,159117,1,0,1:2:0:0:
192,125,159267,1,2,3:2:0:0:
355,187,159417,1,0,1:2:0:0:
184,20,159567,6,0,P|175:75|224:157,1,110,12|2,0:2|0:2,0:2:0:0:
349,6,159867,1,0,3:2:0:0:
229,279,160017,2,0,P|193:320|143:340,1,110,12|2,0:2|0:2,0:2:0:0:
48,204,160317,1,0,3:2:0:0:
345,170,160467,2,0,P|398:181|440:215,1,110,12|2,0:2|0:2,0:2:0:0:
235,167,160767,6,0,L|210:82,1,55,8|0,3:2|0:0,0:0:0:0:
142,27,160917,2,0,L|126:79,1,55,0|0,3:0|0:0,0:0:0:0:
49,167,161067,2,0,L|33:114,1,55,0|0,3:0|0:0,0:0:0:0:
141,181,161217,5,2,3:0:0:0:
141,181,161292,1,2,3:0:0:0:
141,181,161367,2,0,P|148:211|169:272,2,73.3333333333333,0|0|0,1:0|1:0|1:0,1:0:0:0:
59,262,161667,2,0,P|68:298|87:353,2,73.3333333333333,0|0|0,1:0|1:0|1:0,1:0:0:0:
140,63,161967,6,0,B|268:86|268:86|226:126,1,165,4|0,3:2|0:2,0:2:0:0:
233,121,162267,1,0,0:0:0:0:
210,238,162417,2,0,L|225:115,1,110,0|8,0:0|0:0,0:0:0:0:
335,230,162717,1,0,0:2:0:0:
275,361,162867,1,2,0:2:0:0:
164,39,163017,6,0,P|130:86|141:176,1,110,2|0,3:2|0:2,0:2:0:0:
127,287,163317,2,0,B|169:264|169:264|267:277,1,110,0|2,0:2|0:2,0:2:0:0:
363,348,163617,1,2,0:2:0:0:
286,156,163767,1,8,0:2:0:0:
280,134,163917,1,0,0:2:0:0:
274,112,164067,1,0,0:2:0:0:
268,90,164217,1,0,0:2:0:0:
199,299,164367,6,0,B|90:344|90:344|130:271,1,165,2|0,3:2|0:2,0:2:0:0:
120,289,164667,1,0,0:0:0:0:
101,168,164817,2,0,P|121:214|124:279,1,110,0|8,0:0|0:0,0:0:0:0:
32,74,165117,1,0,0:2:0:0:
0,251,165267,1,2,0:2:0:0:
246,195,165417,6,0,B|294:179|294:179|362:186,2,110,2|0|0,3:2|0:2|0:2,0:2:0:0:
308,299,165867,1,2,0:2:0:0:
338,72,166017,1,2,0:2:0:0:
141,178,166167,1,10,3:0:0:0:
91,180,166242,1,2,3:0:0:0:
53,148,166317,1,2,3:0:0:0:
46,98,166392,1,2,3:0:0:0:
69,54,166467,6,0,P|97:38|157:40,1,55,8|0,2:0|0:0,0:0:0:0:
213,71,166617,2,0,P|241:87|301:85,1,55
419,64,166767,5,12,0:0:0:0:
422,253,166917,1,0,1:0:0:0:
237,160,167067,5,8,0:0:0:0:
409,173,167217,1,0,1:0:0:0:
317,17,167367,5,8,0:0:0:0:
319,274,167517,1,0,1:0:0:0:
102,124,167667,5,8,0:0:0:0:
319,148,167817,1,0,1:0:0:0:
200,0,167967,5,8,0:0:0:0:
201,265,168117,1,0,1:0:0:0:
0,107,168267,5,8,0:0:0:0:
203,174,168417,1,0,1:0:0:0:
48,14,168567,6,0,P|142:-3|237:80,1,206.25,8|0,0:0|0:0,0:0:0:0:
233,260,168867,1,0,3:0:0:0:
279,277,168942,1,0,3:0:0:0:
327,270,169017,1,0,3:0:0:0:
365,241,169092,1,0,3:0:0:0:
385,198,169167,6,0,P|395:116|327:4,1,206.25,12|0,0:0|0:0,0:0:0:0:
227,58,169467,5,8,0:0:0:0:
86,289,169617,1,0,1:0:0:0:
221,45,169767,1,8,0:0:0:0:
372,275,169917,1,0,1:0:0:0:
215,32,170067,5,8,0:0:0:0:
233,368,170217,1,0,1:0:0:0:
321,108,170367,6,0,P|368:103|452:156,1,137.5,4|0,3:0|0:0,0:0:0:0:
477,237,170592,1,8,3:0:0:0:
477,237,170667,2,0,B|454:249|454:249|414:237,1,68.75,0|0,3:0|0:0,0:0:0:0:
263,202,170817,2,0,B|286:214|286:214|347:195,1,68.75,0|0,3:0|0:0,0:0:0:0:
219,286,170967,5,8,2:3:0:0:
184,251,171042,1,8,2:3:0:0:
173,205,171117,1,8,2:3:0:0:
186,158,171192,1,8,2:3:0:0:
222,125,171267,6,0,L|286:92,1,68.75,2|0,3:0|0:0,0:0:0:0:
129,61,171417,2,0,L|65:28,1,68.75,2|0,3:0|0:0,0:0:0:0:
263,202,171567,5,8,0:0:0:0:
138,384,171717,1,0,3:0:0:0:
283,93,171867,5,8,0:0:0:0:
440,383,172017,1,0,3:0:0:0:
299,0,172167,5,8,0:0:0:0:
143,384,172317,1,0,3:0:0:0:
364,194,172467,1,0,3:0:0:0:
86,309,172617,6,0,B|58:252|58:252|102:181|25:138|81:63,1,242.000007385254,4|0,0:1|0:0,0:0:0:0:
171,249,173067,2,0,P|175:195|142:93,1,121.000003692627,8|0,0:2|0:2,0:2:0:0:
253,341,173367,1,0,1:2:0:0:
153,30,173517,1,0,0:2:0:0:
7,378,173667,1,8,0:2:0:0:
326,175,173817,6,0,P|349:217|364:324,1,121.000003692627,4|0,0:1|1:0,0:0:0:0:
257,40,174117,2,0,P|285:50|310:66,1,60.5000018463135,0|0,1:2|2:2,0:2:0:0:
216,144,174267,1,8,0:2:0:0:
416,39,174417,1,0,1:2:0:0:
416,39,174492,1,0,1:2:0:0:
416,39,174567,2,0,L|492:52,1,60.5000018463135,0|0,3:2|2:2,0:2:0:0:
326,175,174717,2,0,L|398:148,1,60.5000018463135,0|0,3:2|2:2,0:2:0:0:
484,300,174867,1,8,0:2:0:0:
116,129,175017,6,0,P|83:190|105:329,1,181.500005538941,4|0,0:1|0:0,0:0:0:0:
169,377,175317,1,0,1:2:0:0:
224,81,175467,2,0,P|212:55|181:30,1,60.5000018463135,8|0,0:2|2:2,0:2:0:0:
195,215,175617,2,0,P|193:246|203:274,1,60.5000018463135,0|0,0:2|2:2,0:2:0:0:
326,175,175767,1,0,1:2:0:0:
360,165,175842,1,0,1:2:0:0:
394,155,175917,2,0,L|481:183,1,60.5000018463135,0|0,1:2|2:2,0:2:0:0:
335,53,176067,1,8,0:2:0:0:
99,317,176217,6,0,B|67:265|67:265|69:203,1,121.000003692627,4|0,0:1|0:0,0:0:0:0:
335,53,176517,2,0,B|338:85|338:85|324:123,1,60.5000018463135,0|0,0:2|2:2,0:2:0:0:
162,237,176667,2,0,B|188:217|188:217|228:210,1,60.5000018463135,8|0,0:2|2:2,0:2:0:0:
408,295,176817,2,0,B|377:281|377:281|352:250,1,60.5000018463135,4|0,0:2|2:2,0:2:0:0:
440,29,176967,1,0,0:2:0:0:
301,195,177117,1,0,1:2:0:0:
301,195,177192,1,0,1:2:0:0:
301,195,177267,1,8,1:2:0:0:
504,357,177417,6,0,B|528:301|528:301|497:184|497:184|513:117,1,242.000007385254,4|0,0:1|0:0,0:0:0:0:
408,295,177867,2,0,L|367:147,1,121.000003692627,8|0,0:2|1:2,0:2:0:0:
279,114,178092,1,0,1:2:0:0:
279,114,178167,1,0,1:2:0:0:
346,384,178317,1,0,0:2:0:0:
419,69,178467,1,8,0:2:0:0:
43,89,178617,6,0,P|12:139|-4:198,1,121.000003692627,4|0,0:1|0:0,0:0:0:0:
247,313,178917,1,0,1:2:0:0:
338,9,179067,1,8,0:2:0:0:
132,174,179217,1,0,1:2:0:0:
117,207,179292,1,0,1:2:0:0:
110,242,179367,2,0,P|108:270|132:328,1,60.5000018463135,0|0,1:2|2:2,0:2:0:0:
240,185,179517,2,0,P|242:157|218:99,1,60.5000018463135,0|0,0:2|2:2,0:2:0:0:
43,89,179667,1,8,0:2:0:0:
380,55,179817,6,0,P|410:94|420:238,1,181.500005538941,4|0,0:1|2:0,0:0:0:0:
329,270,180117,1,0,1:2:0:0:
512,340,180267,2,0,L|452:329,1,60.5000018463135,8|0,0:2|2:2,0:2:0:0:
253,349,180417,2,0,P|240:336|225:288,1,60.5000018463135,4|0,0:2|2:2,0:2:0:0:
295,115,180567,2,0,P|307:127|323:175,1,60.5000018463135,0|0,0:2|2:2,0:2:0:0:
218,187,180717,1,0,1:2:0:0:
218,187,180792,1,0,1:2:0:0:
218,187,180867,1,8,1:2:0:0:
329,270,181017,1,4,0:2:0:0:
101,241,181167,5,0,0:0:0:0:
295,115,181317,1,0,1:0:0:0:
295,115,181392,1,0,1:0:0:0:
295,115,181467,1,8,1:2:0:0:
93,260,181617,6,0,P|70:204|65:143,1,121.000003692627,4|0,0:0|0:0,0:0:0:0:
43,355,181917,1,0,1:0:0:0:
43,355,181992,1,0,1:0:0:0:
43,355,182067,2,0,L|128:370,1,60.5000018463135,8|0,1:2|2:0,1:0:0:0:
287,135,182217,6,0,B|320:187|320:187|284:229|284:229|306:265|301:322|264:361,1,242.000007385254,4|0,0:1|0:0,0:0:0:0:
409,144,182667,2,0,P|419:202|394:256,1,121.000003692627,8|0,0:2|0:2,0:2:0:0:
346,49,182967,1,0,1:2:0:0:
376,350,183117,2,0,P|415:351|450:333,1,60.5000018463135,0|0,3:2|1:2,3:2:0:0:
512,96,183267,1,8,0:2:0:0:
175,152,183417,6,0,B|147:99|147:99|161:19,1,121.000003692627,4|0,0:1|0:0,0:0:0:0:
56,180,183717,1,0,0:2:0:0:
262,81,183867,1,8,0:2:0:0:
132,268,184017,2,0,L|150:348,1,60.5000018463135,0|0,0:2|2:2,0:2:0:0:
296,249,184167,2,0,L|278:169,1,60.5000018463135,0|0,0:2|2:2,0:2:0:0:
75,66,184317,1,0,1:2:0:0:
75,66,184392,1,0,1:2:0:0:
75,66,184467,1,8,1:2:0:0:
397,160,184617,6,0,P|389:100|360:47,1,121.000003692627,4|0,0:1|1:0,0:0:0:0:
262,81,184842,1,0,1:2:0:0:
262,81,184917,1,0,1:2:0:0:
394,262,185067,2,0,L|417:340,1,60.5000018463135,8|0,0:2|2:2,0:2:0:0:
285,229,185217,2,0,L|302:170,1,60.5000018463135,0|0,0:2|2:2,0:2:0:0:
301,345,185367,1,0,0:2:0:0:
397,160,185517,1,0,1:2:0:0:
432,171,185592,1,0,1:2:0:0:
467,182,185667,1,8,1:2:0:0:
97,24,185817,6,0,P|80:63|77:160,1,121.000003692627,4|0,0:1|0:0,0:0:0:0:
301,345,186117,1,0,1:2:0:0:
220,15,186267,1,8,0:2:0:0:
21,299,186417,1,4,0:2:0:0:
343,88,186567,2,0,P|365:83|423:88,1,60.5000018463135,0|0,0:2|2:2,0:2:0:0:
196,144,186717,1,0,1:2:0:0:
196,144,186792,1,0,1:2:0:0:
196,144,186867,1,8,1:2:0:0:
503,255,187017,6,0,B|517:196|517:196|474:139|474:139|512:73|468:11,1,242.000007385254,4|0,0:1|0:0,0:0:0:0:
371,353,187467,2,0,L|398:215,1,121.000003692627,8|0,0:2|0:2,0:2:0:0:
496,355,187767,1,0,1:2:0:0:
311,147,187917,2,0,L|235:135,1,60.5000018463135,0|0,1:0|1:0,1:0:0:0:
397,83,188067,1,8,1:2:0:0:
170,239,188217,6,0,P|153:278|150:375,1,121.000003692627,4|0,0:1|0:0,0:0:0:0:
125,135,188517,1,0,1:2:0:0:
244,377,188667,1,8,0:2:0:0:
59,222,188817,2,0,L|4:183,1,60.5000018463135,0|0,0:2|2:2,0:2:0:0:
228,152,188967,2,0,L|283:113,1,60.5000018463135,0|0,0:2|2:2,0:2:0:0:
465,132,189117,1,0,1:2:0:0:
465,132,189192,1,0,1:2:0:0:
465,132,189267,1,8,1:2:0:0:
244,377,189417,6,0,P|204:316|294:285,1,181.500005538941,4|0,2:1|0:0,0:0:0:0:
366,350,189717,1,0,0:0:0:0:
122,158,189867,5,8,0:2:0:0:
478,196,190017,1,0,0:0:0:0:
115,175,190167,5,8,0:2:0:0:
404,31,190317,1,0,0:0:0:0:
107,191,190467,5,8,0:2:0:0:
434,367,190617,1,4,0:0:0:0:
99,207,190767,5,8,3:0:0:0:
93,255,190842,1,0,3:0:0:0:
125,291,190917,1,0,3:0:0:0:
171,305,190992,1,0,3:0:0:0:
218,295,191067,1,8,3:2:0:0:
254,262,191142,1,0,3:0:0:0:
266,215,191217,1,0,3:0:0:0:
252,168,191292,1,0,3:0:0:0:
241,108,191367,5,8,3:2:0:0:
271,55,191442,1,2,3:0:0:0:
327,37,191517,1,2,3:0:0:0:
382,66,191592,1,2,3:0:0:0:
401,123,191667,5,0,2:0:0:0:
271,55,191817,2,0,B|238:68|238:68|212:60|212:60|185:68,1,82.5
88,79,192117,5,0,1:0:0:0:
87,98,192192,1,0,1:0:0:0:
81,115,192267,2,0,P|79:179|108:255,1,137.5,12|0,0:2|0:2,0:2:0:0:
192,65,192567,1,0,1:2:0:0:
46,340,192717,1,0,0:2:0:0:
5,15,192867,1,8,0:2:0:0:
386,250,193017,6,0,P|388:182|365:118,1,137.5,4|0,0:1|0:2,0:2:0:0:
343,384,193317,1,0,1:2:0:0:
269,154,193467,1,8,0:2:0:0:
512,248,193617,1,0,0:2:0:0:
243,51,193767,2,0,P|174:49|110:72,1,137.5,0|0,0:2|1:2,0:2:0:0:
47,150,193992,1,0,1:2:0:0:
47,150,194067,1,8,1:2:0:0:
419,121,194217,6,0,P|436:221|395:314,1,206.25,4|0,0:1|2:2,0:2:0:0:
305,359,194517,1,0,1:2:0:0:
173,146,194667,5,8,0:2:0:0:
330,248,194817,1,0,0:2:0:0:
79,179,194967,1,8,0:2:0:0:
423,214,195117,1,0,0:2:0:0:
161,231,195267,1,8,0:2:0:0:
341,162,195417,1,0,0:2:0:0:
201,341,195567,5,12,0:2:0:0:
354,64,195717,1,0,0:2:0:0:
310,340,195867,1,8,0:2:0:0:
167,64,196017,1,0,0:2:0:0:
39,384,196167,5,12,0:2:0:0:
257,2,196317,1,0,0:2:0:0:
473,384,196467,1,8,0:2:0:0:
144,56,196617,6,0,B|58:149|193:223|112:312,1,275,4|0,0:1|0:2,0:2:0:0:
225,128,197067,2,0,P|252:66|238:0,1,137.5,8|0,0:2|0:2,0:2:0:0:
36,19,197367,1,0,0:2:0:0:
235,233,197517,2,0,L|316:214,1,68.75,0|0,1:2|1:2,1:2:0:0:
417,188,197667,1,8,0:2:0:0:
105,346,197817,6,0,P|94:278|120:216,1,137.5,4|0,0:1|0:2,0:2:0:0:
337,131,198117,1,0,0:2:0:0:
301,384,198267,2,0,P|313:341|304:299,1,68.75,8|0,1:2|1:2,1:2:0:0:
220,133,198417,2,0,P|208:90|217:48,1,68.75,0|0,1:2|1:2,1:2:0:0:
387,46,198567,1,2,0:3:0:0:
418,59,198642,1,2,0:3:0:0:
452,62,198717,1,2,0:3:0:0:
485,53,198792,1,2,0:3:0:0:
512,32,198867,5,8,0:2:0:0:
253,249,199017,2,0,B|115:275|115:275|165:218,1,189.750003619194,4|0,0:1|0:2,0:2:0:0:
214,156,199317,1,0,1:2:0:0:
438,358,199467,5,8,0:2:0:0:
105,142,199617,2,0,B|253:116|253:116|195:174,1,206.25,4|0,0:1|0:2,0:2:0:0:
147,237,199917,2,0,L|54:252,1,68.75,0|0,1:2|1:2,1:2:0:0:
40,11,200067,5,8,0:2:0:0:
317,183,200217,2,0,B|473:213|473:213|407:151,1,222.750000849724,4|0,0:1|0:2,0:2:0:0:
331,73,200517,2,0,L|232:56,1,74.2500002832413,0|0,1:2|1:2,1:2:0:0:
164,364,200667,5,8,0:2:0:0:
440,58,200817,2,0,B|276:25|276:25|350:90,1,239.250007301331,4|0,0:1|0:2,0:2:0:0:
426,169,201117,2,0,L|439:263,1,79.7500024337769,0|0,1:2|1:2,1:2:0:0:
498,376,201267,1,8,0:2:0:0:
217,102,201417,6,0,P|194:143|274:345,1,275,4|0,0:1|0:2,0:2:0:0:
136,18,201867,2,0,P|198:-7|266:-4,1,137.5,8|0,0:2|0:2,0:2:0:0:
86,120,202167,1,0,0:2:0:0:
360,66,202317,1,0,1:2:0:0:
360,66,202392,1,0,1:2:0:0:
360,66,202467,2,0,L|382:158,1,68.75,8|0,0:2|1:2,0:2:0:0:
422,380,202617,6,0,B|444:331|444:331|424:222,1,137.5,4|0,0:1|0:2,0:2:0:0:
259,74,202917,1,0,1:2:0:0:
164,325,203067,1,8,0:2:0:0:
338,297,203217,1,0,1:2:0:0:
338,297,203292,1,0,1:2:0:0:
338,297,203367,2,0,L|321:208,1,68.75,0|0,1:2|1:2,1:2:0:0:
155,146,203517,2,0,L|240:175,1,68.75,0|0,1:2|1:2,1:2:0:0:
337,117,203667,1,8,0:2:0:0:
35,79,203817,6,0,P|0:173|31:314,1,206.25,4|0,0:1|0:2,0:2:0:0:
103,371,204117,1,0,1:2:0:0:
337,117,204267,5,8,0:2:0:0:
175,266,204417,1,0,0:2:0:0:
256,61,204567,1,8,0:2:0:0:
256,321,204717,1,0,0:2:0:0:
175,117,204867,1,8,0:2:0:0:
337,266,205017,1,0,0:2:0:0:
72,187,205167,5,12,0:2:0:0:
416,171,205317,1,0,0:2:0:0:
232,362,205467,1,8,0:2:0:0:
246,17,205617,1,0,0:2:0:0:
468,357,205767,5,12,0:2:0:0:
23,205,205917,1,0,0:2:0:0:
478,98,206067,1,8,0:2:0:0:
365,306,206217,6,0,B|370:224|370:224|323:145|323:145|333:41,1,275,4|0,0:1|0:2,0:2:0:0:
251,384,206667,2,0,L|266:224,1,137.5,8|0,0:2|0:2,0:2:0:0:
453,380,206967,1,0,0:2:0:0:
222,139,207117,2,0,L|140:145,1,68.75,0|0,1:2|1:2,1:2:0:0:
32,229,207267,1,8,0:2:0:0:
348,1,207417,6,0,P|364:69|352:167,1,137.5,4|0,0:1|0:2,0:2:0:0:
155,299,207717,1,0,1:2:0:0:
247,32,207867,1,8,0:2:0:0:
375,264,208017,2,0,L|306:258,1,68.75,0|0,1:2|1:2,1:2:0:0:
172,170,208167,1,0,1:2:0:0:
172,170,208242,1,0,1:2:0:0:
172,170,208317,2,0,L|240:164,1,68.75,0|0,1:2|1:2,1:2:0:0:
452,157,208467,1,8,0:2:0:0:
135,384,208617,6,0,P|119:316|131:218,1,137.5,4|0,0:1|0:2,0:2:0:0:
263,60,208917,1,0,1:2:0:0:
303,67,208992,1,0,1:2:0:0:
343,62,209067,1,12,0:2:0:0:
307,185,209217,1,2,0:0:0:0:
319,225,209292,1,2,0:0:0:0:
318,267,209367,1,2,0:0:0:0:
303,306,209442,1,2,0:0:0:0:
281,339,209517,5,8,0:2:0:0:
338,376,209592,1,8,0:2:0:0:
406,367,209667,1,8,0:2:0:0:
443,309,209742,1,0,0:2:0:0:
424,242,209817,6,0,P|402:197|421:60,1,159.500004867554,4|0,0:1|0:2,0:2:0:0:
252,104,210117,1,0,1:2:0:0:
212,111,210192,1,0,1:2:0:0:
172,106,210267,1,4,1:2:0:0:
142,307,210417,6,0,P|191:272|294:322,1,153.999995300293,0|0,0:2|3:2,0:2:0:0:
276,295,210913,1,8,0:2:0:0:
187,97,211262,5,2,0:2:0:0:
448,127,211623,1,2,0:0:0:0:
502,222,211804,1,0,0:0:0:0:
393,234,211984,1,2,0:0:0:0:
172,238,212346,1,2,0:0:0:0:
250,46,212707,6,0,L|266:111,3,55
322,4,213096,1,2,0:0:0:0:
318,216,213486,1,2,0:0:0:0:
142,82,213894,5,2,0:0:0:0:
74,168,214098,1,0,0:0:0:0:
127,252,214302,1,2,0:0:0:0:
346,260,214746,1,2,0:0:0:0:
282,169,214968,1,0,0:0:0:0:
333,78,215190,5,2,0:0:0:0:
233,262,215666,2,2,L|246:354,1,82.5000031471254
134,261,216183,5,2,0:0:0:0:
322,194,216754,5,2,0:0:0:0:
170,29,217468,5,2,0:0:0:0:
256,192,217646,12,0,221039,0:0:0:0:
