osu file format v14

[General]
AudioFilename: audio.mp3
AudioLeadIn: 0
PreviewTime: 103987
Countdown: 0
SampleSet: Soft
StackLeniency: 0.6
Mode: 0
LetterboxInBreaks: 0
WidescreenStoryboard: 1

[Editor]
Bookmarks: 2362,15562,25162,34762,45412,55012,64762,83962,93562,104212,113812,123562,137962,147562,161962,172612,182212,192262,211257
DistanceSpacing: 0.7
BeatDivisor: 2
GridSize: 32
TimelineZoom: 3.099999

[Metadata]
Title:Yoru Naku Usagi wa Yume o Miru
TitleUnicode:夜啼く兎は夢を見る
Artist:UNDEAD CORPORATION
ArtistUnicode:UNDEAD CORPORATION
Creator:MaridiuS
Version:Lenvia's Classic Collab Extra
Source:東方永夜抄 ~ Imperishable Night.
Tags:LOLI JOA Ayyri Len Revia Realazy LowComboFC eiri- Chekito Lince Bergy ranko Touhou Eiyashou 東方Project C82 Comiket82 Benisome no Oni ga Naku 紅染の鬼が哭く 狂気の瞳 ~ Invisible Full Moon Kyouki no Hitomi Reisen Udongein theme
BeatmapID:1511837
BeatmapSetID:695743

[Difficulty]
HPDrainRate:6
CircleSize:4
OverallDifficulty:8.8
ApproachRate:9.5
SliderMultiplier:1.82
SliderTickRate:2

[Events]
//Background and Video events
0,0,"03b5dc8d1eb147aafaf20977363d0651_waifu2x_art_noise2_scale_tta_1.jpg",0,0
//Break Periods
//Storyboard Layer 0 (Background)
//Storyboard Layer 1 (Fail)
//Storyboard Layer 2 (Pass)
//Storyboard Layer 3 (Foreground)
//Storyboard Sound Samples

[TimingPoints]
-33,300,4,2,1,70,1,0
5967,-100,4,2,10,70,0,0
6192,-100,4,2,10,5,0,0
6267,-100,4,2,10,70,0,0
6492,-100,4,2,10,5,0,0
6567,-100,4,2,10,70,0,0
7242,-100,4,2,10,5,0,0
7317,-100,4,2,10,70,0,0
7992,-100,4,2,10,5,0,0
8067,-100,4,2,10,70,0,0
8292,-100,4,2,10,5,0,0
8367,-100,4,2,10,70,0,0
8592,-100,4,2,10,5,0,0
8667,-100,4,2,10,70,0,0
10767,-100,4,2,1,70,0,0
15567,-142.857142857143,4,2,5,70,0,0
20367,-111.111111111111,4,2,5,70,0,0
23967,-166.666666666667,4,2,5,70,0,0
24192,-166.666666666667,4,2,5,70,0,0
24267,-100,4,2,5,70,0,0
25167,-142.857142857143,4,2,1,70,0,0
33792,-142.857142857143,4,2,1,5,0,0
33867,-142.857142857143,4,2,1,70,0,0
34092,-142.857142857143,4,2,1,5,0,0
34167,-142.857142857143,4,2,1,70,0,0
34767,-100,4,2,10,70,0,0
41667,-100,4,2,10,70,0,0
44367,-90.9090909090909,4,2,1,70,0,0
45417,-83.3333333333333,4,3,10,80,0,1
64767,-100,4,2,1,45,0,0
66567,-100,4,2,1,70,0,0
67167,-90.9090909090909,4,2,1,70,0,0
71367,-100,4,2,1,70,0,0
74367,-100,4,2,10,70,0,0
74592,-100,4,2,10,5,0,0
74667,-100,4,2,10,70,0,0
74892,-100,4,2,10,5,0,0
74967,-100,4,2,10,70,0,0
75642,-100,4,2,10,5,0,0
75717,-100,4,2,10,70,0,0
76392,-100,4,2,10,5,0,0
76467,-100,4,2,10,70,0,0
76692,-100,4,2,10,5,0,0
76767,-100,4,2,10,70,0,0
76992,-100,4,2,10,5,0,0
77067,-100,4,2,10,70,0,0
79167,-100,4,2,1,70,0,0
83967,-133.333333333333,4,2,5,70,0,0
87567,-105.263157894737,4,2,1,70,0,0
87867,-117.647058823529,4,2,1,70,0,0
92067,-105.263157894737,4,2,1,70,0,0
93567,-100,4,2,10,70,0,0
100767,-90.9090909090909,4,2,10,70,0,0
101217,-100,4,2,10,70,0,0
104217,-83.3333333333333,4,3,10,70,0,1
123567,-100,4,2,10,70,0,0
135567,-133.333333333333,4,2,10,70,0,0
135867,-100,4,2,10,70,0,0
137067,-100,4,2,1,70,0,0
142767,-100,4,2,10,70,0,0
145392,-100,4,2,10,5,0,0
145467,-100,4,2,10,70,0,0
145692,-100,4,2,10,5,0,0
145767,-100,4,2,10,70,0,0
147567,-100,4,2,1,70,0,0
152367,-100,4,2,10,70,0,0
152592,-100,4,2,10,5,0,0
152667,-100,4,2,10,70,0,0
152892,-100,4,2,10,5,0,0
152967,-100,4,2,10,70,0,0
153642,-100,4,2,10,5,0,0
153717,-100,4,2,10,70,0,0
154392,-100,4,2,10,5,0,0
154467,-100,4,2,10,70,0,0
154692,-100,4,2,10,5,0,0
154767,-100,4,2,10,70,0,0
154992,-100,4,2,10,5,0,0
155067,-100,4,2,10,70,0,0
157167,-100,4,2,1,70,0,0
161967,-100,4,2,10,70,0,0
172167,-66.6666666666667,4,2,10,70,0,0
172317,-76.9230769230769,4,2,10,70,0,0
172467,-83.3333333333333,4,2,10,70,0,0
172617,-83.3333333333333,4,3,10,70,0,1
191817,-111.111111111111,4,2,1,70,0,0
192117,-83.3333333333333,4,2,1,70,0,0
192267,-83.3333333333333,4,3,10,70,0,1
210417,322.58064516129,4,3,10,70,1,1
210417,-111.111111111111,4,3,10,70,0,1
210739,348.837209302326,4,2,1,70,1,0
211262,361.44578313253,4,2,1,50,1,0
211262,-133.333333333333,4,2,1,50,0,0
212707,389.61038961039,4,2,1,50,1,0
212707,-133.333333333333,4,2,1,50,0,0
213486,408.163265306122,4,2,1,50,1,0
213486,-133.333333333333,4,2,1,50,0,0
214302,444.444444444444,4,2,1,50,1,0
214302,-133.333333333333,4,2,1,50,0,0
215190,476.190476190476,4,2,1,50,1,0
215190,-133.333333333333,4,2,1,50,0,0
215666,517.241379310345,4,2,1,40,1,0
216183,571.428571428571,4,2,1,30,1,0
216183,-133.333333333333,4,2,1,50,0,0
216754,714.285714285714,4,2,1,20,1,0
216754,-133.333333333333,4,2,1,20,0,0
217467,-200,4,2,1,18,0,0
217825,-200,4,2,1,17,0,0
218182,-200,4,2,1,15,0,0
218539,-200,4,2,1,14,0,0
218896,-200,4,2,1,12,0,0
219254,-200,4,2,1,11,0,0
219611,-200,4,2,1,9,0,0
219968,-200,4,2,1,8,0,0
220325,-200,4,2,1,6,0,0

[Colours]
Combo1 : 79,219,89
Combo2 : 30,135,240
Combo3 : 248,22,62
Combo4 : 186,105,184

[HitObjects]
58,56,1167,6,0,P|134:40|200:148,1,182,12|0,0:2|3:2,0:0:0:0:
373,208,1617,2,0,B|273:237|297:170|197:196,1,182,12|0,0:2|3:2,0:0:0:0:
115,129,2067,2,0,P|109:174|102:219,1,91,12|2,0:2|0:2,0:0:0:0:
126,356,2367,5,0,1:2:0:0:
137,358,2442,1,0,1:2:0:0:
148,360,2517,1,0,1:2:0:0:
159,362,2592,1,0,1:2:0:0:
171,365,2667,2,0,P|220:347|229:258,1,136.5,14|0,0:2|0:0,0:0:0:0:
101,219,2967,6,0,P|55:224|-6:232,1,91,14|0,0:2|0:2,0:0:0:0:
185,142,3267,1,2,3:2:0:0:
10,230,3417,1,0,1:2:0:0:
177,58,3567,6,0,P|233:73|250:196,1,182,12|0,0:2|3:2,0:0:0:0:
444,114,4017,2,0,P|375:104|322:100,1,91,12|2,0:2|0:2,0:0:0:0:
183,233,4317,1,0,3:2:0:0:
386,208,4467,2,0,P|395:260|405:313,1,91,12|2,0:2|0:2,0:0:0:0:
185,142,4767,5,0,1:2:0:0:
138,146,4842,1,0,1:2:0:0:
106,127,4917,1,0,1:2:0:0:
81,132,4992,1,0,1:2:0:0:
59,121,5067,1,14,0:2:0:0:
59,121,5367,6,0,P|53:75|47:12,1,91,14|0,1:2|0:0,0:0:0:0:
183,233,5667,2,0,P|177:278|171:323,1,91,0|0,1:2|0:0,0:0:0:0:
430,254,5967,6,0,P|347:234|262:321,1,182,6|2,0:2|0:2,0:0:0:0:
79,269,6417,1,0,0:0:0:0:
237,158,6567,1,10,0:2:0:0:
237,158,6867,6,0,P|243:106|248:62,1,91,0|0,0:0|3:2,0:0:0:0:
79,269,7167,2,0,P|84:314|89:359,1,91,0|8,0:0|0:2,0:0:0:0:
199,246,7467,1,2,0:2:0:0:
7,190,7617,1,0,0:2:0:0:
196,362,7767,2,0,P|240:314|361:326,1,182,14|2,0:2|0:2,0:0:0:0:
448,374,8217,1,0,0:0:0:0:
476,183,8367,6,0,P|471:228|466:273,1,91,6|0,0:2|0:0,0:0:0:0:
443,82,8667,1,2,3:2:0:0:
342,133,8817,2,0,P|336:87|331:42,1,91,0|10,0:2|0:2,0:0:0:0:
156,123,9117,1,0,1:2:0:0:
224,63,9267,2,0,P|188:36|144:33,1,91,0|0,0:0|3:2,0:0:0:0:
187,245,9567,5,10,0:2:0:0:
15,211,9717,1,0,1:2:0:0:
248,161,9867,1,2,1:2:0:0:
175,374,10017,1,0,3:2:0:0:
156,123,10167,5,8,0:2:0:0:
41,298,10317,1,0,0:0:0:0:
268,340,10467,1,2,3:3:0:0:
268,340,10542,1,2,3:3:0:0:
268,340,10617,1,2,3:3:0:0:
268,340,10692,1,2,3:3:0:0:
268,340,10767,6,0,P|326:341|401:233,1,182,12|0,0:2|0:2,0:0:0:0:
462,61,11217,2,0,B|503:124|481:196|481:196|435:170,1,182,12|0,0:2|0:2,0:0:0:0:
278,54,11667,2,0,P|224:45|175:39,1,91,12|2,0:2|0:2,0:0:0:0:
10,194,11967,5,0,1:2:0:0:
41,181,12042,1,0,1:2:0:0:
75,185,12117,1,0,1:2:0:0:
103,203,12192,1,0,1:2:0:0:
120,232,12267,2,0,P|104:292|75:378,1,136.5,14|0,0:2|0:0,0:0:0:0:
212,315,12567,6,0,P|262:328|314:337,1,91,14|0,0:2|1:2,0:0:0:0:
308,144,12867,2,0,P|295:194|286:246,1,91,2|0,3:2|1:2,0:0:0:0:
236,74,13167,5,12,0:2:0:0:
484,233,13317,2,0,P|440:221|395:212,1,91,2|0,0:2|0:2,0:0:0:0:
166,135,13617,1,12,0:2:0:0:
406,43,13767,2,0,P|352:17|283:28,1,91,2|0,0:2|0:2,0:0:0:0:
131,235,14067,2,0,P|176:228|221:222,1,91,12|2,0:2|0:2,0:0:0:0:
15,32,14367,5,14,1:2:0:0:
29,22,14442,1,0,1:0:0:0:
45,17,14517,1,0,1:0:0:0:
62,16,14592,1,0,1:0:0:0:
79,20,14667,1,0,3:0:0:0:
94,27,14742,1,0,3:0:0:0:
107,38,14817,1,0,3:0:0:0:
117,52,14892,1,0,3:0:0:0:
123,68,14967,6,0,L|110:138,1,45.5,8|0,0:0|0:0,0:0:0:0:
31,198,15117,1,0,1:0:0:0:
31,198,15192,1,0,1:0:0:0:
31,198,15267,6,0,L|100:212,1,45.5,0|0,1:0|0:0,0:0:0:0:
130,338,15417,2,0,L|139:293,1,45.5
245,272,15567,5,2,0:0:0:0:
245,272,15867,2,0,P|265:275|322:259,1,63.6999980560303,0|0,0:0|0:0,0:0:0:0:
458,181,16167,2,0,B|432:167|395:184|395:184|365:199|334:184,1,127.399996112061,2|0,0:0|0:0,0:0:0:0:
277,118,16617,1,0,0:0:0:0:
367,42,16767,6,0,L|362:120,1,63.6999980560303,2|0,0:0|0:0,0:0:0:0:
335,184,17067,1,0,0:0:0:0:
173,250,17367,2,0,L|168:172,1,63.6999980560303,2|0,0:0|0:0,0:0:0:0:
192,105,17667,1,0,0:0:0:0:
36,173,17967,5,2,0:0:0:0:
18,193,18267,2,0,L|29:269,1,63.6999980560303,0|0,0:0|0:0,0:0:0:0:
223,247,18567,2,0,P|174:211|115:229,1,127.399996112061,2|0,0:0|0:0,0:0:0:0:
92,317,19017,1,0,0:0:0:0:
171,383,19167,6,0,L|182:307,1,63.6999980560303,2|0,0:0|0:0,0:0:0:0:
223,247,19467,1,0,0:0:0:0:
336,108,19767,2,0,L|347:184,1,63.6999980560303,2|0,0:0|0:0,0:0:0:0:
310,245,20067,1,0,0:0:0:0:
445,62,20367,5,2,1:2:0:0:
390,257,20667,2,0,P|368:255|306:244,1,81.8999975006104,0|0,1:2|0:2,0:0:0:0:
176,156,20967,2,0,P|198:158|260:169,1,81.8999975006104,2|0,1:2|0:2,0:0:0:0:
355,84,21267,2,0,P|353:106|342:168,1,81.8999975006104,0|0,1:2|0:2,0:0:0:0:
222,251,21567,6,0,P|226:291|234:331,1,81.8999975006104,2|0,1:2|0:2,0:0:0:0:
93,108,21867,2,0,P|91:130|80:192,1,81.8999975006104,0|0,1:2|0:2,0:0:0:0:
12,355,22167,2,0,P|64:300|147:306,1,163.799995001221,2|0,1:2|1:2,0:0:0:0:
234,331,22617,1,0,0:2:0:0:
338,269,22767,6,0,B|376:245|419:269|419:269|460:292|505:269,1,163.799995001221,2|0,1:2|1:2,0:0:0:0:
462,180,23217,1,0,0:2:0:0:
401,75,23367,2,0,B|360:51|360:51|374:177,1,163.799995001221,2|0,1:2|1:2,0:0:0:0:
146,305,23967,6,0,P|136:256|139:224,1,81.8999975006104,6|0,1:2|0:0,0:0:0:0:
186,157,24267,2,0,P|204:158|243:166,3,45.5,0|0|0|0,3:0|3:0|3:0|3:0,3:0:0:0:
95,149,24567,5,8,3:0:0:0:
250,61,24717,1,0,3:0:0:0:
275,272,24867,1,0,3:0:0:0:
286,285,25167,6,0,P|335:289|417:305,1,127.399996112061,4|0,0:2|0:2,0:0:0:0:
512,110,25617,1,0,3:2:0:0:
490,198,25767,2,0,P|427:210|364:216,1,127.399996112061,2|2,0:2|3:2,0:0:0:0:
142,93,26367,6,0,P|136:52|130:16,1,63.6999980560303,0|0,3:2|1:2,0:0:0:0:
13,167,26667,2,0,B|11:200|11:200|22:229,1,63.6999980560303,2|0,1:2|0:2,0:0:0:0:
211,204,26967,2,0,B|192:180|192:180|153:163|85:190,1,127.399996112061,10|0,0:1|3:2,0:0:0:0:
37,319,27417,1,0,1:2:0:0:
116,369,27567,6,0,B|206:381|160:350|248:362,1,127.399996112061,0|2,1:2|1:2,0:0:0:0:
337,377,28017,1,0,3:2:0:0:
410,252,28167,2,0,P|371:243|298:303,1,127.399996112061,2|2,0:2|3:2,0:0:0:0:
511,357,28767,6,0,P|498:309|491:237,1,95.5499970840455,4|0,3:3|1:2,0:0:0:0:
487,251,29067,2,0,P|495:206|498:178,1,63.6999980560303,2|0,1:2|3:2,0:0:0:0:
380,29,29367,1,10,0:1:0:0:
380,29,29667,1,0,0:2:0:0:
512,107,29817,1,0,0:2:0:0:
342,195,29967,6,0,B|292:202|248:181|248:181|237:144,1,127.399996112061,4|2,3:2|1:2,0:0:0:0:
281,77,30417,1,0,3:2:0:0:
149,206,30567,2,0,P|144:151|128:65,1,127.399996112061,2|2,0:2|3:2,0:0:0:0:
122,69,31167,6,0,P|79:58|46:49,1,63.6999980560303,0|0,3:2|1:2,0:0:0:0:
241,28,31467,2,0,P|233:59|224:90,1,63.6999980560303,2|0,1:2|3:2,0:0:0:0:
439,49,31767,2,0,P|393:35|323:90,1,127.399996112061,10|2,0:1|3:2,0:0:0:0:
300,166,32217,1,0,1:2:0:0:
93,200,32367,6,0,P|168:202|246:217,1,127.399996112061,2|2,0:2|1:2,0:0:0:0:
296,263,32817,1,0,3:2:0:0:
502,185,32967,2,0,P|442:191|378:207,1,95.5499970840455,2|0,0:2|0:0,0:0:0:0:
389,216,33267,2,0,P|378:172|364:133,1,63.6999980560303,2|2,3:2|3:2,0:0:0:0:
220,362,33567,5,4,0:0:0:0:
382,319,33717,1,0,1:0:0:0:
174,225,33867,5,4,0:0:0:0:
388,303,34017,1,0,1:0:0:0:
143,310,34167,5,8,0:1:0:0:
356,211,34317,1,8,0:1:0:0:
141,142,34467,1,8,0:1:0:0:
220,362,34617,1,8,0:1:0:0:
341,75,34767,6,0,L|358:243,1,136.5,4|0,1:0|0:0,0:0:0:0:
348,235,35067,1,8,0:0:0:0:
116,259,35217,2,0,P|208:236|242:145,1,182,4|0,0:0|0:0,0:0:0:0:
196,65,35667,1,8,0:0:0:0:
16,134,35817,6,0,P|16:179|34:220,1,91,4|0,1:0|0:0,0:0:0:0:
69,334,36117,2,0,P|99:300|115:258,1,91,0|8,0:0|0:0,0:0:0:0:
135,152,36417,1,4,0:0:0:0:
315,226,36567,2,0,L|208:233,1,91,0|0,0:0|1:0,0:0:0:0:
201,236,36792,1,0,1:0:0:0:
201,236,36867,1,8,0:0:0:0:
248,55,37017,1,0,0:0:0:0:
442,56,37167,6,0,P|374:59|307:152,1,182,4|8,1:0|0:0,0:0:0:0:
340,305,37617,2,0,P|395:310|438:309,1,91,4|0,0:0|0:0,0:0:0:0:
307,143,37917,1,0,0:0:0:0:
197,268,38067,1,8,0:0:0:0:
9,185,38217,6,0,B|53:172|53:172|86:191|86:191|119:175|119:175|152:186|152:186|187:176,1,182,4|0,1:0|0:0,0:0:0:0:
199,175,38592,1,0,0:0:0:0:
219,184,38667,1,8,0:0:0:0:
49,355,38817,2,0,P|35:298|44:249,1,91,4|0,0:0|0:0,0:0:0:0:
100,126,39117,1,12,0:0:0:0:
197,268,39267,1,12,0:0:0:0:
339,286,39417,5,0,1:0:0:0:
339,286,39492,1,0,1:0:0:0:
339,286,39567,1,12,0:0:0:0:
452,211,39717,1,0,1:0:0:0:
221,178,39867,5,8,0:0:0:0:
297,358,40017,1,0,0:0:0:0:
328,146,40167,5,8,0:0:0:0:
102,174,40317,1,0,1:0:0:0:
256,284,40467,5,8,0:0:0:0:
248,75,40617,1,0,1:0:0:0:
140,283,40767,5,8,0:0:0:0:
328,146,40917,1,0,1:0:0:0:
102,174,41067,5,8,0:0:0:0:
347,46,41217,1,0,1:0:0:0:
339,286,41367,5,8,0:0:0:0:
339,286,41667,6,0,L|294:276,1,45.5,8|0,3:0|3:0,0:0:0:0:
146,183,41817,2,0,L|102:174,1,45.5,0|0,3:0|3:0,0:0:0:0:
217,318,41967,6,0,B|196:275|221:228|221:228|244:184|221:138,1,182,12|8,0:0|0:0,0:0:0:0:
75,83,42417,2,0,P|133:65|181:66,1,91,0|8,1:0|0:0,0:0:0:0:
344,36,42717,1,0,1:0:0:0:
344,36,42867,2,0,P|286:54|238:53,1,91,8|0,0:0|1:0,0:0:0:0:
168,182,43167,6,0,L|180:239,3,45.5,12|0|0|0,0:0|0:0|0:0|0:0,0:0:0:0:
197,246,43467,5,8,0:0:0:0:
228,279,43542,1,8,0:0:0:0:
272,289,43617,1,8,3:2:0:0:
315,277,43692,1,0,3:0:0:0:
347,245,43767,1,0,3:0:0:0:
358,200,43842,1,0,3:0:0:0:
389,167,43917,1,0,3:0:0:0:
434,163,43992,1,0,3:0:0:0:
474,184,44067,1,2,3:0:0:0:
503,218,44142,1,2,3:0:0:0:
506,263,44217,1,2,3:0:0:0:
486,304,44292,1,2,3:0:0:0:
453,341,44367,6,0,P|386:331|324:365,1,100.10000305481,12|0,0:0|0:0,0:0:0:0:
102,248,44667,2,0,P|169:258|231:224,1,100.10000305481,12|0,0:0|1:0,0:0:0:0:
232,226,44892,1,0,1:0:0:0:
259,197,44967,2,0,P|264:168|259:134,1,50.0500015274048,8|0,1:2|0:0,0:0:0:0:
144,16,45117,2,0,L|150:91,1,50.0500015274048,8|0,0:0|0:0,0:0:0:0:
303,33,45267,2,0,L|239:45,1,50.0500015274048,0|0,3:0|0:0,0:0:0:0:
161,153,45417,6,0,B|125:162|125:162|84:140|84:140|63:144|63:144|36:132|0:133,1,163.799995001221,4|0,0:1|2:0,0:0:0:0:
6,132,45717,1,0,3:2:0:0:
75,326,45867,2,0,P|49:275|67:227,1,109.199996667481,8|0,0:2|3:2,0:0:0:0:
382,213,46167,1,0,1:2:0:0:
186,251,46317,1,0,3:2:0:0:
241,67,46467,1,8,0:2:0:0:
328,280,46617,6,0,P|391:299|457:173,1,218.399993334961,4|0,0:1|1:2,0:0:0:0:
383,119,47067,1,8,0:2:0:0:
251,309,47217,1,0,1:2:0:0:
132,123,47367,2,0,P|201:100|302:200,1,218.399993334961,4|8,1:2|0:2,0:0:0:0:
508,44,47817,6,0,P|434:37|388:24,1,109.199996667481,4|0,0:1|0:0,0:0:0:0:
199,198,48117,1,0,1:2:0:0:
383,119,48267,1,8,0:2:0:0:
218,12,48417,1,0,3:2:0:0:
300,187,48567,1,0,1:2:0:0:
303,203,48642,1,0,1:0:0:0:
305,217,48717,1,0,1:2:0:0:
122,59,48867,1,8,0:2:0:0:
277,84,49017,6,0,B|252:105|221:112|193:104|193:104|165:141|165:141|121:131|84:148,1,218.399993334961,4|0,0:1|1:2,0:0:0:0:
23,331,49467,1,8,1:2:0:0:
217,219,49617,1,4,0:2:0:0:
38,83,49767,2,0,P|4:138|24:199,1,109.199996667481,4|0,1:2|1:2,0:0:0:0:
28,204,49992,1,0,1:2:0:0:
50,218,50067,1,8,1:2:0:0:
321,213,50217,6,0,P|225:213|164:323,1,218.399993334961,4|0,0:1|0:2,0:0:0:0:
410,157,50667,1,8,1:2:0:0:
441,310,50817,1,0,1:2:0:0:
391,142,50967,2,0,P|393:86|398:18,1,109.199996667481,0|0,1:2|0:2,0:0:0:0:
511,217,51267,1,8,0:2:0:0:
332,349,51417,6,0,P|266:355|206:274,1,163.799995001221,4|0,0:1|2:0,0:0:0:0:
203,248,51717,1,0,1:2:0:0:
124,352,51867,1,8,0:2:0:0:
321,213,52017,1,0,3:2:0:0:
80,232,52167,2,0,P|81:176|221:132,1,218.399993334961,4|8,1:2|0:2,0:0:0:0:
502,171,52617,6,0,P|428:163|372:76,1,163.799995001221,4|0,0:1|2:2,0:0:0:0:
384,59,52917,1,0,1:2:0:0:
224,27,53067,1,8,0:2:0:0:
286,199,53217,1,4,0:2:0:0:
465,89,53367,5,0,1:2:0:0:
275,106,53517,1,0,1:2:0:0:
275,106,53592,1,0,1:2:0:0:
275,106,53667,1,8,1:2:0:0:
231,290,53817,1,4,0:2:0:0:
472,343,53967,6,0,P|462:280|454:219,1,109.199996667481,0|0,0:2|1:2,0:0:0:0:
455,234,54192,1,0,1:2:0:0:
455,234,54267,1,8,1:2:0:0:
188,192,54417,1,0,0:2:0:0:
348,289,54567,1,8,0:2:0:0:
161,370,54717,1,8,0:2:0:0:
317,128,54867,1,8,0:2:0:0:
75,284,55017,6,0,B|115:293|115:293|158:278|158:278|201:290|201:290|239:284,1,163.799995001221,4|0,0:1|2:0,0:0:0:0:
233,284,55317,1,0,0:2:0:0:
83,96,55467,2,0,L|112:217,1,109.199996667481,8|0,0:2|0:2,0:0:0:0:
227,100,55767,1,0,1:2:0:0:
0,185,55917,1,0,3:2:0:0:
99,15,56067,1,8,1:2:0:0:
307,148,56217,6,0,P|321:83|300:42,1,109.199996667481,4|0,0:1|0:2,0:0:0:0:
181,229,56517,1,0,1:2:0:0:
330,316,56667,2,0,P|265:303|225:324,1,109.199996667481,8|0,0:2|1:2,0:0:0:0:
0,264,56967,2,0,P|80:269|139:385,1,218.399993334961,4|8,1:2|0:2,0:0:0:0:
169,121,57417,6,0,L|185:260,1,109.199996667481,4|0,0:1|0:2,0:0:0:0:
23,116,57717,1,0,1:2:0:0:
222,40,57867,2,0,P|168:25|111:43,1,109.199996667481,8|0,1:2|1:2,0:0:0:0:
269,179,58167,2,0,L|263:125,1,54.5999983337403,0|0,0:2|0:0,0:0:0:0:
328,54,58317,1,0,1:2:0:0:
425,202,58467,1,8,1:2:0:0:
236,272,58617,6,0,B|303:288|339:246|339:246|361:302|449:310,1,218.399993334961,4|0,1:0|1:2,0:0:0:0:
131,359,59067,1,8,0:2:0:0:
191,138,59217,1,4,0:2:0:0:
2,211,59367,2,0,L|113:240,1,109.199996667481,4|0,0:2|1:2,0:0:0:0:
107,238,59592,1,0,1:2:0:0:
107,238,59667,1,8,1:2:0:0:
244,56,59817,6,0,B|194:23|140:56|140:56|79:91|26:56,1,218.399993334961,4|0,0:1|0:2,0:0:0:0:
289,258,60267,2,0,P|275:191|273:126,1,109.199996667481,8|0,0:2|0:2,0:0:0:0:
459,201,60567,1,0,1:2:0:0:
332,34,60717,1,0,1:2:0:0:
332,34,60792,1,0,1:2:0:0:
332,34,60867,1,8,1:2:0:0:
511,105,61017,6,0,P|430:94|350:204,1,218.399993334961,4|0,0:1|1:2,0:0:0:0:
472,314,61467,1,8,0:2:0:0:
350,191,61617,1,0,1:2:0:0:
215,367,61767,2,0,L|221:253,1,109.199996667481,4|0,1:2|0:2,0:0:0:0:
225,240,61992,1,0,1:2:0:0:
225,240,62067,1,8,0:2:0:0:
73,107,62217,6,0,B|54:80|22:66|22:66|94:91|189:56,1,218.399993334961,4|0,0:1|0:2,0:0:0:0:
207,48,62592,1,0,0:0:0:0:
235,22,62667,1,8,0:2:0:0:
273,21,62742,1,8,0:2:0:0:
307,38,62817,1,8,0:2:0:0:
330,68,62892,1,8,0:2:0:0:
332,111,62967,5,2,3:0:0:0:
315,151,63042,1,2,3:0:0:0:
280,177,63117,1,2,3:0:0:0:
236,178,63192,1,2,3:0:0:0:
199,153,63267,1,8,1:2:0:0:
165,124,63342,1,8,0:2:0:0:
121,116,63417,1,8,0:2:0:0:
83,137,63492,1,8,0:2:0:0:
72,173,63567,5,0,0:2:0:0:
87,208,63642,1,0,0:2:0:0:
123,219,63717,1,0,0:2:0:0:
134,255,63792,1,0,0:2:0:0:
171,263,63867,1,2,3:0:0:0:
186,297,63942,1,2,3:0:0:0:
223,302,64017,1,2,3:0:0:0:
242,335,64092,1,2,3:0:0:0:
272,360,64167,5,8,3:2:0:0:
284,157,64317,1,8,0:2:0:0:
98,345,64467,1,8,0:2:0:0:
370,263,64617,1,8,0:2:0:0:
176,158,64767,1,4,3:2:0:0:
175,120,66567,6,0,B|182:56|182:56|171:-2,2,91,8|8|8,0:1|0:1|0:1,0:0:0:0:
107,301,67017,1,8,0:1:0:0:
53,222,67167,5,2,3:2:0:0:
68,212,67242,2,0,P|152:216|204:288,1,150.150004582214,2|2,3:0|0:0,0:0:0:0:
262,364,67617,1,0,0:0:0:0:
482,193,67767,1,14,0:0:0:0:
482,193,68067,2,0,B|495:168|495:168|500:129|475:86,1,100.10000305481,0|0,0:0|3:2,0:0:0:0:
440,69,68292,1,0,3:2:0:0:
421,62,68367,5,10,3:2:0:0:
290,183,68517,1,0,3:2:0:0:
239,191,68592,1,0,3:2:0:0:
191,175,68667,1,2,3:2:0:0:
123,39,68817,1,0,3:2:0:0:
118,26,68892,1,0,3:0:0:0:
110,16,68967,5,8,3:2:0:0:
63,31,69042,1,0,3:0:0:0:
33,70,69117,1,2,3:2:0:0:
30,119,69192,1,0,3:0:0:0:
55,162,69267,1,2,3:0:0:0:
80,204,69342,1,2,3:0:0:0:
77,253,69417,1,2,3:0:0:0:
47,292,69492,1,2,3:0:0:0:
0,308,69567,5,12,0:0:0:0:
177,250,69717,1,2,0:0:0:0:
308,380,69867,1,0,3:0:0:0:
170,148,70017,5,12,0:0:0:0:
317,285,70167,1,2,0:0:0:0:
130,380,70317,1,0,3:0:0:0:
281,198,70467,2,0,P|338:200|401:208,1,100.10000305481,12|2,0:0|0:0,0:0:0:0:
135,37,70767,5,0,1:0:0:0:
96,49,70842,1,0,1:0:0:0:
79,89,70917,1,0,1:0:0:0:
47,100,70992,1,0,1:0:0:0:
33,125,71067,1,14,0:0:0:0:
33,125,71367,6,0,P|26:187|22:234,1,91,14|0,0:0|1:0,0:0:0:0:
230,378,71667,2,0,P|226:333|221:288,1,91,2|0,3:2|1:0,0:0:0:0:
326,62,71967,5,12,0:0:0:0:
143,160,72117,1,2,0:0:0:0:
381,179,72267,1,0,3:0:0:0:
243,20,72417,5,12,0:0:0:0:
435,102,72567,1,2,0:0:0:0:
268,238,72717,1,0,3:0:0:0:
461,126,72867,2,0,L|468:227,1,91,12|2,0:0|0:0,0:0:0:0:
294,360,73167,5,0,1:0:0:0:
249,352,73242,1,0,1:0:0:0:
229,323,73317,1,0,1:0:0:0:
190,313,73392,1,0,1:0:0:0:
179,287,73467,1,14,0:0:0:0:
179,287,73767,6,0,P|186:235|198:178,1,91,14|0,1:2|0:0,0:0:0:0:
356,42,74067,2,0,P|298:46|257:73,1,91,0|0,1:0|0:0,0:0:0:0:
14,60,74367,6,0,P|71:75|161:96,1,136.5,6|0,0:0|0:0,0:0:0:0:
170,93,74667,1,2,0:0:0:0:
20,175,74817,1,0,0:0:0:0:
269,61,74967,2,0,P|268:131|190:193,1,136.5,12|0,0:0|0:0,0:0:0:0:
200,215,75267,2,0,P|144:209|85:200,1,91,0|2,0:0|3:2,0:0:0:0:
281,286,75567,5,0,0:0:0:0:
26,373,75717,2,0,P|60:320|191:351,1,182,8|0,0:0|1:0,0:0:0:0:
379,272,76167,2,0,P|374:317|370:363,1,91,10|0,0:0|0:0,0:0:0:0:
311,181,76467,1,2,0:0:0:0:
370,363,76617,1,0,0:0:0:0:
224,182,76767,6,0,P|237:133|374:124,1,182,6|2,3:2|3:2,0:0:0:0:
475,160,77217,1,0,1:0:0:0:
362,14,77367,2,0,P|357:60|351:105,1,91,12|0,0:0|1:0,0:0:0:0:
248,353,77667,2,0,P|242:307|237:262,1,91,0|0,0:0|3:0,0:0:0:0:
477,273,77967,6,0,P|431:243|375:242,1,91,14|0,0:0|1:0,0:0:0:0:
157,320,78267,1,0,1:0:0:0:
328,296,78417,1,0,3:0:0:0:
226,171,78567,2,0,P|231:216|237:262,1,91,14|0,0:0|0:0,0:0:0:0:
25,364,78867,1,2,3:0:0:0:
28,341,78942,1,2,3:0:0:0:
30,318,79017,1,2,3:0:0:0:
33,296,79092,1,2,3:0:0:0:
35,273,79167,5,12,0:0:0:0:
248,353,79317,1,2,0:0:0:0:
320,142,79467,1,0,3:0:0:0:
120,212,79617,5,12,0:0:0:0:
342,249,79767,1,2,0:0:0:0:
116,335,79917,1,0,3:0:0:0:
116,335,80067,2,0,P|55:328|0:321,1,91,12|2,0:0|0:0,0:0:0:0:
216,139,80367,5,0,1:0:0:0:
214,95,80442,1,0,1:0:0:0:
253,70,80517,1,0,1:0:0:0:
260,41,80592,1,0,1:0:0:0:
283,30,80667,1,14,0:0:0:0:
283,30,80967,6,0,P|340:40|394:47,1,91,14|0,0:0|0:0,0:0:0:0:
512,285,81267,2,0,P|455:295|401:302,1,91,0|0,3:0|1:0,0:0:0:0:
454,111,81567,5,12,0:0:0:0:
261,193,81717,1,2,0:0:0:0:
261,193,81792,1,0,0:0:0:0:
261,193,81867,2,0,P|253:258|250:293,1,91,0|12,3:0|0:0,0:0:0:0:
174,121,82167,1,2,0:0:0:0:
354,206,82317,1,0,3:0:0:0:
162,345,82467,2,0,P|157:299|151:254,1,91,12|2,0:0|0:0,0:0:0:0:
382,57,82767,5,8,3:2:0:0:
360,48,82842,1,0,0:0:0:0:
338,44,82917,1,0,1:0:0:0:
316,45,82992,1,0,1:0:0:0:
294,52,83067,1,0,3:0:0:0:
272,58,83142,1,0,0:0:0:0:
249,58,83217,1,0,3:0:0:0:
227,55,83292,1,0,0:0:0:0:
205,49,83367,6,0,L|199:-2,1,45.5,10|0,3:2|0:0,0:0:0:0:
297,154,83517,2,0,L|291:199,1,45.5,0|0,1:0|1:0,0:0:0:0:
149,148,83667,6,0,L|215:157,1,45.5,0|0,1:0|0:0,0:0:0:0:
356,290,83817,2,0,L|290:299,1,45.5,2|0,3:2|0:0,0:0:0:0:
157,360,83967,5,6,1:2:0:0:
69,221,84267,2,0,L|85:315,1,68.250002603531,0|0,1:0|0:0,0:0:0:0:
157,360,84567,2,0,B|187:341|224:360|224:360|260:377|294:360,1,136.500005207062,2|0,1:2|1:0,0:0:0:0:
356,290,85017,1,0,0:0:0:0:
255,200,85167,6,0,L|260:269,1,68.250002603531,2|0,1:2|0:0,0:0:0:0:
376,123,85467,2,0,P|360:121|307:127,1,68.250002603531,0|0,1:2|0:0,0:0:0:0:
155,116,85767,2,0,P|170:117|223:111,1,68.250002603531,2|0,1:2|0:0,0:0:0:0:
283,43,86067,1,0,1:0:0:0:
479,192,86367,5,2,1:2:0:0:
420,351,86667,2,0,P|385:366|334:366,1,68.250002603531,0|0,1:0|0:0,0:0:0:0:
309,216,86967,2,0,P|339:238|364:282,1,68.250002603531,2|0,1:2|0:0,0:0:0:0:
269,321,87267,2,0,L|193:327,1,68.250002603531,0|0,1:0|0:0,0:0:0:0:
105,160,87567,6,0,L|116:269,1,86.449997691536,6|0,1:2|0:0,0:0:0:0:
176,78,87867,1,8,0:1:0:0:
185,68,87942,1,8,0:1:0:0:
196,61,88017,1,8,0:1:0:0:
209,57,88092,1,8,0:1:0:0:
222,54,88167,2,0,P|241:52|314:58,1,77.3500014753342,8|0,1:0|3:0,0:0:0:0:
479,143,88467,2,0,P|434:137|385:138,1,77.3500014753342,0|0,1:0|1:0,0:0:0:0:
277,321,88767,6,0,B|313:348|313:348|315:233,1,154.700002950668,6|0,0:0|1:0,0:0:0:0:
232,149,89217,1,0,3:0:0:0:
144,230,89367,2,0,P|104:240|59:231,1,77.3500014753342,2|0,0:0|0:0,0:0:0:0:
224,33,89667,2,0,L|233:170,1,116.025002213001,2|0,0:0|0:0,0:0:0:0:
241,159,89967,6,0,P|265:166|336:158,1,77.3500014753342,4|0,0:0|1:0,0:0:0:0:
498,203,90267,2,0,P|474:196|403:204,1,77.3500014753342,0|0,1:0|3:0,0:0:0:0:
220,327,90567,2,0,P|298:325|341:262,1,154.700002950668,8|2,0:1|3:2,0:0:0:0:
316,164,91017,1,0,1:0:0:0:
173,27,91167,6,0,P|160:84|185:176,1,154.700002950668,2|2,1:2|3:2,0:0:0:0:
254,239,91617,1,0,1:0:0:0:
220,327,91767,2,0,P|160:333|105:330,1,116.025002213001,2|0,0:0|0:0,0:0:0:0:
71,341,92067,2,0,P|59:285|70:250,1,86.449997691536,2|2,3:2|1:2,0:0:0:0:
202,87,92367,5,4,0:0:0:0:
254,239,92517,1,0,0:0:0:0:
146,160,92667,5,4,0:0:0:0:
320,94,92817,1,0,0:0:0:0:
254,239,92967,5,8,0:0:0:0:
248,255,93117,1,0,0:0:0:0:
243,271,93267,1,0,0:0:0:0:
238,287,93417,1,0,0:0:0:0:
114,376,93567,6,0,P|107:313|97:208,1,136.5,4|0,1:0|0:0,0:0:0:0:
107,216,93867,1,8,0:0:0:0:
345,340,94017,2,0,P|309:288|180:317,1,182,6|0,0:0|1:0,0:0:0:0:
14,355,94467,1,8,0:0:0:0:
98,125,94617,6,0,P|102:170|107:216,1,91,6|0,1:0|0:0,0:0:0:0:
210,26,94917,2,0,P|214:71|218:116,1,91,0|8,1:0|0:0,0:0:0:0:
105,17,95217,1,4,0:0:0:0:
200,204,95367,2,0,P|256:199|297:162,1,91,0|0,0:0|1:0,0:0:0:0:
301,155,95592,1,0,1:0:0:0:
305,131,95667,1,8,0:0:0:0:
98,125,95817,1,0,1:0:0:0:
325,44,95967,6,0,P|391:102|375:188,1,182,6|8,1:0|0:0,0:0:0:0:
495,333,96417,2,0,P|485:289|479:244,1,91,4|0,0:0|0:0,0:0:0:0:
305,131,96717,1,0,1:0:0:0:
498,78,96867,1,8,0:0:0:0:
386,282,97017,6,0,B|344:284|316:260|316:260|281:263|281:263|247:238|190:245,1,182,6|0,1:0|0:0,0:0:0:0:
185,253,97392,1,0,0:0:0:0:
166,270,97467,1,8,0:0:0:0:
12,128,97617,2,0,P|66:153|101:203,1,91,4|0,0:0|0:0,0:0:0:0:
234,341,97917,1,2,3:0:0:0:
10,291,98067,1,2,3:0:0:0:
184,139,98217,5,2,3:0:0:0:
184,139,98292,1,2,3:0:0:0:
184,139,98367,1,12,0:0:0:0:
280,177,98517,1,0,1:0:0:0:
343,13,98667,5,8,0:0:0:0:
375,155,98817,1,0,1:0:0:0:
461,103,98967,5,8,0:0:0:0:
292,91,99117,1,0,1:0:0:0:
288,263,99267,5,8,0:0:0:0:
504,214,99417,1,0,1:0:0:0:
381,42,99567,5,8,0:0:0:0:
410,247,99717,1,0,1:0:0:0:
225,26,99867,5,8,0:0:0:0:
194,234,100017,1,0,1:0:0:0:
426,125,100167,5,8,0:0:0:0:
426,125,100467,6,0,L|420:183,1,45.5,2|2,3:0|3:0,0:0:0:0:
398,332,100617,2,0,L|402:377,1,45.5,2|2,3:0|3:0,0:0:0:0:
478,282,100767,6,0,B|441:253|441:253|388:241|345:258|345:258|281:247,1,200.200006109619,8|8,0:0|0:0,0:0:0:0:
122,185,101217,2,0,P|134:242|138:277,1,91,0|8,1:0|0:0,0:0:0:0:
218,128,101517,1,0,1:0:0:0:
36,92,101667,2,0,P|94:81|142:49,1,91,8|0,0:0|1:0,0:0:0:0:
292,198,101967,5,4,3:1:0:0:
327,186,102042,1,2,3:0:0:0:
355,160,102117,1,2,3:0:0:0:
369,125,102192,1,8,3:0:0:0:
367,88,102267,1,8,3:0:0:0:
350,54,102342,1,8,3:0:0:0:
320,31,102417,2,0,L|259:48,1,45.5,4|2,3:1|3:0,0:0:0:0:
157,6,102567,5,2,3:0:0:0:
152,39,102642,1,8,3:0:0:0:
148,73,102717,1,8,3:0:0:0:
143,107,102792,1,8,3:0:0:0:
139,141,102867,2,0,L|162:198,1,45.5,4|0,3:1|3:0,0:0:0:0:
30,269,103017,2,0,L|83:288,1,45.5,2|2,3:0|3:0,0:0:0:0:
162,376,103167,5,2,3:0:0:0:
179,334,103242,1,2,3:0:0:0:
217,309,103317,1,8,3:2:0:0:
261,308,103392,1,8,3:2:0:0:
300,331,103467,1,8,3:2:0:0:
342,355,103542,1,8,3:2:0:0:
390,354,103617,1,8,3:2:0:0:
432,326,103692,1,8,3:2:0:0:
450,281,103767,1,8,0:2:0:0:
447,232,103842,1,0,1:0:0:0:
417,194,103917,1,0,1:0:0:0:
370,178,103992,1,0,1:0:0:0:
323,192,104067,2,0,L|333:263,1,45.5,0|0,0:0|0:0,0:0:0:0:
423,111,104217,6,0,B|378:91|378:91|329:107|329:107|298:101|298:101|261:110,1,163.799995001221,4|0,0:1|2:0,0:0:0:0:
267,108,104517,1,0,0:2:0:0:
82,43,104667,2,0,P|158:50|194:42,1,109.199996667481,8|0,0:2|0:2,0:0:0:0:
329,27,104967,1,0,1:2:0:0:
217,211,105117,1,0,0:2:0:0:
82,43,105267,1,8,0:2:0:0:
134,255,105417,6,0,P|186:301|312:226,1,218.399993334961,4|0,0:1|1:2,0:0:0:0:
373,136,105867,1,8,0:2:0:0:
217,211,106017,1,0,3:2:0:0:
496,361,106167,2,0,P|454:271|491:160,1,218.399993334961,4|8,1:2|0:2,0:0:0:0:
413,32,106617,6,0,P|351:25|299:53,1,109.199996667481,4|0,0:1|0:0,0:0:0:0:
122,64,106917,1,0,1:2:0:0:
373,136,107067,1,8,0:2:0:0:
129,235,107217,1,0,1:2:0:0:
236,56,107367,1,0,1:2:0:0:
240,82,107442,1,0,1:0:0:0:
244,108,107517,1,0,1:2:0:0:
324,252,107667,1,8,0:2:0:0:
70,170,107817,6,0,B|97:153|97:153|137:147|137:147|174:159|174:159|198:183|198:183|237:202|274:189,1,218.399993334961,4|0,0:1|1:2,0:0:0:0:
350,60,108267,1,8,0:2:0:0:
423,270,108417,1,4,0:2:0:0:
497,124,108567,2,0,L|375:146,1,109.199996667481,4|0,0:2|1:2,0:0:0:0:
363,151,108792,1,0,1:2:0:0:
336,157,108867,1,8,0:2:0:0:
239,365,109017,6,0,B|225:322|225:322|248:289|248:289|229:253|229:253|234:221|234:221|246:197|246:197|240:156,1,218.399993334961,4|0,0:1|0:2,0:0:0:0:
54,94,109467,2,0,P|119:97|165:77,1,109.199996667481,8|0,0:2|0:2,0:0:0:0:
274,46,109767,1,0,1:2:0:0:
342,242,109917,1,0,1:2:0:0:
110,187,110067,1,8,0:2:0:0:
379,153,110217,6,0,P|310:149|249:227,1,163.799995001221,4|0,0:1|2:0,0:0:0:0:
243,241,110517,1,0,0:2:0:0:
54,260,110667,1,8,0:2:0:0:
290,326,110817,1,0,1:2:0:0:
138,121,110967,2,0,L|151:345,1,218.399993334961,4|8,0:2|0:2,0:0:0:0:
271,190,111417,6,0,B|314:178|351:210|351:210|385:240|430:229,1,163.799995001221,4|0,0:1|2:2,0:0:0:0:
439,196,111717,1,0,1:2:0:0:
268,111,111867,1,8,0:2:0:0:
292,302,112017,1,4,0:2:0:0:
380,109,112167,5,0,0:2:0:0:
170,154,112317,1,0,1:2:0:0:
170,154,112392,1,0,1:2:0:0:
170,154,112467,1,8,1:2:0:0:
207,342,112617,1,4,0:2:0:0:
439,196,112767,6,0,L|313:208,1,109.199996667481,0|0,0:2|1:2,0:0:0:0:
330,206,112992,1,0,1:2:0:0:
330,206,113067,1,8,1:2:0:0:
207,342,113217,1,0,0:2:0:0:
284,112,113367,1,8,0:2:0:0:
45,215,113517,1,8,0:2:0:0:
292,302,113667,1,8,0:2:0:0:
457,95,113817,6,0,P|412:39|307:46,1,163.799995001221,4|0,0:1|2:0,0:0:0:0:
325,35,114117,1,0,0:2:0:0:
132,122,114267,2,0,P|209:112|256:81,1,109.199996667481,8|0,0:2|0:2,0:0:0:0:
451,221,114567,1,0,1:2:0:0:
260,190,114717,1,0,3:2:0:0:
458,247,114867,1,8,0:2:0:0:
228,377,115017,6,0,B|227:355|227:355|235:327|235:327|250:286|244:248,1,109.199996667481,4|0,0:1|0:2,0:0:0:0:
486,334,115317,1,0,1:2:0:0:
424,108,115467,2,0,P|388:148|376:201,1,109.199996667481,8|0,0:2|1:2,0:0:0:0:
74,207,115767,2,0,P|177:190|245:270,1,218.399993334961,4|8,1:2|0:2,0:0:0:0:
273,40,116217,6,0,P|290:116|295:161,1,109.199996667481,4|0,0:1|0:2,0:0:0:0:
141,292,116517,1,0,1:2:0:0:
424,108,116667,2,0,P|388:148|376:201,1,109.199996667481,8|0,0:2|0:2,0:0:0:0:
42,58,116967,2,0,L|107:53,1,54.5999983337403,0|0,1:2|1:2,0:0:0:0:
166,122,117117,1,0,1:2:0:0:
15,191,117267,1,8,0:2:0:0:
239,55,117417,6,0,B|277:108|254:161|254:161|276:108|366:104,1,218.399993334961,4|0,0:1|1:2,0:0:0:0:
163,217,117867,1,8,0:2:0:0:
339,106,118017,1,4,0:2:0:0:
73,190,118167,2,0,P|85:255|91:306,1,109.199996667481,4|0,0:2|1:2,0:0:0:0:
79,327,118392,1,0,1:2:0:0:
65,354,118467,1,8,1:2:0:0:
11,129,118617,6,0,B|34:88|154:86|94:128|165:153|234:99,1,218.399993334961,4|0,0:1|0:2,0:0:0:0:
486,58,119067,2,0,P|432:71|385:97,1,109.199996667481,8|0,0:2|0:2,0:0:0:0:
363,219,119367,1,0,1:2:0:0:
274,23,119517,1,0,3:2:0:0:
236,239,119667,1,8,1:2:0:0:
463,159,119817,6,0,B|482:195|482:195|464:232|464:232|474:265|474:265|460:310|461:389,1,218.399993334961,4|0,0:1|1:2,0:0:0:0:
236,239,120267,2,0,P|311:254|382:278,1,109.199996667481,8|0,0:2|0:2,0:0:0:0:
130,290,120567,1,0,1:2:0:0:
261,146,120717,1,0,3:2:0:0:
339,356,120867,1,8,1:2:0:0:
174,164,121017,6,0,B|148:109|158:7|158:7|141:55|106:91,1,218.399993334961,4|4,0:1|1:2,0:0:0:0:
110,71,121392,1,4,1:2:0:0:
86,75,121467,1,4,1:2:0:0:
261,146,121617,1,0,0:2:0:0:
53,202,121767,5,8,0:2:0:0:
40,238,121842,1,8,0:2:0:0:
47,277,121917,1,8,0:2:0:0:
68,312,121992,1,8,0:2:0:0:
105,327,122067,1,8,0:2:0:0:
147,325,122142,1,8,0:2:0:0:
183,308,122217,1,8,0:2:0:0:
202,271,122292,1,0,0:2:0:0:
194,232,122367,5,0,0:2:0:0:
230,242,122442,1,0,0:0:0:0:
260,218,122517,1,4,1:2:0:0:
296,228,122592,1,4,1:2:0:0:
328,208,122667,1,4,0:2:0:0:
365,217,122742,1,0,2:2:0:0:
397,197,122817,1,0,0:2:0:0:
435,194,122892,1,0,2:2:0:0:
462,166,122967,5,8,0:2:0:0:
455,112,123042,1,8,0:2:0:0:
422,69,123117,1,8,0:2:0:0:
372,50,123192,1,8,0:2:0:0:
319,59,123267,1,0,0:2:0:0:
278,94,123342,1,0,2:2:0:0:
261,146,123417,1,0,0:2:0:0:
273,198,123492,1,0,2:2:0:0:
311,237,123567,6,0,P|353:245|419:229,1,91,14|0,0:2|0:2,0:0:0:0:
512,331,123867,2,0,P|470:323|404:339,1,91,0|0,3:2|1:2,0:0:0:0:
257,384,124167,2,0,P|254:365|249:293,1,91,2|0,0:2|0:2,0:0:0:0:
148,156,124467,5,10,0:2:0:0:
148,156,124617,1,0,0:2:0:0:
32,237,124767,1,0,1:2:0:0:
34,259,124842,1,0,1:2:0:0:
36,281,124917,1,0,1:2:0:0:
38,303,124992,1,0,1:2:0:0:
40,325,125067,2,0,P|90:334|135:330,1,91,2|0,1:2|1:2,0:0:0:0:
34,114,125367,5,6,0:2:0:0:
34,114,125517,1,0,0:2:0:0:
195,58,125667,2,0,P|152:46|105:57,1,91,0|0,3:2|1:2,0:0:0:0:
157,225,125967,1,2,1:2:0:0:
157,225,126042,1,0,1:2:0:0:
157,225,126117,1,0,1:2:0:0:
282,100,126267,6,0,B|330:130|376:101|376:101|421:74|465:100,1,182,10|4,0:2|3:2,0:0:0:0:
427,201,126717,1,0,1:2:0:0:
263,314,126867,2,0,L|270:211,1,91,2|2,3:2|1:2,0:0:0:0:
104,60,127167,5,10,0:2:0:0:
65,206,127317,1,0,1:2:0:0:
209,166,127467,1,2,1:2:0:0:
18,112,127617,1,0,1:2:0:0:
228,268,127767,1,6,3:2:0:0:
232,59,127917,1,0,1:2:0:0:
232,59,127992,1,0,0:0:0:0:
232,59,128067,6,0,B|285:68|285:68|327:46|327:46|369:63|369:63|419:58,1,182,10|0,0:2|1:2,0:0:0:0:
492,57,128442,2,0,L|468:118,1,45.5,0|0,1:2|1:2,0:0:0:0:
452,277,128667,5,14,0:2:0:0:
332,147,128817,1,0,1:2:0:0:
239,312,128967,2,0,L|223:217,1,91,14|0,0:2|0:2,0:0:0:0:
123,54,129267,5,2,1:2:0:0:
96,75,129342,1,2,1:2:0:0:
77,103,129417,1,2,1:2:0:0:
66,135,129492,1,0,0:0:0:0:
65,169,129567,1,0,3:2:0:0:
245,94,129717,1,2,3:2:0:0:
81,252,129867,6,0,L|171:251,1,91,6|0,0:2|0:2,0:0:0:0:
186,264,130092,1,2,1:2:0:0:
186,264,130167,2,0,L|194:220,1,45.5,2|0,1:2|0:2,0:0:0:0:
245,94,130317,6,0,L|335:94,1,91,12|0,0:2|0:2,0:0:0:0:
350,82,130542,1,2,1:2:0:0:
350,82,130617,2,0,L|358:126,1,45.5,2|0,1:2|0:2,0:0:0:0:
442,208,130767,6,0,B|409:199|409:199|370:218|370:218|323:207|323:207|293:216|266:201,1,182,14|0,0:2|3:2,0:0:0:0:
268,202,131217,1,0,1:2:0:0:
373,361,131367,2,0,P|411:326|424:286,1,91,6|0,0:2|0:2,0:0:0:0:
511,54,131667,6,0,L|499:164,1,91,10|2,0:2|0:2,0:0:0:0:
316,48,131967,1,0,1:2:0:0:
338,43,132042,1,0,1:2:0:0:
360,38,132117,1,0,1:2:0:0:
382,33,132192,1,0,1:2:0:0:
404,28,132267,1,2,3:2:0:0:
390,207,132417,1,0,0:2:0:0:
275,335,132567,5,10,0:2:0:0:
275,335,132717,1,0,0:2:0:0:
154,179,132867,2,0,L|167:280,1,91,0|0,3:2|1:2,0:0:0:0:
346,148,133167,1,6,0:2:0:0:
346,148,133242,1,0,0:2:0:0:
346,148,133317,1,0,0:2:0:0:
104,96,133467,6,0,P|188:88|251:189,1,182,14|0,0:2|3:2,0:0:0:0:
231,304,133917,1,0,1:2:0:0:
63,191,134067,2,0,L|163:177,1,91,6|0,3:2|1:2,0:0:0:0:
302,84,134367,5,14,0:2:0:0:
302,84,134442,1,0,0:0:0:0:
302,84,134517,1,0,1:2:0:0:
380,277,134667,1,0,3:2:0:0:
251,214,134817,1,0,1:2:0:0:
454,160,134967,1,6,3:2:0:0:
436,344,135117,1,0,1:2:0:0:
377,135,135267,5,10,0:2:0:0:
377,135,135342,1,0,0:0:0:0:
377,135,135417,1,0,0:2:0:0:
217,221,135567,2,0,L|250:213,3,34.1250013017655,4|0|0|0,1:2|1:2|1:2|1:2,0:0:0:0:
165,298,135867,1,2,3:2:0:0:
205,84,136017,1,0,1:2:0:0:
376,300,136167,6,0,L|329:193,1,91,14|0,0:2|0:2,0:0:0:0:
105,93,136467,6,0,L|91:148,1,45.5,2|2,3:0|3:0,0:0:0:0:
65,289,136617,2,0,L|51:234,1,45.5,2|2,3:0|3:0,0:0:0:0:
205,84,136767,2,0,L|191:139,1,45.5,2|0,3:2|1:0,0:0:0:0:
165,298,136917,2,0,L|151:243,1,45.5,2|0,3:0|1:0,0:0:0:0:
366,183,137067,6,0,P|430:166|490:191,1,136.5,12|0,0:0|0:0,0:0:0:0:
257,188,137367,2,0,P|210:140|203:73,1,136.5,12|0,0:0|0:0,0:0:0:0:
316,279,137668,2,0,P|297:343|244:381,1,136.5,12|0,0:0|0:0,0:0:0:0:
366,183,137967,5,0,3:0:0:0:
374,166,138267,1,0,3:0:0:0:
382,149,138567,5,4,0:0:0:0:
158,193,138717,2,0,P|190:154|249:137,1,91,0|0,3:0|1:0,0:0:0:0:
432,256,139017,1,0,0:0:0:0:
184,49,139167,6,0,P|233:39|295:66,1,91,8|0,0:0|1:0,0:0:0:0:
288,62,139392,1,0,1:0:0:0:
297,76,139467,1,0,1:0:0:0:
245,230,139617,1,0,1:0:0:0:
206,242,139692,1,0,1:0:0:0:
165,257,139767,2,0,L|16:246,1,136.5,2|0,0:0|0:0,0:0:0:0:
14,234,140067,2,0,P|27:278|37:331,1,91,0|0,0:0|0:0,0:0:0:0:
86,116,140367,5,0,3:0:0:0:
92,97,140667,1,0,3:0:0:0:
98,72,140967,5,4,0:0:0:0:
190,228,141117,1,0,0:0:0:0:
248,19,141267,1,0,3:0:0:0:
24,178,141417,1,0,3:0:0:0:
224,114,141567,5,8,0:0:0:0:
348,252,141717,1,0,1:0:0:0:
348,252,141792,1,0,1:0:0:0:
348,252,141867,1,0,1:0:0:0:
476,99,142017,1,0,0:0:0:0:
443,227,142167,5,8,0:0:0:0:
255,198,142317,1,0,1:0:0:0:
284,10,142467,1,8,0:0:0:0:
476,99,142617,1,0,1:0:0:0:
371,278,142767,6,0,P|353:236|396:152,1,136.5,2|0,0:2|0:2,0:0:0:0:
387,157,143067,1,0,3:2:0:0:
240,260,143217,1,0,1:2:0:0:
452,348,143367,5,14,0:2:0:0:
129,307,143517,1,0,1:2:0:0:
129,307,143817,1,0,3:2:0:0:
92,22,144117,5,0,1:2:0:0:
92,22,144192,1,0,1:2:0:0:
92,22,144267,1,2,1:2:0:0:
174,100,144417,1,0,1:2:0:0:
22,212,144567,2,0,L|65:131,1,91,8|0,1:2|1:2,0:0:0:0:
289,18,144867,2,0,L|166:-8,1,91,0|0,3:2|1:2,0:0:0:0:
148,203,145167,6,0,B|245:176|188:240|313:206,1,136.5,6|0,0:2|0:2,0:0:0:0:
311,198,145467,1,0,3:2:0:0:
170,286,145617,1,0,0:0:0:0:
383,347,145767,1,8,0:2:0:0:
163,313,145917,1,8,0:2:0:0:
409,246,146217,5,2,3:2:0:0:
97,169,146517,1,0,1:2:0:0:
95,156,146592,1,0,1:2:0:0:
94,143,146667,1,2,1:2:0:0:
146,60,146817,1,0,3:2:0:0:
8,205,146967,6,0,P|73:215|177:238,1,136.5,12|0,0:0|0:0,0:0:0:0:
230,164,147267,2,0,L|174:153,1,45.5,2|0,3:0|0:0,0:0:0:0:
47,300,147417,2,0,L|91:308,1,45.5,0|0,0:0|0:0,0:0:0:0:
211,359,147567,6,0,P|203:318|220:265,1,91,12|2,0:0|0:0,0:0:0:0:
316,117,147867,1,0,1:0:0:0:
408,282,148017,2,0,L|318:295,1,91,12|2,0:0|0:0,0:0:0:0:
419,124,148317,1,0,1:0:0:0:
285,220,148467,1,12,0:0:0:0:
512,272,148617,1,2,0:0:0:0:
512,53,148767,5,0,1:0:0:0:
510,66,148842,1,0,1:0:0:0:
508,79,148917,1,0,1:0:0:0:
506,92,148992,1,0,1:0:0:0:
504,105,149067,2,0,P|464:123|412:122,1,91,14|0,0:0|0:0,0:0:0:0:
257,187,149367,2,0,P|299:176|391:204,1,136.5,14|0,0:0|0:0,0:0:0:0:
386,200,149667,1,2,3:0:0:0:
339,81,149817,1,0,1:0:0:0:
160,34,149967,6,0,P|168:124|168:215,1,182,12|0,0:0|3:0,0:0:0:0:
22,296,150417,2,0,P|81:313|125:309,1,91,12|2,0:0|0:0,0:0:0:0:
261,174,150717,1,0,3:0:0:0:
54,171,150867,1,12,0:0:0:0:
215,311,151017,1,2,0:0:0:0:
242,43,151167,5,0,1:0:0:0:
238,83,151242,1,0,1:0:0:0:
254,116,151317,1,0,1:0:0:0:
249,147,151392,1,0,1:0:0:0:
261,174,151467,1,14,0:0:0:0:
261,174,151767,6,0,L|348:150,1,91,14|0,1:2|0:0,0:0:0:0:
500,55,152067,2,0,L|413:31,1,91,0|0,1:0|0:0,0:0:0:0:
313,259,152367,6,0,B|353:230|399:258|399:258|447:288|495:259,1,182,6|2,0:2|0:2,0:0:0:0:
455,163,152817,1,0,0:0:0:0:
354,342,152967,2,0,P|308:357|264:340,1,91,14|0,0:2|1:2,0:0:0:0:
182,212,153267,1,0,0:0:0:0:
69,369,153417,6,0,L|82:273,1,91,2|0,3:2|0:0,0:0:0:0:
106,117,153717,1,8,0:2:0:0:
106,117,153792,1,0,0:0:0:0:
106,117,153867,1,2,3:2:0:0:
0,196,154017,1,0,1:2:0:0:
200,131,154167,2,0,P|247:113|324:150,1,136.5,10|0,0:2|0:2,0:0:0:0:
321,146,154467,2,0,P|370:161|411:138,1,91,2|0,0:2|0:0,0:0:0:0:
432,52,154767,5,6,0:2:0:0:
506,222,154917,2,0,L|500:132,1,91,0|0,0:0|3:2,0:0:0:0:
455,314,155217,1,0,1:2:0:0:
275,267,155367,2,0,P|319:254|363:263,1,91,8|0,3:2|1:2,0:0:0:0:
221,177,155667,1,0,0:0:0:0:
168,361,155817,6,0,L|175:271,1,91,2|8,3:2|0:2,0:0:0:0:
131,129,156117,1,0,1:2:0:0:
131,129,156192,1,0,1:2:0:0:
131,129,156267,1,2,1:2:0:0:
268,36,156417,1,0,3:2:0:0:
41,19,156567,6,0,P|31:65|44:110,1,91,8|0,0:2|0:0,0:0:0:0:
1,268,156867,1,2,3:0:0:0:
10,224,156942,1,2,3:0:0:0:
0,180,157017,1,2,3:3:0:0:
175,271,157167,5,12,0:2:0:0:
334,164,157317,1,2,0:2:0:0:
97,192,157467,1,0,3:2:0:0:
315,300,157617,5,12,0:2:0:0:
214,84,157767,1,2,0:2:0:0:
102,354,157917,1,0,3:2:0:0:
102,354,158067,2,0,L|196:345,1,91,12|2,0:2|0:2,0:0:0:0:
322,64,158367,5,0,1:2:0:0:
319,101,158442,1,0,1:2:0:0:
342,133,158517,1,0,1:2:0:0:
334,164,158592,1,0,1:2:0:0:
355,190,158667,1,14,0:2:0:0:
355,190,158967,6,0,P|415:212|484:184,1,136.5,14|0,3:2|0:0,0:0:0:0:
501,199,159267,2,0,P|497:229|501:292,1,91,2|0,3:2|1:2,0:0:0:0:
416,98,159567,5,12,0:2:0:0:
172,117,159717,1,2,0:2:0:0:
355,190,159867,1,0,3:2:0:0:
273,16,160017,5,12,0:2:0:0:
171,207,160167,2,0,L|172:103,1,91,2|0,0:2|3:2,0:0:0:0:
38,46,160467,1,12,0:2:0:0:
315,103,160617,1,2,1:2:0:0:
213,294,160767,6,0,B|167:319|114:288,1,91,8|0,3:2|3:0,0:0:0:0:
303,94,161067,2,0,L|312:201,1,91,0|2,3:0|3:0,0:0:0:0:
288,384,161367,2,0,L|284:324,2,60.6666666666667,2|0|0,3:0|0:0|0:0,0:0:0:0:
408,250,161667,2,0,L|413:311,2,60.6666666666667,0|0|0,3:0|0:0|0:0,0:0:0:0:
505,134,161967,6,0,B|428:108|470:162|336:129,1,136.5,4|0,3:2|0:2,0:0:0:0:
322,67,162267,2,0,P|364:53|409:59,1,91,0|0,0:0|0:0,0:0:0:0:
475,211,162567,1,8,0:0:0:0:
278,146,162717,2,0,P|244:117|228:75,1,91,0|2,0:2|0:2,0:0:0:0:
1,187,163017,6,0,P|33:142|166:139,1,182,2|0,3:2|0:2,0:0:0:0:
45,38,163467,1,2,0:2:0:0:
102,230,163617,2,0,P|95:282|87:339,1,91,2|8,0:2|0:2,0:0:0:0:
201,240,163917,1,0,0:2:0:0:
0,264,164067,1,0,0:2:0:0:
151,129,164217,1,0,0:2:0:0:
189,337,164367,6,0,P|243:291|359:306,1,182,2|0,3:2|0:0,0:0:0:0:
487,142,164817,1,0,0:0:0:0:
458,339,164967,2,0,P|451:281|449:224,1,91,8|0,0:0|0:2,0:0:0:0:
449,248,165192,1,0,0:0:0:0:
449,248,165267,1,2,0:2:0:0:
428,46,165417,6,0,P|372:83|305:85,1,136.5,2|0,3:2|0:0,0:0:0:0:
275,64,165717,2,0,P|291:107|296:152,1,91,0|2,0:2|0:2,0:0:0:0:
122,18,166017,1,2,0:2:0:0:
75,174,166167,5,10,3:0:0:0:
97,148,166242,1,2,3:0:0:0:
127,131,166317,1,2,3:0:0:0:
160,124,166392,1,2,3:0:0:0:
194,128,166467,1,8,2:0:0:0:
15,82,166617,1,0,0:0:0:0:
163,229,166767,6,0,P|148:281|143:333,1,91,12|0,0:0|1:0,0:0:0:0:
410,374,167067,2,0,P|396:311|381:266,1,91,8|0,0:0|1:0,0:0:0:0:
215,382,167367,2,0,P|269:362|333:351,1,91,8|0,0:0|1:0,0:0:0:0:
444,213,167667,2,0,P|401:196|357:185,1,91,8|0,0:0|1:0,0:0:0:0:
137,28,167967,5,8,0:0:0:0:
315,97,168117,1,0,1:0:0:0:
102,134,168267,2,0,P|87:193|79:238,1,91,8|0,0:0|1:0,0:0:0:0:
399,29,168567,5,8,0:0:0:0:
210,129,168717,1,0,0:0:0:0:
248,331,168867,1,8,3:2:0:0:
468,349,169017,1,0,3:0:0:0:
468,349,169092,1,0,3:0:0:0:
468,349,169167,6,0,B|450:238|514:289|497:147,1,182,12|8,0:0|0:0,0:0:0:0:
417,20,169617,2,0,P|348:31|307:39,1,91,0|8,1:0|0:0,0:0:0:0:
95,20,169917,2,0,P|139:26|184:34,1,91,0|8,1:0|0:0,0:0:0:0:
255,148,170217,1,0,1:0:0:0:
57,302,170367,6,0,L|78:196,1,91,4|0,3:0|3:0,3:0:0:0:
160,164,170592,1,8,3:0:0:0:
160,164,170667,2,0,L|155:105,1,45.5
230,241,170817,2,0,L|316:226,1,45.5
358,260,170967,5,8,3:0:0:0:
358,260,171042,1,8,3:0:0:0:
358,260,171117,2,0,L|364:214,1,45.5,0|0,3:0|3:0,0:0:0:0:
271,323,171267,6,0,L|277:369,1,45.5,2|0,3:0|0:0,0:0:0:0:
458,301,171416,2,0,L|464:255,1,45.5,2|0,3:0|0:0,0:0:0:0:
324,65,171567,5,8,0:0:0:0:
480,150,171717,1,0,3:0:0:0:
299,147,171867,1,8,0:0:0:0:
429,12,172017,1,0,3:0:0:0:
223,18,172167,6,0,P|233:51|238:90,1,68.250002603531,8|0,0:0|0:0,0:0:0:0:
136,163,172317,2,0,P|108:154|79:153,1,59.149997292328,8|0,3:2|0:0,0:0:0:0:
205,281,172467,2,0,P|206:306|211:336,1,54.5999983337403,0|0,3:0|0:0,0:0:0:0:
248,186,172617,6,0,P|156:192|95:285,1,163.799995001221,4|0,0:1|2:0,0:0:0:0:
108,241,172917,1,0,0:0:0:0:
19,67,173067,2,0,P|45:79|149:71,1,109.199996667481,8|0,0:2|0:2,0:0:0:0:
279,27,173367,1,0,1:2:0:0:
357,244,173517,1,0,0:2:0:0:
201,95,173667,1,8,0:2:0:0:
422,155,173817,6,0,B|394:162|394:162|360:149|360:149|319:160|319:160|286:153|286:153|264:161,1,163.799995001221,4|0,0:1|2:0,0:0:0:0:
247,171,174117,2,0,P|234:238|253:289,1,109.199996667481,0|8,1:2|0:2,0:0:0:0:
409,71,174417,1,0,1:2:0:0:
502,279,174567,2,0,P|501:231|522:59,1,218.399993334961,4|8,3:2|0:2,0:0:0:0:
199,89,175017,6,0,P|262:76|315:106,1,109.199996667481,4|0,0:1|0:0,0:0:0:0:
422,155,175317,1,0,1:2:0:0:
175,184,175467,1,8,0:2:0:0:
347,39,175617,1,0,0:2:0:0:
250,215,175767,1,0,1:2:0:0:
246,231,175842,1,0,1:2:0:0:
242,246,175917,1,0,1:2:0:0:
361,35,176067,1,8,0:2:0:0:
67,159,176217,6,0,P|111:92|239:98,1,218.399993334961,4|0,0:1|0:2,0:0:0:0:
330,205,176667,1,8,0:2:0:0:
512,153,176817,1,4,0:2:0:0:
459,358,176967,2,0,L|439:239,1,109.199996667481,4|0,0:2|1:2,0:0:0:0:
440,249,177192,1,0,1:2:0:0:
440,249,177267,1,8,1:2:0:0:
146,173,177417,6,0,B|174:174|174:174|205:164|205:164|264:189|264:189|309:166|309:166|364:173,1,218.399993334961,4|0,0:1|0:0,0:0:0:0:
117,59,177867,2,0,L|138:170,1,109.199996667481,8|0,0:2|1:2,0:0:0:0:
189,299,178167,1,0,1:2:0:0:
21,202,178317,1,0,3:2:0:0:
259,92,178467,1,8,0:2:0:0:
330,322,178617,6,0,L|360:160,1,163.799995001221,4|0,0:1|2:0,0:0:0:0:
384,149,178917,1,0,1:2:0:0:
167,188,179067,1,8,0:2:0:0:
444,218,179217,1,0,0:2:0:0:
143,79,179367,2,0,P|243:106|267:227,1,218.399993334961,4|8,1:2|0:2,0:0:0:0:
510,74,179817,6,0,B|466:98|424:75|424:75|382:51|346:74,1,163.799995001221,4|0,0:1|2:0,0:0:0:0:
321,89,180117,1,0,1:2:0:0:
370,286,180267,1,8,0:2:0:0:
495,156,180417,1,4,0:2:0:0:
253,157,180567,5,0,0:2:0:0:
472,253,180717,1,0,1:2:0:0:
472,253,180792,1,0,1:2:0:0:
472,253,180867,1,8,1:2:0:0:
246,349,181017,1,4,0:2:0:0:
376,67,181167,6,0,L|383:197,1,109.199996667481,0|0,0:0|1:0,0:0:0:0:
381,176,181392,1,0,1:0:0:0:
381,176,181467,1,8,1:2:0:0:
128,198,181617,5,4,0:0:0:0:
370,286,181767,1,0,0:0:0:0:
135,320,181917,1,0,1:0:0:0:
261,68,182067,1,8,1:2:0:0:
54,235,182217,6,0,P|50:171|201:159,1,218.399993334961,4|0,0:1|0:0,0:0:0:0:
266,328,182667,1,8,0:2:0:0:
487,226,182817,1,0,0:2:0:0:
266,328,182967,2,0,P|273:287|291:195,1,109.199996667481,0|0,1:2|3:2,0:0:0:0:
446,346,183267,1,8,0:2:0:0:
510,141,183417,6,0,B|420:130|449:201|316:161,1,163.799995001221,4|0,0:1|2:0,0:0:0:0:
353,170,183717,1,0,0:2:0:0:
300,15,183867,2,0,P|349:37|382:79,1,109.199996667481,8|0,0:2|0:2,0:0:0:0:
88,100,184167,2,0,B|128:144|198:138|198:138|237:108|292:111,1,218.399993334961,4|8,0:2|1:2,0:0:0:0:
88,100,184617,6,0,P|99:155|103:215,1,109.199996667481,4|0,0:1|1:0,0:0:0:0:
10,35,184917,1,0,1:2:0:0:
198,261,185067,2,0,P|152:232|102:208,1,109.199996667481,8|0,0:2|0:2,0:0:0:0:
177,34,185367,1,0,0:2:0:0:
6,169,185517,1,0,1:2:0:0:
6,169,185592,1,0,1:2:0:0:
6,169,185667,1,8,1:2:0:0:
202,349,185817,6,0,B|104:354|154:295|50:299,1,163.799995001221,4|0,0:1|2:0,0:0:0:0:
53,298,186117,1,0,1:2:0:0:
197,261,186267,2,0,P|240:228|294:220,1,109.199996667481,8|4,0:2|0:2,0:0:0:0:
507,248,186567,6,0,L|512:194,1,54.5999983337403,0|0,0:2|2:2,0:0:0:0:
373,291,186717,2,0,L|378:346,1,54.5999983337403,0|0,1:2|1:2,0:0:0:0:
488,349,186867,1,8,1:2:0:0:
452,116,187017,6,0,P|348:129|294:220,1,218.399993334961,4|0,0:1|0:0,0:0:0:0:
109,49,187467,2,0,P|179:64|234:122,1,109.199996667481,8|0,0:2|0:2,0:0:0:0:
452,116,187767,1,0,1:2:0:0:
293,220,187917,1,0,1:0:0:0:
264,18,188067,1,8,1:2:0:0:
394,198,188217,6,0,P|380:262|371:315,1,109.199996667481,4|0,0:1|0:0,0:0:0:0:
202,178,188517,1,0,1:2:0:0:
452,116,188667,2,0,P|394:100|325:126,1,109.199996667481,8|0,0:2|0:2,0:0:0:0:
143,253,188967,2,0,B|193:288|246:262|246:262|234:320|279:369,1,218.399993334961,4|8,0:2|1:2,0:0:0:0:
35,211,189417,6,0,P|48:275|55:329,1,109.199996667481,4|0,2:1|0:0,0:0:0:0:
219,125,189717,1,0,0:0:0:0:
219,125,189867,2,0,B|235:88|235:88|241:61|228:4,1,109.199996667481,8|0,0:2|0:0,0:0:0:0:
126,67,190167,1,8,0:2:0:0:
292,219,190317,1,0,0:0:0:0:
292,219,190392,1,0,0:0:0:0:
292,219,190467,1,8,0:2:0:0:
498,144,190617,1,4,0:0:0:0:
350,286,190767,5,8,3:0:0:0:
313,304,190842,1,0,3:0:0:0:
273,305,190917,1,0,3:0:0:0:
236,287,190992,1,0,3:0:0:0:
212,254,191067,1,8,3:2:0:0:
205,214,191142,1,0,3:0:0:0:
216,175,191217,1,0,3:0:0:0:
244,146,191292,1,0,3:0:0:0:
282,132,191367,6,0,L|301:224,1,54.5999983337403,8|2,3:2|3:0,0:0:0:0:
488,293,191517,2,0,L|501:240,1,54.5999983337403,2|2,3:0|3:0,0:0:0:0:
424,95,191667,1,0,2:0:0:0:
352,353,191817,6,0,B|274:364|304:328|229:336,1,122.849996250916,0|0,0:0|0:0,0:0:0:0:
115,201,192117,1,0,1:0:0:0:
88,173,192192,1,0,1:0:0:0:
61,145,192267,2,0,L|67:263,1,109.199996667481,12|0,0:2|0:2,0:0:0:0:
142,359,192567,1,0,1:2:0:0:
237,181,192717,1,0,0:2:0:0:
19,326,192867,1,8,0:2:0:0:
180,106,193017,6,0,B|234:70|294:105|294:105|346:133|398:106,1,218.399993334961,4|0,0:1|1:2,0:0:0:0:
191,13,193467,1,8,0:2:0:0:
106,225,193617,1,0,0:2:0:0:
0,26,193767,2,0,L|135:44,1,109.199996667481,0|0,0:2|1:2,0:0:0:0:
107,40,193992,1,0,1:2:0:0:
107,40,194067,1,8,1:2:0:0:
343,75,194217,6,0,P|258:75|177:178,1,218.399993334961,4|0,0:1|1:2,0:0:0:0:
177,171,194592,1,0,0:0:0:0:
177,171,194667,5,8,0:2:0:0:
344,263,194817,1,0,0:2:0:0:
343,75,194967,5,8,0:2:0:0:
235,266,195117,1,0,0:2:0:0:
455,170,195267,5,8,0:2:0:0:
222,79,195417,1,0,0:2:0:0:
455,170,195567,5,12,0:2:0:0:
177,171,195717,1,0,0:2:0:0:
434,269,195867,5,8,0:2:0:0:
349,38,196017,1,0,0:2:0:0:
235,266,196167,5,12,0:2:0:0:
447,79,196317,1,0,0:2:0:0:
164,22,196467,1,8,0:2:0:0:
34,198,196617,6,0,P|78:140|215:142,1,218.399993334961,4|0,0:1|0:2,0:0:0:0:
185,330,197067,2,0,B|153:285|153:285|146:233,1,109.199996667481,8|0,0:2|0:2,0:0:0:0:
197,60,197367,1,0,0:2:0:0:
366,210,197517,1,0,1:2:0:0:
182,163,197667,1,8,0:2:0:0:
468,131,197817,6,0,B|432:120|432:120|404:142|404:142|367:122|367:122|331:138|331:138|291:122|291:122|250:131,1,218.399993334961,4|0,0:1|0:2,0:0:0:0:
117,272,198267,1,8,1:2:0:0:
366,210,198417,1,0,1:2:0:0:
181,370,198567,1,2,0:3:0:0:
135,143,198717,1,2,0:3:0:0:
135,143,198792,1,2,0:3:0:0:
135,143,198867,1,8,0:2:0:0:
61,352,199017,6,0,B|115:388|175:353|175:353|227:325|279:352,1,218.399993334961,4|0,0:1|1:2,0:0:0:0:
265,245,199467,1,8,0:2:0:0:
72,52,199617,6,0,B|96:99|54:138|54:138|118:151|118:237,1,218.399993334961,4|0,0:1|1:2,0:0:0:0:
123,251,199992,1,0,1:2:0:0:
117,272,200067,1,8,0:2:0:0:
375,95,200217,6,0,B|340:88|340:88|299:113|258:91|258:91|209:110|209:110|158:98,1,218.399993334961,4|0,0:1|1:2,0:0:0:0:
166,99,200592,1,0,1:2:0:0:
166,99,200667,1,8,0:2:0:0:
346,375,200817,6,0,B|365:312|332:281|332:281|367:239|367:239|346:207|353:178,1,218.399993334961,4|0,0:1|1:2,0:0:0:0:
357,146,201192,1,0,1:2:0:0:
371,116,201267,1,8,0:2:0:0:
512,277,201417,6,0,B|466:245|407:277|407:277|346:311|294:277,1,218.399993334961,4|0,0:1|0:2,0:0:0:0:
381,87,201867,2,0,L|370:213,1,109.199996667481,8|0,0:2|0:2,0:0:0:0:
460,357,202167,1,0,0:2:0:0:
253,239,202317,1,0,1:2:0:0:
512,148,202467,1,8,0:2:0:0:
212,134,202617,6,0,P|302:139|365:244,1,218.399993334961,4|0,0:1|1:2,0:0:0:0:
145,223,203067,1,8,0:2:0:0:
349,73,203217,1,0,1:2:0:0:
269,346,203367,2,0,L|252:238,1,109.199996667481,0|0,1:2|1:2,0:0:0:0:
253,238,203592,1,0,1:2:0:0:
253,238,203667,1,8,0:2:0:0:
29,127,203817,6,0,P|126:139|211:36,1,218.399993334961,4|0,0:1|1:2,0:0:0:0:
206,59,204192,1,0,0:0:0:0:
206,59,204267,5,8,0:2:0:0:
119,240,204417,1,0,0:2:0:0:
342,226,204567,5,8,0:2:0:0:
100,158,204717,1,0,0:2:0:0:
348,98,204867,5,8,0:2:0:0:
251,288,205017,1,0,0:2:0:0:
42,214,205167,5,12,0:2:0:0:
251,288,205317,1,0,0:2:0:0:
0,288,205467,5,8,0:2:0:0:
322,180,205617,1,0,0:2:0:0:
19,135,205767,5,12,0:2:0:0:
251,288,205917,1,0,0:2:0:0:
252,11,206067,1,8,0:2:0:0:
42,214,206217,6,0,B|94:243|146:214|146:214|202:182|260:214,1,218.399993334961,4|0,0:1|0:2,0:0:0:0:
78,23,206667,2,0,L|97:131,1,109.199996667481,8|0,0:2|0:2,0:0:0:0:
212,78,206967,1,0,0:2:0:0:
52,267,207117,2,0,L|41:213,1,54.5999983337403,0|0,1:2|1:2,0:0:0:0:
97,131,207267,1,8,0:2:0:0:
338,180,207417,6,0,P|231:188|174:301,1,218.399993334961,4|0,0:1|1:2,0:0:0:0:
212,78,207867,1,8,0:2:0:0:
474,144,208017,1,0,1:2:0:0:
288,286,208167,1,0,1:2:0:0:
359,63,208317,1,0,1:2:0:0:
359,63,208392,1,0,1:2:0:0:
359,63,208467,1,8,0:2:0:0:
99,207,208617,6,0,B|157:252|211:197|211:197|245:218|283:194|283:194|307:197,1,218.399993334961,4|0,0:1|1:2,0:0:0:0:
299,196,208992,1,0,1:2:0:0:
299,196,209067,1,12,0:2:0:0:
108,79,209217,5,2,0:0:0:0:
12,361,209367,1,2,0:0:0:0:
18,346,209442,1,2,0:0:0:0:
24,331,209517,1,8,0:2:0:0:
30,316,209592,1,8,0:2:0:0:
36,301,209667,1,8,0:2:0:0:
42,287,209742,1,0,0:2:0:0:
48,273,209817,6,0,B|96:251|96:251|137:275|137:275|191:261|191:261|230:275|230:275|267:273,1,218.399993334961,4|0,0:1|1:2,0:0:0:0:
288,265,210192,1,0,1:2:0:0:
325,273,210267,1,4,1:2:0:0:
456,116,210417,6,0,P|382:86|288:128,1,163.799995001221,0|0,0:2|3:0,0:0:0:0:
302,127,210913,1,8,0:0:0:0:
469,351,211262,6,0,P|406:338|433:282,1,136.500005207062,2|2,0:2|0:0,0:0:0:0:
314,358,211984,2,0,B|301:312|334:241|334:241|346:277,1,136.500005207062,2|2,0:0|0:0,0:0:0:0:
158,230,212707,6,0,B|112:225|74:246|74:246|113:269|146:241,1,136.500005207062,2|2,0:0|0:0,0:0:0:0:
172,95,213486,2,0,P|171:163|158:230,1,136.500005207062,2|2,0:0|0:0,0:0:0:0:
397,46,214302,6,0,B|346:70|292:40|292:40|311:56|318:74,1,136.500005207062,2|2,0:0|0:0,0:0:0:0:
103,132,215190,2,0,P|164:104|232:109,1,136.500005207062,2|2,0:0|0:0,0:0:0:0:
451,256,216183,6,0,P|457:301|460:329,1,68.250002603531,2|0,0:0|0:0,0:0:0:0:
294,365,216754,2,0,P|277:301|225:315,1,119.437504556179,2|0,0:0|0:0,0:0:0:0:
214,327,217468,6,2,P|213:340|214:358,16,22.75
