osu file format v14

[General]
AudioFilename: audio.mp3
AudioLeadIn: 0
PreviewTime: 103987
Countdown: 0
SampleSet: None
StackLeniency: 0.2
Mode: 0
LetterboxInBreaks: 0
WidescreenStoryboard: 0

[Editor]
Bookmarks: 15562,34762,45412,55012,64762,83962,93562,104212,113812,123562,137962,147562,161962,172612,182212,191812,201412,211257
DistanceSpacing: 0.7
BeatDivisor: 2
GridSize: 32
TimelineZoom: 3.099999

[Metadata]
Title:Yoru Naku Usagi wa Yume o Miru
TitleUnicode:夜啼く兎は夢を見る
Artist:UNDEAD CORPORATION
ArtistUnicode:UNDEAD CORPORATION
Creator:MaridiuS
Version:ChekidiuS' Insane
Source:東方永夜抄 ~ Imperishable Night.
Tags:LOLI JOA Ayyri Len Revia Realazy LowComboFC eiri- Chekito Lince Bergy ranko Touhou Eiyashou 東方Project C82 Comiket82 Benisome no Oni ga Naku 紅染の鬼が哭く 狂気の瞳 ~ Invisible Full Moon Kyouki no Hitomi Reisen Udongein theme
BeatmapID:1511836
BeatmapSetID:695743

[Difficulty]
HPDrainRate:6
CircleSize:3.3
OverallDifficulty:7.2
ApproachRate:9
SliderMultiplier:1.7
SliderTickRate:1

[Events]
//Background and Video events
0,0,"03b5dc8d1eb147aafaf20977363d0651_waifu2x_art_noise2_scale_tta_1.jpg",0,0
//Break Periods
2,15767,19767
//Storyboard Layer 0 (Background)
//Storyboard Layer 1 (Fail)
//Storyboard Layer 2 (Pass)
//Storyboard Layer 3 (Foreground)
//Storyboard Sound Samples

[TimingPoints]
-33,300,4,2,1,70,1,0
5967,-100,4,2,10,70,0,0
6192,-100,4,2,10,5,0,0
6267,-100,4,2,10,70,0,0
6492,-100,4,2,10,5,0,0
6567,-100,4,2,10,70,0,0
7242,-100,4,2,10,5,0,0
7317,-100,4,2,10,70,0,0
7992,-100,4,2,10,5,0,0
8067,-100,4,2,10,70,0,0
8292,-100,4,2,10,5,0,0
8367,-100,4,2,10,70,0,0
8592,-100,4,2,10,5,0,0
8667,-100,4,2,10,70,0,0
10767,-100,4,2,1,70,0,0
15567,-200,4,2,5,70,0,0
20367,-133.333333333333,4,2,5,70,0,0
25167,-133.333333333333,4,2,1,70,0,0
33792,-133.333333333333,4,2,1,5,0,0
33867,-133.333333333333,4,2,1,70,0,0
34092,-133.333333333333,4,2,1,5,0,0
34167,-133.333333333333,4,2,1,70,0,0
34767,-90.9090909090909,4,2,10,70,0,0
44367,-90.9090909090909,4,2,1,70,0,0
45417,-90.9090909090909,4,3,10,80,0,1
64767,-90.9090909090909,4,2,1,45,0,0
66567,-90.9090909090909,4,2,1,70,0,0
67167,-111.111111111111,4,2,1,70,0,0
69567,-100,4,2,1,70,0,0
74367,-100,4,2,10,70,0,0
74592,-100,4,2,10,5,0,0
74667,-100,4,2,10,70,0,0
74892,-100,4,2,10,5,0,0
74967,-100,4,2,10,70,0,0
75642,-100,4,2,10,5,0,0
75717,-100,4,2,10,70,0,0
76392,-100,4,2,10,5,0,0
76467,-100,4,2,10,70,0,0
76692,-100,4,2,10,5,0,0
76767,-100,4,2,10,70,0,0
76992,-100,4,2,10,5,0,0
77067,-100,4,2,10,70,0,0
79167,-100,4,2,1,70,0,0
83967,-133.333333333333,4,2,5,70,0,0
87567,-100,4,2,1,70,0,0
88167,-133.333333333333,4,2,1,70,0,0
91767,-114.942528735632,4,2,1,70,0,0
92367,-80,4,2,1,70,0,0
93567,-90.9090909090909,4,2,10,70,0,0
98367,-90.9090909090909,4,2,10,70,0,0
100767,-90.9090909090909,4,2,10,70,0,0
101967,-90.9090909090909,4,2,10,70,0,0
102417,-90.9090909090909,4,2,10,70,0,0
102867,-90.9090909090909,4,2,10,70,0,0
103167,-90.9090909090909,4,2,10,70,0,0
103317,-90.9090909090909,4,2,10,70,0,0
103767,-90.9090909090909,4,2,10,70,0,0
104067,-90.9090909090909,4,2,10,70,0,0
104217,-90.9090909090909,4,3,10,70,0,1
123567,-111.111111111111,4,2,10,70,0,0
137067,-90.9090909090908,4,2,1,70,0,0
137967,-117.647058823529,4,2,1,70,0,0
142767,-90.9090909090909,4,2,10,70,0,0
145392,-90.9090909090909,4,2,10,5,0,0
145467,-90.9090909090909,4,2,10,70,0,0
145692,-90.9090909090909,4,2,10,5,0,0
145767,-90.9090909090909,4,2,10,70,0,0
147567,-100,4,2,1,70,0,0
152367,-100,4,2,10,70,0,0
152592,-100,4,2,10,5,0,0
152667,-100,4,2,10,70,0,0
152892,-100,4,2,10,5,0,0
152967,-100,4,2,10,70,0,0
153642,-100,4,2,10,5,0,0
153717,-100,4,2,10,70,0,0
154392,-100,4,2,10,5,0,0
154467,-100,4,2,10,70,0,0
154692,-100,4,2,10,5,0,0
154767,-100,4,2,10,70,0,0
154992,-100,4,2,10,5,0,0
155067,-100,4,2,10,70,0,0
157167,-100,4,2,1,70,0,0
161967,-100,4,2,10,70,0,0
166767,-90.9090909090909,4,2,10,70,0,0
171567,-90.9090909090909,4,2,10,70,0,0
172617,-90.9090909090909,4,3,10,70,0,1
191817,-200,4,2,1,70,0,0
192267,-83.3333333333333,4,3,10,70,0,1
199017,-86.9565217391304,4,3,10,70,0,1
199617,-80,4,3,10,70,0,1
200217,-74.0740740740741,4,3,10,70,0,1
200817,-68.9655172413793,4,3,10,70,0,1
201417,-83.3333333333333,4,3,10,70,0,1
209217,-76.9230769230769,4,3,10,70,0,1
209817,-100,4,3,10,70,0,1
210417,322.58064516129,4,3,10,70,1,0
210417,-142.857142857143,4,3,10,70,0,0
210739,348.837209302326,4,2,1,70,1,0
211262,361.44578313253,4,2,1,50,1,0
212707,389.61038961039,4,2,1,50,1,0
213486,408.163265306122,4,2,1,50,1,0
214302,444.444444444444,4,2,1,50,1,0
215190,476.190476190476,4,2,1,50,1,0
215666,517.241379310345,4,2,1,50,1,0
216183,571.428571428571,4,2,1,40,1,0
216754,714.285714285714,4,2,1,30,1,0
217646,-100,4,2,1,5,0,0

[Colours]
Combo1 : 79,219,89
Combo2 : 30,135,240
Combo3 : 248,22,62
Combo4 : 186,105,184

[HitObjects]
474,89,1167,6,0,L|307:121,1,170,12|0,0:2|3:2,0:0:0:0:
474,194,1617,2,0,P|483:232|475:303,1,85,12|2,0:2|0:2,0:0:0:0:
404,363,1917,1,0,3:2:0:0:
281,252,2067,2,0,P|279:294|288:335,1,85,12|2,0:2|0:2,0:0:0:0:
382,261,2367,2,0,L|382:209,3,42.5,0|0|0|0,1:2|1:2|1:2|1:2,0:0:0:0:
360,175,2667,6,0,L|336:72,1,85,14|0,0:2|0:2,0:0:0:0:
145,107,2967,2,0,L|125:189,1,85,14|0,0:2|0:2,0:0:0:0:
245,139,3267,1,2,3:2:0:0:
245,139,3417,1,0,1:2:0:0:
169,286,3567,6,0,B|108:319|64:257|-1:298,1,170,12|0,0:2|3:2,0:0:0:0:
124,103,4017,2,0,P|136:148|115:201,1,85,12|2,0:2|0:2,0:0:0:0:
18,144,4317,1,0,3:2:0:0:
221,82,4467,2,0,P|209:42|178:14,1,85,12|2,0:2|0:2,0:0:0:0:
81,23,4767,2,0,L|10:44,3,42.5,0|0|0|0,1:2|1:2|1:2|1:2,0:0:0:0:
5,67,5067,5,14,0:2:0:0:
284,229,5367,5,14,1:2:0:0:
275,202,5467,5,0,1:2:0:0:
278,173,5567,5,0,1:2:0:0:
292,148,5667,6,0,L|380:135,2,56.6666666666667,0|0|0,1:2|1:2|1:2,0:0:0:0:
195,150,5967,6,0,P|191:200|128:292,1,127.5,6|0,0:2|0:2,0:0:0:0:
132,284,6267,2,0,P|100:229|92:166,1,127.5,2|0,0:2|0:2,0:0:0:0:
142,77,6567,1,10,0:2:0:0:
142,77,6717,1,0,1:2:0:0:
426,166,7017,6,0,L|327:182,1,85,0|0,3:2|0:0,0:0:0:0:
419,348,7317,1,8,0:2:0:0:
419,348,7467,2,0,P|424:297|410:233,1,85,2|0,0:2|0:2,0:0:0:0:
338,57,7767,2,0,P|301:93|194:104,1,127.5,14|0,0:2|0:2,0:0:0:0:
207,96,8067,2,0,P|145:108|98:150,1,127.5,2|0,0:2|0:2,0:0:0:0:
192,193,8367,6,0,B|216:248|216:248|194:312,1,127.5,6|0,0:2|0:2,0:0:0:0:
177,339,8667,1,2,3:2:0:0:
177,339,8817,1,0,0:2:0:0:
106,250,8967,1,10,0:2:0:0:
106,250,9117,2,0,L|23:269,1,85,0|0,1:2|0:0,0:0:0:0:
188,191,9417,1,0,3:2:0:0:
310,273,9567,6,0,P|351:286|417:293,1,85,10|0,0:2|1:2,0:0:0:0:
412,286,9792,1,0,1:2:0:0:
431,277,9867,1,2,1:2:0:0:
373,179,10017,1,0,3:2:0:0:
188,191,10167,6,0,P|229:184|270:171,1,85,8|0,0:2|0:0,0:0:0:0:
180,99,10467,1,2,3:3:0:0:
180,99,10542,1,2,3:3:0:0:
180,99,10617,1,2,3:3:0:0:
87,217,10767,6,0,L|59:392,1,170,12|0,0:2|0:2,0:0:0:0:
265,353,11217,2,0,P|222:357|181:347,1,85,12|2,0:2|0:2,0:0:0:0:
306,250,11517,1,0,0:2:0:0:
87,217,11667,2,0,P|45:206|3:211,1,85,12|2,0:2|0:2,0:0:0:0:
197,237,11967,2,0,L|208:184,3,42.5,0|0|0|0,1:2|1:2|1:2|1:2,0:0:0:0:
198,151,12267,6,0,L|186:31,1,85,14|0,0:2|0:2,0:0:0:0:
323,130,12567,2,0,L|372:199,1,85,14|0,0:2|1:2,0:0:0:0:
485,230,12867,1,2,3:2:0:0:
485,230,13017,1,0,1:2:0:0:
295,292,13167,6,0,B|256:271|256:271|176:296|176:296|126:271,1,170,12|0,0:2|0:2,0:0:0:0:
286,54,13617,2,0,B|251:77|251:77|232:158|232:158|195:182,1,170,12|0,0:2|0:2,0:0:0:0:
405,293,14067,2,0,B|402:251|402:251|340:194|340:194|339:150,1,170,12|14,0:2|1:2,0:0:0:0:
301,292,14517,5,0,1:0:0:0:
301,292,14592,1,0,1:0:0:0:
301,292,14667,2,0,L|205:306,1,85,0|0,3:0|3:0,0:0:0:0:
99,142,14967,2,0,L|195:156,1,85,8|0,0:0|1:0,0:0:0:0:
183,154,15192,1,0,1:0:0:0:
183,154,15267,1,0,1:0:0:0:
301,180,15417,1,0,0:0:0:0:
264,79,15567,5,0,0:0:0:0:
301,180,20367,5,2,1:2:0:0:
298,195,20667,1,0,1:2:0:0:
295,210,20967,1,2,1:2:0:0:
292,225,21267,1,0,1:2:0:0:
263,321,21567,5,2,1:2:0:0:
192,247,21867,1,0,1:2:0:0:
292,225,22167,1,2,1:2:0:0:
263,321,22467,5,0,1:2:0:0:
292,225,22617,1,0,0:2:0:0:
192,247,22767,6,0,L|65:240,1,127.500004863739,2|0,1:2|1:2,0:0:0:0:
263,321,23217,1,0,0:2:0:0:
292,225,23367,2,0,L|419:232,1,127.500004863739,2|0,1:2|1:2,0:0:0:0:
419,232,23967,5,6,1:2:0:0:
64,239,24267,1,8,0:0:0:0:
150,167,24417,1,0,3:0:0:0:
150,167,24492,1,0,3:0:0:0:
150,167,24567,2,0,L|226:169,1,63.7500024318696,0|0,3:0|3:0,0:0:0:0:
264,252,24867,2,0,L|340:250,1,63.7500024318696,0|0,3:0|3:0,0:0:0:0:
419,204,25167,6,0,B|408:157|408:157|427:68,1,127.500004863739,4|0,0:2|0:2,0:0:0:0:
511,25,25617,1,0,3:2:0:0:
391,226,25767,2,0,L|374:154,1,63.7500024318696,2|0,0:2|0:2,0:0:0:0:
298,96,26067,2,0,L|283:158,1,63.7500024318696,2|0,3:2|0:2,0:0:0:0:
257,257,26367,5,0,3:2:0:0:
343,310,26517,1,0,1:2:0:0:
343,310,26592,1,0,1:2:0:0:
343,310,26667,2,0,L|336:381,1,63.7500024318696,2|0,1:2|0:2,0:0:0:0:
171,204,26967,2,0,L|183:340,1,127.500004863739,10|0,0:1|3:2,0:0:0:0:
354,182,27567,6,0,L|342:318,1,127.500004863739,0|2,1:2|1:2,0:0:0:0:
257,257,28017,1,0,3:2:0:0:
390,172,28167,2,0,L|384:244,1,63.7500024318696,2|0,0:2|0:2,0:0:0:0:
485,313,28467,2,0,L|481:239,1,63.7500024318696,2|0,3:2|0:2,0:0:0:0:
470,102,28767,5,4,3:3:0:0:
390,172,28917,1,0,1:2:0:0:
390,172,28992,1,0,1:2:0:0:
390,172,29067,2,0,L|312:165,1,63.7500024318696,2|0,1:2|3:2,0:0:0:0:
208,35,29367,2,0,L|334:19,1,127.500004863739,10|0,0:1|0:2,0:0:0:0:
233,165,29967,6,0,B|224:215|224:215|239:300,1,127.500004863739,4|2,3:2|1:2,0:0:0:0:
320,349,30417,1,0,3:2:0:0:
202,147,30567,2,0,L|190:219,1,63.7500024318696,2|0,0:2|0:2,0:0:0:0:
108,270,30867,2,0,L|97:207,1,63.7500024318696,2|0,3:2|0:2,0:0:0:0:
110,105,31167,5,0,3:2:0:0:
202,147,31317,1,0,1:2:0:0:
202,147,31392,1,0,1:2:0:0:
202,147,31467,2,0,L|272:142,1,63.7500024318696,2|0,1:2|3:2,0:0:0:0:
379,278,31767,2,0,L|508:289,1,127.500004863739,10|2,0:1|3:2,0:0:0:0:
455,199,32217,1,0,1:2:0:0:
389,369,32367,6,0,L|252:360,1,127.500004863739,2|2,0:2|1:2,0:0:0:0:
379,278,32817,1,0,3:2:0:0:
277,270,32967,2,0,L|140:261,1,127.500004863739,2|2,0:2|3:2,0:0:0:0:
335,191,33567,5,4,0:0:0:0:
261,360,33867,1,4,0:0:0:0:
151,212,34167,5,8,0:1:0:0:
238,264,34317,1,8,0:1:0:0:
65,364,34467,5,8,0:1:0:0:
152,312,34617,1,8,0:1:0:0:
162,162,34767,6,0,P|172:106|161:36,1,93.5000028533936,4|0,1:0|0:0,0:0:0:0:
73,44,35067,1,8,0:0:0:0:
265,100,35217,2,0,P|320:110|388:98,1,93.5000028533936,4|0,0:0|0:0,0:0:0:0:
461,63,35517,1,0,0:0:0:0:
366,2,35667,1,8,0:0:0:0:
329,212,35817,6,0,P|318:267|332:338,1,93.5000028533936,4|0,1:0|0:0,0:0:0:0:
225,244,36117,1,0,0:0:0:0:
225,244,36267,1,8,0:0:0:0:
127,295,36417,2,0,P|123:242|133:190,1,93.5000028533936,4|0,0:0|0:0,0:0:0:0:
122,94,36717,1,0,1:0:0:0:
122,94,36792,1,0,1:0:0:0:
122,94,36867,2,0,L|228:120,1,93.5000028533936,8|0,0:0|0:0,0:0:0:0:
419,215,37167,6,0,P|363:222|303:195,1,93.5000028533936,4|0,1:0|0:0,0:0:0:0:
232,259,37467,1,8,0:0:0:0:
398,121,37617,2,0,P|454:114|514:141,1,93.5000028533936,4|0,0:0|0:0,0:0:0:0:
512,216,37917,1,0,0:0:0:0:
438,301,38067,1,8,0:0:0:0:
305,77,38217,6,0,P|342:39|391:20,1,93.5000028533936,4|0,1:0|0:0,0:0:0:0:
494,57,38517,1,0,0:0:0:0:
494,57,38592,1,0,0:0:0:0:
494,57,38667,1,8,0:0:0:0:
383,148,38817,1,4,0:0:0:0:
114,43,39117,5,12,0:0:0:0:
131,237,39267,1,12,0:0:0:0:
396,285,39567,6,0,P|396:210|369:163,1,93.5000028533936,12|0,0:0|1:0,0:0:0:0:
294,236,39867,2,0,P|257:170|209:144,1,93.5000028533936,8|0,0:0|1:0,0:0:0:0:
37,202,40167,2,0,P|36:127|63:80,1,93.5000028533936,8|0,0:0|1:0,0:0:0:0:
139,153,40467,2,0,P|175:87|223:61,1,93.5000028533936,8|0,0:0|1:0,0:0:0:0:
209,238,40767,6,0,P|207:303|233:346,1,93.5000028533936,8|0,0:0|1:0,0:0:0:0:
334,233,41067,2,0,P|391:201|415:157,1,93.5000028533936,8|0,0:0|1:0,0:0:0:0:
271,113,41367,2,0,P|215:78|165:80,1,93.5000028533936,8|0,0:0|0:0,0:0:0:0:
248,202,41667,1,8,3:0:0:0:
248,202,41742,1,0,3:0:0:0:
248,202,41817,2,0,L|239:260,1,46.7500014266968,0|0,3:0|3:0,0:0:0:0:
189,364,41967,6,0,P|256:341|363:368,1,140.25000428009,12|0,0:0|0:0,0:0:0:0:
355,364,42267,2,0,L|346:251,1,93.5000028533936,8|0,0:0|1:0,0:0:0:0:
142,230,42567,2,0,L|151:117,1,93.5000028533936,8|0,0:0|1:0,0:0:0:0:
348,105,42867,2,0,L|339:-8,1,93.5000028533936,8|0,0:0|1:0,0:0:0:0:
121,12,43167,5,12,0:0:0:0:
105,17,43467,1,8,0:0:0:0:
105,17,43542,1,8,0:0:0:0:
105,17,43617,1,8,3:2:0:0:
85,152,43767,2,0,L|99:223,3,46.7500014266968,0|0|0|0,3:0|3:0|3:0|3:0,0:0:0:0:
111,237,44067,2,0,P|170:244|232:224,1,93.5000028533936,2|2,3:0|3:0,0:0:0:0:
294,169,44367,6,0,L|282:55,1,93.5000028533936,12|0,0:0|0:0,0:0:0:0:
394,255,44667,2,0,L|405:141,1,93.5000028533936,12|0,0:0|1:0,0:0:0:0:
398,127,44892,1,0,1:0:0:0:
398,127,44967,1,8,1:2:0:0:
192,103,45117,1,8,0:0:0:0:
192,103,45267,1,0,3:0:0:0:
214,276,45417,6,0,B|277:245|277:245|404:255,1,187.000005706787,4|0,0:1|3:2,0:0:0:0:
449,373,45867,2,0,B|401:375|401:375|359:354,1,93.5000028533936,8|0,0:2|3:2,0:0:0:0:
463,178,46167,1,0,1:2:0:0:
393,254,46317,1,0,3:2:0:0:
431,80,46467,1,8,0:2:0:0:
369,158,46617,6,0,B|299:162|299:162|266:131|266:131|187:133,1,187.000005706787,4|0,0:1|1:2,0:0:0:0:
120,263,47067,1,8,0:2:0:0:
104,170,47217,1,0,1:2:0:0:
241,261,47367,2,0,L|245:313,3,46.7500014266968,0|0|0|0,1:2|1:2|1:2|1:2,1:0:0:0:
235,334,47667,1,8,0:2:0:0:
359,382,47817,6,0,L|342:188,1,187.000005706787,4|0,0:1|1:2,0:0:0:0:
450,299,48267,1,8,0:2:0:0:
442,205,48417,1,0,1:2:0:0:
269,139,48567,1,0,1:2:0:0:
269,139,48642,1,0,1:0:0:0:
269,139,48717,1,0,0:2:0:0:
342,195,48867,1,8,0:2:0:0:
374,59,49017,6,0,B|323:98|323:98|200:74,1,187.000005706787,4|0,0:1|1:2,0:0:0:0:
93,45,49467,1,8,1:2:0:0:
4,200,49617,2,0,B|55:161|55:161|178:185,1,187.000005706787,4|0,0:2|1:2,0:0:0:0:
283,217,50067,1,8,1:2:0:0:
165,360,50217,6,0,B|138:297|138:297|182:163,1,187.000005706787,4|0,0:1|0:0,0:0:0:0:
324,296,50667,2,0,B|281:306|281:306|222:291,1,93.5000028533936,8|0,1:2|1:2,0:0:0:0:
369,188,50967,1,0,1:2:0:0:
328,322,51117,1,0,0:2:0:0:
293,121,51267,1,8,0:2:0:0:
412,264,51417,6,0,B|443:301|443:301|465:160,1,187.000005706787,4|0,0:1|1:2,0:0:0:0:
373,44,51867,1,8,0:2:0:0:
461,72,52017,1,0,1:2:0:0:
338,163,52167,2,0,B|286:131|286:131|168:182,1,187.000005706787,0|8,1:2|0:2,0:0:0:0:
75,243,52617,6,0,B|59:101|59:101|105:133,1,187.000005706787,4|0,0:1|1:2,0:0:0:0:
171,181,53067,1,8,0:2:0:0:
303,333,53217,6,0,B|319:191|319:191|273:223,1,187.000005706787,4|0,0:2|0:2,0:0:0:0:
207,271,53667,1,8,0:2:0:0:
171,181,53817,1,4,0:2:0:0:
126,333,53967,5,0,0:2:0:0:
126,333,54117,1,0,1:2:0:0:
207,271,54267,6,0,L|201:167,1,93.5000028533936,8|0,1:2|0:2,0:0:0:0:
55,120,54567,2,0,L|49:213,1,93.5000028533936,8|0,0:2|1:2,0:0:0:0:
49,213,54792,1,0,1:2:0:0:
49,213,54867,1,8,0:2:0:0:
168,48,55017,6,0,P|223:59|359:20,1,187.000005706787,4|0,0:1|0:2,0:0:0:0:
345,147,55467,2,0,L|334:265,1,93.5000028533936,8|0,0:2|0:2,0:0:0:0:
448,211,55767,1,0,1:2:0:0:
323,271,55917,1,0,1:2:0:0:
323,271,55992,1,0,1:2:0:0:
323,271,56067,1,8,1:2:0:0:
193,150,56217,6,0,B|137:161|137:161|2:122,1,187.000005706787,4|0,0:1|1:2,0:0:0:0:
141,46,56667,1,8,0:2:0:0:
180,136,56817,1,0,1:2:0:0:
306,85,56967,2,0,L|311:38,3,46.7500014266968,0|0|0|0,1:2|1:2|1:2|1:2,1:0:0:0:
298,21,57267,1,8,0:2:0:0:
270,173,57417,6,0,B|316:201|358:170|358:166|357:162|400:130|458:162,1,187.000005706787,4|0,0:1|1:2,0:0:0:0:
431,335,57867,2,0,P|415:299|416:224,1,93.5000028533936,8|0,1:2|1:2,0:0:0:0:
510,228,58167,1,0,0:2:0:0:
321,277,58317,1,0,1:2:0:0:
321,277,58392,1,0,1:2:0:0:
321,277,58467,1,8,1:2:0:0:
199,343,58617,6,0,P|186:273|247:147,1,187.000005706787,4|0,1:0|1:2,0:0:0:0:
360,43,59067,1,8,0:2:0:0:
254,63,59217,1,4,0:2:0:0:
390,136,59367,2,0,L|499:157,1,93.5000028533936,0|0,0:2|1:2,0:0:0:0:
494,179,59592,1,0,1:2:0:0:
494,179,59667,1,8,1:2:0:0:
323,290,59817,6,0,L|112:355,1,187.000005706787,4|0,0:1|0:2,0:0:0:0:
216,217,60267,2,0,L|323:186,1,93.5000028533936,8|0,0:2|0:2,0:0:0:0:
419,287,60567,1,0,1:2:0:0:
338,180,60717,1,0,1:2:0:0:
338,180,60792,1,0,1:2:0:0:
338,180,60867,1,8,0:2:0:0:
218,102,61017,6,0,P|159:107|41:43,1,187.000005706787,4|0,0:1|1:2,0:0:0:0:
68,199,61467,2,0,L|36:304,1,93.5000028533936,8|0,0:2|1:2,0:0:0:0:
178,214,61767,2,0,P|236:208|288:229,1,93.5000028533936,0|0,1:2|1:2,0:0:0:0:
294,248,61992,1,0,1:2:0:0:
294,248,62067,1,8,0:2:0:0:
321,129,62217,6,0,B|320:73|360:47|360:47|391:100|363:148,1,187.000005706787,4|0,0:1|0:2,0:0:0:0:
307,268,62667,2,0,L|294:313,2,46.7500014266968,8|8|8,0:2|0:2|0:2,0:0:0:0:
240,184,62967,1,2,3:0:0:0:
240,184,63042,1,2,3:0:0:0:
240,184,63117,1,2,3:0:0:0:
396,226,63267,2,0,L|408:271,2,46.7500014266968,8|8|8,1:2|0:2|0:2,0:0:0:0:
331,113,63567,6,0,L|345:45,5,46.7500014266968,0|0|0|0|2|2,0:2|0:2|0:2|0:2|3:0|3:0,0:0:0:0:
370,37,64017,1,2,3:0:0:0:
370,37,64092,1,2,3:0:0:0:
370,37,64167,5,8,3:2:0:0:
430,138,64317,1,8,0:2:0:0:
373,250,64467,5,8,0:2:0:0:
433,149,64617,1,8,0:2:0:0:
433,149,66567,5,8,0:1:0:0:
373,250,66717,1,8,0:1:0:0:
370,37,66867,5,8,0:1:0:0:
430,138,67017,1,8,0:1:0:0:
363,240,67167,6,0,L|199:228,1,152.999995330811,2|2,3:2|0:0,0:0:0:0:
303,147,67617,1,0,0:0:0:0:
303,147,67767,2,0,L|217:140,1,76.4999976654053,10|0,0:1|1:0,0:0:0:0:
104,131,68067,1,0,0:0:0:0:
104,131,68217,1,0,3:2:0:0:
54,243,68367,6,0,P|65:275|69:321,1,76.4999976654053,10|0,3:1|3:2,0:0:0:0:
65,348,68592,1,0,3:2:0:0:
65,348,68667,2,0,P|96:338|149:341,1,76.4999976654053,2|0,3:2|3:2,0:0:0:0:
288,382,68967,5,8,3:1:0:0:
250,265,69117,1,2,3:2:0:0:
369,291,69267,1,2,3:0:0:0:
369,291,69342,1,2,3:0:0:0:
369,291,69417,1,2,3:0:0:0:
333,159,69567,6,0,P|381:178|485:113,1,170,12|0,0:0|3:0,0:0:0:0:
391,8,70017,2,0,P|384:59|399:97,1,85,12|2,0:0|0:0,0:0:0:0:
479,126,70317,1,0,3:0:0:0:
297,71,70467,2,0,P|256:100|239:139,1,85,12|2,0:0|0:0,0:0:0:0:
273,280,70767,6,0,L|263:326,3,42.5,0|0|0|0,1:0|1:0|1:0|1:0,0:0:0:0:
245,339,71067,1,14,0:0:0:0:
143,349,71217,1,0,0:0:0:0:
70,185,71367,2,0,L|86:282,1,85,14|0,0:0|1:0,0:0:0:0:
171,163,71667,1,2,3:2:0:0:
171,163,71817,1,0,1:0:0:0:
157,62,71967,6,0,B|190:36|190:36|171:163,1,170,12|0,0:0|3:0,0:0:0:0:
282,55,72417,2,0,L|270:140,1,85,12|2,0:0|0:0,0:0:0:0:
255,241,72717,1,0,3:0:0:0:
366,162,72867,2,0,L|379:249,1,85,12|2,0:0|0:0,0:0:0:0:
274,335,73167,6,0,L|227:341,3,42.5,0|0|0|0,1:0|1:0|1:0|1:0,0:0:0:0:
217,361,73467,2,0,L|117:349,1,85,14|0,0:0|0:0,0:0:0:0:
35,255,73767,2,0,L|137:245,1,85,14|0,1:2|0:0,0:0:0:0:
250,226,74067,5,0,1:0:0:0:
283,222,74167,5,0,1:0:0:0:
316,219,74267,5,0,1:0:0:0:
349,214,74367,6,0,L|345:314,1,85,6|0,0:0|0:0,0:0:0:0:
441,126,74667,2,0,L|445:226,1,85,2|0,0:0|0:0,0:0:0:0:
349,38,74967,2,0,L|345:138,1,85,12|0,0:0|1:0,0:0:0:0:
250,226,75267,1,0,0:0:0:0:
250,226,75417,1,2,3:2:0:0:
250,226,75717,5,8,0:0:0:0:
170,162,75867,2,0,P|155:122|157:76,1,85,2|0,0:0|1:0,0:0:0:0:
250,226,76167,2,0,P|222:258|182:280,1,85,10|0,0:0|0:0,0:0:0:0:
266,125,76467,2,0,P|308:132|346:156,1,85,2|0,0:0|0:0,0:0:0:0:
378,335,76767,6,0,L|469:331,1,85,6|0,3:2|0:0,0:0:0:0:
291,237,77067,2,0,L|382:241,1,85,2|0,3:2|1:0,0:0:0:0:
204,335,77367,2,0,L|295:331,1,85,12|0,0:0|1:0,0:0:0:0:
140,245,77667,1,0,0:0:0:0:
140,245,77817,1,0,3:0:0:0:
91,311,77967,6,0,P|108:272|140:245,1,85,14|0,0:0|1:0,0:0:0:0:
209,164,78267,2,0,P|234:198|243:240,1,85,0|0,1:0|3:0,0:0:0:0:
92,142,78567,5,14,0:0:0:0:
172,53,78717,1,0,0:0:0:0:
209,164,78867,1,2,3:0:0:0:
209,164,78942,1,2,3:0:0:0:
209,164,79017,1,2,3:0:0:0:
294,81,79167,6,0,B|349:84|349:84|374:100|374:100|401:89|401:89|466:93,1,170,12|0,0:0|3:0,0:0:0:0:
381,205,79617,2,0,B|416:212|416:212|465:195,1,85,12|2,0:0|0:0,0:0:0:0:
456,92,79917,1,0,3:0:0:0:
328,291,80067,2,0,B|298:271|298:271|277:223,1,85,12|2,0:0|0:0,0:0:0:0:
262,107,80367,6,0,L|270:62,3,42.5,0|0|0|0,1:0|1:0|1:0|1:0,0:0:0:0:
252,45,80667,1,14,0:0:0:0:
151,65,80817,1,0,0:0:0:0:
173,164,80967,2,0,B|183:222|183:222|132:322,1,170,14|0,0:0|3:0,0:0:0:0:
229,354,81417,1,0,1:0:0:0:
371,323,81567,6,0,B|255:308|255:308|229:354,1,170,12|0,0:0|3:0,0:0:0:0:
417,194,82017,2,0,B|391:240|391:240|260:223,1,170,12|0,0:0|3:0,0:0:0:0:
178,128,82467,2,0,B|195:149|195:149|276:146,1,85,12|2,0:0|0:0,0:0:0:0:
340,41,82767,6,0,B|323:62|323:62|242:59,1,85,8|0,3:2|1:0,0:0:0:0:
265,59,82992,1,0,1:0:0:0:
265,59,83067,1,0,3:0:0:0:
180,1,83217,1,0,3:0:0:0:
178,102,83367,2,0,B|79:96,1,85,10|0,3:2|1:0,0:0:0:0:
93,96,83592,1,0,1:0:0:0:
93,96,83667,1,0,1:0:0:0:
41,184,83817,1,2,3:2:0:0:
2,267,83967,6,0,L|115:289,1,95.6250036478044,6|0,1:2|0:0,0:0:0:0:
143,279,84267,1,0,1:0:0:0:
136,183,84417,1,0,0:0:0:0:
280,244,84567,6,0,L|393:222,1,95.6250036478044,2|0,1:2|0:0,0:0:0:0:
421,220,84867,2,0,P|405:250|399:333,1,95.6250036478044,0|0,1:0|0:0,0:0:0:0:
403,358,85167,6,0,L|485:324,1,63.7500024318696,2|0,1:2|0:0,0:0:0:0:
301,350,85467,2,0,L|219:316,1,63.7500024318696,0|0,1:2|0:0,0:0:0:0:
362,253,85767,1,2,1:2:0:0:
356,157,85917,1,0,0:0:0:0:
276,105,86067,1,0,1:0:0:0:
190,146,86217,1,0,0:0:0:0:
188,241,86367,6,0,L|274:228,1,63.7500024318696,2|0,1:2|0:0,0:0:0:0:
356,157,86667,1,0,1:0:0:0:
351,286,86817,1,0,0:0:0:0:
254,106,86967,2,0,L|241:20,1,63.7500024318696,2|0,1:2|0:0,0:0:0:0:
90,182,87267,2,0,L|77:268,1,63.7500024318696,0|0,1:0|0:0,0:0:0:0:
159,103,87567,6,0,P|79:80|15:116,1,127.5,6|0,1:2|0:0,0:0:0:0:
26,105,87867,1,8,0:1:0:0:
188,194,88017,1,8,0:1:0:0:
201,198,88092,1,8,0:1:0:0:
213,202,88167,2,0,P|248:199|290:188,1,63.7500024318696,8|0,1:0|3:0,0:0:0:0:
394,54,88467,1,0,1:0:0:0:
394,54,88542,1,0,1:0:0:0:
394,54,88617,1,0,1:0:0:0:
474,176,88767,6,0,P|431:151|337:156,1,127.500004863739,6|0,0:0|1:0,0:0:0:0:
328,253,89217,1,0,3:0:0:0:
422,104,89367,2,0,P|433:72|433:41,1,63.7500024318696,2|0,0:0|0:0,0:0:0:0:
422,248,89667,2,0,P|433:280|433:310,1,63.7500024318696,2|2,0:0|1:2,0:0:0:0:
340,160,89967,5,4,0:0:0:0:
263,316,90117,1,0,1:0:0:0:
263,316,90192,1,0,1:0:0:0:
263,316,90267,1,0,1:0:0:0:
328,253,90417,1,0,3:0:0:0:
339,373,90567,5,8,0:1:0:0:
88,249,90867,1,2,3:2:0:0:
88,249,91017,1,0,1:0:0:0:
95,148,91167,2,0,L|82:233,1,63.7500024318696,2|0,1:2|1:0,0:0:0:0:
201,116,91467,5,2,3:2:0:0:
193,24,91617,1,0,1:0:0:0:
200,142,91767,2,0,L|215:215,1,73.9500006206131,2|0,0:0|0:0,0:0:0:0:
287,87,92067,1,2,3:2:0:0:
112,88,92217,1,2,1:2:0:0:
309,182,92367,6,0,P|357:173|482:209,1,159.375,4|0,0:0|0:0,0:0:0:0:
480,215,92667,2,0,P|431:223|307:188,1,159.375,4|0,0:0|0:0,0:0:0:0:
287,87,92967,1,8,0:0:0:0:
287,87,93567,6,0,B|249:118|249:118|129:100,1,140.25000428009,4|0,1:0|0:0,0:0:0:0:
130,101,93867,1,8,0:0:0:0:
34,216,94017,2,0,B|72:185|72:185|215:208,1,187.000005706787,4|0,0:0|1:0,0:0:0:0:
365,157,94467,1,8,0:0:0:0:
243,316,94617,6,0,B|205:347|205:347|62:324,1,187.000005706787,4|0,1:0|1:0,0:0:0:0:
34,216,95067,1,8,0:0:0:0:
208,206,95217,2,0,B|170:237|170:237|27:214,1,187.000005706787,4|0,0:0|1:0,0:0:0:0:
6,207,95592,1,0,1:0:0:0:
6,207,95667,2,0,P|17:168|21:110,1,93.5000028533936,8|0,0:0|1:0,0:0:0:0:
160,52,95967,6,0,P|164:110|191:199,1,140.25000428009,4|0,1:0|0:0,0:0:0:0:
208,206,96267,1,8,0:0:0:0:
278,32,96417,2,0,P|277:91|348:210,1,187.000005706787,4|0,0:0|1:0,0:0:0:0:
447,100,96867,1,8,0:0:0:0:
390,270,97017,6,0,P|441:193|448:101,1,187.000005706787,4|0,1:0|0:0,0:0:0:0:
431,78,97392,1,0,0:0:0:0:
431,78,97467,2,0,L|328:86,1,93.5000028533936,8|4,0:0|0:0,0:0:0:0:
272,177,97767,1,0,0:0:0:0:
224,45,97917,1,2,3:0:0:0:
224,45,97992,1,2,3:0:0:0:
224,45,98067,2,0,L|163:38,3,46.7500014266968,2|2|2|2,3:0|3:0|3:0|3:0,0:0:0:0:
140,33,98367,6,0,P|105:58|78:117,1,93.5000028533936,12|0,0:0|1:0,0:0:0:0:
173,120,98667,2,0,P|162:161|179:224,1,93.5000028533936,8|0,0:0|1:0,0:0:0:0:
372,33,98967,6,0,P|407:58|434:117,1,93.5000028533936,8|0,0:0|1:0,0:0:0:0:
339,120,99267,2,0,P|349:161|332:224,1,93.5000028533936,8|0,0:0|1:0,0:0:0:0:
171,210,99567,6,0,P|114:228|78:250,1,93.5000028533936,8|0,0:0|1:0,0:0:0:0:
341,210,99867,2,0,P|398:228|434:250,1,93.5000028533936,8|0,0:0|1:0,0:0:0:0:
256,96,100167,2,0,L|256:-4,1,93.5000028533936,8|0,0:0|1:0,0:0:0:0:
256,192,100467,1,2,3:0:0:0:
256,192,100542,1,2,3:0:0:0:
256,192,100617,2,0,L|256:255,1,46.7500014266968,2|2,3:0|3:0,0:0:0:0:
256,333,100767,6,0,P|181:303|116:304,1,140.25000428009,8|0,0:0|0:0,0:0:0:0:
89,322,101067,2,0,P|76:273|95:217,1,93.5000028533936,8|0,0:0|1:0,0:0:0:0:
246,134,101367,2,0,P|213:167|169:181,1,93.5000028533936,8|0,0:0|1:0,0:0:0:0:
6,91,101667,2,0,P|50:102|85:132,1,93.5000028533936,8|0,0:0|1:0,0:0:0:0:
174,274,101967,6,0,P|185:300|189:333,3,46.7500014266968,4|2|2|8,3:1|3:0|3:0|3:0,0:0:0:0:
264,374,102267,1,8,3:0:0:0:
355,242,102417,6,0,P|344:268|340:301,3,46.7500014266968,4|2|2|8,3:1|3:0|3:0|3:0,0:0:0:0:
265,342,102717,1,8,3:0:0:0:
174,210,102867,6,0,P|185:236|189:269,3,46.7500014266968,4|0|2|2,3:1|3:0|3:0|3:0,0:0:0:0:
264,310,103167,1,2,3:0:0:0:
267,160,103317,6,0,L|267:113,5,46.7500014266968,8|8|8|8|8|8,3:2|3:2|3:2|3:2|3:2|3:2,0:0:0:0:
268,84,103767,1,8,0:2:0:0:
268,74,103842,1,0,1:0:0:0:
268,64,103917,1,0,1:0:0:0:
268,54,103992,1,0,1:0:0:0:
268,44,104067,1,0,0:0:0:0:
179,120,104217,6,0,B|126:168|126:168|1:137,1,187.000005706787,4|0,0:1|0:2,0:0:0:0:
226,209,104667,2,0,L|245:317,1,93.5000028533936,8|0,0:2|0:2,0:0:0:0:
48,301,104967,2,0,P|95:275|155:274,1,93.5000028533936,0|0,1:2|0:2,0:0:0:0:
332,339,105267,1,8,0:2:0:0:
288,128,105417,6,0,B|252:86|199:100|198:104|197:108|151:125|111:89,1,187.000005706787,4|0,0:1|1:2,0:0:0:0:
169,10,105867,2,0,P|233:0|290:13,1,93.5000028533936,8|0,0:2|1:2,0:0:0:0:
224,198,106167,2,0,L|212:303,1,93.5000028533936,0|0,1:2|1:2,0:0:0:0:
203,317,106392,1,0,1:2:0:0:
193,343,106467,1,8,0:2:0:0:
331,252,106617,6,0,P|423:223|521:270,1,187.000005706787,4|0,0:1|1:2,0:0:0:0:
449,337,107067,1,8,0:2:0:0:
287,339,107217,1,0,1:2:0:0:
287,339,107292,1,0,1:2:0:0:
287,339,107367,1,0,1:2:0:0:
331,252,107517,1,0,1:2:0:0:
368,382,107667,1,8,0:2:0:0:
390,172,107817,6,0,B|401:122|401:122|379:62,1,93.5000028533936,4|0,0:1|0:2,0:0:0:0:
304,124,108117,1,0,1:2:0:0:
486,165,108267,1,8,0:2:0:0:
482,75,108417,1,4,0:2:0:0:
390,172,108567,2,0,L|399:288,1,93.5000028533936,0|0,0:2|1:2,0:0:0:0:
407,292,108792,1,0,1:2:0:0:
417,319,108867,1,8,0:2:0:0:
255,242,109017,6,0,B|222:261|222:261|188:243|188:243|146:266|106:268|55:248,1,187.000005706787,4|0,0:1|0:2,0:0:0:0:
97,72,109467,2,0,P|119:120|119:183,1,93.5000028533936,8|0,0:2|0:2,0:0:0:0:
34,339,109767,1,0,1:2:0:0:
27,180,109917,1,0,1:2:0:0:
81,256,110067,1,8,0:2:0:0:
219,153,110217,6,0,B|265:135|265:135|355:160|355:160|414:135,1,187.000005706787,4|0,0:1|0:2,0:0:0:0:
253,21,110667,2,0,L|133:62,1,93.5000028533936,8|0,0:2|1:2,0:0:0:0:
353,62,110967,1,0,0:2:0:0:
353,62,111042,1,0,0:0:0:0:
353,62,111117,1,0,1:2:0:0:
167,65,111267,1,8,0:2:0:0:
268,231,111417,6,0,P|237:302|190:241,1,187.000005706787,4|0,0:1|1:2,0:0:0:0:
313,151,111867,1,8,0:2:0:0:
348,317,112017,1,4,0:2:0:0:
398,226,112167,1,0,1:2:0:0:
398,226,112242,1,0,1:2:0:0:
398,226,112317,1,0,1:2:0:0:
268,231,112467,2,0,B|229:213|229:213|149:229,1,93.5000028533936,8|4,1:2|0:2,0:0:0:0:
313,151,112767,6,0,L|335:44,1,93.5000028533936,0|0,0:2|1:2,0:0:0:0:
347,35,112992,1,0,1:2:0:0:
363,11,113067,1,8,1:2:0:0:
221,120,113217,2,0,L|129:138,1,93.5000028533936,0|8,0:2|0:2,0:0:0:0:
247,33,113517,1,0,1:2:0:0:
247,33,113592,1,0,1:2:0:0:
247,33,113667,1,8,0:2:0:0:
235,219,113817,6,0,L|426:253,1,187.000005706787,4|0,0:1|0:2,0:0:0:0:
487,353,114267,2,0,L|395:371,1,93.5000028533936,8|0,0:2|0:2,0:0:0:0:
335,193,114567,1,0,1:2:0:0:
303,281,114717,1,0,0:2:0:0:
267,126,114867,1,8,0:2:0:0:
310,313,115017,6,0,B|253:337|253:337|117:300,1,187.000005706787,4|0,0:1|1:2,0:0:0:0:
91,150,115467,1,8,0:2:0:0:
51,234,115617,1,0,1:2:0:0:
178,124,115767,2,0,L|174:72,3,46.7500014266968,0|0|0|0,1:2|1:2|1:2|1:2,1:0:0:0:
173,48,116067,1,8,0:2:0:0:
267,126,116217,6,0,B|361:151|352:78|449:116,1,187.000005706787,4|0,0:1|1:2,0:0:0:0:
368,279,116667,1,8,0:2:0:0:
400,191,116817,1,0,0:2:0:0:
435,345,116967,1,0,1:2:0:0:
435,345,117042,1,0,1:2:0:0:
435,345,117117,1,0,1:2:0:0:
349,259,117267,1,8,0:2:0:0:
264,382,117417,6,0,P|197:366|153:258,1,187.000005706787,4|0,0:1|1:2,0:0:0:0:
187,178,117867,1,8,0:2:0:0:
326,10,118017,6,0,P|345:76|274:168,1,187.000005706787,4|0,0:2|1:2,0:0:0:0:
187,178,118467,1,8,1:2:0:0:
123,109,118617,6,0,B|-8:98|-8:98|22:155,1,187.000005706787,4|0,0:1|0:2,0:0:0:0:
100,237,119067,2,0,L|90:338,1,93.5000028533936,8|0,0:2|0:2,0:0:0:0:
280,384,119367,1,0,1:2:0:0:
256,288,119517,1,0,1:2:0:0:
177,384,119667,1,8,1:2:0:0:
249,266,119817,6,0,B|237:204|237:204|261:163|261:163|246:85,1,187.000005706787,4|0,0:1|1:2,0:0:0:0:
124,44,120267,1,8,0:2:0:0:
142,135,120417,1,0,0:2:0:0:
49,228,120567,2,0,L|44:284,3,46.7500014266968,0|0|0|0,1:2|1:2|1:2|1:2,1:0:0:0:
43,302,120867,1,8,1:2:0:0:
143,370,121017,6,0,B|199:332|199:332|324:342,1,187.000005706787,4|4,0:1|1:2,0:0:0:0:
330,355,121392,1,4,1:2:0:0:
341,369,121467,1,4,1:2:0:0:
422,279,121617,1,0,0:2:0:0:
310,231,121767,2,0,L|259:237,4,46.7500014266968,8|8|8|8|8,0:2|0:2|0:2|0:2|0:2,0:0:0:0:
409,159,122217,1,8,0:2:0:0:
300,104,122367,6,0,P|265:115|201:111,1,93.5000028533936,0|4,0:2|1:2,0:0:0:0:
192,103,122592,1,4,1:2:0:0:
177,90,122667,1,4,0:2:0:0:
84,169,122817,1,0,0:2:0:0:
187,232,122967,1,8,0:2:0:0:
187,232,123042,1,8,0:2:0:0:
187,232,123117,1,8,0:2:0:0:
104,312,123267,2,0,P|65:304|8:307,1,93.5000028533936,0|0,0:2|0:2,0:0:0:0:
189,361,123567,6,0,L|201:305,2,38.2499988327027,14|0|0,0:2|0:0|0:2,0:0:0:0:
187,232,123867,1,0,3:2:0:0:
187,232,124017,1,0,1:2:0:0:
342,180,124167,2,0,P|352:138|358:74,1,76.4999976654053,2|0,0:2|0:2,0:0:0:0:
169,125,124467,6,0,P|210:134|274:141,1,76.4999976654053,10|0,0:2|0:2,0:0:0:0:
369,283,124767,1,0,1:2:0:0:
369,283,124842,1,0,1:2:0:0:
369,283,124917,1,0,1:2:0:0:
369,283,124992,1,0,1:2:0:0:
369,283,125067,2,0,L|261:269,1,76.4999976654053,2|0,1:2|1:2,0:0:0:0:
111,241,125367,6,0,L|219:227,1,76.4999976654053,6|0,0:2|0:2,0:0:0:0:
274,371,125667,1,0,3:2:0:0:
274,371,125817,1,0,1:2:0:0:
179,341,125967,1,2,1:2:0:0:
179,341,126042,1,0,1:2:0:0:
179,341,126117,1,0,1:2:0:0:
276,181,126267,6,0,P|281:135|229:26,1,152.999995330811,10|4,0:2|3:2,0:0:0:0:
148,36,126717,1,0,1:2:0:0:
312,93,126867,2,0,L|408:111,1,76.4999976654053,2|2,3:2|1:2,0:0:0:0:
178,138,127167,6,0,P|132:132|23:185,1,152.999995330811,10|2,0:2|1:2,0:0:0:0:
72,256,127617,1,0,1:2:0:0:
159,228,127767,1,6,3:2:0:0:
178,138,127917,1,0,1:2:0:0:
222,323,128067,6,0,P|259:338|326:335,1,76.4999976654053,10|0,0:2|0:2,0:0:0:0:
347,252,128367,1,0,1:2:0:0:
347,252,128442,1,0,1:2:0:0:
347,252,128517,1,0,1:2:0:0:
430,302,128667,6,0,L|445:376,1,76.4999976654053,14|0,0:2|1:2,0:0:0:0:
427,198,128967,6,0,P|412:161|415:94,1,76.4999976654053,14|0,0:2|0:2,0:0:0:0:
413,12,129267,2,0,L|375:21,1,38.2499988327027,2|2,1:2|1:2,0:0:0:0:
291,0,129417,1,2,1:2:0:0:
320,99,129567,1,0,3:2:0:0:
320,99,129642,1,0,3:2:0:0:
320,99,129717,1,2,3:2:0:0:
195,84,129867,6,0,B|152:82|152:82|96:98,1,76.4999976654053,6|0,0:2|0:2,0:0:0:0:
107,100,130092,1,2,1:2:0:0:
96,111,130167,1,2,1:2:0:0:
196,270,130317,6,0,B|198:227|198:227|182:171,1,76.4999976654053,12|0,0:2|0:2,0:0:0:0:
180,182,130542,1,2,1:2:0:0:
169,171,130617,1,2,1:2:0:0:
357,257,130767,6,0,L|417:245,2,38.2499988327027,14|0|0,0:2|0:0|0:2,0:0:0:0:
278,200,131067,1,0,3:2:0:0:
278,200,131217,1,0,1:2:0:0:
171,341,131367,2,0,P|131:340|83:323,1,76.4999976654053,6|0,0:2|0:2,0:0:0:0:
265,297,131667,6,0,P|265:336|282:384,1,76.4999976654053,10|2,0:2|0:2,0:0:0:0:
357,257,131967,1,0,1:2:0:0:
359,251,132042,1,0,1:2:0:0:
361,245,132117,1,0,1:2:0:0:
364,239,132192,1,0,1:2:0:0:
366,233,132267,6,0,L|446:220,1,76.4999976654053,2|0,3:2|0:2,0:0:0:0:
297,143,132567,6,0,P|255:194|161:171,1,152.999995330811,10|0,0:2|3:2,0:0:0:0:
175,95,133017,1,0,1:2:0:0:
97,218,133167,1,6,1:2:0:0:
97,218,133242,1,0,1:2:0:0:
97,218,133317,1,0,0:2:0:0:
262,62,133467,6,0,P|335:62|382:124,1,152.999995330811,14|0,0:2|3:2,0:0:0:0:
297,143,133917,1,0,1:2:0:0:
412,13,134067,1,6,3:2:0:0:
459,154,134217,1,0,1:2:0:0:
222,212,134367,6,0,L|176:219,2,38.2499988327027,14|0|0,0:2|0:0|1:2,0:0:0:0:
297,282,134667,1,0,3:2:0:0:
297,282,134817,1,0,1:2:0:0:
165,308,134967,2,0,L|77:302,1,76.4999976654053,6|0,3:2|1:2,0:0:0:0:
244,383,135267,6,0,L|332:377,1,76.4999976654053,10|0,0:2|0:2,0:0:0:0:
314,186,135567,1,4,1:2:0:0:
314,186,135642,1,0,1:2:0:0:
314,186,135717,1,0,1:2:0:0:
369,275,135867,1,2,3:2:0:0:
295,180,136017,1,0,1:2:0:0:
157,264,136167,6,0,P|121:275|61:272,1,76.4999976654053,14|0,0:2|0:2,0:0:0:0:
42,175,136467,1,2,3:0:0:0:
49,146,136542,1,2,3:0:0:0:
46,116,136617,2,0,P|29:83|32:34,1,76.4999976654053,2|2,3:0|3:2,0:0:0:0:
48,18,136842,1,0,1:0:0:0:
48,18,136917,1,2,3:0:0:0:
207,105,137067,6,0,P|253:126|363:147,1,140.25000428009,12|0,0:0|0:0,0:0:0:0:
377,137,137367,2,0,P|330:158|220:179,1,140.25000428009,12|0,0:0|0:0,0:0:0:0:
144,191,137667,2,0,L|128:343,1,140.25000428009,12|0,0:0|0:0,0:0:0:0:
129,330,137967,6,0,P|175:305|235:302,1,108.375002067089,0|0,3:0|0:0,0:0:0:0:
257,309,138267,2,0,L|246:381,1,72.2500013780594,0|0,3:0|0:0,0:0:0:0:
352,282,138567,2,0,L|363:354,1,72.2500013780594,4|0,3:2|0:0,0:0:0:0:
281,211,138867,1,0,0:0:0:0:
422,293,139017,6,0,P|386:295|343:276,1,72.2500013780594,0|8,3:0|1:0,0:0:0:0:
470,197,139317,1,0,1:0:0:0:
434,195,139392,1,0,1:0:0:0:
400,207,139467,1,0,1:0:0:0:
352,282,139617,1,0,0:0:0:0:
303,356,139767,2,0,L|228:341,1,72.2500013780594,4|0,0:0|0:0,0:0:0:0:
167,212,140067,2,0,L|92:227,1,72.2500013780594,0|0,0:0|0:0,0:0:0:0:
25,353,140367,5,0,1:0:0:0:
39,356,140442,1,0,1:0:0:0:
53,359,140517,1,0,1:0:0:0:
152,282,140667,2,0,L|169:199,1,72.2500013780594,0|0,3:0|0:0,0:0:0:0:
91,113,140967,1,4,0:2:0:0:
75,203,141117,1,0,3:0:0:0:
200,113,141267,5,2,3:0:0:0:
223,116,141367,5,2,3:0:0:0:
246,119,141467,5,2,3:0:0:0:
269,122,141567,6,0,L|259:206,1,72.2500013780594,8|0,1:0|1:0,0:0:0:0:
257,222,141792,1,0,1:0:0:0:
257,222,141867,1,0,3:0:0:0:
243,322,142017,1,0,3:0:0:0:
337,285,142167,6,0,P|379:289|411:307,1,72.2500013780594,8|0,0:0|0:0,0:0:0:0:
174,339,142467,2,0,P|216:335|248:317,1,72.2500013780594,8|0,0:0|0:0,0:0:0:0:
181,152,142767,6,0,L|173:343,1,187.000005706787,2|0,0:2|3:2,0:0:0:0:
87,300,143217,1,0,1:2:0:0:
87,300,143367,2,0,L|92:197,1,93.5000028533936,14|0,0:2|1:2,0:0:0:0:
97,112,143667,1,2,0:2:0:0:
181,152,143817,1,0,3:2:0:0:
265,192,143967,6,0,L|260:295,1,93.5000028533936,4|0,0:2|3:2,0:0:0:0:
260,313,144192,1,0,3:2:0:0:
260,313,144267,1,2,0:2:0:0:
350,337,144417,1,0,1:2:0:0:
440,361,144567,6,0,P|439:310|419:271,1,93.5000028533936,8|0,1:2|1:2,0:0:0:0:
365,196,144867,1,0,3:2:0:0:
365,196,145017,1,0,1:2:0:0:
365,196,145167,6,0,B|308:224|308:224|174:202,1,187.000005706787,6|0,0:2|3:2,0:0:0:0:
94,183,145617,1,0,0:0:0:0:
157,114,145767,2,0,L|254:129,1,93.5000028533936,8|8,0:2|0:2,0:0:0:0:
94,45,146067,1,0,0:0:0:0:
157,114,146217,1,2,3:2:0:0:
94,183,146367,5,0,0:2:0:0:
157,252,146517,1,0,1:2:0:0:
157,252,146592,1,0,1:2:0:0:
157,252,146667,2,0,L|254:237,1,93.5000028533936,2|0,1:2|3:2,0:0:0:0:
340,217,146967,1,12,0:0:0:0:
315,307,147117,1,0,0:0:0:0:
406,289,147267,5,2,3:0:0:0:
430,282,147367,5,2,3:0:0:0:
454,275,147467,5,2,3:0:0:0:
475,269,147567,6,0,B|490:219|490:219|470:185|470:185|492:134|474:71,1,170,12|0,0:0|1:0,0:0:0:0:
286,196,148017,2,0,L|275:302,1,85,12|2,0:0|0:0,0:0:0:0:
372,118,148317,1,0,1:0:0:0:
183,143,148467,2,0,L|172:249,1,85,12|2,0:0|0:0,0:0:0:0:
269,65,148767,2,0,L|254:16,3,42.5,0|0|0|0,1:0|1:0|1:0|1:0,0:0:0:0:
210,13,149067,6,0,P|166:25|97:64,1,85,14|0,0:0|0:0,0:0:0:0:
262,171,149367,2,0,P|218:159|149:120,1,85,14|0,0:0|0:0,0:0:0:0:
76,126,149667,1,2,3:0:0:0:
76,126,149817,1,0,1:0:0:0:
279,77,149967,6,0,B|343:102|399:66|399:66|417:86|442:98,1,170,12|0,0:0|3:0,0:0:0:0:
373,267,150417,2,0,L|381:148,1,85,12|2,0:0|0:0,0:0:0:0:
488,186,150717,1,0,3:0:0:0:
262,257,150867,2,0,L|254:376,1,85,12|2,0:0|0:0,0:0:0:0:
361,364,151167,1,0,1:0:0:0:
361,364,151242,1,0,1:0:0:0:
361,364,151317,1,0,1:0:0:0:
298,163,151467,6,0,P|252:149|192:178,1,85,14|0,0:0|0:0,0:0:0:0:
119,215,151767,5,14,1:2:0:0:
95,199,151867,5,0,1:0:0:0:
72,182,151967,5,0,1:0:0:0:
48,165,152067,5,0,1:0:0:0:
48,136,152167,5,0,1:0:0:0:
50,107,152267,5,0,1:0:0:0:
50,78,152367,6,0,P|119:58|208:64,1,127.5,6|0,0:2|0:2,0:0:0:0:
204,73,152667,2,0,P|273:93|362:87,1,127.5,2|0,0:2|0:2,0:0:0:0:
402,38,152967,1,14,0:2:0:0:
402,38,153117,1,0,1:2:0:0:
296,308,153417,6,0,L|268:171,1,127.5,2|0,3:2|0:2,0:0:0:0:
255,152,153717,1,8,0:2:0:0:
135,124,153867,1,2,3:2:0:0:
135,124,154017,1,0,1:2:0:0:
345,68,154167,6,0,B|402:89|402:89|492:77,1,127.5,10|0,0:2|0:2,0:0:0:0:
491,56,154467,2,0,L|474:204,1,127.5,2|0,0:2|0:2,0:0:0:0:
375,194,154767,6,0,P|353:180|270:226,1,127.5,6|0,0:2|0:2,0:0:0:0:
275,255,155067,1,0,3:2:0:0:
439,270,155217,1,0,1:2:0:0:
204,331,155367,1,8,3:2:0:0:
204,331,155517,2,0,P|254:356|306:355,1,85,0|0,1:2|0:0,0:0:0:0:
178,229,155817,5,2,3:2:0:0:
84,110,155967,2,0,L|67:13,1,85,8|0,0:2|1:2,0:0:0:0:
42,14,156192,1,0,1:2:0:0:
14,1,156267,1,2,1:2:0:0:
5,161,156417,1,0,3:2:0:0:
210,121,156567,6,0,P|256:126|308:153,1,85,8|0,0:2|0:0,0:0:0:0:
218,298,156867,1,2,3:0:0:0:
218,298,156942,1,2,3:0:0:0:
218,298,157017,1,2,3:3:0:0:
379,186,157167,6,0,B|413:146|413:146|392:303,1,170,12|0,0:2|3:2,0:0:0:0:
241,174,157617,2,0,L|315:85,1,85,12|2,0:2|0:2,0:0:0:0:
303,254,157917,1,0,3:2:0:0:
383,68,158067,2,0,L|314:-27,1,85,12|2,0:2|0:2,0:0:0:0:
240,31,158367,2,0,L|171:40,3,42.5,0|0|0|0,1:2|1:2|1:2|1:2,0:0:0:0:
160,60,158667,6,0,P|146:105|143:160,1,85,14|0,0:2|0:2,0:0:0:0:
365,148,158967,2,0,P|379:193|382:248,1,85,14|0,3:2|1:2,0:0:0:0:
259,120,159267,1,2,3:2:0:0:
259,120,159417,1,0,1:2:0:0:
382,355,159567,6,0,B|343:378|302:359|302:355|302:351|259:333|218:355,1,170,12|0,0:2|3:2,0:0:0:0:
259,120,160017,2,0,B|298:142|302:187|299:189|295:191|301:237|341:262,1,170,12|0,0:2|3:2,0:0:0:0:
117,344,160467,2,0,B|116:298|153:272|157:274|160:276|197:248|199:201,1,170,12|8,0:2|3:2,0:0:0:0:
270,322,160917,1,0,3:0:0:0:
270,322,160992,1,0,0:0:0:0:
270,322,161067,1,0,3:0:0:0:
372,274,161217,6,0,L|433:266,5,42.5,2|2|2|0|0|0,3:0|3:0|3:0|3:0|3:0|3:0,0:0:0:0:
377,176,161667,2,0,L|384:102,1,42.5,0|0,3:0|3:0,0:0:0:0:
435,17,161817,2,0,L|439:59,1,42.5,0|0,3:0|3:0,0:0:0:0:
377,176,161967,6,0,B|317:200|317:200|208:160,1,170,4|0,3:2|0:0,0:0:0:0:
124,262,162417,2,0,B|184:238|184:238|293:278,1,170,2|0,0:0|0:2,0:0:0:0:
197,344,162867,1,2,0:2:0:0:
124,262,163017,6,0,B|99:206|99:206|124:73,1,170,2|0,3:2|0:2,0:0:0:0:
208,34,163467,1,2,0:2:0:0:
278,111,163617,2,0,B|303:167|303:167|282:273,1,170,2|0,0:2|0:2,0:0:0:0:
197,344,164067,2,0,P|161:340|101:353,1,85,0|0,0:2|0:2,0:0:0:0:
32,265,164367,6,0,P|55:202|147:173,1,170,2|0,3:2|0:0,0:0:0:0:
124,262,164817,2,0,P|204:244|239:170,1,170,2|0,0:0|0:2,0:0:0:0:
192,78,165267,1,2,0:2:0:0:
286,5,165417,6,0,L|282:98,1,85,2|0,3:2|0:2,0:0:0:0:
373,136,165717,2,0,L|376:220,1,85,0|2,0:2|0:2,0:0:0:0:
286,267,166017,2,0,L|282:351,1,85,2|10,0:2|3:0,0:0:0:0:
183,381,166317,1,2,3:0:0:0:
183,381,166392,1,2,3:0:0:0:
183,381,166467,2,0,P|147:382|100:366,1,85,8|0,2:0|0:0,0:0:0:0:
28,280,166767,6,0,L|24:183,1,93.5000028533936,12|0,0:0|1:0,0:0:0:0:
125,76,167067,2,0,L|121:169,1,93.5000028533936,8|0,0:0|1:0,0:0:0:0:
222,280,167367,2,0,L|226:183,1,93.5000028533936,8|0,0:0|1:0,0:0:0:0:
319,76,167667,2,0,L|322:169,1,93.5000028533936,8|0,0:0|1:0,0:0:0:0:
388,303,167967,6,0,P|434:334|477:336,1,93.5000028533936,8|0,0:0|1:0,0:0:0:0:
301,258,168267,2,0,P|251:282|227:318,1,93.5000028533936,8|0,0:0|1:0,0:0:0:0:
383,205,168567,2,0,P|386:149|367:111,1,93.5000028533936,8|0,0:0|0:0,0:0:0:0:
229,63,168867,1,0,3:0:0:0:
229,63,168942,1,0,3:0:0:0:
229,63,169017,2,0,L|176:72,1,46.7500014266968,0|0,3:0|3:0,0:0:0:0:
110,132,169167,6,0,P|120:190|91:272,1,140.25000428009,12|0,0:0|0:0,0:0:0:0:
70,294,169467,2,0,P|105:285|173:295,1,93.5000028533936,8|0,0:0|1:0,0:0:0:0:
231,373,169767,2,0,P|266:382|334:372,1,93.5000028533936,8|0,0:0|1:0,0:0:0:0:
392,294,170067,2,0,P|427:285|495:295,1,93.5000028533936,8|0,0:0|1:0,0:0:0:0:
279,279,170367,6,0,P|266:231|266:183,1,93.5000028533936,4|0,3:0|0:0,0:0:0:0:
277,173,170592,1,8,3:0:0:0:
291,161,170667,1,0,3:0:0:0:
173,103,170817,2,0,P|186:151|186:199,1,93.5000028533936,0|8,3:0|3:0,0:0:0:0:
177,211,171042,1,8,3:0:0:0:
165,225,171117,1,0,3:0:0:0:
36,181,171267,1,2,3:0:0:0:
36,181,171417,1,2,3:0:0:0:
28,330,171567,6,0,L|134:320,1,93.5000028533936,8|0,0:0|3:0,0:0:0:0:
238,380,171867,2,0,L|344:370,1,93.5000028533936,8|0,0:0|3:0,0:0:0:0:
430,286,172167,1,8,0:0:0:0:
307,241,172317,1,0,3:0:0:0:
331,371,172467,1,0,3:0:0:0:
367,149,172617,6,0,B|328:112|328:112|194:152,1,187.000005706787,4|0,0:1|0:0,0:0:0:0:
5,137,173067,2,0,L|112:156,1,93.5000028533936,8|0,0:2|0:2,0:0:0:0:
153,233,173367,1,0,1:2:0:0:
147,74,173517,1,0,0:2:0:0:
241,109,173667,1,8,0:2:0:0:
53,249,173817,6,0,P|82:310|177:334,1,140.25000428009,4|0,0:1|2:0,0:0:0:0:
173,332,174117,1,0,1:2:0:0:
262,267,174267,2,0,P|309:258|376:268,1,93.5000028533936,8|0,0:2|1:2,0:0:0:0:
456,336,174567,1,0,1:2:0:0:
456,336,174642,1,0,1:2:0:0:
456,336,174717,1,0,1:2:0:0:
292,364,174867,1,8,0:2:0:0:
449,228,175017,6,0,B|466:181|438:140|433:141|429:142|401:98|417:50,1,187.000005706787,4|0,0:1|1:2,0:0:0:0:
511,79,175467,1,8,0:2:0:0:
353,201,175617,1,0,1:2:0:0:
353,201,175692,1,0,1:2:0:0:
353,201,175767,1,0,1:2:0:0:
455,243,175917,1,0,1:2:0:0:
346,182,176067,1,8,0:2:0:0:
238,383,176217,6,0,P|204:351|270:250,1,187.000005706787,4|0,0:1|1:2,0:0:0:0:
292,254,176592,1,0,1:2:0:0:
315,268,176667,1,8,0:2:0:0:
455,243,176817,1,4,0:2:0:0:
321,49,176967,6,0,P|280:125|346:182,1,187.000005706787,0|8,0:2|1:2,0:0:0:0:
188,195,177417,2,0,B|142:184|142:184|50:204|50:204|0:191,1,187.000005706787,4|0,0:1|0:0,0:0:0:0:
39,4,177867,2,0,L|56:125,1,93.5000028533936,8|0,0:2|1:2,0:0:0:0:
139,293,178167,1,0,1:2:0:0:
198,179,178317,1,0,0:2:0:0:
5,192,178467,1,8,0:2:0:0:
221,73,178617,6,0,P|264:90|303:197,1,140.25000428009,4|0,0:1|2:0,0:0:0:0:
301,197,178917,1,0,1:2:0:0:
198,179,179067,1,8,0:2:0:0:
300,299,179217,1,0,1:2:0:0:
300,299,179292,1,0,1:2:0:0:
300,299,179367,2,0,P|332:314|400:316,1,93.5000028533936,0|0,1:2|0:2,0:0:0:0:
501,322,179667,1,8,0:2:0:0:
431,137,179817,6,0,L|400:12,1,93.5000028533936,4|0,0:1|0:0,0:0:0:0:
351,191,180117,1,0,1:2:0:0:
508,57,180267,1,8,0:2:0:0:
315,42,180417,1,4,0:2:0:0:
315,42,180492,1,0,2:2:0:0:
315,42,180567,2,0,P|272:58|209:51,1,93.5000028533936,0|0,0:2|1:2,0:0:0:0:
199,45,180792,1,0,1:2:0:0:
176,28,180867,2,0,P|130:23|71:46,1,93.5000028533936,8|4,1:2|0:2,0:0:0:0:
121,269,181167,6,0,L|133:160,1,93.5000028533936,0|0,0:0|1:0,0:0:0:0:
135,149,181392,1,0,1:0:0:0:
139,122,181467,1,8,1:2:0:0:
28,344,181617,6,0,L|16:235,1,93.5000028533936,4|0,0:0|0:0,0:0:0:0:
14,224,181842,1,0,0:0:0:0:
10,197,181917,1,0,1:0:0:0:
35,85,182067,1,8,1:2:0:0:
135,149,182217,6,0,B|230:188|217:109|314:151,1,187.000005706787,4|0,0:1|0:0,0:0:0:0:
288,309,182667,2,0,P|263:256|266:211,1,93.5000028533936,8|0,0:2|0:2,0:0:0:0:
450,219,182967,1,0,1:2:0:0:
358,239,183117,1,0,3:2:0:0:
469,126,183267,1,8,0:2:0:0:
466,323,183417,6,0,B|413:343|413:343|262:301,1,187.000005706787,4|0,0:1|0:2,0:0:0:0:
232,167,183867,1,8,0:2:0:0:
208,257,184017,1,0,0:2:0:0:
369,129,184167,2,0,L|359:24,1,93.5000028533936,0|0,0:2|1:2,0:0:0:0:
360,35,184392,1,0,1:2:0:0:
360,35,184467,1,8,1:2:0:0:
153,145,184617,6,0,P|221:119|236:15,1,187.000005706787,4|0,0:1|1:2,0:0:0:0:
46,49,185067,1,8,0:2:0:0:
155,58,185217,1,0,0:2:0:0:
32,173,185367,1,0,1:2:0:0:
32,173,185442,1,0,1:0:0:0:
32,173,185517,2,0,L|42:273,1,93.5000028533936,0|8,1:2|1:2,0:0:0:0:
197,331,185817,6,0,B|246:298|246:298|372:317,1,187.000005706787,4|0,0:1|1:2,0:0:0:0:
463,382,186267,1,8,0:2:0:0:
451,188,186417,2,0,B|402:221|402:221|276:202,1,187.000005706787,4|0,0:2|1:2,0:0:0:0:
262,187,186792,1,0,1:2:0:0:
249,172,186867,1,8,1:2:0:0:
383,42,187017,6,0,P|409:84|318:82,1,187.000005706787,4|0,0:1|0:0,0:0:0:0:
170,211,187467,2,0,P|221:200|252:165,1,93.5000028533936,8|0,0:2|0:2,0:0:0:0:
108,61,187767,1,0,1:2:0:0:
87,152,187917,1,0,1:0:0:0:
213,70,188067,1,8,1:2:0:0:
13,88,188217,6,0,B|0:156|0:156|15:204|15:204|3:277,1,187.000005706787,4|0,0:1|1:2,0:0:0:0:
118,368,188667,1,8,0:2:0:0:
98,276,188817,1,0,0:2:0:0:
238,368,188967,2,0,L|256:269,1,93.5000028533936,0|0,0:2|1:2,0:0:0:0:
259,257,189192,1,0,1:2:0:0:
263,238,189267,1,8,1:2:0:0:
449,249,189417,6,0,B|403:282|403:282|421:147,1,187.000005706787,4|0,2:1|0:0,0:0:0:0:
438,60,189867,1,8,0:2:0:0:
257,110,190017,1,0,0:0:0:0:
330,166,190167,1,8,0:2:0:0:
224,34,190317,1,0,0:0:0:0:
224,34,190392,1,0,0:0:0:0:
224,34,190467,2,0,L|232:138,1,93.5000028533936,8|4,0:2|0:0,0:0:0:0:
189,276,190767,6,0,P|146:255|47:274,1,140.25000428009,8|0,3:0|2:0,0:0:0:0:
36,299,191067,2,0,L|48:153,1,140.25000428009,8|0,3:2|3:0,0:0:0:0:
52,122,191367,1,8,3:2:0:0:
52,122,191517,1,2,3:0:0:0:
81,27,191667,5,0,2:0:0:0:
52,122,191817,2,0,L|136:92,1,85,0|0,0:0|1:0,0:0:0:0:
217,38,192192,1,0,1:0:0:0:
219,54,192267,6,0,L|233:188,1,101.999996887207,12|0,0:2|0:2,0:0:0:0:
163,233,192567,1,0,1:2:0:0:
318,207,192717,1,0,0:2:0:0:
145,215,192867,1,8,0:2:0:0:
330,113,193017,6,0,L|337:-20,1,101.999996887207,4|0,0:1|0:2,0:0:0:0:
423,89,193317,1,0,1:2:0:0:
244,72,193467,2,0,P|191:59|127:77,1,101.999996887207,8|0,0:2|0:2,0:0:0:0:
123,90,193692,1,0,0:0:0:0:
123,90,193767,2,0,L|138:164,1,50.9999984436036,0|0,0:2|0:0,0:0:0:0:
105,230,193917,2,0,L|90:304,1,50.9999984436036,0|0,1:2|1:2,0:0:0:0:
150,360,194067,1,8,1:2:0:0:
199,222,194217,6,0,P|254:200|428:220,1,203.999993774414,4|0,0:1|1:2,0:0:0:0:
466,295,194667,5,8,0:2:0:0:
372,291,194817,1,0,0:2:0:0:
458,311,194967,5,8,0:2:0:0:
364,307,195117,1,0,0:2:0:0:
450,327,195267,5,8,0:2:0:0:
356,323,195417,1,0,0:2:0:0:
425,220,195567,2,0,L|437:164,2,50.9999984436036,12|0|0,0:2|0:0|0:2,0:0:0:0:
319,215,195867,5,8,0:2:0:0:
288,104,196017,1,0,0:2:0:0:
218,222,196167,5,12,0:2:0:0:
275,117,196317,1,0,3:2:0:0:
273,104,196392,1,0,3:0:0:0:
272,91,196467,1,8,3:2:0:0:
152,128,196617,6,0,P|105:217|160:326,1,203.999993774414,4|0,0:1|0:2,0:0:0:0:
9,299,197067,2,0,P|-3:251|12:166,1,101.999996887207,8|0,0:2|0:2,0:0:0:0:
138,308,197367,1,0,0:2:0:0:
218,222,197517,1,0,1:2:0:0:
241,378,197667,1,8,0:2:0:0:
108,217,197817,6,0,B|121:158|121:158|94:77|94:77|121:0,1,203.999993774414,4|0,0:1|0:2,0:0:0:0:
211,78,198267,1,8,1:2:0:0:
21,157,198417,1,0,1:2:0:0:
222,96,198567,2,0,P|268:83|348:98,1,101.999996887207,2|2,0:3|0:3,0:0:0:0:
349,100,198792,1,2,0:3:0:0:
373,118,198867,1,8,0:2:0:0:
218,243,199017,6,0,B|215:288|215:288|300:200,1,146.62500279665,4|0,0:1|0:2,0:0:0:0:
288,176,199317,1,0,1:2:0:0:
188,151,199467,1,8,0:2:0:0:
340,83,199617,6,0,P|393:140|353:263,1,212.5,4|0,0:1|1:2,0:0:0:0:
333,268,199992,1,0,1:2:0:0:
310,282,200067,1,8,0:2:0:0:
490,225,200217,6,0,P|496:133|406:8,1,229.500000875473,4|0,0:1|1:2,0:0:0:0:
397,6,200592,1,0,1:2:0:0:
368,0,200667,1,8,0:2:0:0:
378,213,200817,6,0,L|352:333,1,123.250003761292,4|0,0:1|0:0,0:0:0:0:
460,307,201117,1,0,1:2:0:0:
469,341,201192,1,0,1:2:0:0:
479,376,201267,1,8,0:2:0:0:
264,336,201417,6,0,B|297:193|297:193|237:218,1,203.999993774414,4|0,0:1|0:2,0:0:0:0:
86,289,201867,2,0,L|201:279,1,101.999996887207,8|0,0:2|0:2,0:0:0:0:
48,195,202167,1,0,0:2:0:0:
38,382,202317,1,0,1:2:0:0:
38,382,202392,1,0,1:2:0:0:
38,382,202467,1,8,0:2:0:0:
187,280,202617,6,0,B|182:206|182:206|168:184|168:184|180:164|180:164|176:80,1,203.999993774414,4|0,0:1|1:2,0:0:0:0:
301,15,203067,2,0,P|279:62|288:117,1,101.999996887207,8|0,0:2|1:2,0:0:0:0:
400,150,203367,2,0,L|408:210,1,50.9999984436036,0|0,1:2|1:2,0:0:0:0:
345,269,203517,2,0,L|340:327,1,50.9999984436036,0|0,1:2|1:2,0:0:0:0:
411,378,203667,1,8,0:2:0:0:
334,244,203817,6,0,B|281:226|246:258|246:258|230:235|230:235|193:264|145:249,1,203.999993774414,4|0,0:1|1:2,0:0:0:0:
109,93,204267,5,8,0:2:0:0:
30,158,204417,1,0,0:2:0:0:
117,108,204567,5,8,0:2:0:0:
21,142,204717,1,0,0:2:0:0:
120,125,204867,5,8,0:2:0:0:
18,125,205017,1,0,0:2:0:0:
117,143,205167,2,0,L|174:162,2,50.9999984436036,12|0|0,0:2|0:0|0:2,0:0:0:0:
82,239,205467,5,8,0:2:0:0:
18,125,205617,1,0,0:2:0:0:
71,263,205767,5,12,0:2:0:0:
205,236,205917,1,0,3:2:0:0:
218,214,205992,1,0,3:0:0:0:
231,192,206067,1,8,3:2:0:0:
146,335,206217,6,0,B|205:370|205:370|358:341,1,203.999993774414,4|0,0:1|0:2,0:0:0:0:
450,227,206667,2,0,P|466:291|453:332,1,101.999996887207,8|0,0:2|0:2,0:0:0:0:
330,257,206967,1,0,0:2:0:0:
399,123,207117,1,0,1:2:0:0:
450,227,207267,1,8,0:2:0:0:
296,158,207417,6,0,B|221:153|221:153|181:187|181:187|100:182,1,203.999993774414,4|0,0:1|1:2,0:0:0:0:
53,29,207867,1,8,0:2:0:0:
153,98,208017,1,0,1:2:0:0:
9,176,208167,2,0,L|19:277,1,101.999996887207,0|0,1:2|1:2,0:0:0:0:
30,294,208392,1,0,1:2:0:0:
41,310,208467,1,8,0:2:0:0:
171,368,208617,6,0,P|221:340|321:351,1,152.999995330811,4|0,0:1|0:0,0:0:0:0:
336,368,208917,2,0,L|326:305,1,50.9999984436036,0|0,1:2|1:2,0:0:0:0:
386,260,209067,2,0,L|396:197,1,50.9999984436036,12|0,0:2|0:0,0:0:0:0:
355,137,209217,6,0,B|307:163|307:163|179:139,1,165.749992412568,2|2,0:0|0:0,0:0:0:0:
165,131,209517,1,8,0:2:0:0:
167,164,209592,1,8,0:2:0:0:
169,197,209667,1,8,0:2:0:0:
171,230,209742,1,0,0:2:0:0:
173,266,209817,6,0,B|126:250|126:250|45:262,1,127.5,4|0,0:1|0:0,0:0:0:0:
24,266,210117,1,0,1:2:0:0:
24,266,210192,1,0,1:2:0:0:
24,266,210267,2,0,L|31:329,1,42.5,4|0,1:2|0:0,0:0:0:0:
71,172,210417,6,0,L|84:68,1,89.2499972763062,0|0,0:2|0:0,0:0:0:0:
86,55,210739,1,0,0:2:0:0:
167,164,210913,1,8,0:2:0:0:
385,52,211262,5,2,0:2:0:0:
336,214,211623,2,0,L|323:126,1,85,2|0,0:0|0:0,0:0:0:0:
257,76,211984,1,2,0:0:0:0:
244,245,212346,2,0,L|231:157,1,85,2|0,0:0|0:0,0:0:0:0:
176,60,212707,6,0,L|115:88,3,42.5,2|0|0|0,0:0|0:0|0:0|0:0,0:0:0:0:
267,69,213096,2,0,L|360:100,1,85,2|0,0:0|0:0,0:0:0:0:
459,73,213486,1,2,0:0:0:0:
214,202,213894,5,2,0:0:0:0:
324,251,214098,1,0,0:0:0:0:
150,289,214302,2,0,L|54:297,1,85,2|0,0:0|0:0,0:0:0:0:
93,202,214746,5,2,0:0:0:0:
28,108,214968,1,0,0:0:0:0:
163,108,215190,2,0,L|261:113,1,85,2|0,0:0|0:0,0:0:0:0:
372,74,215666,6,0,P|359:120|348:195,1,85,2|2,0:0|0:0,0:0:0:0:
397,266,216183,1,2,0:0:0:0:
270,194,216754,5,2,0:0:0:0:
143,310,217468,5,2,0:0:0:0:
256,192,217646,12,0,221039,0:0:0:0:
