osu file format v14

[General]
AudioFilename: audio.mp3
AudioLeadIn: 0
PreviewTime: 103987
Countdown: 0
SampleSet: None
StackLeniency: 0.6
Mode: 0
LetterboxInBreaks: 0
WidescreenStoryboard: 1

[Editor]
Bookmarks: 2362,15562,25162,34762,45412,55012,64762,83962,93562,104212,113812,123562,134362,137962,147562,161962,172612,182212,192262,211257
DistanceSpacing: 1
BeatDivisor: 2
GridSize: 32
TimelineZoom: 3.099999

[Metadata]
Title:Yoru Naku Usagi wa Yume o Miru
TitleUnicode:夜啼く兎は夢を見る
Artist:UNDEAD CORPORATION
ArtistUnicode:UNDEAD CORPORATION
Creator:MaridiuS
Version:Bergy's Normal
Source:東方永夜抄 ~ Imperishable Night.
Tags:LOLI JOA Ayyri Len Revia Realazy LowComboFC eiri- Chekito Lince Bergy ranko Touhou Eiyashou 東方Project C82 Comiket82 Benisome no Oni ga Naku 紅染の鬼が哭く 狂気の瞳 ~ Invisible Full Moon Kyouki no Hitomi Reisen Udongein theme
BeatmapID:1527935
BeatmapSetID:695743

[Difficulty]
HPDrainRate:4
CircleSize:3.5
OverallDifficulty:4
ApproachRate:5.5
SliderMultiplier:1
SliderTickRate:1

[Events]
//Background and Video events
0,0,"03b5dc8d1eb147aafaf20977363d0651_waifu2x_art_noise2_scale_tta_1.jpg",0,0
//Break Periods
2,15467,19242
2,83867,92442
2,138167,145842
//Storyboard Layer 0 (Background)
//Storyboard Layer 1 (Fail)
//Storyboard Layer 2 (Pass)
//Storyboard Layer 3 (Foreground)
//Storyboard Sound Samples

[TimingPoints]
-33,300,4,2,1,70,1,0
567,-100,4,2,1,70,0,0
5967,-100,4,2,10,70,0,0
6192,-100,4,2,10,5,0,0
6267,-100,4,2,10,70,0,0
6492,-100,4,2,10,5,0,0
6567,-100,4,2,10,70,0,0
7242,-100,4,2,10,5,0,0
7317,-100,4,2,10,70,0,0
7992,-100,4,2,10,5,0,0
8067,-100,4,2,10,70,0,0
8292,-100,4,2,10,5,0,0
8367,-100,4,2,10,70,0,0
8592,-100,4,2,10,5,0,0
8667,-100,4,2,10,70,0,0
10767,-100,4,2,1,70,0,0
15567,-100,4,2,5,70,0,0
25167,-100,4,2,1,70,0,0
33792,-100,4,2,1,5,0,0
33867,-100,4,2,1,70,0,0
34092,-100,4,2,1,5,0,0
34167,-100,4,2,1,70,0,0
34767,-100,4,2,10,70,0,0
44367,-100,4,2,1,70,0,0
45417,-100,4,3,10,80,0,1
64767,-100,4,2,1,45,0,0
66567,-100,4,2,1,70,0,0
74367,-100,4,2,10,70,0,0
74592,-100,4,2,10,5,0,0
74667,-100,4,2,10,70,0,0
74892,-100,4,2,10,5,0,0
74967,-100,4,2,10,70,0,0
75642,-100,4,2,10,5,0,0
75717,-100,4,2,10,70,0,0
76392,-100,4,2,10,5,0,0
76467,-100,4,2,10,70,0,0
76692,-100,4,2,10,5,0,0
76767,-100,4,2,10,70,0,0
76992,-100,4,2,10,5,0,0
77067,-100,4,2,10,70,0,0
79167,-100,4,2,1,70,0,0
83967,-100,4,2,5,70,0,0
87567,-100,4,2,1,70,0,0
93567,-100,4,2,10,70,0,0
104217,-100,4,3,10,70,0,1
123567,-100,4,2,10,70,0,0
137067,-100,4,2,1,70,0,0
142767,-100,4,2,10,70,0,0
145392,-100,4,2,10,5,0,0
145467,-100,4,2,10,70,0,0
145692,-100,4,2,10,5,0,0
145767,-100,4,2,10,70,0,0
147567,-100,4,2,1,70,0,0
152367,-100,4,2,10,70,0,0
152592,-100,4,2,10,5,0,0
152667,-100,4,2,10,70,0,0
152892,-100,4,2,10,5,0,0
152967,-100,4,2,10,70,0,0
153642,-100,4,2,10,5,0,0
153717,-100,4,2,10,70,0,0
154392,-100,4,2,10,5,0,0
154467,-100,4,2,10,70,0,0
154692,-100,4,2,10,5,0,0
154767,-100,4,2,10,70,0,0
154992,-100,4,2,10,5,0,0
155067,-100,4,2,10,70,0,0
157167,-100,4,2,1,70,0,0
161967,-100,4,2,10,70,0,0
172617,-100,4,3,10,70,0,1
191817,-100,4,2,1,70,0,0
192267,-100,4,3,10,70,0,1
210417,322.58064516129,4,3,10,70,1,1
210739,348.837209302326,4,2,1,70,1,0
211262,361.44578313253,4,2,1,50,1,0
212707,389.61038961039,4,2,1,50,1,0
213486,408.163265306122,4,2,1,50,1,0
214302,444.444444444444,4,2,1,50,1,0
215190,476.190476190476,4,2,1,50,1,0
215666,517.241379310345,4,2,1,50,1,0
216183,571.428571428571,4,2,1,40,1,0
216754,714.285714285714,4,2,1,30,1,0
217646,-100,4,2,1,5,0,0

[Colours]
Combo1 : 79,219,89
Combo2 : 30,135,240
Combo3 : 248,22,62
Combo4 : 186,105,184

[HitObjects]
74,123,567,6,0,P|134:121|174:142,1,100,0|0,0:0|0:0,0:0:0:0:
227,220,1167,6,0,L|214:375,2,150,12|12|12,0:2|0:2|0:2,0:0:0:0:
304,156,2367,1,0,1:2:0:0:
386,212,2667,1,14,0:2:0:0:
463,150,2967,2,0,L|454:35,1,99.9999999999999,14|2,0:2|3:2,0:0:0:0:
355,39,3567,6,0,P|257:52|212:13,2,150,12|12|12,0:2|0:2|0:2,0:0:0:0:
454,23,4767,1,0,1:2:0:0:
503,110,5067,1,14,0:2:0:0:
446,192,5367,2,0,L|329:185,1,99.9999999999999,14|0,1:2|1:2,0:0:0:0:
261,132,5967,6,0,P|305:210|291:271,1,150,6|0,0:2|0:0,0:0:0:0:
257,300,6567,1,10,0:2:0:0:
164,261,6867,2,0,L|175:145,1,99.9999999999999,0|0,0:0|0:0,0:0:0:0:
147,64,7467,2,0,P|93:42|42:50,2,99.9999999999999,2|14|2,0:2|0:2|0:2,0:0:0:0:
246,74,8367,6,0,L|415:66,1,150,6|0,0:2|0:2,0:0:0:0:
441,46,8967,1,10,0:2:0:0:
505,122,9267,1,0,0:0:0:0:
452,206,9567,2,0,P|394:219|350:204,1,99.9999999999999,10|2,0:2|1:2,0:0:0:0:
269,160,10167,2,0,L|152:169,1,99.9999999999999,8|2,0:2|3:3,0:0:0:0:
82,116,10767,6,0,P|124:171|107:265,2,150,12|12|12,0:2|0:2|0:2,0:0:0:0:
0,57,11967,1,0,1:2:0:0:
86,5,12267,1,14,0:2:0:0:
161,70,12567,2,0,L|272:77,1,99.9999999999999,14|2,0:2|3:2,0:0:0:0:
355,107,13167,6,0,P|401:211|387:246,2,150,12|12|12,0:2|0:2|0:2,0:0:0:0:
302,192,14367,2,0,L|247:200,1,50,14|0,1:2|1:0,0:0:0:0:
202,207,14667,1,0,3:0:0:0:
131,136,14967,2,0,L|76:127,1,50,8|0,0:0|1:0,0:0:0:0:
31,121,15267,1,0,1:0:0:0:
85,28,20367,6,0,L|96:138,1,99.9999999999999,2|0,1:2|1:2,0:0:0:0:
185,170,20967,2,0,L|174:278,1,99.9999999999999,2|0,1:2|1:2,0:0:0:0:
212,362,21567,2,0,P|277:365|319:343,1,99.9999999999999,2|0,1:2|1:2,0:0:0:0:
394,300,22167,2,0,P|440:283|489:289,1,99.9999999999999,2|0,1:2|1:2,0:0:0:0:
508,192,22767,6,0,L|503:88,1,99.9999999999999,2|0,1:2|1:2,0:0:0:0:
441,13,23367,2,0,P|385:0|336:9,1,99.9999999999999,2|0,1:2|1:2,0:0:0:0:
263,66,23967,1,6,1:2:0:0:
280,174,24267,2,0,L|284:232,1,50,0|0,3:0|3:0,0:0:0:0:
290,273,24567,1,0,3:0:0:0:
180,267,24867,2,0,L|122:263,1,50,0|0,3:0|3:0,0:0:0:0:
81,257,25167,6,0,P|77:198|133:125,1,150,4|0,0:2|3:2,0:0:0:0:
177,113,25767,1,2,0:2:0:0:
257,53,26067,1,2,3:2:0:0:
337,112,26367,2,0,L|331:227,1,99.9999999999999,0|2,3:2|1:2,0:0:0:0:
429,187,26967,2,0,L|423:72,1,99.9999999999999,10|0,0:1|3:2,0:0:0:0:
351,17,27567,6,0,P|310:60|216:56,1,150,0|0,1:2|3:2,0:0:0:0:
182,32,28167,1,2,0:2:0:0:
118,109,28467,1,2,3:2:0:0:
191,179,28767,2,0,L|299:173,1,99.9999999999999,4|2,3:3|1:2,0:0:0:0:
385,206,29367,2,0,P|413:265|405:317,1,99.9999999999999,10|0,0:1|0:2,0:0:0:0:
332,362,29967,6,0,L|163:352,1,150,4|0,3:2|3:2,0:0:0:0:
136,373,30567,1,2,0:2:0:0:
79,290,30867,1,2,3:2:0:0:
139,209,31167,2,0,P|196:195|245:209,1,99.9999999999999,0|2,3:2|1:2,0:0:0:0:
328,241,31767,2,0,P|376:250|424:236,1,99.9999999999999,10|2,0:1|3:2,0:0:0:0:
458,141,32367,6,0,L|293:126,1,150,2|0,0:2|3:2,0:0:0:0:
275,89,32967,2,0,L|162:97,1,99.9999999999999,2|2,0:2|3:2,0:0:0:0:
91,151,33567,1,4,0:0:0:0:
165,217,33867,1,4,0:0:0:0:
80,270,34167,2,0,L|76:338,2,50,8|8|8,0:1|0:1|0:1,0:0:0:0:
166,320,34767,6,0,P|228:331|299:266,2,150,4|4|8,1:0|0:0|0:0,0:0:0:0:
160,269,35817,2,0,L|170:163,2,99.9999999999999,4|0|4,1:0|0:0|0:0,0:0:0:0:
66,233,36717,2,0,L|62:172,1,50,0|8,1:0|0:0,0:0:0:0:
124,104,37167,6,0,P|193:147|262:126,2,150,4|4|8,1:0|0:0|0:0,0:0:0:0:
101,58,38217,2,0,L|1:49,2,99.9999999999999,4|8|4,1:0|0:0|0:0,0:0:0:0:
200,51,39117,2,0,L|261:47,1,50,12|12,0:0|0:0,0:0:0:0:
318,120,39567,6,0,L|304:239,1,99.9999999999999,12|8,0:0|0:0,0:0:0:0:
377,289,40167,2,0,L|391:170,1,99.9999999999999,8|8,0:0|0:0,0:0:0:0:
390,89,40767,2,0,P|340:46|292:47,1,99.9999999999999,8|8,0:0|0:0,0:0:0:0:
217,85,41367,1,8,0:0:0:0:
272,168,41667,2,0,L|274:231,1,50,8|0,3:0|3:0,0:0:0:0:
261,266,41967,6,0,P|311:241|405:269,2,150,12|0|8,0:0|1:0|0:0,0:0:0:0:
198,343,43167,2,0,L|88:332,1,99.9999999999999,12|8,0:0|0:0,0:0:0:0:
15,277,43767,2,0,P|1:222|16:176,1,99.9999999999999,0|2,3:0|3:0,0:0:0:0:
88,116,44367,5,12,0:0:0:0:
138,202,44667,1,12,0:0:0:0:
208,130,44967,2,0,L|312:124,1,99.9999999999999,8|0,1:2|3:0,0:0:0:0:
356,138,45417,6,0,P|392:214|361:284,1,150,4|8,0:1|0:2,0:0:0:0:
280,315,46167,2,0,L|178:306,1,99.9999999999999,0|8,1:2|0:2,0:0:0:0:
134,327,46617,2,0,P|170:251|139:181,1,150,4|8,0:1|0:2,0:0:0:0:
73,127,47367,2,0,P|56:68|72:29,1,99.9999999999999,0|8,1:2|0:2,0:0:0:0:
112,8,47817,6,0,L|278:19,1,150,4|8,0:1|0:2,0:0:0:0:
319,99,48567,2,0,L|372:104,2,50,0|0|8,1:2|0:2|0:2,0:0:0:0:
285,135,49017,2,0,L|131:150,1,150,4|8,0:1|1:2,0:0:0:0:
97,181,49617,2,0,P|63:267|88:323,1,150,4|8,0:2|1:2,0:0:0:0:
119,350,50217,6,0,L|281:343,1,150,4|8,0:1|1:2,0:0:0:0:
369,317,50967,2,0,L|377:210,1,99.9999999999999,0|8,1:2|0:2,0:0:0:0:
410,181,51417,2,0,P|328:205|267:168,1,150,4|8,0:1|0:2,0:0:0:0:
206,103,52167,2,0,L|100:110,1,100,0|8,1:2|0:2,0:0:0:0:
68,142,52617,6,0,P|44:224|81:285,1,150,4|8,0:1|0:2,0:0:0:0:
120,290,53217,1,4,0:2:0:0:
168,301,53367,2,0,L|167:357,2,50,0|0|8,1:2|1:2|0:2,0:0:0:0:
239,231,53967,2,0,L|251:115,1,100,0|8,0:2|1:2,0:0:0:0:
346,109,54567,1,8,0:2:0:0:
449,129,54867,5,8,0:2:0:0:
449,129,55017,2,0,P|478:195|453:264,1,150,4|8,0:1|0:2,0:0:0:0:
358,296,55767,2,0,L|247:284,1,99.9999999999999,0|8,1:2|1:2,0:0:0:0:
225,247,56217,2,0,L|66:259,1,150,4|8,0:1|0:2,0:0:0:0:
47,162,56967,2,0,P|103:136|144:145,1,99.9999999999999,0|8,1:2|0:2,0:0:0:0:
183,166,57417,6,0,L|351:157,1,150,4|8,0:1|1:2,0:0:0:0:
410,94,58167,2,0,P|458:94|485:81,2,50,0|0|8,0:2|1:2|1:2,0:0:0:0:
389,47,58617,2,0,L|227:56,1,150,4|8,1:0|0:2,0:0:0:0:
191,30,59217,2,0,P|160:114|188:172,1,150,4|8,0:2|1:2,0:0:0:0:
231,176,59817,6,0,L|65:166,1,150,4|8,0:1|0:2,0:0:0:0:
0,225,60567,2,0,L|11:325,1,99.9999999999999,0|8,1:2|0:2,0:0:0:0:
3,371,61017,2,0,P|42:327|147:320,1,150,4|8,0:1|0:2,0:0:0:0:
225,340,61767,2,0,L|334:330,1,99.9999999999999,0|8,1:2|0:2,0:0:0:0:
370,310,62217,6,0,P|395:232|361:171,1,150,4|8,0:1|0:2,0:0:0:0:
338,132,62817,1,8,0:2:0:0:
311,89,62967,2,0,L|318:8,2,50,2|2|8,3:0|3:0|1:2,0:0:0:0:
213,103,63567,2,0,L|93:101,1,100,0|2,0:2|3:0,0:0:0:0:
77,194,64167,1,8,3:2:0:0:
172,222,64467,1,8,0:2:0:0:
192,326,64767,5,4,3:2:0:0:
192,326,66567,6,0,L|129:333,2,50,8|8|8,0:1|0:1|0:1,0:0:0:0:
283,285,67167,6,0,L|286:180,1,99.9999999999999,2|2,3:2|0:0,0:0:0:0:
263,87,67767,2,0,P|202:140|124:120,1,150,14|0,0:0|3:2,0:0:0:0:
108,90,68367,2,0,L|1:84,1,99.9999999999999,10|2,3:2|3:2,0:0:0:0:
29,182,68967,1,8,3:2:0:0:
52,279,69267,1,2,3:0:0:0:
128,212,69567,6,0,L|281:200,2,150,12|12|12,0:0|0:0|0:0,0:0:0:0:
44,266,70767,1,0,1:0:0:0:
37,365,71067,1,14,0:0:0:0:
136,382,71367,2,0,L|245:374,1,99.9999999999999,14|2,0:0|3:2,0:0:0:0:
319,320,71967,6,0,L|483:331,2,150,12|12|12,0:0|0:0|0:0,0:0:0:0:
227,280,73167,2,0,P|211:226|225:182,1,99.9999999999999,0|14,1:0|0:0,0:0:0:0:
280,103,73767,2,0,P|294:54|283:8,1,99.9999999999999,14|0,1:2|1:0,0:0:0:0:
194,52,74367,6,0,P|183:131|232:191,1,150,6|0,0:0|0:0,0:0:0:0:
270,207,74967,1,12,0:0:0:0:
352,151,75267,2,0,L|467:144,1,99.9999999999999,0|0,0:0|0:0,0:0:0:0:
511,225,75867,2,0,P|516:274|495:322,2,99.9999999999999,2|10|2,0:0|0:0|0:0,0:0:0:0:
416,258,76767,6,0,L|256:243,1,150,6|0,3:2|1:0,0:0:0:0:
221,264,77367,1,12,0:0:0:0:
162,182,77667,1,0,0:0:0:0:
241,121,77967,2,0,L|353:113,1,99.9999999999999,14|0,0:0|1:0,0:0:0:0:
429,160,78567,2,0,P|444:219|429:265,1,99.9999999999999,14|2,0:0|3:0,0:0:0:0:
344,299,79167,6,0,L|181:287,2,150,12|12|12,0:0|0:0|0:0,0:0:0:0:
408,375,80367,2,0,L|512:367,1,99.9999999999999,0|14,1:0|0:0,0:0:0:0:
501,267,80967,2,0,P|481:210|496:158,1,99.9999999999999,14|0,0:0|3:0,0:0:0:0:
475,72,81567,6,0,P|369:34|324:52,2,150,12|12|12,0:0|0:0|0:0,0:0:0:0:
401,140,82767,2,0,L|292:153,1,99.9999999999999,8|0,3:2|3:0,0:0:0:0:
225,86,83367,2,0,L|109:69,1,99.9999999999999,10|0,3:2|1:0,0:0:0:0:
220,103,93567,6,0,P|270:88|357:127,2,150,4|4|8,1:0|0:0|0:0,0:0:0:0:
189,142,94617,2,0,L|179:258,2,99.9999999999999,4|0|4,1:0|1:0|0:0,0:0:0:0:
91,165,95517,2,0,L|97:234,1,50,0|8,1:0|0:0,0:0:0:0:
150,298,95967,6,0,P|100:313|13:274,2,150,4|4|8,1:0|0:0|0:0,0:0:0:0:
181,259,97017,2,0,L|191:143,2,99.9999999999999,4|8|4,1:0|0:0|0:0,0:0:0:0:
279,236,97917,2,0,L|273:167,1,50,2|8,3:0|3:2,0:0:0:0:
340,110,98367,6,0,L|458:102,1,99.9999999999999,12|8,0:0|0:0,0:0:0:0:
467,199,98967,2,0,L|349:191,1,99.9999999999999,8|8,0:0|0:0,0:0:0:0:
269,167,99567,2,0,P|204:154|162:169,1,99.9999999999999,8|8,0:0|0:0,0:0:0:0:
112,242,100167,1,8,0:0:0:0:
183,312,100467,2,0,L|243:307,1,50,2|2,3:0|3:0,0:0:0:0:
272,277,100767,6,0,P|336:226|412:236,2,150,8|0|8,0:0|1:0|0:0,0:0:0:0:
323,362,101967,2,0,L|474:348,2,150,4|4|4,3:1|3:1|3:1,0:0:0:0:
224,380,103167,2,0,L|155:373,1,50,2|8,3:0|3:2,0:0:0:0:
124,370,103467,1,8,3:2:0:0:
111,270,103767,2,0,L|56:276,2,50,8|0|0,0:2|1:0|0:0,0:0:0:0:
156,246,104217,6,0,P|120:181|140:111,1,150,4|8,0:1|0:2,0:0:0:0:
232,69,104968,2,0,L|331:77,1,99.9999999999999,0|8,1:2|0:2,0:0:0:0:
378,56,105417,2,0,P|342:121|362:191,1,150,4|8,0:1|0:2,0:0:0:0:
438,256,106167,2,0,P|456:302|443:350,1,99.9999999999999,0|8,1:2|0:2,0:0:0:0:
400,376,106618,6,0,L|250:366,1,150,4|8,0:1|0:2,0:0:0:0:
193,285,107368,2,0,L|143:280,2,50,0|0|8,1:2|1:2|0:2,0:0:0:0:
227,249,107817,2,0,L|376:234,1,150,4|8,0:1|0:2,0:0:0:0:
415,202,108418,2,0,P|449:138|429:67,1,150,4|8,0:2|0:2,0:0:0:0:
393,34,109018,6,0,L|243:40,1,150,4|8,0:1|0:2,0:0:0:0:
143,67,109768,2,0,L|135:166,1,99.9999999999999,0|8,1:2|0:2,0:0:0:0:
101,203,110218,2,0,P|170:177|237:207,1,150,4|8,0:1|0:2,0:0:0:0:
306,281,110967,2,0,L|405:274,1,100,0|8,0:2|0:2,0:0:0:0:
443,242,111417,6,0,P|469:173|439:106,1,150,4|8,0:1|0:2,0:0:0:0:
392,94,112018,1,4,0:2:0:0:
344,83,112168,2,0,L|344:33,2,50,0|0|8,0:2|1:2|1:2,0:0:0:0:
273,153,112768,2,0,L|262:252,1,100,0|8,0:2|1:2,0:0:0:0:
166,275,113368,1,8,0:2:0:0:
63,255,113668,5,8,0:2:0:0:
63,255,113818,2,0,P|33:187|59:119,1,150,4|8,0:1|0:2,0:0:0:0:
154,88,114568,2,0,L|253:98,1,99.9999999999999,0|8,1:2|0:2,0:0:0:0:
287,137,115018,2,0,L|436:125,1,150,4|8,0:1|0:2,0:0:0:0:
465,221,115768,2,0,P|422:246|373:241,1,99.9999999999999,0|8,1:2|0:2,0:0:0:0:
329,218,116218,6,0,L|179:226,1,150,4|8,0:1|0:2,0:0:0:0:
101,289,116968,2,0,P|77:286|52:290,2,50,0|0|8,1:2|1:2|0:2,0:0:0:0:
123,337,117417,2,0,L|272:328,1,150,4|8,0:1|0:2,0:0:0:0:
321,353,118018,2,0,P|352:287|329:218,1,150,4|8,0:2|1:2,0:0:0:0:
281,208,118618,6,0,L|430:217,1,150,4|8,0:1|0:2,0:0:0:0:
512,159,119368,2,0,L|501:59,1,99.9999999999999,0|8,1:2|1:2,0:0:0:0:
509,12,119817,2,0,P|456:64|383:70,1,150,4|8,0:1|0:2,0:0:0:0:
287,44,120568,2,0,L|187:53,1,99.9999999999999,0|8,0:2|1:2,0:0:0:0:
142,73,121017,6,0,P|116:142|146:208,1,150,4|4,0:1|1:2,0:0:0:0:
174,252,121618,1,0,0:2:0:0:
201,295,121768,2,0,L|196:344,2,50,8|8|8,0:2|0:2|0:2,0:0:0:0:
288,285,122367,2,0,L|390:296,1,100,0|4,0:2|0:2,0:0:0:0:
413,199,122967,1,8,0:2:0:0:
320,160,123267,1,0,0:2:0:0:
320,58,123567,6,0,L|198:67,1,100,14|0,0:2|3:2,0:0:0:0:
120,73,124167,1,2,0:2:0:0:
174,156,124467,2,0,L|296:165,1,100,10|0,0:2|1:2,0:0:0:0:
374,171,125067,1,2,1:2:0:0:
318,254,125367,6,0,L|196:263,1,100,6|0,0:2|3:2,0:0:0:0:
118,269,125967,1,2,1:2:0:0:
172,352,126267,2,0,L|294:361,1,100,10|4,0:2|3:2,0:0:0:0:
372,367,126867,1,2,3:2:0:0:
449,303,127167,6,0,P|465:247|451:206,1,100,10|2,0:2|1:2,0:0:0:0:
371,150,127767,1,6,3:2:0:0:
295,215,128067,2,0,P|239:231|198:217,1,100,10|0,0:2|1:2,0:0:0:0:
200,118,128667,1,14,0:2:0:0:
267,44,128967,6,0,L|382:41,1,100,14|2,0:2|1:2,0:0:0:0:
468,39,129567,1,0,3:2:0:0:
420,124,129867,2,0,P|403:177|418:220,1,100,14|2,0:2|1:2,0:0:0:0:
444,258,130317,2,0,P|457:305|440:351,1,100,12|2,0:2|1:2,0:0:0:0:
391,361,130767,6,0,L|269:352,1,100,14|0,0:2|3:2,0:0:0:0:
191,346,131367,1,6,0:2:0:0:
245,263,131667,2,0,L|367:254,1,100,10|0,0:2|1:2,0:0:0:0:
445,248,132267,1,2,3:2:0:0:
389,165,132567,6,0,L|267:156,1,100,10|0,0:2|3:2,0:0:0:0:
189,150,133167,1,6,0:2:0:0:
243,67,133467,2,0,L|365:58,1,100,14|0,0:2|3:2,0:0:0:0:
443,52,134067,1,6,3:2:0:0:
421,149,134367,6,0,P|365:165|324:151,1,100,14|0,0:2|3:2,0:0:0:0:
257,80,134967,1,6,3:2:0:0:
220,173,135267,2,0,L|212:279,1,100,10|4,0:2|1:2,0:0:0:0:
204,372,135867,1,2,3:2:0:0:
113,329,136167,6,0,L|105:223,1,100,14|2,0:2|3:0,0:0:0:0:
93,130,136767,1,2,3:2:0:0:
174,72,137067,2,0,P|260:82|275:95,2,100,12|12|12,0:0|0:0|0:0,0:0:0:0:
91,16,137967,5,0,3:0:0:0:
444,170,146967,5,12,0:0:0:0:
362,226,147267,1,2,3:0:0:0:
285,164,147567,6,0,L|298:9,2,150,12|12|12,0:0|0:0|0:0,0:0:0:0:
208,228,148767,1,0,1:0:0:0:
126,172,149067,1,14,0:0:0:0:
49,234,149367,2,0,L|58:349,1,99.9999999999999,14|2,0:0|3:0,0:0:0:0:
157,345,149967,6,0,P|255:332|300:371,2,150,12|12|12,0:0|0:0|0:0,0:0:0:0:
58,361,151167,1,0,1:0:0:0:
9,274,151467,1,14,0:0:0:0:
66,192,151767,2,0,L|183:199,1,99.9999999999999,14|0,1:2|1:0,0:0:0:0:
251,252,152367,6,0,P|207:174|221:113,1,150,6|0,0:2|0:0,0:0:0:0:
255,84,152967,1,14,0:2:0:0:
348,123,153267,2,0,L|337:239,1,99.9999999999999,0|0,0:0|0:0,0:0:0:0:
365,320,153867,2,0,P|419:342|470:334,2,99.9999999999999,2|10|2,3:2|0:2|0:2,0:0:0:0:
266,310,154767,6,0,L|97:318,1,150,6|0,0:2|1:2,0:0:0:0:
71,338,155367,1,8,3:2:0:0:
7,262,155667,1,0,0:0:0:0:
60,178,155967,2,0,P|118:165|162:180,1,99.9999999999999,8|2,0:2|1:2,0:0:0:0:
243,224,156567,2,0,L|360:215,1,99.9999999999999,8|2,0:2|3:0,0:0:0:0:
430,268,157167,6,0,P|388:213|405:119,2,150,12|12|12,0:2|0:2|0:2,0:0:0:0:
512,327,158367,1,0,1:2:0:0:
426,379,158667,1,14,0:2:0:0:
351,314,158967,2,0,L|240:307,1,99.9999999999999,14|2,3:2|3:2,0:0:0:0:
157,277,159567,6,0,P|119:175|137:133,2,150,12|12|12,0:2|0:2|0:2,0:0:0:0:
210,192,160767,2,0,L|321:183,1,100,8|0,3:2|3:0,0:0:0:0:
395,235,161367,2,0,L|512:246,1,100,0|0,1:0|1:0,0:0:0:0:
434,325,161967,6,0,L|278:335,2,150,4|0|2,3:2|0:0|0:2,0:0:0:0:
478,300,163017,2,0,P|501:248|479:197,2,100,2|0|2,3:2|0:2|0:2,0:0:0:0:
339,242,164067,1,0,0:2:0:0:
251,193,164367,6,0,L|244:26,2,150,2|0|2,3:2|0:0|0:2,0:0:0:0:
230,238,165417,2,0,P|181:264|121:253,2,100,2|0|2,3:2|0:2|0:2,0:0:0:0:
330,245,166317,2,0,L|389:241,1,50,2|8,3:0|2:0,0:0:0:0:
460,182,166767,6,0,L|463:71,1,100,12|8,0:0|0:0,0:0:0:0:
391,11,167367,2,0,P|340:-4|283:10,1,100,8|8,0:0|0:0,0:0:0:0:
225,77,167967,2,0,L|228:188,1,100,8|8,0:0|0:0,0:0:0:0:
160,251,168567,1,8,0:0:0:0:
229,322,168867,2,0,L|299:312,1,50,0|0,3:0|3:0,0:0:0:0:
318,284,169167,6,0,P|367:241|455:242,2,150,12|0|8,0:0|1:0|0:0,0:0:0:0:
218,268,170367,2,0,L|205:114,2,150,4|0|2,3:0|3:0|3:0,0:0:0:0:
155,346,171567,2,0,L|256:354,1,100,8|8,0:0|0:0,0:0:0:0:
350,380,172167,2,0,L|340:269,1,100,8|0,0:0|3:0,0:0:0:0:
367,238,172617,6,0,P|403:162|372:92,1,150,4|8,0:1|0:2,0:0:0:0:
291,61,173367,2,0,L|189:70,1,99.9999999999999,0|8,1:2|0:2,0:0:0:0:
145,49,173817,2,0,P|181:125|150:195,1,150,4|8,0:1|0:2,0:0:0:0:
84,249,174567,2,0,P|67:308|83:347,1,99.9999999999999,0|8,3:2|0:2,0:0:0:0:
123,368,175017,6,0,L|289:357,1,150,4|8,0:1|0:2,0:0:0:0:
330,277,175767,2,0,L|383:272,2,50,0|0|8,1:2|1:2|0:2,0:0:0:0:
296,241,176217,2,0,L|142:226,1,150,4|8,0:1|0:2,0:0:0:0:
108,195,176817,2,0,P|74:109|99:53,1,150,4|8,0:2|1:2,0:0:0:0:
130,26,177417,6,0,L|292:33,1,150,4|8,0:1|0:2,0:0:0:0:
380,59,178167,2,0,L|388:166,1,99.9999999999999,0|8,1:2|0:2,0:0:0:0:
421,195,178617,2,0,P|339:171|278:208,1,150,4|8,0:1|0:2,0:0:0:0:
217,273,179367,2,0,L|111:266,1,100,0|8,1:2|0:2,0:0:0:0:
79,234,179817,6,0,P|55:152|92:91,1,150,4|8,0:1|0:2,0:0:0:0:
131,86,180417,1,4,0:2:0:0:
179,75,180567,2,0,L|178:19,2,50,0|0|8,0:2|1:2|1:2,0:0:0:0:
250,145,181167,2,0,L|262:261,1,100,0|8,0:0|1:2,0:0:0:0:
357,267,181767,1,0,0:0:0:0:
460,247,182067,5,8,1:2:0:0:
460,247,182217,2,0,P|489:181|464:112,1,150,4|8,0:1|0:2,0:0:0:0:
369,80,182967,2,0,L|258:92,1,99.9999999999999,0|8,1:2|0:2,0:0:0:0:
236,129,183417,2,0,L|77:117,1,150,4|8,0:1|0:2,0:0:0:0:
58,214,184167,2,0,P|114:240|155:231,1,99.9999999999999,0|8,0:2|1:2,0:0:0:0:
194,210,184617,6,0,L|362:219,1,150,4|8,0:1|0:2,0:0:0:0:
421,282,185367,2,0,P|469:282|496:295,2,50,0|0|8,0:2|1:2|1:2,0:0:0:0:
400,329,185817,2,0,L|238:320,1,150,4|8,0:1|0:2,0:0:0:0:
202,346,186417,2,0,P|171:262|199:204,1,150,4|8,0:2|1:2,0:0:0:0:
242,200,187017,6,0,L|76:210,1,150,4|8,0:1|0:2,0:0:0:0:
11,151,187767,2,0,L|22:51,1,99.9999999999999,0|8,1:2|1:2,0:0:0:0:
14,5,188217,2,0,P|53:49|158:56,1,150,4|8,0:1|0:2,0:0:0:0:
236,36,188967,2,0,L|345:46,1,99.9999999999999,0|8,0:2|1:2,0:0:0:0:
381,66,189417,6,0,P|406:144|372:205,1,150,4|8,2:1|0:2,0:0:0:0:
349,244,190017,1,0,0:0:0:0:
322,287,190167,2,0,L|329:368,2,50,8|0|8,0:2|0:0|0:2,0:0:0:0:
225,275,190767,2,0,L|111:280,1,100,8|8,3:0|3:2,0:0:0:0:
84,187,191367,1,8,3:2:0:0:
286,39,192117,6,0,L|293:104,1,50,0|12,1:0|0:2,0:0:0:0:
363,157,192567,2,0,P|383:211|371:253,1,100,0|8,1:2|0:2,0:0:0:0:
330,277,193017,2,0,L|172:284,1,150,4|8,0:1|0:2,0:0:0:0:
94,231,193767,2,0,L|86:118,1,100,0|8,0:2|1:2,0:0:0:0:
58,89,194217,6,0,P|114:111|195:73,1,150,4|8,0:1|0:2,0:0:0:0:
269,12,194967,1,8,0:2:0:0:
368,20,195267,1,8,0:2:0:0:
419,106,195567,1,12,0:2:0:0:
319,114,195867,1,8,0:2:0:0:
259,194,196167,2,0,L|378:204,1,100,12|8,0:2|0:2,0:0:0:0:
405,219,196617,6,0,P|433:297|407:361,1,150,4|8,0:1|0:2,0:0:0:0:
334,291,197367,2,0,P|277:278|232:295,1,100,0|8,0:2|0:2,0:0:0:0:
196,317,197817,2,0,L|36:301,1,150,4|8,0:1|1:2,0:0:0:0:
71,205,198567,2,0,L|179:197,1,100,2|8,0:3|0:2,0:0:0:0:
216,218,199017,6,0,P|191:137|221:80,1,150,4|8,0:1|0:2,0:0:0:0:
263,61,199617,2,0,L|417:71,1,150,4|8,0:1|0:2,0:0:0:0:
458,89,200217,2,0,P|483:170|453:227,1,150,4|8,0:1|0:2,0:0:0:0:
408,241,200817,2,0,L|258:231,1,150,4|8,0:1|0:2,0:0:0:0:
218,201,201417,6,0,P|173:157|85:159,1,150,4|8,0:1|0:2,0:0:0:0:
49,247,202167,2,0,L|57:357,1,100,0|8,0:2|0:2,0:0:0:0:
99,371,202617,2,0,P|147:344|240:373,1,150,4|8,0:1|0:2,0:0:0:0:
322,319,203367,2,0,P|344:260|321:218,1,100,0|8,1:2|0:2,0:0:0:0:
293,195,203817,6,0,L|139:184,1,150,4|8,0:1|0:2,0:0:0:0:
56,234,204567,1,8,0:2:0:0:
64,333,204867,1,8,0:2:0:0:
150,384,205167,1,12,0:2:0:0:
158,284,205467,1,8,0:2:0:0:
238,224,205767,2,0,L|248:343,1,100,12|8,0:2|0:2,0:0:0:0:
277,363,206217,6,0,P|356:379|417:341,1,150,4|8,0:1|0:2,0:0:0:0:
475,267,206967,2,0,L|482:165,1,100,0|8,0:2|0:2,0:0:0:0:
502,121,207417,2,0,P|439:148|364:120,1,150,4|8,0:1|0:2,0:0:0:0:
281,67,208167,2,0,L|158:61,1,100,0|8,1:2|0:2,0:0:0:0:
134,81,208617,6,0,P|102:157|129:222,1,150,4|12,0:1|0:2,0:0:0:0:
169,238,209217,2,0,L|341:231,1,150,2|8,0:0|0:2,0:0:0:0:
366,248,209817,6,0,P|388:317|356:383,1,150,4|4,0:1|1:2,0:0:0:0:
306,383,210417,2,0,L|185:374,1,100,0|0,0:2|3:2,0:0:0:0:
154,370,210913,1,8,0:2:0:0:
