osu file format v14

[General]
AudioFilename: audio.mp3
AudioLeadIn: 0
PreviewTime: 103987
Countdown: 0
SampleSet: Soft
StackLeniency: 0.6
Mode: 0
LetterboxInBreaks: 0
WidescreenStoryboard: 1

[Editor]
Bookmarks: -33,64767,123567,192267,221039
DistanceSpacing: 0.7
BeatDivisor: 4
GridSize: 32
TimelineZoom: 3.099999

[Metadata]
Title:Yoru Naku Usagi wa Yume o Miru
TitleUnicode:夜啼く兎は夢を見る
Artist:UNDEAD CORPORATION
ArtistUnicode:UNDEAD CORPORATION
Creator:MaridiuS
Version:AyydiuS' Hard
Source:東方永夜抄 ~ Imperishable Night.
Tags:LOLI JOA Ayyri Len Revia Realazy LowComboFC eiri- Chekito Lince Bergy ranko Touhou Eiyashou 東方Project C82 Comiket82 Benisome no Oni ga Naku 紅染の鬼が哭く 狂気の瞳 ~ Invisible Full Moon Kyouki no Hitomi Reisen Udongein theme
BeatmapID:1554636
BeatmapSetID:695743

[Difficulty]
HPDrainRate:5.5
CircleSize:4
OverallDifficulty:6
ApproachRate:7.8
SliderMultiplier:1.4
SliderTickRate:1

[Events]
//Background and Video events
0,0,"Reisen 385.jpg",0,0
//Break Periods
//Storyboard Layer 0 (Background)
//Storyboard Layer 1 (Fail)
//Storyboard Layer 2 (Pass)
//Storyboard Layer 3 (Foreground)
//Storyboard Sound Samples

[TimingPoints]
-33,300,4,2,1,70,1,0
567,-100,4,2,1,70,0,0
5967,-100,4,2,10,70,0,0
6192,-100,4,2,10,5,0,0
6267,-100,4,2,10,70,0,0
6492,-100,4,2,10,5,0,0
6567,-100,4,2,10,70,0,0
7242,-100,4,2,10,5,0,0
7317,-100,4,2,10,70,0,0
7992,-100,4,2,10,5,0,0
8067,-100,4,2,10,70,0,0
8292,-100,4,2,10,5,0,0
8367,-100,4,2,10,70,0,0
8592,-100,4,2,10,5,0,0
8667,-100,4,2,10,70,0,0
10767,-100,4,2,1,70,0,0
15567,-100,4,2,5,70,0,0
25167,-100,4,2,1,70,0,0
33792,-100,4,2,1,5,0,0
33867,-100,4,2,1,70,0,0
34092,-100,4,2,1,5,0,0
34167,-100,4,2,1,70,0,0
34767,-100,4,2,10,70,0,0
44367,-100,4,2,1,70,0,0
45417,-100,4,3,10,80,0,1
64767,-100,4,2,1,45,0,0
66567,-100,4,2,1,70,0,0
74367,-100,4,2,10,70,0,0
74592,-100,4,2,10,5,0,0
74667,-100,4,2,10,70,0,0
74892,-100,4,2,10,5,0,0
74967,-100,4,2,10,70,0,0
75642,-100,4,2,10,5,0,0
75717,-100,4,2,10,70,0,0
76392,-100,4,2,10,5,0,0
76467,-100,4,2,10,70,0,0
76692,-100,4,2,10,5,0,0
76767,-100,4,2,10,70,0,0
76992,-100,4,2,10,5,0,0
77067,-100,4,2,10,70,0,0
79167,-100,4,2,1,70,0,0
83967,-100,4,2,5,70,0,0
87567,-100,4,2,1,70,0,0
93567,-100,4,2,10,70,0,0
104217,-100,4,3,10,70,0,1
123567,-100,4,2,10,70,0,0
137067,-100,4,2,1,70,0,0
142767,-100,4,2,10,70,0,0
145392,-100,4,2,10,5,0,0
145467,-100,4,2,10,70,0,0
145692,-100,4,2,10,5,0,0
145767,-100,4,2,10,70,0,0
147567,-100,4,2,1,70,0,0
152367,-100,4,2,10,70,0,0
152592,-100,4,2,10,5,0,0
152667,-100,4,2,10,70,0,0
152892,-100,4,2,10,5,0,0
152967,-100,4,2,10,70,0,0
153642,-100,4,2,10,5,0,0
153717,-100,4,2,10,70,0,0
154392,-100,4,2,10,5,0,0
154467,-100,4,2,10,70,0,0
154692,-100,4,2,10,5,0,0
154767,-100,4,2,10,70,0,0
154992,-100,4,2,10,5,0,0
155067,-100,4,2,10,70,0,0
157167,-100,4,2,1,70,0,0
161967,-100,4,2,10,70,0,0
172617,-100,4,3,10,70,0,1
191817,-100,4,2,1,70,0,0
192267,-100,4,3,10,70,0,1
210417,322.58064516129,4,3,10,70,1,1
210417,-107.52688172043,4,3,10,70,0,1
210739,348.837209302326,4,2,1,70,1,0
211262,361.44578313253,4,2,1,50,1,0
212707,389.61038961039,4,2,1,50,1,0
213486,408.163265306122,4,2,1,50,1,0
214302,444.444444444444,4,2,1,50,1,0
215190,476.190476190476,4,2,1,50,1,0
215666,517.241379310345,4,2,1,50,1,0
216183,571.428571428571,4,2,1,40,1,0
216754,714.285714285714,4,2,1,30,1,0
217646,-100,4,2,1,5,0,0

[Colours]
Combo1 : 147,68,145
Combo2 : 128,128,192
Combo3 : 251,111,135
Combo4 : 186,105,184
Combo5 : 186,5,37
Combo6 : 81,81,162

[HitObjects]
192,320,567,5,0,0:0:0:0:
142,188,867,1,0,0:0:0:0:
224,75,1167,2,0,P|299:77|354:131,1,140,12|0,0:2|3:2,0:0:0:0:
408,173,1617,2,0,P|333:175|278:229,1,140,12|0,0:2|3:2,0:0:0:0:
242,287,2067,5,12,0:2:0:0:
274,364,2217,1,2,0:2:0:0:
190,357,2367,2,0,L|155:350,3,35,0|0|0|0,1:2|1:2|1:2|1:2,0:0:0:0:
131,316,2666,1,14,0:2:0:0:
32,179,2967,6,0,L|70:91,1,70,14|0,0:2|0:2,0:0:0:0:
143,127,3267,2,0,L|176:214,1,70,2|0,3:2|1:2,0:0:0:0:
167,276,3567,2,0,P|235:275|283:227,1,140,12|0,0:2|3:2,0:0:0:0:
318,146,4017,2,0,P|274:155|212:75,1,140,12|0,0:2|3:2,0:0:0:0:
192,15,4467,5,12,0:2:0:0:
117,59,4617,1,2,0:2:0:0:
154,135,4767,2,0,L|132:199,3,35,0|0|0|0,1:2|1:2|1:2|1:2,0:0:0:0:
151,209,5067,6,0,L|246:224,1,70,14|0,0:2|0:2,0:0:0:0:
236,302,5367,2,0,L|313:245,1,70,14|0,1:2|0:0,0:0:0:0:
364,303,5667,2,0,L|379:207,1,70,0|0,1:2|0:0,0:0:0:0:
393,151,5967,5,6,0:2:0:0:
256,32,6267,1,2,0:2:0:0:
119,151,6567,1,10,0:2:0:0:
256,256,6867,1,0,0:0:0:0:
256,172,7017,6,0,L|256:76,1,70,0|0,3:2|0:0,0:0:0:0:
172,90,7317,2,0,L|104:22,1,70,8|2,0:2|0:2,0:0:0:0:
73,108,7617,1,0,0:2:0:0:
28,179,7767,6,0,P|67:205|89:241,1,70,14|0,0:2|0:0,0:0:0:0:
146,275,8067,2,0,P|172:252|190:222,1,70,2|0,0:2|0:0,0:0:0:0:
214,142,8367,2,0,P|269:163|369:120,1,140,6|2,0:2|3:2,0:0:0:0:
350,226,8817,2,0,P|415:205|481:226,1,140,2|0,0:2|1:2,0:0:0:0:
481,323,9267,1,0,0:0:0:0:
398,372,9417,1,0,3:2:0:0:
342,310,9567,6,0,L|248:317,1,70,10|0,0:2|1:2,0:0:0:0:
194,349,9867,2,0,L|214:397,2,35,2|0|0,1:2|0:0|3:2,0:0:0:0:
109,345,10167,2,0,L|77:267,1,70,8|0,0:2|0:0,0:0:0:0:
75,196,10467,2,0,L|31:172,2,35,2|2|2,3:3|3:3|3:3,0:0:0:0:
147,153,10767,6,0,P|169:207|258:232,1,140,12|0,0:2|0:2,0:0:0:0:
297,172,11217,2,0,P|275:118|186:93,1,140,12|0,0:2|0:2,0:0:0:0:
147,153,11667,2,0,L|122:86,1,70,12|2,0:2|0:2,0:0:0:0:
184,19,11967,2,0,L|233:17,3,35,0|0|0|0,1:2|1:2|1:2|1:2,0:0:0:0:
260,22,12267,5,14,0:2:0:0:
343,14,12417,1,0,0:2:0:0:
386,85,12567,2,0,L|455:80,1,70,14|0,0:2|1:2,0:0:0:0:
429,160,12867,2,0,L|359:164,1,70,2|0,3:2|1:2,0:0:0:0:
274,173,13167,2,0,P|250:240|288:327,1,140,12|0,0:2|0:2,0:0:0:0:
191,338,13617,2,0,P|160:273|72:239,1,140,12|0,0:2|0:2,0:0:0:0:
28,200,14067,2,0,L|42:109,1,70,12|2,0:2|0:2,0:0:0:0:
59,49,14367,5,14,1:2:0:0:
127,97,14517,2,0,L|140:153,2,35,0|0|0,1:0|1:0|3:0,0:0:0:0:
186,36,14817,1,0,3:0:0:0:
237,101,14967,5,8,0:0:0:0:
305,53,15117,2,0,L|318:-3,2,35,0|0|0,1:0|1:0|1:0,0:0:0:0:
364,114,15417,1,0,0:0:0:0:
406,186,15567,6,0,L|405:325,1,140,2|0,0:0|0:0,0:0:0:0:
328,290,16017,1,0,0:0:0:0:
274,355,16167,2,0,P|208:341|181:280,1,140,2|0,0:0|0:0,0:0:0:0:
315,154,16767,6,0,P|349:126|387:123,1,70,2|0,0:0|0:0,0:0:0:0:
357,39,17067,2,0,P|314:26|290:-4,1,70,0|0,0:0|0:0,0:0:0:0:
230,60,17367,2,0,P|240:103|226:138,1,70,2|0,0:0|0:0,0:0:0:0:
23,282,17967,6,0,P|90:293|134:346,1,140,2|0,0:0|0:0,0:0:0:0:
218,358,18417,1,0,0:0:0:0:
264,288,18567,2,0,P|322:250|391:254,1,140,2|0,0:0|0:0,0:0:0:0:
460,123,19167,6,0,L|394:63,1,70,2|0,0:0|0:0,0:0:0:0:
340,26,19467,2,0,L|252:30,1,70,0|0,0:0|0:0,0:0:0:0:
266,113,19767,2,0,L|354:117,1,70,2|0,0:0|0:0,0:0:0:0:
503,304,20367,6,0,L|412:296,1,70,2|0,1:2|0:2,0:0:0:0:
385,367,20667,1,0,1:2:0:0:
329,303,20817,1,0,0:2:0:0:
268,364,20967,6,0,L|173:372,1,70,2|0,1:2|0:2,0:0:0:0:
136,312,21267,2,0,L|128:217,1,70,0|0,1:2|0:2,0:0:0:0:
175,171,21567,6,0,L|270:163,1,70,2|0,1:2|0:2,0:0:0:0:
283,90,21867,2,0,L|188:82,1,70,0|0,1:2|0:2,0:0:0:0:
146,32,22167,6,0,L|138:127,1,70,2|0,1:2|0:2,0:0:0:0:
91,170,22467,1,0,1:2:0:0:
31,110,22617,1,0,0:2:0:0:
76,37,22767,6,0,L|146:32,1,70,2|0,1:2|0:2,0:0:0:0:
213,84,23067,1,0,1:2:0:0:
228,166,23217,1,0,0:2:0:0:
186,239,23367,6,0,L|198:337,1,70,2|0,1:2|0:2,0:0:0:0:
278,300,23667,2,0,L|266:398,1,70,0|0,1:2|0:2,0:0:0:0:
198,332,23967,1,6,1:2:0:0:
369,336,24267,6,0,L|375:278,3,35,0|0|0|0,3:0|3:0|3:0|3:0,3:0:0:0:
400,269,24567,2,0,L|457:275,3,35,8|0|0|0,3:0|3:0|3:0|3:0,3:0:0:0:
465,301,24867,2,0,L|458:358,3,35,0|0|0|0,3:0|3:0|3:0|3:0,3:0:0:0:
434,368,25167,6,0,L|359:360,1,70,4|0,0:2|0:2,0:0:0:0:
281,344,25467,1,0,0:2:0:0:
245,267,25617,1,0,3:2:0:0:
295,199,25767,6,0,P|342:224|359:253,1,70,2|0,0:2|0:2,0:0:0:0:
412,178,26067,2,0,P|386:153|374:121,1,70,2|0,3:2|0:2,0:0:0:0:
390,39,26367,2,0,L|304:31,1,70,0|0,3:2|1:2,0:0:0:0:
278,105,26667,2,0,L|208:111,1,70,2|0,1:2|0:2,0:0:0:0:
153,47,26967,2,0,B|83:56,1,70,10|0,0:1|0:2,0:0:0:0:
176,291,27567,6,0,B|158:384,1,70,0|0,1:2|1:2,0:0:0:0:
243,381,27867,1,2,1:2:0:0:
317,341,28017,1,0,3:2:0:0:
333,263,28167,6,0,P|387:259|414:271,1,70,2|0,0:2|0:2,0:0:0:0:
424,182,28467,2,0,P|370:186|343:174,1,70,2|0,3:2|0:2,0:0:0:0:
281,141,28767,2,0,P|285:195|273:222,1,70,4|0,3:3|1:2,0:0:0:0:
195,209,29067,2,0,P|191:155|203:128,1,70,2|0,1:2|3:2,0:0:0:0:
237,68,29367,2,0,L|152:72,1,70,10|0,0:1|0:0,0:0:0:0:
11,269,29967,6,0,L|20:338,1,70,4|0,3:2|0:2,0:0:0:0:
90,290,30267,1,2,1:2:0:0:
154,341,30417,1,0,3:2:0:0:
203,273,30567,6,0,P|258:265|280:273,1,70,2|0,0:2|0:2,0:0:0:0:
315,197,30867,2,0,P|307:142|315:120,1,70,2|0,3:2|0:2,0:0:0:0:
255,66,31167,2,0,P|200:74|178:66,1,70,0|0,3:2|1:2,0:0:0:0:
143,142,31467,2,0,P|151:197|143:219,1,70,2|0,1:2|3:2,0:0:0:0:
203,273,31767,6,0,L|217:359,1,70,10|0,0:1|0:2,0:0:0:0:
291,375,32067,1,2,3:2:0:0:
366,337,32217,1,0,1:2:0:0:
352,254,32367,6,0,P|421:253|480:216,1,140,2|2,0:2|1:2,0:0:0:0:
474,133,32817,1,0,3:2:0:0:
394,156,32967,2,0,P|360:165|325:161,1,70,2|0,0:2|0:2,0:0:0:0:
281,93,33267,2,0,L|211:102,1,70,2|2,3:2|3:2,0:0:0:0:
141,54,33567,6,0,L|131:123,1,70,4|0,0:0|0:0,0:0:0:0:
74,185,33867,2,0,L|83:254,1,70,4|0,0:0|0:0,0:0:0:0:
102,336,34167,1,8,0:1:0:0:
178,370,34317,1,8,0:1:0:0:
247,323,34467,1,8,0:1:0:0:
414,314,34767,6,0,L|444:177,1,140,4|8,1:0|0:0,0:0:0:0:
479,102,35217,2,0,P|409:92|375:17,1,140,4|0,0:0|0:0,0:0:0:0:
293,16,35667,1,8,0:0:0:0:
228,70,35817,2,0,L|220:166,1,70,4|0,1:0|0:0,0:0:0:0:
143,109,36117,2,0,L|135:205,1,70,0|8,0:0|0:0,0:0:0:0:
72,232,36417,2,0,P|70:289|145:346,1,140,4|0,0:0|1:0,0:0:0:0:
196,296,36867,1,8,0:0:0:0:
332,344,37167,6,0,P|350:298|436:330,1,140,4|8,1:0|0:0,0:0:0:0:
508,284,37617,2,0,P|463:225|382:203,1,140,4|0,0:0|0:0,0:0:0:0:
318,194,38067,1,8,0:0:0:0:
235,177,38217,6,0,L|223:94,1,70,4|0,1:0|0:0,0:0:0:0:
151,66,38517,2,0,L|139:149,1,70,0|8,0:0|0:0,0:0:0:0:
66,175,38817,2,0,L|54:92,1,70,4|0,0:0|0:0,0:0:0:0:
12,19,39117,1,12,0:0:0:0:
95,14,39267,1,12,0:0:0:0:
161,169,39567,6,0,L|249:164,1,70,12|0,0:0|1:0,0:0:0:0:
249,83,39867,2,0,L|314:141,1,70,8|0,0:0|1:0,0:0:0:0:
379,163,40167,2,0,L|382:93,1,70,8|0,0:0|1:0,0:0:0:0:
460,60,40467,2,0,L|463:129,1,70,8|0,0:0|1:0,0:0:0:0:
487,210,40767,6,0,L|482:298,1,70,8|0,0:0|1:0,0:0:0:0:
444,355,41067,2,0,L|397:302,1,70,8|0,0:0|1:0,0:0:0:0:
367,224,41367,2,0,L|320:276,1,70,8|0,0:0|0:0,0:0:0:0:
256,330,41667,1,8,3:0:0:0:
243,246,41817,1,0,3:0:0:0:
179,300,41967,6,0,P|119:265|51:275,1,140,12|8,0:0|0:0,0:0:0:0:
13,199,42417,2,0,P|68:179|94:178,1,70,0|8,1:0|0:0,0:0:0:0:
88,94,42717,2,0,P|141:118|160:136,1,70,0|8,1:0|0:0,0:0:0:0:
191,198,43017,1,0,1:0:0:0:
271,174,43167,6,0,L|354:170,1,70,12|0,0:0|0:0,0:0:0:0:
416,133,43467,2,0,L|420:183,3,35,8|8|8|0,0:0|0:0|3:2|3:0,0:0:0:0:
449,196,43767,2,0,L|445:246,3,35,0|0|0|0,3:0|3:0|3:0|3:0,0:0:0:0:
417,261,44067,2,0,L|421:311,3,35,2|2|2|2,3:0|3:0|3:0|3:0,0:0:0:0:
450,324,44367,6,0,L|377:328,1,70,12|0,0:0|0:0,0:0:0:0:
304,292,44667,1,12,0:0:0:0:
237,343,44817,2,0,L|226:376,2,35,0|0|8,1:0|1:0|1:2,0:0:0:0:
214,261,45117,1,8,0:0:0:0:
46,269,45417,6,0,L|31:122,1,140,4|0,0:1|3:2,0:0:0:0:
52,48,45867,2,0,P|94:69|129:68,1,70,8|0,0:2|3:2,0:0:0:0:
189,27,46167,2,0,P|223:31|253:49,1,70,0|0,1:2|3:2,0:0:0:0:
333,72,46467,1,8,0:2:0:0:
410,39,46617,6,0,P|464:83|489:148,1,140,4|0,0:1|1:2,0:0:0:0:
477,232,47067,2,0,P|434:244|406:281,1,70,8|0,0:2|1:2,0:0:0:0:
382,337,47367,2,0,L|219:344,1,140,0|8,1:2|0:2,0:0:0:0:
158,341,47817,6,0,P|165:273|137:210,1,140,4|0,0:1|1:2,0:0:0:0:
57,148,48267,2,0,L|117:88,1,70,8|0,0:2|1:2,0:0:0:0:
170,44,48567,2,0,L|173:1,2,35,0|0|0,1:2|0:0|0:2,0:0:0:0:
207,118,48867,1,8,0:2:0:0:
283,83,49017,6,0,P|305:132|303:169,1,70,4|0,0:1|0:2,0:0:0:0:
317,230,49317,1,0,1:2:0:0:
394,262,49467,2,0,L|408:361,1,70,8|4,1:2|0:2,0:0:0:0:
480,296,49767,2,0,L|460:154,1,140,0|8,1:2|1:2,0:0:0:0:
489,78,50217,6,0,P|427:81|380:2,1,140,4|0,0:1|0:0,0:0:0:0:
296,35,50667,2,0,P|305:90|325:123,1,70,8|0,1:2|1:2,0:0:0:0:
275,178,50967,2,0,P|266:233|246:266,1,70,0|0,1:2|0:2,0:0:0:0:
205,310,51267,1,8,0:2:0:0:
257,375,51417,6,0,L|410:369,1,140,4|0,0:1|1:2,0:0:0:0:
456,310,51867,2,0,L|462:231,1,70,8|0,0:2|1:2,0:0:0:0:
489,161,52167,2,0,P|454:137|443:92,1,70,0|0,1:2|0:2,0:0:0:0:
449,28,52467,1,8,0:2:0:0:
376,69,52617,6,0,L|354:209,1,140,4|0,0:1|1:2,0:0:0:0:
366,290,53067,1,8,0:2:0:0:
297,338,53217,2,0,L|157:360,1,140,4|0,0:2|1:2,0:0:0:0:
83,322,53667,2,0,L|63:233,1,70,8|4,0:2|0:2,0:0:0:0:
23,181,53967,2,0,P|88:166|134:80,1,140,0|8,0:2|1:2,0:0:0:0:
169,34,54417,2,0,P|209:89|276:105,1,140,0|8,0:2|0:2,0:0:0:0:
427,41,55017,6,0,L|501:163,1,140,4|0,0:1|0:2,0:0:0:0:
432,212,55467,2,0,L|381:127,1,70,8|0,0:2|0:2,0:0:0:0:
312,165,55767,2,0,L|261:80,1,70,0|0,1:2|1:2,0:0:0:0:
357,86,56067,1,8,1:2:0:0:
304,25,56217,6,0,L|153:24,1,140,4|0,0:1|1:2,0:0:0:0:
82,46,56667,1,8,0:2:0:0:
76,129,56817,1,0,1:2:0:0:
158,145,56968,2,0,P|181:170|195:202,1,70,0|0,1:2|0:2,0:0:0:0:
228,368,57417,6,0,L|372:360,1,140,4|0,0:1|1:2,0:0:0:0:
438,314,57867,2,0,L|445:233,1,70,8|0,1:2|1:2,0:0:0:0:
370,204,58167,2,0,L|363:285,2,70,0|0|8,0:2|1:2|1:2,0:0:0:0:
407,128,58617,6,0,L|255:126,1,140,4|0,1:0|1:2,0:0:0:0:
188,95,59067,2,0,P|195:150|182:175,1,70,8|4,0:2|0:2,0:0:0:0:
145,233,59367,2,0,P|139:293|205:355,1,140,0|8,0:2|1:2,0:0:0:0:
221,270,59817,6,0,L|382:262,1,140,4|0,0:1|0:2,0:0:0:0:
427,212,60267,2,0,P|417:175|419:122,1,70,8|0,0:2|0:2,0:0:0:0:
442,63,60567,2,0,P|407:61|373:51,1,70,0|0,1:2|0:2,0:0:0:0:
305,3,60867,1,8,0:2:0:0:
249,65,61017,6,0,P|272:118|238:200,1,140,4|0,0:1|1:2,0:0:0:0:
174,235,61467,1,8,0:2:0:0:
91,218,61617,1,0,1:2:0:0:
118,297,61767,2,0,L|163:374,1,70,0|0,1:2|0:2,0:0:0:0:
235,373,62067,1,8,0:2:0:0:
317,357,62217,6,0,L|396:228,1,140,4|0,0:1|0:2,0:0:0:0:
459,189,62667,2,0,L|515:184,3,35,8|8|8|8,0:2|0:2|0:2|0:2,0:0:0:0:
508,146,62967,2,0,L|503:90,3,35,2|2|2|2,3:0|3:0|3:0|3:0,0:0:0:0:
467,92,63267,2,0,L|472:36,3,35,8|8|8|8,1:2|0:2|0:2|0:2,0:0:0:0:
496,24,63567,1,0,0:2:0:0:
339,84,63867,6,0,L|334:140,3,35,2|2|2|2,3:0|3:0|3:0|3:0,0:0:0:0:
315,155,64167,1,8,3:2:0:0:
325,238,64317,1,8,0:2:0:0:
246,204,64467,1,8,0:2:0:0:
256,287,64617,1,8,0:2:0:0:
221,180,66567,5,8,0:1:0:0:
285,233,66717,1,8,0:1:0:0:
303,151,66867,1,8,0:1:0:0:
303,151,67167,6,0,L|299:71,1,70,2|2,3:2|3:0,0:0:0:0:
393,191,67467,2,0,L|389:111,1,70,2|0,0:0|0:0,0:0:0:0:
431,48,67767,1,14,0:0:0:0:
506,10,67917,1,0,1:0:0:0:
462,257,68217,5,0,3:2:0:0:
382,283,68367,2,0,P|344:277|286:293,1,70,10|0,3:2|3:2,0:0:0:0:
231,303,68667,2,0,P|196:288|135:287,1,70,2|0,3:2|3:2,0:0:0:0:
79,321,68967,2,0,L|73:219,1,70,8|2,0:0|3:2,0:0:0:0:
80,167,69267,2,0,L|86:65,1,70,2|2,3:0|3:0,0:0:0:0:
151,47,69567,6,0,L|313:62,1,140,12|0,0:0|3:0,0:0:0:0:
301,143,70017,2,0,L|399:134,1,70,12|2,0:0|0:0,0:0:0:0:
449,165,70317,1,0,3:0:0:0:
392,227,70467,2,0,L|294:236,1,70,12|2,0:0|0:0,0:0:0:0:
238,234,70767,6,0,L|252:268,3,35,0|0|0|0,1:0|1:0|1:0|1:0,0:0:0:0:
241,307,71067,1,14,0:0:0:0:
149,165,71367,1,14,0:0:0:0:
316,151,71667,1,2,3:2:0:0:
316,151,71817,1,0,1:0:0:0:
247,102,71967,6,0,P|177:79|90:112,1,140,12|0,0:0|3:0,0:0:0:0:
105,178,72417,2,0,P|174:200|261:167,1,140,12|0,0:0|3:0,0:0:0:0:
316,151,72867,2,0,P|363:135|397:139,1,70,12|2,0:0|0:0,0:0:0:0:
464,97,73167,6,0,L|478:42,3,35,0|0|0|0,1:0|1:0|1:0|1:0,0:0:0:0:
497,29,73467,1,14,0:0:0:0:
490,239,73767,1,14,1:2:0:0:
341,358,74067,1,0,1:0:0:0:
264,143,74367,6,0,P|222:142|180:158,1,70,6|0,0:0|0:0,0:0:0:0:
110,204,74667,2,0,P|134:228|165:244,1,70,2|0,0:0|0:0,0:0:0:0:
202,323,74967,1,12,0:0:0:0:
137,371,75117,1,0,1:0:0:0:
137,371,75417,6,0,P|97:369|57:360,1,70,2|0,3:2|0:0,0:0:0:0:
27,287,75717,1,8,0:0:0:0:
72,216,75867,2,0,P|77:188|74:145,1,70,2|0,0:0|1:0,0:0:0:0:
52,63,76167,6,0,L|145:68,1,70,10|0,0:0|0:0,0:0:0:0:
211,87,76467,2,0,L|280:83,1,70,2|0,0:0|0:0,0:0:0:0:
335,147,76767,6,0,P|344:184|330:240,1,70,6|0,3:2|0:0,0:0:0:0:
298,297,77067,2,0,P|271:274|253:244,1,70,2|0,3:2|1:0,0:0:0:0:
256,160,77367,1,12,0:0:0:0:
280,83,77517,1,0,1:0:0:0:
462,82,77817,5,0,3:0:0:0:
486,159,77967,2,0,L|472:252,1,70,14|0,0:0|1:0,0:0:0:0:
390,173,78267,2,0,L|376:80,1,70,0|0,1:0|3:0,0:0:0:0:
343,27,78567,1,14,0:0:0:0:
307,191,78867,2,0,L|300:232,2,35,2|2|2,3:0|3:0|3:0,0:0:0:0:
223,180,79167,6,0,B|174:163|174:163|70:195,1,140,12|0,0:0|3:0,0:0:0:0:
53,265,79617,2,0,L|72:360,1,70,12|2,0:0|0:0,0:0:0:0:
140,293,79917,1,0,3:0:0:0:
212,334,80067,2,0,L|220:254,1,70,12|2,0:0|0:0,0:0:0:0:
223,180,80367,6,0,L|212:121,3,35,0|0|0|0,1:0|1:0|1:0|1:0,0:0:0:0:
229,105,80667,1,14,0:0:0:0:
332,237,80967,1,14,0:0:0:0:
482,162,81267,1,0,3:0:0:0:
482,162,81417,1,0,1:0:0:0:
404,129,81567,6,0,P|350:109|253:142,1,140,12|0,0:0|3:0,0:0:0:0:
235,203,82017,2,0,P|244:258|321:327,1,140,12|0,0:0|3:0,0:0:0:0:
384,313,82467,2,0,P|416:301|441:260,1,70,12|2,0:0|0:0,0:0:0:0:
451,199,82767,5,8,3:2:0:0:
438,115,82917,1,0,1:0:0:0:
438,115,83067,2,0,L|353:98,1,70,0|0,3:0|3:0,0:0:0:0:
288,126,83367,1,10,3:2:0:0:
288,126,83517,2,0,L|203:109,1,70,0|0,1:0|1:0,0:0:0:0:
137,131,83817,1,2,3:2:0:0:
153,213,83967,6,0,P|166:248|175:288,1,70,6|0,1:2|0:0,0:0:0:0:
174,363,84267,1,0,1:0:0:0:
174,363,84417,1,0,0:0:0:0:
91,347,84567,2,0,P|53:341|15:328,1,70,2|0,1:2|0:0,0:0:0:0:
17,247,84867,2,0,P|40:217|70:190,1,70,0|0,1:0|0:0,0:0:0:0:
108,124,85167,6,0,L|117:33,1,70,2|0,1:2|0:0,0:0:0:0:
200,95,85467,2,0,L|232:9,1,70,0|0,1:2|0:0,0:0:0:0:
296,99,85767,2,0,L|352:27,2,70,2|0|0,1:2|0:0|1:0,0:0:0:0:
311,182,86217,1,0,0:0:0:0:
289,263,86367,6,0,P|294:297|319:351,1,70,2|0,1:2|0:0,0:0:0:0:
385,359,86667,1,0,1:0:0:0:
385,359,86817,1,0,0:0:0:0:
382,275,86967,2,0,P|387:241|412:187,1,70,2|0,1:2|0:0,0:0:0:0:
497,184,87267,2,0,P|492:218|467:272,1,70,0|0,1:0|0:0,0:0:0:0:
501,378,87567,5,6,1:2:0:0:
286,248,87867,2,0,L|272:199,3,35,8|8|8|8,0:1|0:1|0:1|0:1,0:0:0:0:
246,183,88167,1,8,1:0:0:0:
351,39,88467,2,0,L|346:74,2,35,0|0|0,1:0|1:0|1:0,0:0:0:0:
269,23,88767,5,6,0:0:0:0:
126,112,89067,1,0,1:0:0:0:
126,112,89217,1,0,3:0:0:0:
129,195,89367,2,0,L|138:275,1,70,2|0,0:0|0:0,0:0:0:0:
208,170,89667,2,0,L|217:90,1,70,2|2,0:0|1:2,0:0:0:0:
296,149,89967,6,0,P|328:160|382:164,1,70,4|0,0:0|1:0,0:0:0:0:
421,238,90267,2,0,P|387:249|353:253,1,70,0|0,1:0|3:0,0:0:0:0:
255,234,90567,1,8,0:1:0:0:
373,101,90867,5,2,3:2:0:0:
373,101,91017,1,0,1:0:0:0:
373,101,91167,1,2,1:2:0:0:
139,101,91467,5,2,3:2:0:0:
139,101,91617,1,0,1:0:0:0:
139,101,91767,1,2,0:0:0:0:
255,234,92067,1,2,3:2:0:0:
256,5,92367,6,0,L|255:92,1,70,4|0,0:0|0:0,0:0:0:0:
255,164,92667,2,0,L|255:246,1,70,4|0,0:0|0:0,0:0:0:0:
257,317,92967,1,8,0:0:0:0:
257,317,93567,6,0,L|240:158,1,140,4|8,1:0|0:0,0:0:0:0:
235,94,94017,2,0,P|201:103|167:96,1,70,4|0,0:0|0:0,0:0:0:0:
103,41,94317,1,0,1:0:0:0:
56,111,94467,1,8,0:0:0:0:
20,187,94617,2,0,P|10:219|19:277,1,70,4|0,1:0|0:0,0:0:0:0:
107,233,94917,2,0,P|139:223|197:232,1,70,0|8,1:0|0:0,0:0:0:0:
257,317,95217,6,0,L|240:158,1,140,4|0,0:0|1:0,0:0:0:0:
229,94,95667,1,8,0:0:0:0:
336,223,95967,6,0,P|400:215|488:234,1,140,4|8,1:0|0:0,0:0:0:0:
465,321,96417,2,0,P|409:297|321:337,1,140,4|0,0:0|1:0,0:0:0:0:
277,380,96867,1,8,0:0:0:0:
204,338,97017,2,0,L|216:255,1,70,4|0,1:0|0:0,0:0:0:0:
256,195,97317,2,0,L|266:125,1,70,0|8,0:0|0:0,0:0:0:0:
236,46,97617,2,0,P|291:43|349:107,1,140,4|2,0:0|3:0,0:0:0:0:
355,184,98067,2,0,L|365:238,3,35,2|2|2|2,3:0|3:0|3:0|3:0,0:0:0:0:
348,258,98367,6,0,L|261:271,1,70,12|0,0:0|1:0,0:0:0:0:
196,251,98667,2,0,L|126:240,1,70,8|0,0:0|1:0,0:0:0:0:
187,155,98967,6,0,L|274:168,1,70,8|0,0:0|1:0,0:0:0:0:
339,148,99267,2,0,L|408:137,1,70,8|0,0:0|1:0,0:0:0:0:
360,56,99567,6,0,P|341:22|334:-12,1,70,8|0,0:0|1:0,0:0:0:0:
253,9,99867,2,0,P|244:42|227:73,1,70,8|0,0:0|1:0,0:0:0:0:
140,103,100167,1,8,0:0:0:0:
140,103,100467,5,2,3:0:0:0:
162,183,100617,1,2,3:0:0:0:
140,264,100767,2,0,B|135:299|135:299|150:346,1,70,8|0,0:0|0:0,0:0:0:0:
228,317,101067,2,0,B|233:282|233:282|218:235,1,70,8|0,0:0|1:0,0:0:0:0:
162,183,101367,2,0,B|151:149|151:149|156:114,1,70,8|0,0:0|1:0,0:0:0:0:
239,100,101667,2,0,B|249:133|249:133|244:168,1,70,8|0,0:0|1:0,0:0:0:0:
140,264,101967,5,4,3:1:0:0:
256,192,102042,12,2,103767,3:0:0:0:
319,297,104217,6,0,P|302:222|261:157,1,140,4|0,0:1|0:2,0:0:0:0:
195,129,104667,2,0,P|154:111|120:72,1,70,8|0,0:2|0:2,0:0:0:0:
71,39,104967,1,0,1:2:0:0:
56,121,105117,1,0,0:2:0:0:
77,202,105267,1,8,0:2:0:0:
70,285,105417,6,0,L|230:308,1,140,4|0,0:1|1:2,0:0:0:0:
209,220,105867,2,0,L|298:209,1,70,8|0,0:2|1:2,0:0:0:0:
344,159,106167,2,0,L|368:6,1,140,0|8,1:2|0:2,0:0:0:0:
435,91,106617,6,0,P|447:147|436:239,1,140,4|0,0:1|1:2,0:0:0:0:
386,294,107067,1,8,0:2:0:0:
304,315,107217,1,0,1:2:0:0:
221,300,107367,2,0,P|180:285|132:286,1,70,0|0,1:2|1:2,0:0:0:0:
71,303,107667,1,8,0:2:0:0:
39,225,107817,6,0,B|12:179|12:179|12:71,1,140,4|0,0:1|1:2,0:0:0:0:
63,25,108267,1,8,0:2:0:0:
107,96,108417,2,0,B|106:149|106:149|160:242,1,140,4|0,0:2|1:2,0:0:0:0:
222,267,108867,1,8,0:2:0:0:
305,256,109017,6,0,P|349:160|277:98,1,210,4|8,0:1|0:2,0:0:0:0:
222,267,109767,1,0,1:2:0:0:
189,344,109917,1,0,1:2:0:0:
273,333,110067,1,8,0:2:0:0:
355,348,110217,6,0,L|506:314,1,140,4|0,0:1|0:2,0:0:0:0:
452,242,110667,2,0,P|451:207|440:148,1,70,8|0,0:2|1:2,0:0:0:0:
371,132,110967,2,0,P|362:98|358:38,2,70,0|0|8,0:2|1:2|0:2,0:0:0:0:
343,211,111417,6,0,P|339:246|355:378,1,140,4|0,0:1|1:2,0:0:0:0:
265,332,111867,2,0,L|176:314,1,70,8|4,0:2|0:2,0:0:0:0:
114,298,112167,2,0,L|87:204,1,70,0|0,0:2|1:2,0:0:0:0:
114,149,112467,2,0,L|144:71,1,70,8|4,1:2|0:2,0:0:0:0:
201,152,112767,6,0,P|239:175|349:188,1,140,0|8,0:2|1:2,0:0:0:0:
389,128,113217,2,0,P|361:107|326:104,2,70,0|8|8,0:2|0:2|0:2,0:0:0:0:
411,209,113667,1,8,0:2:0:0:
391,290,113817,6,0,B|340:315|340:315|234:311,1,140,4|0,0:1|0:2,0:0:0:0:
176,288,114267,2,0,L|153:135,1,140,8|0,0:2|1:2,0:0:0:0:
126,70,114717,1,0,1:2:0:0:
72,134,114867,1,8,0:2:0:0:
77,217,115017,6,0,B|88:300|88:300|51:364,1,140,4|0,0:1|1:2,0:0:0:0:
151,367,115467,2,0,P|183:362|237:371,1,70,8|0,0:2|1:2,0:0:0:0:
306,337,115767,2,0,P|337:330|385:303,1,70,0|0,1:2|0:2,0:0:0:0:
446,276,116067,1,8,0:2:0:0:
433,192,116217,6,0,P|426:121|436:47,1,140,4|0,0:1|1:2,0:0:0:0:
350,55,116667,2,0,P|319:74|264:89,1,70,8|0,0:2|0:2,0:0:0:0:
209,116,116967,2,0,P|166:129|129:171,1,70,0|0,1:2|1:2,0:0:0:0:
127,240,117267,1,8,0:2:0:0:
207,203,117417,6,0,P|243:195|332:266,1,140,4|0,0:1|1:2,0:0:0:0:
316,328,117867,1,8,0:2:0:0:
243,285,118017,2,0,P|183:318|163:383,1,140,4|0,0:2|1:2,0:0:0:0:
247,372,118467,1,8,1:2:0:0:
316,328,118617,6,0,L|474:342,1,140,4|0,0:1|0:2,0:0:0:0:
450,257,119067,2,0,L|434:173,1,70,8|0,0:2|0:2,0:0:0:0:
396,114,119367,1,0,1:2:0:0:
316,142,119517,1,0,1:2:0:0:
232,130,119667,1,8,1:2:0:0:
166,182,119817,6,0,P|94:211|28:168,1,140,4|0,0:1|1:2,0:0:0:0:
31,102,120267,2,0,P|49:69|75:42,1,70,8|0,0:2|0:2,0:0:0:0:
154,48,120567,2,0,P|177:73|193:104,1,70,0|0,0:2|1:2,0:0:0:0:
166,182,120867,1,8,1:2:0:0:
120,252,121017,6,0,B|85:289|85:289|168:325,1,140,4|4,0:1|1:2,0:0:0:0:
248,304,121467,1,4,1:2:0:0:
248,304,121617,1,0,0:2:0:0:
330,320,121767,2,0,L|383:340,3,35,8|8|8|8,0:2|0:2|0:2|0:2,0:0:0:0:
404,329,122067,2,0,L|447:321,2,35,8|8|8,0:2|0:2|0:2,0:0:0:0:
377,248,122367,6,0,P|342:151|298:115,1,140,0|4,0:2|0:2,0:0:0:0:
233,111,122817,1,0,0:2:0:0:
178,174,122967,2,0,L|134:187,3,35,8|8|8|8,0:2|0:2|0:2|0:2,0:0:0:0:
102,190,123267,2,0,L|68:180,3,35,0|0|0|0,0:2|2:2|0:2|2:2,0:0:0:0:
29,161,123567,6,0,P|2:247|100:300,1,210,14|0,0:2|1:2,0:0:0:0:
169,270,124167,2,0,L|183:353,1,70,2|0,0:2|0:2,0:0:0:0:
258,306,124467,2,0,P|285:220|187:167,1,210,10|0,0:2|1:2,0:0:0:0:
118,197,125067,2,0,L|104:114,1,70,2|0,1:2|1:2,0:0:0:0:
157,61,125367,6,0,P|256:30|370:62,1,210,6|0,0:2|1:2,0:0:0:0:
390,131,125967,2,0,P|455:157|481:161,1,70,2|0,1:2|1:2,0:0:0:0:
463,241,126267,6,0,P|363:272|263:247,1,210,10|0,0:2|1:2,0:0:0:0:
230,171,126867,2,0,P|198:155|165:145,1,70,2|0,0:0|0:0,0:0:0:0:
93,190,127167,6,0,P|60:208|93:136,1,210,10|0,0:2|1:2,0:0:0:0:
127,54,127767,2,0,L|287:42,1,140,6|10,3:2|0:2,0:0:0:0:
402,141,128367,6,0,L|409:199,3,35,0|0|0|0,1:2|1:2|1:2|1:2,0:0:0:0:
434,207,128667,1,14,0:2:0:0:
370,262,128817,1,0,1:2:0:0:
331,187,128967,2,0,L|191:197,1,140,14|2,0:2|1:2,0:0:0:0:
124,146,129417,1,2,1:2:0:0:
74,213,129567,2,0,L|70:257,3,35,0|0|2|0,3:2|3:2|3:2|3:2,0:0:0:0:
90,285,129867,6,0,P|123:275|170:280,1,70,6|0,0:2|0:2,0:0:0:0:
229,320,130167,1,2,1:2:0:0:
229,320,130317,2,0,P|262:330|309:325,1,70,12|0,0:2|0:2,0:0:0:0:
377,304,130617,1,2,1:2:0:0:
377,304,130767,6,0,P|404:218|306:165,1,210,14|0,0:2|1:2,0:0:0:0:
237,195,131367,2,0,L|223:112,1,70,6|0,0:2|0:2,0:0:0:0:
148,159,131667,2,0,P|121:245|219:298,1,210,10|0,0:2|1:2,0:0:0:0:
288,268,132267,2,0,L|302:351,1,70,2|0,3:2|0:2,0:0:0:0:
383,345,132567,6,0,P|414:246|382:132,1,210,10|0,0:2|1:2,0:0:0:0:
313,112,133167,2,0,P|287:47|283:21,1,70,6|0,0:2|0:2,0:0:0:0:
203,39,133467,6,0,P|171:138|196:238,1,210,14|0,0:2|1:2,0:0:0:0:
273,272,134067,2,0,P|288:303|298:336,1,70,2|0,0:0|0:0,0:0:0:0:
378,367,134367,6,0,P|383:297|455:178,1,210,14|0,0:2|1:2,0:0:0:0:
495,105,134967,2,0,L|335:93,1,140,6|10,3:2|0:2,0:0:0:0:
196,149,135567,6,0,L|189:207,3,35,4|0|0|0,1:2|1:2|1:2|1:2,0:0:0:0:
164,215,135867,1,2,3:2:0:0:
228,270,136017,1,0,1:2:0:0:
267,195,136167,2,0,L|406:205,1,140,14|2,0:2|3:0,0:0:0:0:
458,271,136617,1,2,3:0:0:0:
391,321,136767,2,0,L|347:325,3,35,2|0|2|0,3:2|1:0|3:0|1:0,0:0:0:0:
316,311,137067,6,0,P|306:278|311:231,1,70,12|0,0:0|0:0,0:0:0:0:
351,172,137367,2,0,P|361:139|356:92,1,70,12|0,0:0|0:0,0:0:0:0:
335,24,137667,2,0,P|302:34|255:29,1,70,12|0,0:0|0:0,0:0:0:0:
185,11,137967,5,0,3:0:0:0:
95,153,138267,1,0,3:0:0:0:
180,296,138567,1,4,3:2:0:0:
241,238,138717,1,0,3:0:0:0:
400,273,139017,6,0,L|331:338,1,70,0|8,3:0|0:0,0:0:0:0:
266,303,139317,2,0,L|240:237,1,70,0|0,3:0|0:0,0:0:0:0:
176,183,139617,1,0,0:0:0:0:
176,183,139767,2,0,L|241:157,1,70,4|0,0:2|0:0,0:0:0:0:
292,90,140067,2,0,P|337:114|384:107,1,70,0|0,1:0|1:0,0:0:0:0:
438,102,140367,6,0,L|457:188,1,70,0|0,1:0|0:0,0:0:0:0:
489,246,140667,2,0,L|470:332,1,70,0|0,1:0|0:0,0:0:0:0:
409,368,140967,1,4,0:2:0:0:
373,291,141117,1,0,0:0:0:0:
301,334,141267,2,0,L|252:338,3,35,0|0|0|0,3:0|3:0|3:0|3:0,3:0:0:0:
229,315,141567,5,8,0:0:0:0:
158,360,141717,1,0,3:0:0:0:
158,360,141867,2,0,L|59:346,1,70,0|0,3:0|0:0,0:0:0:0:
22,299,142167,2,0,L|8:200,1,70,8|0,0:0|0:0,0:0:0:0:
79,179,142467,2,0,L|108:83,1,70,8|0,0:0|0:0,0:0:0:0:
181,94,142767,5,2,0:2:0:0:
344,54,143067,1,0,3:2:0:0:
377,131,143217,1,0,1:2:0:0:
360,213,143367,2,0,P|390:253|428:267,1,70,14|0,0:2|1:2,0:0:0:0:
477,307,143667,1,2,0:2:0:0:
477,307,143817,2,0,P|447:347|409:361,1,70,0|2,3:2|0:2,0:0:0:0:
308,351,144267,5,2,0:2:0:0:
226,370,144417,1,0,1:2:0:0:
256,291,144567,2,0,L|240:209,1,70,8|0,1:2|1:2,0:0:0:0:
306,167,144867,1,0,3:2:0:0:
323,84,145017,1,0,1:2:0:0:
392,130,145167,6,0,P|430:96|443:63,1,70,6|0,0:2|0:0,0:0:0:0:
461,0,145467,2,0,L|370:6,1,70,0|0,3:2|0:0,0:0:0:0:
306,8,145767,1,8,0:2:0:0:
239,59,145917,1,8,0:2:0:0:
223,141,146067,2,0,P|176:162|136:157,2,70,0|2|0,0:0|3:2|0:2,0:0:0:0:
306,8,146667,1,2,1:2:0:0:
428,123,146967,5,12,0:0:0:0:
290,219,147267,1,2,3:0:0:0:
239,59,147567,2,0,P|164:61|109:115,1,140,12|0,0:0|1:0,0:0:0:0:
55,157,148017,2,0,P|130:159|185:213,1,140,12|0,0:0|1:0,0:0:0:0:
196,281,148467,5,12,0:0:0:0:
164,358,148617,1,2,0:0:0:0:
248,351,148767,2,0,L|283:344,3,35,0|0|0|0,1:0|1:0|1:0|1:0,0:0:0:0:
307,310,149066,1,14,0:0:0:0:
417,182,149367,6,0,L|379:94,1,70,14|0,0:0|0:0,0:0:0:0:
335,53,149667,2,0,L|302:140,1,70,2|0,3:0|1:0,0:0:0:0:
256,182,149967,2,0,P|188:183|140:231,1,140,12|0,0:0|3:0,0:0:0:0:
105,312,150417,2,0,P|148:302|210:382,1,140,12|0,0:0|3:0,0:0:0:0:
293,381,150867,5,12,0:0:0:0:
362,333,151017,1,2,0:0:0:0:
319,254,151167,2,0,L|341:190,3,35,0|0|0|0,1:0|1:0|1:0|1:0,0:0:0:0:
317,180,151467,6,0,L|222:195,1,70,14|0,0:0|0:0,0:0:0:0:
232,273,151767,2,0,L|155:216,1,70,14|0,1:2|0:0,0:0:0:0:
104,274,152067,2,0,L|89:178,1,70,0|0,1:0|0:0,0:0:0:0:
84,121,152367,5,6,0:2:0:0:
256,32,152667,1,2,0:2:0:0:
428,121,152967,1,14,0:2:0:0:
256,160,153267,1,0,0:0:0:0:
256,244,153417,6,0,L|256:340,1,70,2|0,3:2|0:0,0:0:0:0:
172,326,153717,2,0,L|104:394,1,70,8|2,0:2|3:2,0:0:0:0:
73,308,154017,1,0,1:2:0:0:
36,232,154167,6,0,P|62:193|98:171,1,70,10|0,0:2|0:0,0:0:0:0:
132,114,154467,2,0,P|109:88|79:70,1,70,2|0,0:2|0:0,0:0:0:0:
145,17,154767,2,0,P|200:38|300:-5,1,140,6|0,0:2|3:2,0:0:0:0:
281,101,155217,2,0,P|346:80|412:101,1,140,2|0,1:2|1:2,0:0:0:0:
470,162,155667,1,0,0:0:0:0:
431,236,155817,1,2,3:2:0:0:
469,310,155967,6,0,L|375:317,1,70,8|0,0:2|1:2,0:0:0:0:
321,349,156267,2,0,L|341:397,2,35,2|0|0,1:2|0:0|3:2,0:0:0:0:
236,345,156567,2,0,L|204:267,1,70,8|0,0:2|0:0,0:0:0:0:
166,208,156867,2,0,L|122:184,2,35,2|2|2,3:0|3:0|3:3,0:0:0:0:
250,217,157167,6,0,P|314:196|344:134,1,140,12|0,0:2|3:2,0:0:0:0:
289,71,157617,2,0,P|224:91|194:153,1,140,12|0,0:2|3:2,0:0:0:0:
250,217,158067,2,0,P|270:263|252:302,1,70,12|2,0:2|0:2,0:0:0:0:
254,368,158367,2,0,L|303:370,3,35,0|0|0|0,1:2|1:2|1:2|1:2,0:0:0:0:
330,365,158667,6,0,L|399:360,1,70,14|0,0:2|0:2,0:0:0:0:
390,275,158967,2,0,L|459:280,1,70,14|0,3:2|1:2,0:0:0:0:
433,200,159267,2,0,L|363:196,1,70,2|0,3:2|1:2,0:0:0:0:
268,188,159567,2,0,P|292:121|254:34,1,140,12|0,0:2|3:2,0:0:0:0:
351,23,160017,2,0,P|382:88|470:122,1,140,12|0,0:2|3:2,0:0:0:0:
494,184,160467,2,0,L|480:275,1,70,12|2,0:2|0:2,0:0:0:0:
463,335,160767,5,8,3:2:0:0:
395,287,160917,2,0,L|382:231,2,35,0|0|0,3:0|0:0|3:0,0:0:0:0:
336,348,161217,1,2,3:0:0:0:
285,283,161367,5,2,3:0:0:0:
136,361,161667,1,0,0:0:0:0:
148,277,161817,1,0,3:0:0:0:
72,314,161967,6,0,P|12:303|5:223,1,140,4|0,3:2|0:0,0:0:0:0:
42,161,162417,1,0,0:0:0:0:
176,46,162717,2,0,L|191:133,1,70,0|2,0:2|0:2,0:0:0:0:
262,152,163017,2,0,P|245:206|256:242,1,70,2|0,3:2|0:2,0:0:0:0:
320,257,163317,2,0,P|374:240|410:251,1,70,0|2,0:2|0:2,0:0:0:0:
467,263,163617,2,0,P|500:215|472:121,1,140,2|0,0:2|0:2,0:0:0:0:
427,77,164067,1,0,0:2:0:0:
294,180,164367,6,0,P|233:190|199:117,1,140,2|0,3:2|0:0,0:0:0:0:
217,47,164817,1,0,0:0:0:0:
50,27,165117,2,0,L|63:118,1,70,0|2,0:2|0:2,0:0:0:0:
22,171,165417,2,0,P|57:184|89:223,1,70,2|0,3:2|0:2,0:0:0:0:
164,206,165717,2,0,P|189:229|222:241,1,70,0|2,0:2|0:2,0:0:0:0:
301,213,166017,1,2,0:2:0:0:
334,290,166167,2,0,L|332:333,3,35,10|2|2|2,3:0|3:0|3:0|3:0,0:0:0:0:
353,361,166467,1,8,2:0:0:0:
456,228,166767,6,0,L|375:233,1,70,12|0,0:0|1:0,0:0:0:0:
391,148,167067,2,0,L|310:153,1,70,8|0,0:0|1:0,0:0:0:0:
244,117,167367,2,0,L|249:198,1,70,8|0,0:0|1:0,0:0:0:0:
164,182,167667,2,0,L|169:263,1,70,8|0,0:0|1:0,0:0:0:0:
116,318,167967,6,0,P|87:280|58:270,1,70,8|0,0:0|1:0,0:0:0:0:
18,203,168267,2,0,P|48:186|66:156,1,70,8|0,0:0|1:0,0:0:0:0:
95,77,168567,2,0,L|195:69,1,70,8|0,0:0|0:0,0:0:0:0:
235,25,168867,1,0,3:0:0:0:
278,96,169017,1,0,3:0:0:0:
360,81,169167,6,0,L|385:174,1,70,12|0,0:0|0:0,0:0:0:0:
441,205,169467,1,8,0:0:0:0:
420,286,169617,2,0,L|352:304,1,70,0|8,1:0|0:0,0:0:0:0:
284,254,169917,2,0,L|216:272,1,70,0|8,1:0|0:0,0:0:0:0:
166,339,170217,1,0,1:0:0:0:
118,269,170367,6,0,P|77:283|7:259,2,105,4|8|0,3:0|3:0|3:0,0:0:0:0:
182,214,170967,1,8,3:0:0:0:
302,96,171267,1,2,3:0:0:0:
325,176,171417,1,2,3:0:0:0:
393,126,171567,6,0,L|447:187,1,70,8|0,0:0|3:0,0:0:0:0:
437,262,171867,2,0,L|383:323,1,70,8|0,0:0|3:0,0:0:0:0:
330,372,172167,1,8,0:0:0:0:
292,297,172317,1,0,3:0:0:0:
226,349,172467,1,0,3:0:0:0:
143,334,172617,6,0,P|104:281|121:189,1,140,4|0,0:1|0:0,0:0:0:0:
180,166,173067,2,0,P|248:171|276:160,1,70,8|0,0:2|0:2,0:0:0:0:
317,123,173367,2,0,L|390:159,1,70,0|0,1:2|0:2,0:0:0:0:
461,133,173667,1,8,0:2:0:0:
484,213,173817,6,0,L|453:380,1,140,4|0,0:1|1:2,0:0:0:0:
377,373,174267,2,0,P|346:353|295:346,1,70,8|0,0:2|1:2,0:0:0:0:
232,363,174567,2,0,L|201:196,1,140,0|8,3:2|0:2,0:0:0:0:
183,144,175017,6,0,P|251:151|314:123,1,140,4|0,0:1|1:2,0:0:0:0:
396,102,175467,2,0,L|445:151,1,70,8|0,0:2|0:2,0:0:0:0:
441,235,175767,2,0,L|482:278,2,35,0|0|0,1:2|1:2|1:2,0:0:0:0:
360,257,176067,1,8,0:2:0:0:
291,209,176217,6,0,P|236:233|208:324,1,140,4|0,0:1|0:2,0:0:0:0:
130,366,176667,2,0,L|121:297,1,70,8|4,0:2|0:2,0:0:0:0:
46,336,176967,2,0,L|26:197,1,140,0|8,0:2|1:2,0:0:0:0:
6,115,177417,6,0,P|68:118|115:39,1,140,4|0,0:1|0:0,0:0:0:0:
199,72,177867,2,0,P|190:127|170:160,1,70,8|0,0:2|1:2,0:0:0:0:
255,183,178167,2,0,P|300:150|337:141,1,70,0|0,1:2|0:2,0:0:0:0:
397,138,178467,1,8,0:2:0:0:
470,178,178617,6,0,L|482:25,1,140,4|0,0:1|1:2,0:0:0:0:
397,42,179067,2,0,L|390:140,1,70,8|0,0:2|1:2,0:0:0:0:
313,145,179367,2,0,P|297:114|267:96,1,70,0|0,1:2|0:2,0:0:0:0:
183,102,179667,1,8,0:2:0:0:
116,153,179817,6,0,L|138:293,1,140,4|0,0:1|1:2,0:0:0:0:
215,323,180267,1,8,0:2:0:0:
295,298,180417,2,0,L|316:159,1,140,4|0,0:2|1:2,0:0:0:0:
390,120,180867,2,0,L|405:188,1,70,8|4,1:2|0:2,0:0:0:0:
481,224,181167,2,0,P|416:239|370:325,1,140,0|8,0:0|1:2,0:0:0:0:
335,371,181617,2,0,P|295:316|228:300,1,140,4|0,0:0|1:0,0:0:0:0:
59,294,182217,6,0,L|133:172,1,140,4|0,0:1|0:0,0:0:0:0:
118,90,182667,2,0,L|154:29,1,70,8|0,0:2|0:2,0:0:0:0:
235,8,182967,2,0,L|271:68,1,70,0|0,1:2|3:2,0:0:0:0:
321,134,183267,1,8,0:2:0:0:
400,160,183417,6,0,P|399:212|471:290,1,140,4|0,0:1|0:2,0:0:0:0:
471,361,183867,1,8,0:2:0:0:
387,350,184017,1,0,0:2:0:0:
308,380,184167,2,0,P|257:371|223:267,1,140,0|8,0:2|1:2,0:0:0:0:
167,229,184617,6,0,L|311:221,1,140,4|0,0:1|1:2,0:0:0:0:
377,175,185067,2,0,L|384:94,1,70,8|0,0:2|0:2,0:0:0:0:
309,65,185367,2,0,L|302:146,2,70,0|0|8,0:2|1:2|1:2,0:0:0:0:
386,31,185817,6,0,L|234:29,1,140,4|0,0:1|1:2,0:0:0:0:
167,0,186267,2,0,P|174:55|161:80,1,70,8|4,0:2|0:2,0:0:0:0:
124,136,186567,2,0,P|118:196|184:258,1,140,0|8,0:2|1:2,0:0:0:0:
200,173,187017,6,0,L|361:165,1,140,4|0,0:1|0:0,0:0:0:0:
423,155,187467,2,0,P|413:192|415:245,1,70,8|0,0:2|0:2,0:0:0:0:
438,304,187767,2,0,P|403:306|369:316,1,70,0|0,1:2|1:0,0:0:0:0:
301,364,188067,1,8,1:2:0:0:
245,302,188217,6,0,P|268:249|234:167,1,140,4|0,0:1|1:2,0:0:0:0:
174,235,188667,1,8,0:2:0:0:
91,218,188817,1,0,0:2:0:0:
118,297,188967,2,0,L|163:374,1,70,0|0,0:2|1:2,0:0:0:0:
235,373,189267,1,8,1:2:0:0:
317,357,189417,6,0,L|396:228,1,140,4|0,2:1|0:0,0:0:0:0:
455,185,189867,2,0,P|414:160|395:120,1,70,8|0,0:2|0:0,0:0:0:0:
361,68,190167,2,0,L|374:-6,2,70,8|0|8,0:2|0:0|0:2,0:0:0:0:
293,118,190617,1,4,0:0:0:0:
225,67,190767,6,0,L|216:114,3,35,8|0|0|0,3:0|3:0|3:0|3:0,0:0:0:0:
189,132,191067,2,0,L|198:179,3,35,8|0|0|0,3:2|3:0|3:0|3:0,0:0:0:0:
225,196,191367,2,0,L|216:243,3,35,8|2|2|2,3:2|3:0|3:0|3:0,0:0:0:0:
189,261,191667,5,0,2:0:0:0:
266,294,191817,2,0,L|412:305,1,140,0|0,0:0|1:0,0:0:0:0:
363,203,192267,6,0,P|348:168|357:122,1,70,12|0,0:2|0:2,0:0:0:0:
384,59,192567,1,0,1:2:0:0:
329,0,192717,1,0,0:2:0:0:
265,54,192867,1,8,0:2:0:0:
199,1,193017,6,0,B|128:-13|65:29|65:29,1,140,4|0,0:1|1:2,0:0:0:0:
64,114,193467,2,0,P|45:138|44:195,1,70,8|0,0:2|0:2,0:0:0:0:
89,245,193767,2,0,P|85:275|112:325,1,70,0|0,0:2|1:2,0:0:0:0:
147,381,194067,1,8,1:2:0:0:
228,361,194217,6,0,P|271:315|250:233,1,140,4|0,0:1|1:2,0:0:0:0:
192,192,194667,1,8,0:2:0:0:
192,192,194817,1,0,0:2:0:0:
184,108,194967,2,0,L|194:26,1,70,8|0,0:2|0:2,0:0:0:0:
273,13,195267,5,8,0:2:0:0:
273,13,195417,1,0,0:2:0:0:
346,54,195567,2,0,L|336:136,1,70,12|0,0:2|0:2,0:0:0:0:
364,203,195867,2,0,L|370:282,1,70,8|0,0:2|0:2,0:0:0:0:
370,356,196167,5,12,0:2:0:0:
295,316,196317,1,0,0:2:0:0:
211,326,196467,1,8,0:2:0:0:
142,277,196617,6,0,L|178:127,1,140,4|0,0:1|0:2,0:0:0:0:
265,86,197067,2,0,P|291:61|343:59,1,70,8|0,0:2|0:2,0:0:0:0:
386,110,197367,2,0,P|409:135|442:145,1,70,0|0,0:2|1:2,0:0:0:0:
507,198,197667,1,8,0:2:0:0:
436,243,197817,6,0,P|397:253|355:353,1,140,4|0,0:1|0:2,0:0:0:0:
436,329,198267,1,8,1:2:0:0:
508,286,198417,1,0,1:2:0:0:
436,243,198567,2,0,L|268:264,1,140,2|8,0:3|0:2,0:0:0:0:
214,242,199017,6,0,P|180:235|116:246,2,70,4|0|0,0:1|0:0|1:2,0:0:0:0:
267,342,199467,1,8,0:2:0:0:
297,260,199617,2,0,L|326:118,1,140,4|0,0:1|1:2,0:0:0:0:
279,1,200067,1,8,0:2:0:0:
247,78,200217,2,0,P|192:101|92:98,1,140,4|0,0:1|1:2,0:0:0:0:
15,7,200667,1,8,0:2:0:0:
12,90,200817,2,0,L|25:231,1,140,4|0,0:1|1:2,0:0:0:0:
33,312,201267,1,8,0:2:0:0:
102,265,201417,6,0,B|154:247|154:247|259:260,1,140,4|0,0:1|0:2,0:0:0:0:
315,222,201867,2,0,L|415:207,1,70,8|0,0:2|0:2,0:0:0:0:
458,173,202167,1,0,0:2:0:0:
451,89,202317,1,0,1:2:0:0:
370,63,202467,1,8,0:2:0:0:
321,131,202617,6,0,L|182:144,1,140,4|0,0:1|1:2,0:0:0:0:
99,125,203067,1,8,0:2:0:0:
173,162,203217,1,0,1:2:0:0:
168,245,203367,2,0,L|158:391,1,140,0|8,1:2|0:2,0:0:0:0:
249,342,203817,6,0,B|294:326|294:326|339:333|339:333|399:313,1,140,4|0,0:1|1:2,0:0:0:0:
417,240,204267,1,8,0:2:0:0:
417,240,204417,1,0,0:2:0:0:
333,241,204567,2,0,L|312:155,1,70,8|0,0:2|0:2,0:0:0:0:
269,103,204867,5,8,0:2:0:0:
269,103,205017,1,0,0:2:0:0:
211,164,205167,2,0,L|194:232,1,70,12|0,0:2|0:2,0:0:0:0:
162,309,205467,1,8,0:2:0:0:
162,309,205617,1,0,0:2:0:0:
79,323,205767,5,12,0:2:0:0:
14,267,205917,1,0,0:2:0:0:
14,267,206067,1,8,0:2:0:0:
41,187,206217,6,0,P|53:100|35:32,1,140,4|0,0:1|0:2,0:0:0:0:
125,33,206667,2,0,L|277:48,1,140,8|0,0:2|0:2,0:0:0:0:
348,49,207117,1,0,1:2:0:0:
420,90,207267,1,8,0:2:0:0:
363,152,207417,2,0,L|217:175,1,140,4|0,0:1|1:2,0:0:0:0:
142,192,207867,1,8,0:2:0:0:
199,252,208017,1,0,1:2:0:0:
208,335,208167,2,0,P|212:283|312:271,1,140,0|8,1:2|0:2,0:0:0:0:
363,289,208617,6,0,P|411:294|519:265,1,140,4|0,0:1|1:2,0:0:0:0:
512,190,209067,1,12,0:2:0:0:
498,106,209217,2,0,P|430:87|361:91,1,140,2|8,0:0|0:2,0:0:0:0:
291,191,209667,1,8,0:2:0:0:
207,192,209817,6,0,L|37:193,1,140,4|0,0:1|1:2,0:0:0:0:
17,260,210267,1,4,1:2:0:0:
98,279,210417,2,0,L|251:278,1,130.200004072724,0|0,0:2|0:0,0:0:0:0:
368,275,210913,1,8,0:2:0:0:
304,125,211262,5,2,0:2:0:0:
138,95,211623,2,0,P|98:93|62:104,2,70,2|0|2,0:0|0:0|0:0,0:0:0:0:
267,202,212346,1,2,0:0:0:0:
192,338,212707,2,0,L|153:348,4,35,0|0|0|0|2,0:0|0:0|0:0|0:0|0:0,0:0:0:0:
352,331,213486,1,2,0:0:0:0:
441,188,213894,6,0,L|442:113,1,70,2|0,0:0|0:0,0:0:0:0:
402,52,214302,1,2,0:0:0:0:
227,102,214746,2,0,L|150:115,1,70,2|0,0:0|0:0,0:0:0:0:
104,171,215190,1,2,0:0:0:0:
255,201,215666,1,0,0:0:0:0:
408,171,216183,5,2,0:0:0:0:
408,171,216754,5,2,0:0:0:0:
408,171,217468,5,2,0:0:0:0:
256,192,217646,12,0,221039,0:0:0:0:
