osu file format v14

[General]
AudioFilename: raideniscute.mp3
AudioLeadIn: 0
PreviewTime: 44231
Countdown: 0
SampleSet: Normal
StackLeniency: 0.7
Mode: 1
LetterboxInBreaks: 0
WidescreenStoryboard: 1

[Editor]
Bookmarks: 1256,15731,20456,34856,45656,64931,66656,84056,93656,138056
DistanceSpacing: 1.2
BeatDivisor: 4
GridSize: 32
TimelineZoom: 1.3

[Metadata]
Title:Yoru Naku Usagi wa Yume o Miru
TitleUnicode:夜啼く兎は夢を見る
Artist:UNDEAD CORPORATION
ArtistUnicode:UNDEAD CORPORATION
Creator:Capu
Version:Futsuu
Source:東方永夜抄 ~ Imperishable Night.
Tags:UC Metal Japanese Video Game FA Featured Artist Mappers' Guild MPG MG osu! 狂気の瞳 ~ Invisible Full Moon TOHO COMPLETE BOX ONI ランコ Ranko Touhou パインツリー Kyouki no Hitomi Lunatic Red Eyes Reisen Udongein Inaba Rabbit 鈴仙 優曇華院 イナバ IN TH08 Eiyashou Eternal Night Vignette 東方Project Team Shanghai Alice ZUN 紅染の鬼が哭く
BeatmapID:2603030
BeatmapSetID:1251607

[Difficulty]
HPDrainRate:6.5
CircleSize:2
OverallDifficulty:4
ApproachRate:10
SliderMultiplier:1.4
SliderTickRate:1

[Events]
//Background and Video events
0,0,"ucbg.png",0,105
//Break Periods
//Storyboard Layer 0 (Background)
//Storyboard Layer 1 (Fail)
//Storyboard Layer 2 (Pass)
//Storyboard Layer 3 (Foreground)
//Storyboard Layer 4 (Overlay)
//Storyboard Sound Samples

[TimingPoints]
80,300,4,1,0,45,1,0
80,-111.111111111111,4,1,0,45,0,0
905,-111.111111111111,4,1,0,46,0,0
1205,-111.111111111111,4,1,0,67,0,0
15830,-111.111111111111,4,1,0,67,0,0
17930,-111.111111111111,4,1,0,67,0,0
19130,-111.111111111111,4,1,0,67,0,0
20330,-111.111111111111,4,1,0,45,0,0
24005,-111.111111111111,4,1,0,56,0,0
24380,-111.111111111111,4,1,0,67,0,0
24455,-111.111111111111,4,1,0,67,0,0
24530,-111.111111111111,4,1,0,67,0,0
24680,-111.111111111111,4,1,0,67,0,0
24830,-111.111111111111,4,1,0,67,0,0
24980,-111.111111111111,4,1,0,67,0,0
25055,-111.111111111111,4,1,0,67,0,0
25130,-111.111111111111,4,1,0,67,0,0
25278,-111.111111111111,4,1,0,67,0,0
25430,-111.111111111111,4,1,0,67,0,0
30005,-111.111111111111,4,1,0,67,0,0
30155,-111.111111111111,4,1,0,67,0,0
33605,-111.111111111111,4,1,0,67,0,0
34205,-111.111111111111,4,1,0,67,0,0
34355,-111.111111111111,4,1,0,67,0,0
34505,-111.111111111111,4,1,0,67,0,0
34655,-111.111111111111,4,1,0,67,0,0
34805,-111.111111111111,4,1,0,67,0,0
39155,-111.111111111111,4,1,0,67,0,0
39455,-111.111111111111,4,1,0,67,0,0
41780,-111.111111111111,4,1,0,67,0,0
41930,-111.111111111111,4,1,0,67,0,0
42080,-111.111111111111,4,1,0,67,0,0
44330,-111.111111111111,4,1,0,67,0,0
44480,-111.111111111111,4,1,0,67,0,0
44630,-111.111111111111,4,1,0,67,0,0
44780,-111.111111111111,4,1,0,67,0,0
44930,-111.111111111111,4,1,0,67,0,0
45080,-111.111111111111,4,1,0,67,0,0
45230,-111.111111111111,4,1,0,67,0,0
45380,-111.111111111111,4,1,0,67,0,0
45530,-111.111111111111,4,1,0,77,0,1
52730,-111.111111111111,4,1,0,77,0,0
55130,-111.111111111111,4,1,0,77,0,1
64880,-111.111111111111,4,1,0,77,0,0
65180,-111.111111111111,4,1,0,67,0,0
79280,-111.111111111111,4,1,0,67,0,0
84080,-111.111111111111,4,1,0,67,0,0
88878,-111.111111111111,4,1,0,67,0,0
97955,-111.111111111111,4,1,0,67,0,0
98255,-111.111111111111,4,1,0,67,0,0
104330,-111.111111111111,4,1,0,77,0,1
111530,-111.111111111111,4,1,0,77,0,0
113930,-111.111111111111,4,1,0,77,0,1
123680,300,3,1,0,77,1,0
123680,-111.111111111111,4,1,0,77,0,0
138005,-111.111111111111,4,1,0,77,0,0
138080,300,4,1,0,77,1,0
147680,-111.111111111111,4,1,0,77,0,0
157280,-111.111111111111,4,1,0,67,0,0
171680,-111.111111111111,4,1,0,67,0,0
171830,-111.111111111111,4,1,0,67,0,0
171980,-111.111111111111,4,1,0,67,0,0
172130,-111.111111111111,4,1,0,67,0,0
172280,-111.111111111111,4,1,0,67,0,0
172430,-111.111111111111,4,1,0,67,0,0
172730,-111.111111111111,4,1,0,77,0,1
179930,-111.111111111111,4,1,0,77,0,0
182330,-111.111111111111,4,1,0,77,0,1
191630,-111.111111111111,4,1,0,77,0,0
192380,-111.111111111111,4,1,0,77,0,1
210530,322.58064516129,4,1,0,85,1,9
210530,-111.111111111111,4,1,0,85,0,1
210852,348.837209302326,4,1,0,85,1,9
210852,-111.111111111111,4,1,0,85,0,1
211026,-111.111111111111,4,1,0,85,0,0
211375,361.44578313253,4,1,0,85,1,0
211375,-111.111111111111,4,1,0,85,0,0
211736,-111.111111111111,4,1,0,85,0,0
211917,-111.111111111111,4,1,0,85,0,0
212097,-111.111111111111,4,1,0,85,0,0
212278,-111.111111111111,4,1,0,85,0,0
212459,-111.111111111111,4,1,0,85,0,0
212820,389.61038961039,4,1,0,85,1,0
212820,-111.111111111111,4,1,0,85,0,0
213209,-111.111111111111,4,1,0,85,0,0
213404,-111.111111111111,4,1,0,85,0,0
213599,408.163265306122,4,1,0,85,1,8
213599,-111.111111111111,4,1,0,85,0,0
214007,-111.111111111111,4,1,0,85,0,0
214415,444.444444444444,4,1,0,85,1,0
214415,-111.111111111111,4,1,0,85,0,0
214859,-111.111111111111,4,1,0,85,0,0
215081,-111.111111111111,4,1,0,85,0,0
215303,476.190476190476,4,1,0,85,1,8
215303,-111.111111111111,4,1,0,85,0,0
215779,517.241379310345,4,1,0,85,1,8
215779,-111.111111111111,4,1,0,85,0,0
216296,571.428571428571,4,1,0,85,1,0
216296,-111.111111111111,4,1,0,85,0,0
216867,714.285714285714,4,1,0,85,1,8
216867,-105.263157894737,4,1,0,85,0,0
217581,-111.111111111111,4,1,0,85,0,0
217759,-111.111111111111,4,1,0,58,0,0

[HitObjects]
256,192,680,5,8,0:0:0:0:
256,192,980,1,0,0:0:0:0:
256,192,1280,1,12,0:0:0:0:
256,192,1580,1,0,0:0:0:0:
256,192,1730,1,8,0:0:0:0:
256,192,2030,1,0,0:0:0:0:
256,192,2180,1,12,0:0:0:0:
256,192,2480,1,0,0:0:0:0:
256,192,2780,1,12,0:0:0:0:
256,192,3080,1,12,0:0:0:0:
256,192,3680,1,12,0:0:0:0:
256,192,3980,1,0,0:0:0:0:
256,192,4130,1,8,0:0:0:0:
256,192,4430,1,0,0:0:0:0:
256,192,4580,1,12,0:0:0:0:
256,192,4880,1,0,0:0:0:0:
256,192,5030,1,0,0:0:0:0:
256,192,5180,1,12,0:0:0:0:
256,192,5480,1,12,0:0:0:0:
256,192,6080,1,4,0:0:0:0:
256,192,6530,1,0,0:0:0:0:
256,192,6680,1,8,0:0:0:0:
256,192,7130,1,8,0:0:0:0:
256,192,7430,1,0,0:0:0:0:
256,192,7730,1,0,0:0:0:0:
256,192,7880,1,8,0:0:0:0:
256,192,8480,1,0,0:0:0:0:
256,192,9080,1,8,0:0:0:0:
256,192,9530,1,0,0:0:0:0:
256,192,9830,1,0,0:0:0:0:
256,192,10130,1,0,0:0:0:0:
256,192,10280,1,8,0:0:0:0:
256,192,10580,1,0,0:0:0:0:
256,192,10880,1,12,0:0:0:0:
256,192,11180,1,0,0:0:0:0:
256,192,11330,1,8,0:0:0:0:
256,192,11630,1,0,0:0:0:0:
256,192,11780,1,12,0:0:0:0:
256,192,12080,1,0,0:0:0:0:
256,192,12230,1,0,0:0:0:0:
256,192,12380,1,12,0:0:0:0:
256,192,12680,1,12,0:0:0:0:
256,192,13280,1,12,0:0:0:0:
256,192,13580,1,0,0:0:0:0:
256,192,13730,1,8,0:0:0:0:
256,192,14030,1,0,0:0:0:0:
256,192,14180,1,12,0:0:0:0:
256,192,14480,1,8,0:0:0:0:
256,192,14630,1,8,0:0:0:0:
256,192,14780,1,0,0:0:0:0:
256,192,14930,1,0,0:0:0:0:
256,192,15080,1,8,0:0:0:0:
256,192,15380,1,0,0:0:0:0:
256,192,15680,1,8,0:0:0:0:
256,192,20480,1,4,0:0:0:0:
256,192,20780,1,0,0:0:0:0:
256,192,21080,1,0,0:0:0:0:
256,192,21680,1,0,0:0:0:0:
256,192,22280,1,0,0:0:0:0:
256,192,22880,1,0,0:0:0:0:
256,192,23180,1,0,0:0:0:0:
256,192,23480,1,0,0:0:0:0:
256,192,24080,1,4,0:0:0:0:
256,192,24380,1,8,0:0:0:0:
256,192,24680,1,0,0:0:0:0:
256,192,24830,1,8,0:0:0:0:
256,192,24980,1,0,0:0:0:0:
256,192,25280,1,12,0:0:0:0:
256,192,25730,1,0,0:0:0:0:
256,192,25880,1,8,0:0:0:0:
256,192,26180,1,8,0:0:0:0:
256,192,26480,1,0,0:0:0:0:
256,192,26780,1,8,0:0:0:0:
256,192,26930,1,0,0:0:0:0:
256,192,27080,1,8,0:0:0:0:
256,192,27680,1,8,0:0:0:0:
256,192,28130,1,8,0:0:0:0:
256,192,28280,1,0,0:0:0:0:
256,192,28580,1,0,0:0:0:0:
256,192,28880,1,8,0:0:0:0:
256,192,29180,1,0,0:0:0:0:
256,192,29330,1,0,0:0:0:0:
256,192,29480,1,8,0:0:0:0:
256,192,30080,1,12,0:0:0:0:
256,192,30530,1,0,0:0:0:0:
256,192,30680,1,8,0:0:0:0:
256,192,30980,1,0,0:0:0:0:
256,192,31280,1,8,0:0:0:0:
256,192,31430,1,8,0:0:0:0:
256,192,31580,1,0,0:0:0:0:
256,192,31880,1,8,0:0:0:0:
256,192,32180,1,0,0:0:0:0:
256,192,32480,1,8,0:0:0:0:
256,192,32930,1,0,0:0:0:0:
256,192,33080,1,8,0:0:0:0:
256,192,33380,1,8,0:0:0:0:
256,192,33680,1,4,0:0:0:0:
256,192,33980,1,4,0:0:0:0:
256,192,34280,1,8,0:0:0:0:
256,192,34880,1,4,0:0:0:0:
256,192,35180,1,0,0:0:0:0:
256,192,35330,1,12,0:0:0:0:
256,192,35630,1,0,0:0:0:0:
256,192,35930,1,12,0:0:0:0:
256,192,36230,1,8,0:0:0:0:
256,192,36530,1,4,0:0:0:0:
256,192,36980,1,8,0:0:0:0:
256,192,37280,1,4,0:0:0:0:
256,192,37580,1,0,0:0:0:0:
256,192,37730,1,12,0:0:0:0:
256,192,38030,1,8,0:0:0:0:
256,192,38330,1,4,0:0:0:0:
256,192,38630,1,8,0:0:0:0:
256,192,38780,1,8,0:0:0:0:
256,192,38930,1,0,0:0:0:0:
256,192,39680,1,8,0:0:0:0:
256,192,39980,1,8,0:0:0:0:
256,192,40280,1,0,0:0:0:0:
256,192,40580,1,0,0:0:0:0:
256,192,40880,1,8,0:0:0:0:
256,192,41180,1,0,0:0:0:0:
256,192,41480,1,8,0:0:0:0:
256,192,41780,1,0,0:0:0:0:
256,192,41930,1,0,0:0:0:0:
256,192,42080,1,12,0:0:0:0:
256,192,42530,1,8,0:0:0:0:
256,192,42830,1,8,0:0:0:0:
256,192,43130,1,0,0:0:0:0:
256,192,43280,1,8,0:0:0:0:
256,192,43580,1,8,0:0:0:0:
256,192,43880,1,0,0:0:0:0:
256,192,44030,1,8,0:0:0:0:
256,192,44330,1,0,0:0:0:0:
256,192,44480,1,8,0:0:0:0:
256,192,44780,1,8,0:0:0:0:
256,192,45080,1,8,0:0:0:0:
256,192,45230,1,8,0:0:0:0:
256,192,45530,1,4,0:0:0:0:
256,192,45980,1,0,0:0:0:0:
256,192,46280,1,8,0:0:0:0:
256,192,46580,1,0,0:0:0:0:
256,192,46730,1,12,0:0:0:0:
256,192,47030,1,8,0:0:0:0:
256,192,47180,1,0,0:0:0:0:
256,192,47480,1,8,0:0:0:0:
256,192,47930,1,12,0:0:0:0:
256,192,48230,1,0,0:0:0:0:
256,192,48380,1,8,0:0:0:0:
256,192,48680,1,8,0:0:0:0:
256,192,48830,1,8,0:0:0:0:
256,192,48980,1,0,0:0:0:0:
256,192,49130,1,12,0:0:0:0:
256,192,49430,1,0,0:0:0:0:
256,192,49730,1,8,0:0:0:0:
256,192,50330,1,4,0:0:0:0:
256,192,50780,1,0,0:0:0:0:
256,192,51080,1,8,0:0:0:0:
256,192,51380,1,0,0:0:0:0:
256,192,51530,1,12,0:0:0:0:
256,192,51830,1,8,0:0:0:0:
256,192,51980,1,0,0:0:0:0:
256,192,52280,1,8,0:0:0:0:
256,192,52730,1,4,0:0:0:0:
256,192,53030,1,8,0:0:0:0:
256,192,53330,1,4,0:0:0:0:
256,192,53630,1,0,0:0:0:0:
256,192,53930,1,12,0:0:0:0:
256,192,54230,1,8,0:0:0:0:
256,192,54530,1,4,0:0:0:0:
256,192,55130,1,4,0:0:0:0:
256,192,55580,1,0,0:0:0:0:
256,192,55880,1,8,0:0:0:0:
256,192,56180,1,0,0:0:0:0:
256,192,56330,1,12,0:0:0:0:
256,192,56630,1,8,0:0:0:0:
256,192,56780,1,0,0:0:0:0:
256,192,57080,1,8,0:0:0:0:
256,192,57530,1,12,0:0:0:0:
256,192,57830,1,0,0:0:0:0:
256,192,57980,1,8,0:0:0:0:
256,192,58280,1,8,0:0:0:0:
256,192,58430,1,8,0:0:0:0:
256,192,58580,1,0,0:0:0:0:
256,192,58730,1,12,0:0:0:0:
256,192,59030,1,0,0:0:0:0:
256,192,59330,1,8,0:0:0:0:
256,192,59930,1,4,0:0:0:0:
256,192,60380,1,0,0:0:0:0:
256,192,60680,1,8,0:0:0:0:
256,192,60980,1,8,0:0:0:0:
256,192,61130,1,12,0:0:0:0:
256,192,61430,1,0,0:0:0:0:
256,192,61580,1,8,0:0:0:0:
256,192,61880,1,0,0:0:0:0:
256,192,62330,1,8,0:0:0:0:
256,192,62630,1,0,0:0:0:0:
256,192,62780,1,8,0:0:0:0:
256,192,63080,1,8,0:0:0:0:
256,192,63230,1,8,0:0:0:0:
256,192,63380,1,0,0:0:0:0:
256,192,63680,1,8,0:0:0:0:
256,192,63980,1,0,0:0:0:0:
256,192,64130,1,0,0:0:0:0:
256,192,64280,1,8,0:0:0:0:
256,192,64430,1,8,0:0:0:0:
256,192,64580,1,8,0:0:0:0:
256,192,64880,1,4,0:0:0:0:
256,192,66680,1,8,0:0:0:0:
256,192,66980,1,8,0:0:0:0:
256,192,67280,1,0,0:0:0:0:
256,192,67580,1,0,0:0:0:0:
256,192,67880,1,8,0:0:0:0:
256,192,68330,1,0,0:0:0:0:
256,192,68630,1,0,0:0:0:0:
256,192,69080,1,8,0:0:0:0:
256,192,69380,1,0,0:0:0:0:
256,192,69680,1,12,0:0:0:0:
256,192,69980,1,0,0:0:0:0:
256,192,70130,1,8,0:0:0:0:
256,192,70430,1,0,0:0:0:0:
256,192,70580,1,12,0:0:0:0:
256,192,70880,1,0,0:0:0:0:
256,192,71180,1,12,0:0:0:0:
256,192,71480,1,12,0:0:0:0:
256,192,72080,1,12,0:0:0:0:
256,192,72380,1,0,0:0:0:0:
256,192,72530,1,8,0:0:0:0:
256,192,72830,1,0,0:0:0:0:
256,192,72980,1,12,0:0:0:0:
256,192,73280,1,0,0:0:0:0:
256,192,73430,1,0,0:0:0:0:
256,192,73580,1,12,0:0:0:0:
256,192,73880,1,12,0:0:0:0:
256,192,74480,1,4,0:0:0:0:
256,192,74930,1,0,0:0:0:0:
256,192,75080,1,8,0:0:0:0:
256,192,75530,1,8,0:0:0:0:
256,192,75830,1,0,0:0:0:0:
256,192,76130,1,0,0:0:0:0:
256,192,76280,1,8,0:0:0:0:
256,192,76880,1,0,0:0:0:0:
256,192,77480,1,8,0:0:0:0:
256,192,77930,1,0,0:0:0:0:
256,192,78230,1,0,0:0:0:0:
256,192,78530,1,0,0:0:0:0:
256,192,78680,1,8,0:0:0:0:
256,192,78980,1,0,0:0:0:0:
256,192,79280,1,12,0:0:0:0:
256,192,79580,1,0,0:0:0:0:
256,192,79730,1,8,0:0:0:0:
256,192,80030,1,0,0:0:0:0:
256,192,80180,1,12,0:0:0:0:
256,192,80480,1,0,0:0:0:0:
256,192,80630,1,0,0:0:0:0:
256,192,80780,1,12,0:0:0:0:
256,192,81080,1,12,0:0:0:0:
256,192,81680,1,12,0:0:0:0:
256,192,81980,1,0,0:0:0:0:
256,192,82130,1,8,0:0:0:0:
256,192,82430,1,0,0:0:0:0:
256,192,82580,1,12,0:0:0:0:
256,192,82880,1,8,0:0:0:0:
256,192,83030,1,8,0:0:0:0:
256,192,83180,1,0,0:0:0:0:
256,192,83330,1,0,0:0:0:0:
256,192,83480,1,8,0:0:0:0:
256,192,83780,1,0,0:0:0:0:
256,192,84080,1,4,0:0:0:0:
256,192,84680,1,0,0:0:0:0:
256,192,85280,1,0,0:0:0:0:
256,192,85580,1,0,0:0:0:0:
256,192,85880,1,0,0:0:0:0:
256,192,86480,1,0,0:0:0:0:
256,192,87080,1,0,0:0:0:0:
256,192,87680,1,4,0:0:0:0:
256,192,87980,1,8,0:0:0:0:
256,192,88130,1,8,0:0:0:0:
256,192,88280,1,0,0:0:0:0:
256,192,88430,1,0,0:0:0:0:
256,192,88580,1,0,0:0:0:0:
256,192,88880,1,12,0:0:0:0:
256,192,89330,1,0,0:0:0:0:
256,192,89480,1,8,0:0:0:0:
256,192,89780,1,8,0:0:0:0:
256,192,90080,1,0,0:0:0:0:
256,192,90380,1,0,0:0:0:0:
256,192,90680,1,8,0:0:0:0:
256,192,91280,1,8,0:0:0:0:
256,192,91580,1,0,0:0:0:0:
256,192,91730,1,0,0:0:0:0:
256,192,91880,1,8,0:0:0:0:
256,192,92180,1,8,0:0:0:0:
256,192,92480,1,4,0:0:0:0:
256,192,92780,1,4,0:0:0:0:
256,192,93080,1,8,0:0:0:0:
256,192,93680,1,4,0:0:0:0:
256,192,93980,1,0,0:0:0:0:
256,192,94130,1,12,0:0:0:0:
256,192,94430,1,0,0:0:0:0:
256,192,94730,1,12,0:0:0:0:
256,192,95030,1,8,0:0:0:0:
256,192,95330,1,4,0:0:0:0:
256,192,95780,1,8,0:0:0:0:
256,192,96080,1,4,0:0:0:0:
256,192,96380,1,0,0:0:0:0:
256,192,96530,1,12,0:0:0:0:
256,192,96830,1,8,0:0:0:0:
256,192,97130,1,4,0:0:0:0:
256,192,97430,1,8,0:0:0:0:
256,192,97580,1,8,0:0:0:0:
256,192,97730,1,0,0:0:0:0:
256,192,98480,1,8,0:0:0:0:
256,192,98780,1,8,0:0:0:0:
256,192,99080,1,0,0:0:0:0:
256,192,99380,1,0,0:0:0:0:
256,192,99680,1,8,0:0:0:0:
256,192,99980,1,0,0:0:0:0:
256,192,100280,1,8,0:0:0:0:
256,192,100580,1,0,0:0:0:0:
256,192,100730,1,0,0:0:0:0:
256,192,100880,1,12,0:0:0:0:
256,192,101330,1,0,0:0:0:0:
256,192,101630,1,0,0:0:0:0:
256,192,101930,1,0,0:0:0:0:
256,192,102080,1,8,0:0:0:0:
256,192,102380,1,0,0:0:0:0:
256,192,102530,1,8,0:0:0:0:
256,192,102830,1,0,0:0:0:0:
256,192,102980,1,8,0:0:0:0:
256,192,103130,1,8,0:0:0:0:
256,192,103280,1,0,0:0:0:0:
256,192,103580,1,8,0:0:0:0:
256,192,103730,1,0,0:0:0:0:
256,192,104330,1,4,0:0:0:0:
256,192,104780,1,0,0:0:0:0:
256,192,105080,1,8,0:0:0:0:
256,192,105380,1,0,0:0:0:0:
256,192,105530,1,12,0:0:0:0:
256,192,105830,1,8,0:0:0:0:
256,192,105980,1,0,0:0:0:0:
256,192,106280,1,8,0:0:0:0:
256,192,106730,1,12,0:0:0:0:
256,192,107030,1,0,0:0:0:0:
256,192,107180,1,8,0:0:0:0:
256,192,107480,1,8,0:0:0:0:
256,192,107630,1,8,0:0:0:0:
256,192,107780,1,0,0:0:0:0:
256,192,107930,1,12,0:0:0:0:
256,192,108230,1,0,0:0:0:0:
256,192,108530,1,8,0:0:0:0:
256,192,109130,1,4,0:0:0:0:
256,192,109580,1,0,0:0:0:0:
256,192,109880,1,8,0:0:0:0:
256,192,110180,1,0,0:0:0:0:
256,192,110330,1,12,0:0:0:0:
256,192,110630,1,8,0:0:0:0:
256,192,110780,1,0,0:0:0:0:
256,192,111080,1,8,0:0:0:0:
256,192,111530,1,4,0:0:0:0:
256,192,111980,1,8,0:0:0:0:
256,192,112130,1,4,0:0:0:0:
256,192,112580,1,0,0:0:0:0:
256,192,112730,1,12,0:0:0:0:
256,192,113030,1,8,0:0:0:0:
256,192,113330,1,4,0:0:0:0:
256,192,113930,1,4,0:0:0:0:
256,192,114380,1,0,0:0:0:0:
256,192,114680,1,8,0:0:0:0:
256,192,114980,1,0,0:0:0:0:
256,192,115130,1,12,0:0:0:0:
256,192,115430,1,8,0:0:0:0:
256,192,115580,1,0,0:0:0:0:
256,192,115880,1,8,0:0:0:0:
256,192,116330,1,12,0:0:0:0:
256,192,116630,1,0,0:0:0:0:
256,192,116780,1,8,0:0:0:0:
256,192,117080,1,8,0:0:0:0:
256,192,117230,1,8,0:0:0:0:
256,192,117380,1,0,0:0:0:0:
256,192,117530,1,12,0:0:0:0:
256,192,117830,1,0,0:0:0:0:
256,192,118130,1,8,0:0:0:0:
256,192,118730,1,4,0:0:0:0:
256,192,119180,1,0,0:0:0:0:
256,192,119480,1,8,0:0:0:0:
256,192,119780,1,8,0:0:0:0:
256,192,119930,1,12,0:0:0:0:
256,192,120230,1,0,0:0:0:0:
256,192,120380,1,8,0:0:0:0:
256,192,120680,1,0,0:0:0:0:
256,192,121130,1,8,0:0:0:0:
256,192,121430,1,0,0:0:0:0:
256,192,121580,1,8,0:0:0:0:
256,192,121880,1,8,0:0:0:0:
256,192,122030,1,8,0:0:0:0:
256,192,122180,1,0,0:0:0:0:
256,192,122480,1,8,0:0:0:0:
256,192,122780,1,0,0:0:0:0:
256,192,122930,1,0,0:0:0:0:
256,192,123080,1,8,0:0:0:0:
256,192,123230,1,8,0:0:0:0:
256,192,123380,1,8,0:0:0:0:
256,192,123680,1,4,0:0:0:0:
256,192,124280,5,0,0:0:0:0:
256,192,124580,1,8,0:0:0:0:
256,192,124880,1,0,0:0:0:0:
256,192,125180,1,0,0:0:0:0:
256,192,125480,1,8,0:0:0:0:
256,192,126080,1,0,0:0:0:0:
256,192,126380,1,8,0:0:0:0:
256,192,126530,1,8,0:0:0:0:
256,192,126680,1,0,0:0:0:0:
256,192,126980,1,8,0:0:0:0:
256,192,127280,1,8,0:0:0:0:
256,192,127880,1,0,0:0:0:0:
256,192,128180,1,8,0:0:0:0:
256,192,128780,1,0,0:0:0:0:
256,192,129080,1,8,0:0:0:0:
256,192,129380,1,0,0:0:0:0:
256,192,129530,1,0,0:0:0:0:
256,192,129680,1,8,0:0:0:0:
256,192,129830,1,0,0:0:0:0:
256,192,129980,1,8,0:0:0:0:
256,192,130280,1,0,0:0:0:0:
256,192,130430,1,8,0:0:0:0:
256,192,130580,1,0,0:0:0:0:
256,192,130730,1,0,0:0:0:0:
256,192,130880,1,12,0:0:0:0:
256,192,131480,5,0,0:0:0:0:
256,192,131780,1,8,0:0:0:0:
256,192,132080,1,0,0:0:0:0:
256,192,132380,1,0,0:0:0:0:
256,192,132680,1,8,0:0:0:0:
256,192,133280,1,0,0:0:0:0:
256,192,133580,1,8,0:0:0:0:
256,192,133730,1,8,0:0:0:0:
256,192,133880,1,0,0:0:0:0:
256,192,134180,1,8,0:0:0:0:
256,192,134480,1,8,0:0:0:0:
256,192,135080,1,0,0:0:0:0:
256,192,135380,1,8,0:0:0:0:
256,192,135980,1,0,0:0:0:0:
256,192,136280,1,8,0:0:0:0:
256,192,136580,1,8,0:0:0:0:
256,192,136880,1,0,0:0:0:0:
256,192,137180,1,12,0:0:0:0:
256,192,137480,1,12,0:0:0:0:
256,192,137780,1,12,0:0:0:0:
256,192,138080,5,4,0:0:0:0:
256,192,138680,1,8,0:0:0:0:
256,192,138830,1,0,0:0:0:0:
256,192,139130,1,8,0:0:0:0:
256,192,139430,1,8,0:0:0:0:
256,192,139730,1,0,0:0:0:0:
256,192,139880,1,8,0:0:0:0:
256,192,140480,1,8,0:0:0:0:
256,192,140780,1,0,0:0:0:0:
256,192,141080,1,8,0:0:0:0:
256,192,141230,1,0,0:0:0:0:
256,192,141530,1,8,0:0:0:0:
256,192,141830,1,0,0:0:0:0:
256,192,142130,1,0,0:0:0:0:
256,192,142280,1,12,0:0:0:0:
256,192,142880,1,4,0:0:0:0:
256,192,143480,1,8,0:0:0:0:
256,192,143630,1,0,0:0:0:0:
256,192,143930,1,8,0:0:0:0:
256,192,144230,1,0,0:0:0:0:
256,192,144530,1,0,0:0:0:0:
256,192,144680,1,8,0:0:0:0:
256,192,144980,1,0,0:0:0:0:
256,192,145280,1,8,0:0:0:0:
256,192,145880,1,8,0:0:0:0:
256,192,146030,1,0,0:0:0:0:
256,192,146330,1,8,0:0:0:0:
256,192,146630,1,8,0:0:0:0:
256,192,146930,1,0,0:0:0:0:
256,192,147080,1,8,0:0:0:0:
256,192,147680,1,12,0:0:0:0:
256,192,147980,1,0,0:0:0:0:
256,192,148130,1,8,0:0:0:0:
256,192,148430,1,0,0:0:0:0:
256,192,148580,1,12,0:0:0:0:
256,192,148880,1,0,0:0:0:0:
256,192,149180,1,12,0:0:0:0:
256,192,149480,1,12,0:0:0:0:
256,192,150080,1,12,0:0:0:0:
256,192,150380,1,0,0:0:0:0:
256,192,150530,1,8,0:0:0:0:
256,192,150830,1,0,0:0:0:0:
256,192,150980,1,12,0:0:0:0:
256,192,151280,1,0,0:0:0:0:
256,192,151430,1,0,0:0:0:0:
256,192,151580,1,12,0:0:0:0:
256,192,151880,1,12,0:0:0:0:
256,192,152480,1,4,0:0:0:0:
256,192,152930,1,0,0:0:0:0:
256,192,153080,1,8,0:0:0:0:
256,192,153530,1,8,0:0:0:0:
256,192,153830,1,0,0:0:0:0:
256,192,154130,1,0,0:0:0:0:
256,192,154280,1,8,0:0:0:0:
256,192,154880,1,0,0:0:0:0:
256,192,155480,1,8,0:0:0:0:
256,192,155930,1,0,0:0:0:0:
256,192,156230,1,0,0:0:0:0:
256,192,156530,1,0,0:0:0:0:
256,192,156680,1,8,0:0:0:0:
256,192,156980,1,0,0:0:0:0:
256,192,157280,1,12,0:0:0:0:
256,192,157580,1,0,0:0:0:0:
256,192,157730,1,8,0:0:0:0:
256,192,158030,1,0,0:0:0:0:
256,192,158180,1,12,0:0:0:0:
256,192,158480,1,0,0:0:0:0:
256,192,158630,1,0,0:0:0:0:
256,192,158780,1,12,0:0:0:0:
256,192,159080,1,12,0:0:0:0:
256,192,159680,1,12,0:0:0:0:
256,192,159980,1,0,0:0:0:0:
256,192,160130,1,8,0:0:0:0:
256,192,160430,1,0,0:0:0:0:
256,192,160580,1,12,0:0:0:0:
256,192,160880,1,8,0:0:0:0:
256,192,161030,1,8,0:0:0:0:
256,192,161180,1,0,0:0:0:0:
256,192,161330,1,0,0:0:0:0:
256,192,161480,1,8,0:0:0:0:
256,192,162080,1,4,0:0:0:0:
256,192,162380,1,0,0:0:0:0:
256,192,162530,1,12,0:0:0:0:
256,192,162830,1,0,0:0:0:0:
256,192,163130,1,12,0:0:0:0:
256,192,163430,1,8,0:0:0:0:
256,192,163730,1,4,0:0:0:0:
256,192,164180,1,8,0:0:0:0:
256,192,164480,1,4,0:0:0:0:
256,192,164780,1,0,0:0:0:0:
256,192,164930,1,12,0:0:0:0:
256,192,165230,1,8,0:0:0:0:
256,192,165530,1,4,0:0:0:0:
256,192,165830,1,8,0:0:0:0:
256,192,165980,1,8,0:0:0:0:
256,192,166130,1,0,0:0:0:0:
256,192,166880,1,8,0:0:0:0:
256,192,167180,1,8,0:0:0:0:
256,192,167480,1,0,0:0:0:0:
256,192,167780,1,0,0:0:0:0:
256,192,168080,1,8,0:0:0:0:
256,192,168380,1,0,0:0:0:0:
256,192,168680,1,8,0:0:0:0:
256,192,168980,1,0,0:0:0:0:
256,192,169130,1,0,0:0:0:0:
256,192,169280,1,12,0:0:0:0:
256,192,169730,1,0,0:0:0:0:
256,192,170030,1,0,0:0:0:0:
256,192,170330,1,0,0:0:0:0:
256,192,170480,1,12,0:0:0:0:
256,192,171680,1,0,0:0:0:0:
256,192,171980,1,0,0:0:0:0:
256,192,172280,1,8,0:0:0:0:
256,192,172430,1,8,0:0:0:0:
256,192,172730,1,4,0:0:0:0:
256,192,173180,1,0,0:0:0:0:
256,192,173480,1,8,0:0:0:0:
256,192,173780,1,0,0:0:0:0:
256,192,173930,1,12,0:0:0:0:
256,192,174230,1,8,0:0:0:0:
256,192,174380,1,0,0:0:0:0:
256,192,174680,1,8,0:0:0:0:
256,192,175130,1,12,0:0:0:0:
256,192,175430,1,0,0:0:0:0:
256,192,175580,1,8,0:0:0:0:
256,192,175880,1,8,0:0:0:0:
256,192,176030,1,8,0:0:0:0:
256,192,176180,1,0,0:0:0:0:
256,192,176330,1,12,0:0:0:0:
256,192,176630,1,0,0:0:0:0:
256,192,176930,1,8,0:0:0:0:
256,192,177530,1,4,0:0:0:0:
256,192,177980,1,0,0:0:0:0:
256,192,178280,1,8,0:0:0:0:
256,192,178580,1,0,0:0:0:0:
256,192,178730,1,12,0:0:0:0:
256,192,179030,1,8,0:0:0:0:
256,192,179180,1,0,0:0:0:0:
256,192,179480,1,8,0:0:0:0:
256,192,179930,1,4,0:0:0:0:
256,192,180230,1,8,0:0:0:0:
256,192,180530,1,4,0:0:0:0:
256,192,180830,1,0,0:0:0:0:
256,192,181130,1,12,0:0:0:0:
256,192,181430,1,8,0:0:0:0:
256,192,181730,1,4,0:0:0:0:
256,192,182330,1,4,0:0:0:0:
256,192,182780,1,0,0:0:0:0:
256,192,183080,1,8,0:0:0:0:
256,192,183380,1,0,0:0:0:0:
256,192,183530,1,12,0:0:0:0:
256,192,183830,1,8,0:0:0:0:
256,192,183980,1,0,0:0:0:0:
256,192,184280,1,8,0:0:0:0:
256,192,184730,1,12,0:0:0:0:
256,192,185030,1,0,0:0:0:0:
256,192,185180,1,8,0:0:0:0:
256,192,185480,1,8,0:0:0:0:
256,192,185630,1,8,0:0:0:0:
256,192,185780,1,0,0:0:0:0:
256,192,185930,1,12,0:0:0:0:
256,192,186230,1,0,0:0:0:0:
256,192,186530,1,8,0:0:0:0:
256,192,187130,1,4,0:0:0:0:
256,192,187580,1,0,0:0:0:0:
256,192,187880,1,8,0:0:0:0:
256,192,188180,1,8,0:0:0:0:
256,192,188330,1,12,0:0:0:0:
256,192,188630,1,0,0:0:0:0:
256,192,188780,1,8,0:0:0:0:
256,192,189080,1,0,0:0:0:0:
256,192,189530,1,8,0:0:0:0:
256,192,189830,1,0,0:0:0:0:
256,192,189980,1,8,0:0:0:0:
256,192,190280,1,8,0:0:0:0:
256,192,190430,1,8,0:0:0:0:
256,192,190580,1,0,0:0:0:0:
256,192,190880,1,8,0:0:0:0:
256,192,191180,1,0,0:0:0:0:
256,192,191330,1,0,0:0:0:0:
256,192,191480,1,8,0:0:0:0:
256,192,191630,1,8,0:0:0:0:
256,192,192380,5,12,0:0:0:0:
256,192,192680,1,0,0:0:0:0:
256,192,192980,1,0,0:0:0:0:
256,192,193130,1,8,0:0:0:0:
256,192,193430,1,0,0:0:0:0:
256,192,193580,1,8,0:0:0:0:
256,192,193880,1,0,0:0:0:0:
256,192,194780,1,8,0:0:0:0:
256,192,195080,1,8,0:0:0:0:
256,192,195230,1,0,0:0:0:0:
256,192,195380,1,8,0:0:0:0:
256,192,195680,1,0,0:0:0:0:
256,192,195980,1,8,0:0:0:0:
256,192,196280,1,8,0:0:0:0:
256,192,196430,1,8,0:0:0:0:
256,192,196730,1,4,0:0:0:0:
256,192,197180,1,0,0:0:0:0:
256,192,197480,1,8,0:0:0:0:
256,192,197630,1,0,0:0:0:0:
256,192,197930,1,8,0:0:0:0:
256,192,198230,1,0,0:0:0:0:
256,192,198380,1,8,0:0:0:0:
256,192,198680,1,0,0:0:0:0:
256,192,199130,1,12,0:0:0:0:
256,192,199430,1,0,0:0:0:0:
256,192,199730,1,12,0:0:0:0:
256,192,200030,1,0,0:0:0:0:
256,192,200330,1,12,0:0:0:0:
256,192,200630,1,8,0:0:0:0:
256,192,200930,1,4,0:0:0:0:
256,192,201530,1,4,0:0:0:0:
256,192,201980,5,8,0:0:0:0:
256,192,202280,1,0,0:0:0:0:
256,192,202580,1,0,0:0:0:0:
256,192,202730,1,8,0:0:0:0:
256,192,203030,1,0,0:0:0:0:
256,192,203180,1,8,0:0:0:0:
256,192,203480,1,0,0:0:0:0:
256,192,204380,1,8,0:0:0:0:
256,192,204680,1,8,0:0:0:0:
256,192,204830,1,0,0:0:0:0:
256,192,204980,1,8,0:0:0:0:
256,192,205280,1,0,0:0:0:0:
256,192,205580,1,8,0:0:0:0:
256,192,205880,1,8,0:0:0:0:
256,192,206030,1,8,0:0:0:0:
256,192,206330,1,4,0:0:0:0:
256,192,206780,1,0,0:0:0:0:
256,192,207080,1,8,0:0:0:0:
256,192,207230,1,0,0:0:0:0:
256,192,207530,1,8,0:0:0:0:
256,192,207830,1,0,0:0:0:0:
256,192,207980,1,8,0:0:0:0:
256,192,208280,1,0,0:0:0:0:
256,192,208730,1,12,0:0:0:0:
256,192,209030,1,0,0:0:0:0:
256,192,209330,1,12,0:0:0:0:
256,192,209630,1,0,0:0:0:0:
256,192,209930,1,12,0:0:0:0:
256,192,210230,1,8,0:0:0:0:
256,192,210530,5,4,0:0:0:0:
256,192,211026,1,8,0:0:0:0:
256,192,211375,1,0,0:0:0:0:
256,192,211736,1,8,0:0:0:0:
256,192,212097,1,0,0:0:0:0:
256,192,212820,1,8,0:0:0:0:
256,192,213209,1,8,0:0:0:0:
256,192,213599,1,0,0:0:0:0:
256,192,214415,1,0,0:0:0:0:
256,192,214859,1,8,0:0:0:0:
256,192,215303,1,8,0:0:0:0:
256,192,215779,1,0,0:0:0:0:
256,192,216296,1,8,0:0:0:0:
256,192,216867,1,8,0:0:0:0:
256,192,217581,1,0,0:0:0:0:
256,192,217759,12,0,221152,0:0:0:0:
