osu file format v14

[General]
AudioFilename: audio.mp3
AudioLeadIn: 0
PreviewTime: 199134
Countdown: 0
SampleSet: Normal
StackLeniency: 0.7
Mode: 1
LetterboxInBreaks: 0
WidescreenStoryboard: 1

[Editor]
DistanceSpacing: 1.2
BeatDivisor: 2
GridSize: 32
TimelineZoom: 1.599999

[Metadata]
Title:Yogoto no Yami no Okusoko de
TitleUnicode:夜ごとの闇の奥底で
Artist:UNDEAD CORPORATION
ArtistUnicode:UNDEAD CORPORATION
Creator:mati-bmp
Version:Sen's Muzukashii
Source:東方紅魔郷 ~ the Embodiment of Scarlet Devil.
Tags:argentina mapping contest o!tamc otamc #3 3rd place featured artist fa metal japanese めらみぽっぷ Meramipop TOHO COMPLETE BOX 鬼 -ONI- 紅染の鬼が哭く Benizome Beni some no Oni ga Naku The Scarlet-Dyed Oni Howls Comiket 82 85 c82 c85 touhou koumakyou scarlet devil land th6 th06 6 06 team shanghai alice ZUN 東方project 東方プロジェクト project stage 1 one boss theme ルーミア Rumia 妖魔夜行 Youma Yakou Apparitions Stalk the Night ~ SenSenko Every night in the depths of darkness
BeatmapID:4481279
BeatmapSetID:1972745

[Difficulty]
HPDrainRate:5.5
CircleSize:5
OverallDifficulty:4.5
ApproachRate:5
SliderMultiplier:1.4
SliderTickRate:1

[Events]
//Background and Video events
0,0,"bgundeadcorp1.jpg",0,50
//Break Periods
//Storyboard Layer 0 (Background)
//Storyboard Layer 1 (Fail)
//Storyboard Layer 2 (Pass)
//Storyboard Layer 3 (Foreground)
//Storyboard Layer 4 (Overlay)
//Storyboard Sound Samples

[TimingPoints]
134,250,4,1,0,50,1,0
134,-109.89010989011,4,1,0,50,0,0
3134,250,4,1,0,50,1,0
3134,-109.89010989011,4,1,0,50,0,0
7131,-109.89010989011,4,1,0,90,0,0
10256,-109.89010989011,4,1,0,90,0,0
11131,-109.89010989011,4,1,0,50,0,0
14131,-109.89010989011,4,1,0,90,0,0
35131,-109.89010989011,4,1,0,70,0,0
39131,-109.89010989011,4,1,0,90,0,0
43131,-109.89010989011,4,1,0,70,0,0
46131,-109.89010989011,4,1,0,90,0,0
67131,-109.89010989011,4,1,0,70,0,0
69134,500,4,1,0,90,1,1
69134,-63.6942675159236,4,1,0,90,0,1
87134,-63.6942675159236,4,1,0,90,0,0
89134,250,4,1,0,90,1,0
89134,-109.89010989011,4,1,0,90,0,0
97131,-109.89010989011,4,1,0,70,0,0
100631,-109.89010989011,4,1,0,90,0,0
105131,-109.89010989011,4,1,0,70,0,0
108131,-109.89010989011,4,1,0,90,0,0
129134,500,4,1,0,90,1,1
129134,-63.6942675159236,4,1,0,90,0,1
147134,-63.6942675159236,4,1,0,90,0,0
148634,-63.6942675159236,4,1,0,90,0,0
149134,250,4,1,0,90,1,0
149134,-109.89010989011,4,1,0,90,0,0
165131,-109.89010989011,4,1,0,70,0,0
171256,-109.89010989011,4,1,0,90,0,0
173131,-109.89010989011,4,1,0,80,0,0
181131,-109.89010989011,4,1,0,70,0,0
196134,500,7,1,0,90,1,0
196134,-56.1797752808989,7,1,0,90,0,8
199634,500,4,1,0,60,1,0
199634,-63.6942675159236,4,1,0,60,0,0
201634,500,4,1,0,90,1,1
201634,-63.6942675159236,4,1,0,90,0,1
227634,-63.6942675159236,4,1,0,90,0,0
229634,250,4,1,0,90,1,0
229634,-109.89010989011,4,1,0,90,0,0

[HitObjects]
201,129,3134,5,8,0:0:0:0:
171,94,3634,1,0,0:0:0:0:
171,94,4134,1,8,0:0:0:0:
171,94,4634,1,0,0:0:0:0:
201,129,5134,1,8,0:0:0:0:
171,94,5634,1,0,0:0:0:0:
201,129,6134,1,0,0:0:0:0:
172,86,6384,1,8,0:0:0:0:
201,129,6634,1,0,0:0:0:0:
172,86,6884,1,0,0:0:0:0:
172,86,7134,1,12,0:0:0:0:
172,86,7509,1,4,0:0:0:0:
172,86,7884,1,12,0:0:0:0:
280,209,8384,1,0,0:0:0:0:
280,209,8634,1,0,0:0:0:0:
280,209,8759,1,8,0:0:0:0:
280,209,9009,1,0,0:0:0:0:
172,86,9134,1,12,0:0:0:0:
172,86,9509,1,4,0:0:0:0:
172,86,9884,1,12,0:0:0:0:
280,209,10259,1,0,0:0:0:0:
280,209,10384,1,0,0:0:0:0:
280,209,10634,1,8,0:0:0:0:
280,209,11134,1,8,0:0:0:0:
280,209,11634,1,0,0:0:0:0:
280,209,12134,1,8,0:0:0:0:
280,209,12384,1,0,0:0:0:0:
280,209,12634,1,8,0:0:0:0:
280,209,13134,1,0,0:0:0:0:
280,209,13634,1,8,0:0:0:0:
280,209,14134,1,0,0:0:0:0:
32,178,14196,1,0,0:0:0:0:
280,209,14259,1,0,0:0:0:0:
280,209,14384,1,8,0:0:0:0:
46,177,14509,1,8,0:0:0:0:
271,92,14634,1,0,0:0:0:0:
206,149,14759,1,0,0:0:0:0:
280,209,14884,1,12,0:0:0:0:
172,86,15134,5,12,0:0:0:0:
172,86,15509,1,4,0:0:0:0:
172,86,15884,1,12,0:0:0:0:
280,210,16384,1,8,0:0:0:0:
280,210,16634,1,0,0:0:0:0:
280,210,16759,1,12,0:0:0:0:
280,210,17009,1,0,0:0:0:0:
172,86,17134,1,12,0:0:0:0:
172,86,17509,1,4,0:0:0:0:
172,86,17884,1,12,0:0:0:0:
280,210,18259,1,0,0:0:0:0:
355,164,18384,1,0,0:0:0:0:
355,164,18446,1,0,0:0:0:0:
355,164,18509,1,0,0:0:0:0:
355,164,18634,1,8,0:0:0:0:
322,61,19134,1,12,0:0:0:0:
208,134,19384,1,8,0:0:0:0:
208,134,19634,1,8,0:0:0:0:
208,134,19759,1,0,0:0:0:0:
208,134,20009,1,0,0:0:0:0:
208,134,20134,1,8,0:0:0:0:
239,110,20259,1,0,0:0:0:0:
208,134,20509,1,8,0:0:0:0:
208,134,20634,1,8,0:0:0:0:
208,134,20759,1,8,0:0:0:0:
208,134,20884,1,0,0:0:0:0:
208,134,21134,1,8,0:0:0:0:
208,134,21384,1,0,0:0:0:0:
208,134,21634,1,8,0:0:0:0:
208,134,21759,1,0,0:0:0:0:
208,134,21884,1,0,0:0:0:0:
124,133,21946,1,0,0:0:0:0:
124,133,22009,1,0,0:0:0:0:
208,134,22134,1,8,0:0:0:0:
208,134,22384,1,8,0:0:0:0:
208,134,22634,1,8,0:0:0:0:
188,128,22884,1,8,0:0:0:0:
53,157,22967,1,8,0:0:0:0:
188,128,23050,1,8,0:0:0:0:
188,128,23134,1,8,0:0:0:0:
208,134,23384,1,8,0:0:0:0:
208,134,23634,1,0,0:0:0:0:
208,134,23759,1,8,0:0:0:0:
208,134,23884,1,0,0:0:0:0:
133,142,23946,1,0,0:0:0:0:
188,128,24009,1,0,0:0:0:0:
208,134,24134,1,8,0:0:0:0:
54,143,24259,1,0,0:0:0:0:
165,120,24509,1,0,0:0:0:0:
165,120,24634,1,8,0:0:0:0:
165,120,24759,1,0,0:0:0:0:
226,107,25134,1,8,0:0:0:0:
226,107,25384,1,0,0:0:0:0:
189,151,25634,1,8,0:0:0:0:
189,151,25759,1,0,0:0:0:0:
234,96,25884,1,8,0:0:0:0:
226,107,26009,1,0,0:0:0:0:
229,95,26071,1,0,0:0:0:0:
229,95,26134,1,0,0:0:0:0:
92,146,26259,1,8,0:0:0:0:
139,62,26509,1,8,0:0:0:0:
383,198,26634,1,8,0:0:0:0:
323,137,26884,1,0,0:0:0:0:
322,61,27134,1,12,0:0:0:0:
208,134,27384,1,8,0:0:0:0:
208,134,27634,1,8,0:0:0:0:
208,134,27759,1,8,0:0:0:0:
208,134,28009,1,0,0:0:0:0:
208,134,28134,1,8,0:0:0:0:
226,145,28259,1,0,0:0:0:0:
208,134,28509,1,8,0:0:0:0:
208,134,28634,1,0,0:0:0:0:
208,134,28759,1,8,0:0:0:0:
208,134,28884,1,0,0:0:0:0:
208,134,29134,1,8,0:0:0:0:
208,134,29384,1,0,0:0:0:0:
208,134,29634,1,8,0:0:0:0:
208,134,29759,1,8,0:0:0:0:
208,134,29884,1,0,0:0:0:0:
124,133,29946,1,0,0:0:0:0:
124,133,30009,1,0,0:0:0:0:
208,134,30134,1,8,0:0:0:0:
208,134,30384,1,8,0:0:0:0:
208,134,30634,1,8,0:0:0:0:
188,128,30884,1,0,0:0:0:0:
188,128,30967,1,0,0:0:0:0:
167,155,31050,1,0,0:0:0:0:
188,128,31134,1,0,0:0:0:0:
208,134,31384,1,8,0:0:0:0:
208,134,31634,1,0,0:0:0:0:
208,134,31759,1,8,0:0:0:0:
208,134,31884,1,0,0:0:0:0:
133,142,31946,1,0,0:0:0:0:
188,128,32009,1,0,0:0:0:0:
208,134,32134,1,8,0:0:0:0:
109,149,32384,1,12,0:0:0:0:
110,149,32634,1,12,0:0:0:0:
110,148,32884,1,12,0:0:0:0:
109,149,33134,1,4,0:0:0:0:
197,130,33634,1,8,0:0:0:0:
110,148,33759,1,8,0:0:0:0:
110,148,33884,1,0,0:0:0:0:
34,137,34009,1,8,0:0:0:0:
207,158,34259,1,0,0:0:0:0:
109,149,34384,1,8,0:0:0:0:
167,140,34509,1,8,0:0:0:0:
110,148,34634,1,0,0:0:0:0:
229,81,34884,1,8,0:0:0:0:
229,81,35134,1,4,0:0:0:0:
265,129,35634,1,8,0:0:0:0:
265,129,35884,1,0,0:0:0:0:
265,129,36134,1,8,0:0:0:0:
265,129,36384,1,0,0:0:0:0:
265,129,36509,1,8,0:0:0:0:
265,129,36634,1,0,0:0:0:0:
265,129,36884,1,8,0:0:0:0:
265,129,37134,1,0,0:0:0:0:
265,129,37634,1,0,0:0:0:0:
265,129,37884,1,0,0:0:0:0:
265,129,38134,1,8,0:0:0:0:
265,129,38259,1,8,0:0:0:0:
265,129,38384,1,0,0:0:0:0:
265,129,38634,1,8,0:0:0:0:
265,129,38884,1,0,0:0:0:0:
331,176,39134,5,12,0:0:0:0:
331,176,39509,1,4,0:0:0:0:
331,176,39884,1,12,0:0:0:0:
265,129,40384,1,0,0:0:0:0:
265,129,40634,1,8,0:0:0:0:
265,129,40759,1,4,0:0:0:0:
265,129,41009,1,0,0:0:0:0:
331,175,41134,1,12,0:0:0:0:
331,175,41509,1,4,0:0:0:0:
331,175,41884,1,12,0:0:0:0:
265,129,42259,1,0,0:0:0:0:
265,129,42384,1,0,0:0:0:0:
265,129,42634,1,8,0:0:0:0:
331,175,43134,1,12,0:0:0:0:
142,158,43634,1,0,0:0:0:0:
142,158,43884,1,8,0:0:0:0:
142,158,44134,1,0,0:0:0:0:
142,158,44384,1,0,0:0:0:0:
142,158,44509,1,8,0:0:0:0:
142,158,44634,1,8,0:0:0:0:
142,158,44884,1,0,0:0:0:0:
142,158,45134,1,8,0:0:0:0:
142,158,45634,1,8,0:0:0:0:
142,158,46134,1,0,0:0:0:0:
142,158,46196,1,0,0:0:0:0:
142,158,46259,1,0,0:0:0:0:
142,158,46384,1,8,0:0:0:0:
118,138,46509,1,8,0:0:0:0:
142,158,46634,1,0,0:0:0:0:
193,67,46759,1,0,0:0:0:0:
142,158,46884,1,8,0:0:0:0:
331,175,47134,1,12,0:0:0:0:
331,175,47509,1,4,0:0:0:0:
331,175,47884,1,12,0:0:0:0:
361,123,48384,1,8,0:0:0:0:
361,123,48634,1,0,0:0:0:0:
361,123,48759,1,12,0:0:0:0:
361,123,49009,1,0,0:0:0:0:
331,175,49134,1,12,0:0:0:0:
331,175,49509,1,4,0:0:0:0:
331,175,49884,1,12,0:0:0:0:
361,123,50259,1,0,0:0:0:0:
306,124,50384,1,8,0:0:0:0:
306,124,50509,1,0,0:0:0:0:
306,124,50634,1,8,0:0:0:0:
331,175,51134,1,8,0:0:0:0:
306,124,51384,1,8,0:0:0:0:
306,124,51509,1,0,0:0:0:0:
306,124,51634,1,8,0:0:0:0:
306,124,51884,1,0,0:0:0:0:
306,124,52009,1,8,0:0:0:0:
306,124,52384,1,0,0:0:0:0:
306,124,52509,1,0,0:0:0:0:
306,124,52634,1,8,0:0:0:0:
306,124,52884,1,8,0:0:0:0:
306,124,53134,1,0,0:0:0:0:
306,124,53384,1,8,0:0:0:0:
306,124,53509,1,0,0:0:0:0:
306,124,53634,1,8,0:0:0:0:
306,124,53884,1,0,0:0:0:0:
306,124,54009,1,8,0:0:0:0:
306,124,54384,1,0,0:0:0:0:
306,124,54634,1,12,0:0:0:0:
306,124,55134,1,0,0:0:0:0:
306,124,55384,1,8,0:0:0:0:
46,130,55509,1,0,0:0:0:0:
306,124,55634,1,8,0:0:0:0:
306,124,55884,1,0,0:0:0:0:
306,124,56009,1,0,0:0:0:0:
274,146,56384,1,0,0:0:0:0:
274,146,56509,1,0,0:0:0:0:
274,146,56634,1,12,0:0:0:0:
274,146,56884,1,0,0:0:0:0:
331,175,57134,5,12,0:0:0:0:
331,175,57384,1,12,0:0:0:0:
331,175,57634,1,12,0:0:0:0:
331,175,57884,1,12,0:0:0:0:
331,175,58134,1,12,0:0:0:0:
331,175,58634,1,12,0:0:0:0:
331,175,59134,1,0,0:0:0:0:
293,92,59384,1,0,0:0:0:0:
89,164,59509,1,0,0:0:0:0:
293,92,59634,1,8,0:0:0:0:
293,92,59884,1,0,0:0:0:0:
293,92,60009,1,8,0:0:0:0:
293,92,60384,1,0,0:0:0:0:
293,92,60509,1,8,0:0:0:0:
293,92,60634,1,8,0:0:0:0:
293,92,60884,1,0,0:0:0:0:
293,92,61009,1,8,0:0:0:0:
293,92,61134,1,0,0:0:0:0:
293,92,61384,1,8,0:0:0:0:
293,92,61634,1,0,0:0:0:0:
293,92,61884,1,0,0:0:0:0:
293,92,62009,1,8,0:0:0:0:
293,92,62384,1,0,0:0:0:0:
293,92,62634,1,8,0:0:0:0:
293,92,62884,1,0,0:0:0:0:
142,123,63009,1,0,0:0:0:0:
293,92,63134,1,8,0:0:0:0:
293,92,63384,1,8,0:0:0:0:
293,92,63509,1,0,0:0:0:0:
293,92,63634,1,8,0:0:0:0:
293,92,63884,1,0,0:0:0:0:
293,92,64134,1,0,0:0:0:0:
293,92,64259,1,8,0:0:0:0:
293,92,64384,1,0,0:0:0:0:
331,175,64634,5,12,0:0:0:0:
331,175,64884,1,12,0:0:0:0:
331,175,65134,1,4,0:0:0:0:
331,175,65384,1,8,0:0:0:0:
293,92,65634,1,0,0:0:0:0:
482,163,65759,1,8,0:0:0:0:
293,92,65884,1,0,0:0:0:0:
293,92,66134,1,8,0:0:0:0:
293,92,66259,1,0,0:0:0:0:
293,92,66321,1,0,0:0:0:0:
293,92,66384,1,0,0:0:0:0:
293,92,66634,1,8,0:0:0:0:
482,163,66759,1,8,0:0:0:0:
293,92,66884,1,8,0:0:0:0:
331,175,67134,1,8,0:0:0:0:
290,98,69134,5,4,0:0:0:0:
171,77,69384,1,0,0:0:0:0:
171,77,69634,1,8,0:0:0:0:
171,77,69759,1,8,0:0:0:0:
171,77,69884,1,0,0:0:0:0:
171,77,70134,1,8,0:0:0:0:
171,77,70634,1,8,0:0:0:0:
147,136,70884,1,8,0:0:0:0:
171,77,71134,1,0,0:0:0:0:
171,77,71384,1,0,0:0:0:0:
171,77,71634,1,8,0:0:0:0:
171,77,71759,1,0,0:0:0:0:
171,77,71884,1,8,0:0:0:0:
171,77,72134,1,0,0:0:0:0:
343,146,72384,1,0,0:0:0:0:
233,130,72509,1,0,0:0:0:0:
272,119,72634,1,8,0:0:0:0:
222,166,72884,1,8,0:0:0:0:
272,119,73134,1,0,0:0:0:0:
272,119,73634,1,8,0:0:0:0:
272,119,73884,1,0,0:0:0:0:
89,155,74009,1,0,0:0:0:0:
89,155,74134,1,8,0:0:0:0:
89,155,74384,1,0,0:0:0:0:
89,155,74634,1,8,0:0:0:0:
79,141,74884,1,8,0:0:0:0:
188,58,75009,1,8,0:0:0:0:
89,155,75134,1,0,0:0:0:0:
89,155,75384,1,8,0:0:0:0:
89,155,75634,1,0,0:0:0:0:
89,155,75884,1,0,0:0:0:0:
89,155,76134,1,8,0:0:0:0:
214,79,76259,1,8,0:0:0:0:
214,79,76384,1,0,0:0:0:0:
89,155,76634,1,8,0:0:0:0:
89,155,77134,1,4,0:0:0:0:
89,155,77384,1,8,0:0:0:0:
89,155,77634,1,0,0:0:0:0:
89,155,77759,1,0,0:0:0:0:
89,155,77884,1,0,0:0:0:0:
89,155,78134,1,8,0:0:0:0:
89,155,78634,1,8,0:0:0:0:
127,177,78884,1,8,0:0:0:0:
89,155,79134,1,0,0:0:0:0:
89,155,79384,1,8,0:0:0:0:
89,155,79634,1,8,0:0:0:0:
89,155,79759,1,0,0:0:0:0:
89,155,79884,1,8,0:0:0:0:
89,155,80134,1,8,0:0:0:0:
89,155,80634,1,8,0:0:0:0:
89,155,81134,1,0,0:0:0:0:
89,155,81634,1,8,0:0:0:0:
89,155,81884,1,0,0:0:0:0:
89,155,82009,1,0,0:0:0:0:
89,155,82134,1,8,0:0:0:0:
89,155,82384,1,0,0:0:0:0:
89,155,82634,1,8,0:0:0:0:
194,108,82884,1,8,0:0:0:0:
194,108,83009,1,8,0:0:0:0:
89,155,83134,1,0,0:0:0:0:
194,108,83384,1,0,0:0:0:0:
214,108,83634,1,8,0:0:0:0:
89,155,83884,1,0,0:0:0:0:
89,155,84134,1,8,0:0:0:0:
185,91,84259,1,0,0:0:0:0:
279,113,84384,1,0,0:0:0:0:
89,155,84634,1,8,0:0:0:0:
89,155,85134,1,4,0:0:0:0:
89,155,85384,1,8,0:0:0:0:
89,155,85634,1,0,0:0:0:0:
89,155,85759,1,8,0:0:0:0:
89,155,85884,1,8,0:0:0:0:
158,115,86134,1,8,0:0:0:0:
158,115,86384,1,0,0:0:0:0:
158,115,86634,1,8,0:0:0:0:
158,115,86759,1,0,0:0:0:0:
158,115,86884,1,0,0:0:0:0:
158,115,87134,1,8,0:0:0:0:
202,137,88634,1,0,0:0:0:0:
299,119,88759,1,0,0:0:0:0:
299,119,88884,1,0,0:0:0:0:
202,137,89134,1,12,0:0:0:0:
202,137,89509,1,4,0:0:0:0:
202,137,89884,1,12,0:0:0:0:
202,137,90384,1,0,0:0:0:0:
202,137,90634,1,8,0:0:0:0:
202,137,90759,1,4,0:0:0:0:
202,137,91009,1,0,0:0:0:0:
202,137,91134,1,12,0:0:0:0:
202,137,91509,1,4,0:0:0:0:
202,137,91884,1,12,0:0:0:0:
202,137,92384,1,0,0:0:0:0:
202,137,92634,1,0,0:0:0:0:
202,137,92759,1,8,0:0:0:0:
202,137,93009,1,0,0:0:0:0:
202,137,93134,1,12,0:0:0:0:
202,137,93509,1,4,0:0:0:0:
202,137,93884,1,12,0:0:0:0:
202,137,94384,1,0,0:0:0:0:
202,137,94634,1,8,0:0:0:0:
202,137,94759,1,4,0:0:0:0:
202,137,95134,1,12,0:0:0:0:
202,137,95384,1,8,0:0:0:0:
202,137,95509,1,8,0:0:0:0:
202,137,95884,1,8,0:0:0:0:
202,137,96009,1,8,0:0:0:0:
202,137,96134,1,0,0:0:0:0:
202,137,96259,1,0,0:0:0:0:
202,137,96384,1,0,0:0:0:0:
202,137,96509,1,0,0:0:0:0:
202,137,96634,1,8,0:0:0:0:
202,137,97134,1,12,0:0:0:0:
256,192,97634,1,0,0:0:0:0:
256,192,98134,1,0,0:0:0:0:
256,192,98634,1,8,0:0:0:0:
256,192,99134,1,0,0:0:0:0:
256,192,99634,1,0,0:0:0:0:
256,192,100134,1,0,0:0:0:0:
256,192,100634,1,8,0:0:0:0:
256,192,101134,5,12,0:0:0:0:
216,121,101509,1,4,0:0:0:0:
216,121,101884,1,12,0:0:0:0:
292,184,102384,1,0,0:0:0:0:
292,184,102634,1,8,0:0:0:0:
292,184,102759,1,4,0:0:0:0:
292,184,103009,1,0,0:0:0:0:
216,121,103134,1,12,0:0:0:0:
216,121,103509,1,4,0:0:0:0:
216,121,103884,1,12,0:0:0:0:
292,184,104259,1,0,0:0:0:0:
292,184,104384,1,8,0:0:0:0:
292,184,104634,1,8,0:0:0:0:
292,184,104884,1,0,0:0:0:0:
216,121,105134,1,12,0:0:0:0:
292,184,105634,1,8,0:0:0:0:
292,184,105884,1,0,0:0:0:0:
292,184,106134,1,8,0:0:0:0:
292,184,106384,1,0,0:0:0:0:
297,109,106509,1,8,0:0:0:0:
297,109,106634,1,8,0:0:0:0:
297,109,106884,1,0,0:0:0:0:
297,109,107134,1,8,0:0:0:0:
297,109,107384,1,0,0:0:0:0:
297,109,107634,1,8,0:0:0:0:
297,109,107884,1,0,0:0:0:0:
189,135,108134,1,0,0:0:0:0:
189,135,108196,1,0,0:0:0:0:
189,135,108259,1,0,0:0:0:0:
140,131,108384,1,8,0:0:0:0:
169,148,108509,1,8,0:0:0:0:
297,109,108634,1,0,0:0:0:0:
297,109,108759,1,0,0:0:0:0:
195,130,108884,1,8,0:0:0:0:
216,121,109134,1,12,0:0:0:0:
216,121,109509,1,4,0:0:0:0:
216,121,109884,1,12,0:0:0:0:
311,140,110384,1,8,0:0:0:0:
311,140,110634,1,0,0:0:0:0:
311,140,110759,1,12,0:0:0:0:
311,140,111009,1,0,0:0:0:0:
216,121,111134,1,12,0:0:0:0:
216,121,111509,1,4,0:0:0:0:
216,121,111884,1,12,0:0:0:0:
311,140,112259,1,0,0:0:0:0:
311,140,112384,1,8,0:0:0:0:
311,140,112509,1,0,0:0:0:0:
311,140,112634,1,8,0:0:0:0:
126,158,112696,1,8,0:0:0:0:
311,140,112759,1,8,0:0:0:0:
311,140,112884,1,0,0:0:0:0:
216,121,113134,1,12,0:0:0:0:
377,227,113384,1,0,0:0:0:0:
179,168,113509,1,0,0:0:0:0:
377,227,113634,1,8,0:0:0:0:
377,227,113884,1,0,0:0:0:0:
377,227,114009,1,8,0:0:0:0:
377,227,114384,1,0,0:0:0:0:
377,227,114509,1,8,0:0:0:0:
377,227,114634,1,0,0:0:0:0:
377,227,114884,1,8,0:0:0:0:
377,227,115009,1,8,0:0:0:0:
377,227,115134,1,0,0:0:0:0:
377,227,115384,1,0,0:0:0:0:
377,227,115634,1,8,0:0:0:0:
377,227,115884,1,0,0:0:0:0:
377,227,116009,1,8,0:0:0:0:
377,227,116384,1,8,0:0:0:0:
212,129,116509,1,0,0:0:0:0:
377,227,116634,1,12,0:0:0:0:
377,227,116884,1,0,0:0:0:0:
377,227,117134,1,8,0:0:0:0:
377,227,117384,1,8,0:0:0:0:
377,227,117509,1,0,0:0:0:0:
377,227,117634,1,8,0:0:0:0:
377,227,117884,1,0,0:0:0:0:
377,227,118009,1,8,0:0:0:0:
377,227,118384,1,8,0:0:0:0:
377,227,118509,1,0,0:0:0:0:
377,227,118634,1,12,0:0:0:0:
377,227,118884,1,0,0:0:0:0:
377,227,119134,1,12,0:0:0:0:
377,227,119384,1,12,0:0:0:0:
377,227,119634,1,12,0:0:0:0:
377,227,119884,1,12,0:0:0:0:
377,227,120134,1,4,0:0:0:0:
377,227,120384,1,8,0:0:0:0:
377,227,120509,1,8,0:0:0:0:
377,227,120634,1,4,0:0:0:0:
377,227,121009,1,0,0:0:0:0:
377,227,121134,1,8,0:0:0:0:
377,227,121384,1,0,0:0:0:0:
377,227,121509,1,0,0:0:0:0:
377,227,121634,1,8,0:0:0:0:
377,227,121884,1,0,0:0:0:0:
377,227,122009,1,8,0:0:0:0:
377,227,122384,1,0,0:0:0:0:
377,227,122509,1,8,0:0:0:0:
377,227,122634,1,8,0:0:0:0:
377,227,122884,1,0,0:0:0:0:
377,227,123009,1,8,0:0:0:0:
377,227,123134,1,0,0:0:0:0:
377,227,123384,1,8,0:0:0:0:
377,227,123634,1,8,0:0:0:0:
377,227,123884,1,8,0:0:0:0:
377,227,124009,1,0,0:0:0:0:
235,125,124384,1,0,0:0:0:0:
235,125,124634,1,8,0:0:0:0:
235,125,124884,1,0,0:0:0:0:
235,125,125009,1,8,0:0:0:0:
235,125,125134,1,4,0:0:0:0:
235,125,125384,1,8,0:0:0:0:
235,125,125509,1,0,0:0:0:0:
235,125,125634,1,8,0:0:0:0:
235,125,125884,1,8,0:0:0:0:
235,125,126009,1,0,0:0:0:0:
87,143,126071,1,0,0:0:0:0:
235,125,126134,1,0,0:0:0:0:
208,121,126259,1,0,0:0:0:0:
167,97,126384,1,8,0:0:0:0:
167,97,126634,1,8,0:0:0:0:
167,97,126884,1,0,0:0:0:0:
167,97,127134,1,12,0:0:0:0:
167,97,128134,1,4,0:0:0:0:
167,97,128634,1,12,0:0:0:0:
290,98,129134,5,4,0:0:0:0:
171,77,129384,1,0,0:0:0:0:
171,77,129634,1,8,0:0:0:0:
171,77,129759,1,8,0:0:0:0:
171,77,129884,1,0,0:0:0:0:
171,77,130134,1,8,0:0:0:0:
171,77,130634,1,8,0:0:0:0:
190,128,130884,1,8,0:0:0:0:
171,77,131134,1,0,0:0:0:0:
171,77,131384,1,0,0:0:0:0:
171,77,131634,1,8,0:0:0:0:
171,77,131759,1,0,0:0:0:0:
171,77,131884,1,8,0:0:0:0:
171,77,132134,1,8,0:0:0:0:
163,97,132384,1,0,0:0:0:0:
186,92,132509,1,0,0:0:0:0:
186,92,132634,1,8,0:0:0:0:
184,153,132884,1,8,0:0:0:0:
272,119,133134,1,0,0:0:0:0:
272,119,133634,1,8,0:0:0:0:
272,119,133884,1,0,0:0:0:0:
89,155,134009,1,0,0:0:0:0:
89,155,134134,1,8,0:0:0:0:
89,155,134384,1,0,0:0:0:0:
89,155,134634,1,8,0:0:0:0:
190,118,134884,1,8,0:0:0:0:
190,118,135009,1,8,0:0:0:0:
89,155,135134,1,0,0:0:0:0:
89,155,135384,1,8,0:0:0:0:
89,155,135634,1,0,0:0:0:0:
89,155,135884,1,0,0:0:0:0:
89,155,136134,1,8,0:0:0:0:
241,139,136259,1,0,0:0:0:0:
241,139,136384,1,8,0:0:0:0:
89,155,136634,1,8,0:0:0:0:
89,155,137134,1,4,0:0:0:0:
89,155,137384,1,8,0:0:0:0:
89,155,137634,1,0,0:0:0:0:
88,115,137759,1,8,0:0:0:0:
89,155,137884,1,0,0:0:0:0:
89,155,138134,1,8,0:0:0:0:
89,155,138634,1,8,0:0:0:0:
254,121,138884,1,0,0:0:0:0:
89,155,139134,1,0,0:0:0:0:
89,155,139384,1,8,0:0:0:0:
89,155,139634,1,8,0:0:0:0:
89,155,139759,1,0,0:0:0:0:
89,155,139884,1,8,0:0:0:0:
89,155,140134,1,8,0:0:0:0:
214,106,140384,1,0,0:0:0:0:
214,106,140509,1,0,0:0:0:0:
89,155,140634,1,8,0:0:0:0:
253,117,140884,1,0,0:0:0:0:
253,117,141134,1,8,0:0:0:0:
89,155,141634,1,8,0:0:0:0:
89,155,141884,1,0,0:0:0:0:
89,155,142009,1,0,0:0:0:0:
89,155,142134,1,8,0:0:0:0:
89,155,142384,1,0,0:0:0:0:
89,155,142634,1,8,0:0:0:0:
89,155,142884,1,8,0:0:0:0:
253,117,143009,1,8,0:0:0:0:
253,117,143134,1,8,0:0:0:0:
191,118,143384,1,0,0:0:0:0:
186,150,143509,1,0,0:0:0:0:
89,155,143634,1,8,0:0:0:0:
89,155,143884,1,0,0:0:0:0:
89,155,144134,1,8,0:0:0:0:
89,155,144634,1,8,0:0:0:0:
89,155,145134,1,4,0:0:0:0:
89,155,145384,1,8,0:0:0:0:
89,155,145634,1,0,0:0:0:0:
89,155,145759,1,8,0:0:0:0:
89,155,145884,1,0,0:0:0:0:
158,115,146134,1,8,0:0:0:0:
158,115,146384,1,8,0:0:0:0:
158,115,146634,1,8,0:0:0:0:
158,115,146759,1,0,0:0:0:0:
158,115,146884,1,0,0:0:0:0:
158,115,147134,1,12,0:0:0:0:
119,153,148634,1,0,0:0:0:0:
196,128,149134,1,4,0:0:0:0:
265,87,149509,1,4,0:0:0:0:
265,87,149884,1,12,0:0:0:0:
265,87,150384,1,0,0:0:0:0:
265,87,150634,1,0,0:0:0:0:
265,87,150759,1,12,0:0:0:0:
265,87,151009,1,0,0:0:0:0:
265,87,151134,1,12,0:0:0:0:
265,87,151509,1,4,0:0:0:0:
265,87,151884,1,12,0:0:0:0:
265,87,152384,1,0,0:0:0:0:
265,87,152634,1,8,0:0:0:0:
265,87,152759,1,4,0:0:0:0:
265,87,153009,1,0,0:0:0:0:
265,87,153134,1,12,0:0:0:0:
265,87,153509,1,4,0:0:0:0:
265,87,153884,1,12,0:0:0:0:
265,87,154384,1,0,0:0:0:0:
265,87,154634,1,8,0:0:0:0:
265,87,154759,1,4,0:0:0:0:
265,87,155009,1,0,0:0:0:0:
265,87,155134,1,12,0:0:0:0:
200,24,155634,1,8,0:0:0:0:
200,24,155884,1,8,0:0:0:0:
200,24,156134,1,0,0:0:0:0:
200,24,156384,1,8,0:0:0:0:
200,24,156634,1,8,0:0:0:0:
208,134,156759,1,0,0:0:0:0:
257,121,156884,1,0,0:0:0:0:
257,121,157009,1,0,0:0:0:0:
322,61,157134,1,12,0:0:0:0:
208,134,157384,1,8,0:0:0:0:
202,129,157634,1,8,0:0:0:0:
200,129,157759,1,0,0:0:0:0:
199,129,158009,1,8,0:0:0:0:
199,129,158259,1,8,0:0:0:0:
202,129,158509,1,8,0:0:0:0:
202,129,158634,1,8,0:0:0:0:
200,129,158759,1,8,0:0:0:0:
199,129,158884,1,0,0:0:0:0:
199,129,159134,1,8,0:0:0:0:
202,129,159384,1,0,0:0:0:0:
202,129,159634,1,8,0:0:0:0:
200,129,159759,1,8,0:0:0:0:
199,129,159884,1,0,0:0:0:0:
199,129,159946,1,0,0:0:0:0:
232,142,160009,1,0,0:0:0:0:
232,142,160134,1,8,0:0:0:0:
232,142,160384,1,8,0:0:0:0:
232,142,160634,1,8,0:0:0:0:
232,142,160884,1,8,0:0:0:0:
354,46,160967,1,8,0:0:0:0:
354,46,161050,1,8,0:0:0:0:
354,46,161134,1,8,0:0:0:0:
354,46,161384,1,0,0:0:0:0:
285,89,161634,1,8,0:0:0:0:
242,104,161759,1,8,0:0:0:0:
247,95,161884,1,0,0:0:0:0:
247,95,161946,5,0,0:0:0:0:
247,93,162009,1,0,0:0:0:0:
240,108,162134,1,0,0:0:0:0:
240,111,162259,1,8,0:0:0:0:
172,165,162509,1,0,0:0:0:0:
172,165,162634,1,8,0:0:0:0:
172,165,162759,1,8,0:0:0:0:
172,165,162884,1,0,0:0:0:0:
172,165,162946,1,0,0:0:0:0:
172,165,163009,1,0,0:0:0:0:
165,120,163134,5,12,0:0:0:0:
165,120,163509,1,12,0:0:0:0:
165,120,163884,1,12,0:0:0:0:
383,198,164259,1,0,0:0:0:0:
383,198,164384,1,12,0:0:0:0:
383,198,164634,1,12,0:0:0:0:
383,198,165134,1,4,0:0:0:0:
383,198,165384,1,8,0:0:0:0:
383,198,165634,1,8,0:0:0:0:
383,198,165884,1,0,0:0:0:0:
383,198,166134,1,8,0:0:0:0:
383,198,166384,1,0,0:0:0:0:
383,198,166509,1,8,0:0:0:0:
383,198,166634,1,8,0:0:0:0:
383,198,166884,1,0,0:0:0:0:
383,198,167134,1,8,0:0:0:0:
383,198,167384,1,8,0:0:0:0:
383,198,167634,1,0,0:0:0:0:
383,198,167884,1,0,0:0:0:0:
383,198,168009,1,0,0:0:0:0:
383,198,168134,1,8,0:0:0:0:
140,47,168384,1,8,0:0:0:0:
235,113,168509,1,8,0:0:0:0:
235,113,168634,1,0,0:0:0:0:
235,113,168759,1,8,0:0:0:0:
274,100,169134,1,0,0:0:0:0:
274,100,169384,1,8,0:0:0:0:
274,100,169634,1,8,0:0:0:0:
274,100,169884,1,0,0:0:0:0:
274,100,170134,1,8,0:0:0:0:
274,100,170384,1,8,0:0:0:0:
274,100,170509,1,8,0:0:0:0:
274,100,170634,1,8,0:0:0:0:
274,100,170884,1,0,0:0:0:0:
274,100,171134,1,8,0:0:0:0:
274,100,171259,1,8,0:0:0:0:
274,100,171384,1,0,0:0:0:0:
274,100,171634,1,8,0:0:0:0:
189,14,171759,1,0,0:0:0:0:
274,100,171884,1,8,0:0:0:0:
189,14,172009,1,0,0:0:0:0:
189,14,172134,1,8,0:0:0:0:
315,126,172384,1,0,0:0:0:0:
315,126,172634,1,8,0:0:0:0:
315,126,172759,1,8,0:0:0:0:
315,126,172884,1,0,0:0:0:0:
256,192,173134,1,8,0:0:0:0:
256,192,173384,1,8,0:0:0:0:
256,192,173509,1,8,0:0:0:0:
256,192,173634,1,0,0:0:0:0:
256,192,173759,1,0,0:0:0:0:
256,192,173884,1,8,0:0:0:0:
256,192,174134,1,8,0:0:0:0:
256,192,174384,1,8,0:0:0:0:
256,192,174509,1,0,0:0:0:0:
256,192,174634,1,8,0:0:0:0:
105,155,174759,1,8,0:0:0:0:
256,192,174884,1,0,0:0:0:0:
256,192,175009,1,8,0:0:0:0:
256,192,175134,1,0,0:0:0:0:
256,192,175384,1,8,0:0:0:0:
159,136,175509,1,8,0:0:0:0:
159,136,175634,1,0,0:0:0:0:
256,192,175884,1,8,0:0:0:0:
159,136,176009,1,0,0:0:0:0:
159,136,176134,1,8,0:0:0:0:
256,192,176384,1,12,0:0:0:0:
256,192,176634,1,12,0:0:0:0:
254,130,176884,1,8,0:0:0:0:
254,130,177009,1,8,0:0:0:0:
256,192,177134,1,0,0:0:0:0:
256,192,177259,1,8,0:0:0:0:
256,192,177384,1,8,0:0:0:0:
182,144,177509,1,0,0:0:0:0:
256,192,177634,1,8,0:0:0:0:
256,192,177884,1,0,0:0:0:0:
256,192,178134,1,8,0:0:0:0:
256,192,178384,1,8,0:0:0:0:
256,192,178509,1,0,0:0:0:0:
256,192,178634,1,0,0:0:0:0:
256,192,178759,1,8,0:0:0:0:
256,192,178884,1,8,0:0:0:0:
256,192,179134,1,0,0:0:0:0:
256,192,179384,1,8,0:0:0:0:
256,192,179509,1,0,0:0:0:0:
256,192,179634,1,8,0:0:0:0:
256,192,179884,1,0,0:0:0:0:
256,192,180134,1,8,0:0:0:0:
256,192,180384,1,8,0:0:0:0:
256,192,180509,1,8,0:0:0:0:
256,192,180634,1,0,0:0:0:0:
256,192,180759,1,0,0:0:0:0:
256,192,180884,1,8,0:0:0:0:
256,192,181134,1,4,0:0:0:0:
278,137,181509,1,0,0:0:0:0:
271,139,181884,1,0,0:0:0:0:
271,139,182134,1,8,0:0:0:0:
271,139,182884,1,0,0:0:0:0:
271,139,183134,1,0,0:0:0:0:
271,139,183509,1,0,0:0:0:0:
271,139,183884,1,0,0:0:0:0:
271,139,184134,1,8,0:0:0:0:
271,139,184884,1,8,0:0:0:0:
271,139,185134,1,0,0:0:0:0:
271,139,185509,1,0,0:0:0:0:
271,139,185884,1,0,0:0:0:0:
271,139,186134,1,8,0:0:0:0:
271,139,186884,1,0,0:0:0:0:
271,139,187134,1,0,0:0:0:0:
271,139,187509,1,0,0:0:0:0:
271,139,187884,1,0,0:0:0:0:
271,139,188134,1,8,0:0:0:0:
271,139,188634,1,8,0:0:0:0:
271,139,188884,1,8,0:0:0:0:
271,139,189009,1,0,0:0:0:0:
271,139,189134,1,12,0:0:0:0:
271,139,189509,1,0,0:0:0:0:
271,139,189884,1,0,0:0:0:0:
271,139,190134,1,8,0:0:0:0:
271,139,190384,1,0,0:0:0:0:
271,139,190509,1,0,0:0:0:0:
271,139,190884,1,8,0:0:0:0:
271,139,191009,1,0,0:0:0:0:
271,139,191134,1,8,0:0:0:0:
271,139,191509,1,0,0:0:0:0:
271,139,191884,1,0,0:0:0:0:
271,139,192134,1,8,0:0:0:0:
271,139,192259,1,0,0:0:0:0:
271,139,192384,1,8,0:0:0:0:
271,139,192634,1,8,0:0:0:0:
271,139,192884,1,0,0:0:0:0:
271,139,193009,1,0,0:0:0:0:
271,139,193134,1,12,0:0:0:0:
271,139,193384,1,0,0:0:0:0:
271,139,193634,1,0,0:0:0:0:
271,139,193759,1,8,0:0:0:0:
271,139,193884,1,0,0:0:0:0:
271,139,194009,1,0,0:0:0:0:
271,139,194134,1,12,0:0:0:0:
271,139,194384,1,0,0:0:0:0:
180,137,194509,1,0,0:0:0:0:
271,139,194634,1,0,0:0:0:0:
271,139,194884,1,0,0:0:0:0:
271,139,195134,1,12,0:0:0:0:
271,139,195384,1,0,0:0:0:0:
271,139,195509,1,0,0:0:0:0:
271,139,195634,1,8,0:0:0:0:
271,139,195884,1,0,0:0:0:0:
271,139,196134,1,12,0:0:0:0:
256,192,196384,12,0,199634,0:0:0:0:
290,98,201634,5,4,0:0:0:0:
171,77,201884,1,0,0:0:0:0:
171,77,202134,1,8,0:0:0:0:
269,88,202259,1,8,0:0:0:0:
269,88,202384,1,0,0:0:0:0:
171,77,202634,1,8,0:0:0:0:
171,77,203134,1,8,0:0:0:0:
269,88,203384,1,8,0:0:0:0:
171,77,203634,1,0,0:0:0:0:
171,77,203884,1,0,0:0:0:0:
171,77,204134,1,8,0:0:0:0:
236,125,204259,1,8,0:0:0:0:
267,83,204384,1,0,0:0:0:0:
236,125,204634,1,8,0:0:0:0:
163,97,204884,1,0,0:0:0:0:
260,147,205009,1,0,0:0:0:0:
272,119,205134,1,8,0:0:0:0:
234,81,205384,1,8,0:0:0:0:
260,147,205634,1,0,0:0:0:0:
272,119,206134,1,8,0:0:0:0:
265,80,206259,1,8,0:0:0:0:
272,119,206384,1,0,0:0:0:0:
89,155,206509,1,0,0:0:0:0:
89,155,206634,1,8,0:0:0:0:
265,80,206884,1,8,0:0:0:0:
89,155,207134,1,8,0:0:0:0:
175,86,207384,1,0,0:0:0:0:
128,159,207509,1,8,0:0:0:0:
89,155,207634,1,0,0:0:0:0:
89,155,207884,1,8,0:0:0:0:
89,155,208134,1,0,0:0:0:0:
256,74,208259,1,0,0:0:0:0:
89,155,208384,1,0,0:0:0:0:
89,155,208634,1,8,0:0:0:0:
89,155,209134,1,8,0:0:0:0:
179,72,209634,1,12,0:0:0:0:
89,155,209884,1,0,0:0:0:0:
89,155,210134,1,8,0:0:0:0:
216,87,210259,1,0,0:0:0:0:
89,155,210384,1,0,0:0:0:0:
89,155,210634,1,8,0:0:0:0:
89,155,211134,1,8,0:0:0:0:
256,74,211384,1,0,0:0:0:0:
89,155,211634,1,8,0:0:0:0:
228,118,211884,1,0,0:0:0:0:
89,155,212134,1,8,0:0:0:0:
228,118,212259,1,0,0:0:0:0:
89,155,212384,1,8,0:0:0:0:
89,155,212634,1,8,0:0:0:0:
241,108,212884,1,0,0:0:0:0:
160,97,213009,1,0,0:0:0:0:
89,155,213134,1,8,0:0:0:0:
169,88,213384,1,8,0:0:0:0:
253,117,213634,1,0,0:0:0:0:
89,155,214134,1,8,0:0:0:0:
93,138,214259,1,8,0:0:0:0:
89,155,214384,1,0,0:0:0:0:
89,155,214509,1,0,0:0:0:0:
89,155,214634,1,8,0:0:0:0:
216,94,214884,1,0,0:0:0:0:
89,155,215134,1,8,0:0:0:0:
89,155,215384,1,8,0:0:0:0:
253,117,215509,1,8,0:0:0:0:
253,117,215634,1,0,0:0:0:0:
216,94,215884,1,0,0:0:0:0:
89,155,216134,1,8,0:0:0:0:
218,69,216384,1,0,0:0:0:0:
218,69,216509,1,0,0:0:0:0:
89,155,216634,1,8,0:0:0:0:
89,155,217134,1,8,0:0:0:0:
89,155,217634,1,4,0:0:0:0:
89,155,217884,1,8,0:0:0:0:
89,155,218134,1,0,0:0:0:0:
89,155,218259,1,0,0:0:0:0:
89,155,218384,1,8,0:0:0:0:
158,115,218634,1,8,0:0:0:0:
158,115,219134,1,8,0:0:0:0:
127,62,219384,1,8,0:0:0:0:
218,140,219634,1,0,0:0:0:0:
299,117,219884,1,0,0:0:0:0:
218,140,220134,1,8,0:0:0:0:
299,117,220259,1,0,0:0:0:0:
214,104,220384,1,0,0:0:0:0:
214,104,220634,1,8,0:0:0:0:
214,104,220884,1,0,0:0:0:0:
214,104,221009,1,0,0:0:0:0:
214,104,221134,1,8,0:0:0:0:
214,104,221384,1,8,0:0:0:0:
214,104,221634,1,0,0:0:0:0:
214,104,222134,1,8,0:0:0:0:
214,104,222259,1,8,0:0:0:0:
214,104,222384,1,0,0:0:0:0:
214,104,222509,1,0,0:0:0:0:
214,104,222634,1,8,0:0:0:0:
214,104,222884,1,0,0:0:0:0:
214,104,223134,1,8,0:0:0:0:
178,26,223259,1,8,0:0:0:0:
178,26,223384,1,0,0:0:0:0:
214,104,223634,1,0,0:0:0:0:
214,104,223884,1,8,0:0:0:0:
214,104,224134,1,8,0:0:0:0:
214,104,224259,1,8,0:0:0:0:
214,104,224384,1,8,0:0:0:0:
214,104,224634,1,0,0:0:0:0:
214,104,224759,1,0,0:0:0:0:
214,104,224884,1,0,0:0:0:0:
214,104,225134,1,8,0:0:0:0:
214,104,225634,1,4,0:0:0:0:
214,104,226134,1,8,0:0:0:0:
214,104,226259,1,0,0:0:0:0:
214,104,226384,1,8,0:0:0:0:
214,104,226509,1,0,0:0:0:0:
214,104,226634,1,8,0:0:0:0:
214,104,226884,1,0,0:0:0:0:
214,104,227134,1,8,0:0:0:0:
300,116,227259,1,8,0:0:0:0:
252,153,227384,1,0,0:0:0:0:
252,153,227509,1,0,0:0:0:0:
214,104,227634,1,12,0:0:0:0:
301,120,229134,1,8,0:0:0:0:
232,138,229259,1,8,0:0:0:0:
232,138,229384,1,8,0:0:0:0:
431,225,229634,1,12,0:0:0:0:
431,225,230009,1,4,0:0:0:0:
431,225,230384,1,12,0:0:0:0:
431,225,230884,1,0,0:0:0:0:
431,225,231134,1,0,0:0:0:0:
431,225,231259,1,12,0:0:0:0:
431,225,231509,1,0,0:0:0:0:
431,225,231634,1,12,0:0:0:0:
431,225,232009,1,4,0:0:0:0:
431,225,232384,1,12,0:0:0:0:
431,225,232884,1,8,0:0:0:0:
431,225,233134,1,0,0:0:0:0:
431,225,233259,1,8,0:0:0:0:
431,225,233384,1,0,0:0:0:0:
431,225,233634,1,12,0:0:0:0:
247,104,234009,1,4,0:0:0:0:
247,104,234384,1,12,0:0:0:0:
247,104,234884,1,0,0:0:0:0:
247,104,235134,1,8,0:0:0:0:
247,104,235259,1,8,0:0:0:0:
247,104,235384,1,0,0:0:0:0:
247,104,235634,1,12,0:0:0:0:
379,137,235884,1,8,0:0:0:0:
379,137,236009,1,8,0:0:0:0:
379,137,236259,1,0,0:0:0:0:
379,137,236384,1,8,0:0:0:0:
379,137,236634,1,0,0:0:0:0:
265,151,236759,1,0,0:0:0:0:
265,151,236884,1,8,0:0:0:0:
265,151,237009,1,0,0:0:0:0:
265,151,237134,1,8,0:0:0:0:
265,151,237384,1,8,0:0:0:0:
265,151,237634,1,12,0:0:0:0:
265,151,237884,1,0,0:0:0:0:
265,151,238134,1,8,0:0:0:0:
265,151,238259,1,8,0:0:0:0:
265,151,238384,1,0,0:0:0:0:
265,151,238509,1,0,0:0:0:0:
265,151,238634,1,8,0:0:0:0:
265,151,238884,1,0,0:0:0:0:
265,151,239134,1,8,0:0:0:0:
169,188,239259,1,0,0:0:0:0:
265,151,239384,1,0,0:0:0:0:
265,151,239634,1,8,0:0:0:0:
265,151,239884,1,0,0:0:0:0:
265,151,240134,1,8,0:0:0:0:
265,151,240259,1,8,0:0:0:0:
265,151,240384,1,0,0:0:0:0:
265,151,240509,1,0,0:0:0:0:
265,151,240634,1,8,0:0:0:0:
265,151,240884,1,8,0:0:0:0:
265,151,241134,1,8,0:0:0:0:
265,151,241259,1,0,0:0:0:0:
265,151,241509,1,0,0:0:0:0:
265,151,241634,1,12,0:0:0:0:
265,151,241884,1,8,0:0:0:0:
265,151,242009,1,0,0:0:0:0:
265,151,242134,1,8,0:0:0:0:
265,151,242384,1,0,0:0:0:0:
265,151,242509,1,0,0:0:0:0:
265,151,242634,1,8,0:0:0:0:
234,154,242759,1,8,0:0:0:0:
234,154,242884,1,0,0:0:0:0:
234,154,243134,1,8,0:0:0:0:
234,154,243384,1,0,0:0:0:0:
234,154,243634,1,12,0:0:0:0:
234,154,243884,1,0,0:0:0:0:
234,154,244009,1,8,0:0:0:0:
234,154,244134,1,0,0:0:0:0:
234,154,244259,1,8,0:0:0:0:
234,154,244384,1,0,0:0:0:0:
234,154,244634,1,8,0:0:0:0:
234,154,244884,1,0,0:0:0:0:
234,154,245009,1,0,0:0:0:0:
234,154,245134,1,8,0:0:0:0:
234,154,245259,1,8,0:0:0:0:
234,154,245384,1,8,0:0:0:0:
234,154,245509,1,0,0:0:0:0:
