osu file format v14

[General]
AudioFilename: audio.mp3
AudioLeadIn: 0
PreviewTime: 116160
Countdown: 1
SampleSet: Soft
StackLeniency: 0.7
Mode: 0
LetterboxInBreaks: 0
WidescreenStoryboard: 1

[Editor]
Bookmarks: 102477
DistanceSpacing: 0.8
BeatDivisor: 4
GridSize: 32
TimelineZoom: 2.2

[Metadata]
Title:Xing Noises
TitleUnicode:Xing Noises
Artist:UNDEAD CORPORATION
ArtistUnicode:UNDEAD CORPORATION
Creator:Niva
Version:Insane
Source:osu!
Tags:u_c_official crossing flashback flash back featured artist rock metal english mappers' guild 朱美 Akemi 窪田道元 Dougen Kubota 仁耶 Jinya 社長 Shachou YU-TO
BeatmapID:2161023
BeatmapSetID:1021829

[Difficulty]
HPDrainRate:5
CircleSize:4
OverallDifficulty:8
ApproachRate:9
SliderMultiplier:1.38
SliderTickRate:1

[Events]
//Background and Video events
0,0,"temporary bg.png",0,0
//Break Periods
2,141018,141989
//Storyboard Layer 0 (Background)
//Storyboard Layer 1 (Fail)
//Storyboard Layer 2 (Pass)
//Storyboard Layer 3 (Foreground)
//Storyboard Layer 4 (Overlay)
//Storyboard Sound Samples

[TimingPoints]
331,292.682926829268,4,2,77,80,1,0
7355,-100,4,2,77,50,0,0
8233,-100,4,2,77,55,0,0
8526,-100,4,2,77,60,0,0
8818,-100,4,2,77,65,0,0
9111,-100,4,2,77,70,0,0
9404,-100,4,2,77,80,0,0
36916,-90.9090909090909,4,2,77,85,0,0
37794,-125,4,2,77,80,0,0
37867,-125,4,2,77,70,0,0
42770,-111.111111111111,4,2,77,75,0,0
43940,-125,4,2,77,70,0,0
46648,-125,4,2,77,5,0,0
46721,-125,4,2,77,70,0,0
46794,-125,4,2,77,5,0,0
46867,-125,4,2,77,75,0,0
46940,-125,4,2,77,5,0,0
47013,-125,4,2,77,75,0,0
47087,-125,4,2,77,5,0,0
47160,-100,4,2,77,80,0,0
48623,-100,4,2,77,85,0,0
49501,-90.9090909090909,4,2,77,75,0,0
50233,-90.9090909090909,4,2,78,75,0,0
50379,-90.9090909090909,4,2,77,75,0,0
50672,-90.9090909090909,4,2,77,80,0,0
51696,-86.9565217391304,4,2,77,90,0,1
52867,-86.9565217391304,4,2,70,90,0,1
53013,-86.9565217391304,4,2,77,90,0,1
55209,-86.9565217391304,4,2,70,90,0,1
55355,-86.9565217391304,4,2,77,90,0,1
57550,-86.9565217391304,4,2,70,90,0,1
57696,-86.9565217391304,4,2,77,90,0,1
59160,-83.3333333333333,4,2,77,95,0,1
60038,-86.9565217391304,4,2,77,90,0,1
61062,-86.9565217391304,4,2,77,90,0,1
62233,-86.9565217391304,4,2,70,90,0,1
62379,-86.9565217391304,4,2,77,90,0,1
64574,-86.9565217391304,4,2,70,90,0,1
64721,-86.9565217391304,4,2,77,90,0,1
68526,-86.9565217391304,4,2,77,95,0,1
69404,-86.9565217391304,4,2,77,90,0,1
69696,-86.9565217391304,4,2,78,90,0,1
69989,-86.9565217391304,4,2,77,90,0,1
70574,-100,4,2,77,90,0,0
70648,-100,4,2,77,80,0,0
72916,-86.9565217391304,4,2,77,90,0,1
75257,-86.9565217391304,4,2,77,80,0,0
77599,-100,4,2,77,80,0,0
102477,-90.9090909090909,4,2,77,85,0,0
103355,-125,4,2,77,80,0,0
103428,-125,4,2,77,70,0,0
108330,-111.111111111111,4,2,77,75,0,0
109501,-125,4,2,77,70,0,0
112209,-125,4,2,77,5,0,0
112282,-125,4,2,77,70,0,0
112355,-125,4,2,77,5,0,0
112428,-125,4,2,77,75,0,0
112501,-125,4,2,77,5,0,0
112574,-125,4,2,77,75,0,0
112648,-125,4,2,77,5,0,0
112721,-100,4,2,77,80,0,0
114184,-100,4,2,77,85,0,0
115062,-90.9090909090909,4,2,77,75,0,0
116233,-90.9090909090909,4,2,77,80,0,0
117257,-86.9565217391304,4,2,77,90,0,1
118428,-86.9565217391304,4,2,70,90,0,1
118574,-86.9565217391304,4,2,77,90,0,1
120770,-86.9565217391304,4,2,77,90,0,1
120916,-86.9565217391304,4,2,77,90,0,1
123111,-86.9565217391304,4,2,70,90,0,1
123257,-86.9565217391304,4,2,77,90,0,1
124721,-83.3333333333333,4,2,77,95,0,1
125599,-86.9565217391304,4,2,77,90,0,1
127794,-86.9565217391304,4,2,70,90,0,1
127940,-86.9565217391304,4,2,77,90,0,1
130135,-86.9565217391304,4,2,70,90,0,1
130282,-86.9565217391304,4,2,77,90,0,1
134087,-86.9565217391304,4,2,77,95,0,1
134965,-86.9565217391304,4,2,77,90,0,1
135257,-86.9565217391304,4,2,78,90,0,1
135550,-86.9565217391304,4,2,77,90,0,1
136135,-100,4,2,77,90,0,0
136209,-100,4,2,77,80,0,0
138477,-86.9565217391304,4,2,77,90,0,1
140818,-86.9565217391304,4,2,77,80,0,0
143160,-86.9565217391304,4,2,77,50,0,0
143745,-86.9565217391304,4,2,77,55,0,0
144038,-86.9565217391304,4,2,77,60,0,0
144330,-86.9565217391304,4,2,77,65,0,0
144623,-86.9565217391304,4,2,77,70,0,0
144916,-100,4,2,77,90,0,0
144989,-100,4,2,77,5,0,0
145062,-100,4,2,77,90,0,0
145135,-100,4,2,77,5,0,0
145209,-100,4,2,77,90,0,0
145282,-100,4,2,77,5,0,0
145355,-100,4,2,77,90,0,0
145428,-100,4,2,77,5,0,0
145501,-83.3333333333333,4,2,77,85,0,0
146087,-100,4,2,77,80,0,0
152818,-90.9090909090909,4,2,77,85,0,0
154867,-80,4,2,77,90,0,0
155452,-90.9090909090909,4,2,77,85,0,0
159257,-90.9090909090909,4,2,78,85,0,0
159550,-80,4,2,77,85,0,0
160135,-90.9090909090909,4,2,77,85,0,0
161306,-90.9090909090909,4,2,79,85,0,0
161379,-90.9090909090909,4,2,77,5,0,0
161452,-90.9090909090909,4,2,78,85,0,0
161526,-90.9090909090909,4,2,77,5,0,0
161599,-90.9090909090909,4,2,78,85,0,0
161672,-90.9090909090909,4,2,77,5,0,0
161745,-90.9090909090909,4,2,78,85,0,0
161818,-90.9090909090909,4,2,77,5,0,0
161891,-90.9090909090909,4,2,77,85,0,0
164233,-125,4,2,77,85,0,0
164306,-125,4,2,77,70,0,0
179452,-142.857142857143,4,2,77,65,0,0
180623,-166.666666666667,4,2,77,60,0,0
181794,-200,4,2,77,55,0,0
182379,-200,4,2,77,70,0,0
182965,-100,4,2,77,70,0,0
183550,-100,4,2,77,75,0,0
184135,-100,4,2,77,80,0,0
185599,-100,4,2,78,80,0,0
185891,-100,4,2,77,80,0,0
186184,-100,4,2,78,80,0,0
186477,292.682926829268,4,2,77,80,1,0
186477,-90.9090909090909,4,2,77,80,0,0
186770,-90.9090909090909,4,2,77,85,0,0
191013,-86.9565217391304,4,2,77,90,0,1
198477,-83.3333333333333,4,2,77,95,0,1
199062,-83.3333333333333,4,2,79,95,0,1
199135,-83.3333333333333,4,2,79,5,0,1
199209,-83.3333333333333,4,2,79,95,0,1
199282,-83.3333333333333,4,2,79,5,0,1
199355,-86.9565217391304,4,2,77,90,0,1
201550,-86.9565217391304,4,2,70,90,0,1
201696,-86.9565217391304,4,2,77,90,0,1
203891,-86.9565217391304,4,2,70,90,0,1
204038,-86.9565217391304,4,2,77,90,0,1
207843,-83.3333333333333,4,2,77,95,0,1
208721,-86.9565217391304,4,2,77,90,0,1
209891,-100,4,2,77,90,0,0
209965,-100,4,2,77,80,0,0
216916,-86.9565217391304,4,2,77,90,0,1
219257,-100,4,2,77,90,0,0
219330,-100,4,2,77,80,0,0
222770,-86.9565217391304,4,2,77,80,0,0
223062,-86.9565217391304,4,2,77,85,0,0
223940,-83.3333333333333,4,2,77,90,0,1
232867,-80,4,2,77,90,0,1
233013,-76.9230769230769,4,2,77,90,0,1
233160,-74.0740740740741,4,2,77,90,0,1
233306,-74.0740740740741,4,2,77,90,0,0

[Colours]
Combo1 : 120,0,191
Combo2 : 151,255,255
Combo3 : 43,253,190
Combo4 : 255,253,174
Combo5 : 192,90,254

[HitObjects]
256,192,7355,12,0,9111,0:0:0:0:
428,284,9404,5,8,0:0:0:0:
153,288,9696,5,6,1:2:0:0:
153,288,9843,2,0,L|80:288,1,69,2|8,0:0|0:0,0:0:0:0:
232,325,10135,1,2,1:2:0:0:
301,275,10282,1,2,0:0:0:0:
377,327,10428,1,0,1:2:0:0:
446,265,10574,2,0,P|469:222|443:177,1,103.5,10|0,0:0|0:0,0:0:0:0:
409,157,10867,6,0,L|493:149,2,69,2|2|8,1:2|1:2|0:0,0:0:0:0:
324,91,11306,1,2,1:2:0:0:
324,91,11452,2,0,L|318:22,1,69,2|0,0:0|1:2,0:0:0:0:
226,137,11745,2,0,L|157:143,1,69,10|0,0:0|0:0,0:0:0:0:
29,76,12038,37,2,1:2:0:0:
29,76,12184,2,0,B|17:109|17:109|30:144,1,69,2|8,0:0|0:0,0:0:0:0:
133,175,12477,1,2,1:2:0:0:
133,175,12623,2,0,B|145:142|145:142|132:107,1,69,2|0,0:0|1:2,0:0:0:0:
102,253,12916,2,0,P|143:228|204:229,1,103.5,10|0,0:0|0:0,0:0:0:0:
225,200,13209,6,0,L|298:200,2,69,2|2|8,1:2|1:2|0:0,0:0:0:0:
334,284,13648,1,2,1:2:0:0:
334,284,13794,2,0,L|404:284,1,69,2|0,0:0|1:2,0:0:0:0:
462,362,14087,2,0,L|534:362,1,69,10|0,0:0|0:0,0:0:0:0:
501,232,14379,5,6,1:2:0:0:
501,232,14526,2,0,L|495:157,1,69,2|8,0:0|0:0,0:0:0:0:
402,286,14818,1,2,1:2:0:0:
508,339,14965,1,2,0:0:0:0:
501,232,15111,1,0,1:2:0:0:
402,286,15257,2,0,B|381:297|352:286|352:286|326:275|299:286,1,103.5,10|0,0:0|0:0,0:0:0:0:
250,267,15550,37,10,0:0:0:0:
250,267,15696,2,0,P|284:257|310:224,1,69,2|0,1:2|1:2,0:0:0:0:
138,323,15989,1,10,0:0:0:0:
138,323,16135,2,0,P|164:345|198:351,1,69,2|0,1:2|1:2,0:0:0:0:
36,357,16428,1,10,0:0:0:0:
34,336,16501,1,8,0:0:0:0:
32,315,16574,1,10,0:0:0:0:
30,294,16648,1,8,0:0:0:0:
28,273,16721,6,0,L|-7:275,3,34.5,6|0|0|0,1:2|1:2|1:2|1:2,0:0:0:0:
123,216,17013,2,0,P|130:202|138:184,3,34.5,10|0|0|0,0:0|1:2|1:2|1:2,0:0:0:0:
118,325,17306,2,0,P|128:340|137:354,3,34.5,10|0|0|0,0:0|1:2|1:2|1:2,0:0:0:0:
216,269,17599,2,0,L|251:267,3,34.5,10|0|0|0,0:0|1:2|1:2|1:2,0:0:0:0:
340,348,17891,6,0,L|419:344,1,69,14|2,1:2|1:2,0:0:0:0:
499,384,18184,1,8,0:0:0:0:
495,287,18330,2,0,L|521:253,2,34.5,2|0|10,1:2|1:2|0:2,0:0:0:0:
410,384,18623,1,0,1:2:0:0:
404,360,18696,1,0,1:2:0:0:
388,340,18770,1,14,3:3:0:0:
368,326,18843,1,4,0:3:0:0:
344,321,18916,1,4,0:3:0:0:
319,322,18989,1,4,0:3:0:0:
291,331,19062,38,0,L|213:324,1,69,4|0,1:2|0:0,0:0:0:0:
98,316,19355,2,0,L|20:309,1,69,10|0,0:0|1:2,0:0:0:0:
141,384,19648,1,2,0:0:0:0:
141,384,19794,2,0,B|126:347|141:318|141:318|157:289|140:251,1,138,2|0,1:2|0:0,0:0:0:0:
74,156,20233,6,0,P|126:200|195:189,1,138,2|10,1:2|0:0,0:0:0:0:
323,169,20672,2,0,P|302:196|296:230,1,69,2|0,1:2|0:0,0:0:0:0:
255,349,20965,2,0,P|241:317|215:295,1,69,2|8,1:2|0:0,0:0:0:0:
374,319,21257,2,0,B|424:316|424:316|455:332|455:332|510:328,1,138,2|0,0:0|0:0,0:0:0:0:
443,233,21696,6,0,P|460:259|437:282,1,69,10|0,0:0|1:2,0:0:0:0:
294,364,21989,2,0,P|321:347|356:354,1,69,2|0,0:0|1:2,0:0:0:0:
217,279,22282,2,0,P|183:281|151:264,1,69,10|0,0:0|0:0,0:0:0:0:
61,181,22574,38,0,P|129:175|198:169,1,138,2|10,1:2|0:0,0:0:0:0:
275,286,23013,2,0,P|214:301|150:263,1,138,2|0,1:2|1:2,0:0:0:0:
322,202,23452,2,0,L|394:196,1,69,8|0,0:0|0:0,0:0:0:0:
512,189,23745,5,4,1:2:0:0:
512,189,24038,2,8,B|524:156|524:156|510:122,1,69,10|0,0:0|1:2,0:0:0:0:
512,281,24330,1,2,0:2:0:0:
512,281,24477,2,0,P|485:229|408:209,1,138,2|0,1:2|0:0,0:0:0:0:
284,293,24916,6,0,B|334:288|334:288|369:303|369:303|418:298,1,138,2|8,1:2|0:0,0:0:0:0:
491,215,25355,2,0,L|485:144,1,69,2|0,1:2|0:0,0:0:0:0:
358,203,25648,2,0,P|364:275|369:348,1,138,2|0,1:2|1:2,0:0:0:0:
241,308,26087,38,0,P|207:310|177:294,1,69,14|0,0:2|1:2,0:0:0:0:
74,264,26379,2,0,P|54:235|53:201,1,69,8|0,0:0|1:2,0:0:0:0:
10,316,26672,6,0,P|43:318|73:302,1,69,10|0,0:0|1:2,0:0:0:0:
170,264,26964,2,0,P|189:235|190:201,1,69,8|0,0:0|1:2,0:0:0:0:
151,97,27257,5,10,0:0:0:0:
170,95,27330,1,0,1:2:0:0:
191,95,27404,1,0,1:2:0:0:
211,94,27477,1,0,1:2:0:0:
234,108,27550,38,0,L|230:61,3,34.5,8|8|10|8,3:3|3:0|3:0|3:0,0:0:0:0:
320,178,27843,2,0,L|324:214,3,34.5,4|4|4|4,3:0|3:0|3:0|3:0,0:0:0:0:
391,95,28135,2,0,B|499:94,1,103.5,12|0,1:2|0:0,0:0:0:0:
495,95,28428,6,0,B|507:63|507:63|495:27,1,69,4|0,1:2|0:0,0:0:0:0:
366,63,28721,2,0,B|354:95|354:95|366:131,1,69,10|0,0:0|1:2,0:0:0:0:
443,214,29013,1,2,0:0:0:0:
443,214,29160,2,0,P|392:168|325:169,1,138,2|0,1:2|0:0,0:0:0:0:
200,215,29599,6,0,P|131:224|79:183,1,138,2|8,1:2|0:0,0:0:0:0:
228,151,30038,2,0,L|232:228,1,69,2|0,1:2|0:0,0:0:0:0:
237,309,30330,2,0,L|241:386,1,69,2|8,1:2|0:0,0:0:0:0:
352,365,30623,2,0,B|406:364|406:364|437:384|487:373,1,138,2|0,0:0|0:0,0:0:0:0:
487,372,31062,38,0,L|509:306,1,69,10|0,0:0|1:2,0:0:0:0:
379,319,31355,1,2,0:0:0:0:
379,319,31501,2,0,L|368:235,1,69,2|8,1:2|0:0,0:0:0:0:
244,325,31794,6,0,P|172:320|104:315,1,138,2|0,0:0|1:2,0:0:0:0:
20,273,32233,1,10,0:0:0:0:
20,273,32379,2,0,P|91:273|135:218,1,138,2|0,1:2|1:2,0:0:0:0:
131,207,32745,1,0,1:2:0:0:
129,189,32818,2,0,L|121:111,1,69,12|0,0:0|1:2,0:0:0:0:
179,311,33111,5,4,1:2:0:0:
179,311,33404,2,0,L|187:392,1,69,10|0,0:0|1:2,0:0:0:0:
75,349,33696,2,0,B|135:346|135:346|152:354|152:354|219:350,1,138,2|8,0:0|0:0,0:0:0:0:
304,367,34135,1,0,0:0:0:0:
409,344,34282,38,0,P|437:286|406:224,1,138,2|10,1:2|0:0,0:0:0:0:
390,111,34721,2,0,P|364:133|331:142,1,69,2|0,1:2|0:0,0:0:0:0:
220,201,35013,1,2,1:2:0:0:
220,201,35087,1,0,1:2:0:0:
220,201,35160,2,0,P|253:209|279:232,1,69,10|0,0:0|0:0,0:0:0:0:
118,170,35452,6,0,L|70:170,3,34.5,14|0|0|0,0:0|1:2|1:2|1:2,0:0:0:0:
210,116,35745,2,0,L|206:82,3,34.5,8|0|2|0,0:0|1:2|1:2|1:2,0:0:0:0:
275,197,36038,2,0,L|279:234,3,34.5,8|0|0|0,0:0|1:2|1:2|1:2,0:0:0:0:
375,170,36330,2,0,L|428:170,3,34.5,8|0|0|0,0:0|1:2|1:2|1:2,0:0:0:0:
508,252,36623,6,0,P|481:283|412:274,1,103.5,12|0,1:2|0:0,0:0:0:0:
423,282,36916,6,0,B|436:320|436:320|420:364,1,75.9000023162842,10|0,0:0|3:0,0:0:0:0:
305,244,37209,2,0,B|317:281|317:281|304:315,1,75.9000023162842,10|0,0:3|3:0,0:0:0:0:
181,206,37501,2,0,B|193:243|193:243|177:287,1,75.9000023162842,6|0,3:0|1:0,0:0:0:0:
186,291,37721,1,0,1:2:0:0:
193,305,37794,22,0,P|120:275|29:283,1,165.6,6|0,1:2|1:2,0:0:0:0:
61,185,38379,2,0,L|69:244,1,55.2,8|0,0:0|0:0,0:0:0:0:
206,209,38672,6,0,B|250:209|250:209|286:209|280:228|326:229|326:229|370:229,1,165.6,0|0,1:2|1:2,0:0:0:0:
478,295,39257,2,0,L|422:300,1,55.2,2|0,0:0|1:2,0:0:0:0:
511,214,39550,1,10,0:0:0:0:
511,214,39696,1,4,1:2:0:0:
295,238,40135,6,0,P|213:221|185:148,1,165.6,6|0,1:2|1:2,0:0:0:0:
148,66,40721,2,0,B|157:92|157:92|148:120,1,55.2,10|0,0:0|0:0,0:0:0:0:
267,93,41013,38,0,P|354:93|436:93,1,165.6,2|0,1:2|1:2,0:0:0:0:
399,172,41599,2,0,P|422:188|449:193,1,55.2,2|0,0:0|1:2,0:0:0:0:
512,262,41891,1,8,0:0:0:0:
512,262,42038,2,0,P|473:298|416:303,1,110.4,4|8,1:2|0:0,0:0:0:0:
341,371,42477,6,0,P|301:355|287:301,1,82.8,4|0,1:2|0:0,0:0:0:0:
286,321,42770,22,0,L|212:318,1,62.0999981048585,2|0,0:0|1:2,0:0:0:0:
127,313,43062,2,0,B|71:310|71:310|57:316|57:316|4:314,1,124.199996209717,10|0,0:0|1:2,0:0:0:0:
182,233,43648,2,0,L|185:159,1,62.0999981048585,2|0,0:0|1:2,0:0:0:0:
117,93,43940,22,0,P|154:134|227:128,1,110.4,2|8,0:0|0:0,0:0:0:0:
298,91,44379,1,4,0:0:0:0:
298,91,44526,2,0,L|305:150,1,55.2,2|0,0:0|0:0,0:0:0:0:
409,109,44818,6,0,P|467:113|508:158,1,110.4,14|0,0:0|1:2,0:0:0:0:
484,37,45257,1,0,1:2:0:0:
484,37,45404,2,0,L|462:101,1,55.2,10|0,0:0|1:2,0:0:0:0:
432,185,45696,2,0,L|408:249,1,55.2,0|0,1:2|1:2,0:0:0:0:
427,358,45989,6,0,B|389:337|389:337|355:346|317:337,1,110.4,14|0,0:0|1:2,0:0:0:0:
220,377,46428,1,0,1:2:0:0:
220,377,46574,2,0,L|210:317,1,55.2,14|8,0:0|0:0,0:0:0:0:
110,355,46867,2,0,L|52:353,1,55.2,8|8,0:0|0:0,0:0:0:0:
157,243,47160,38,0,P|88:241|20:239,1,138,14|2,1:2|1:2,0:0:0:0:
69,148,47599,1,2,1:2:0:0:
69,148,47745,2,0,P|78:115|66:82,1,69,8|0,0:0|1:2,0:0:0:0:
4,250,48038,6,0,P|72:252|141:254,1,138,2|10,0:0|0:0,0:0:0:0:
218,309,48477,1,0,1:2:0:0:
309,376,48623,22,0,B|343:369|343:369|381:377,1,69,2|0,1:2|1:2,0:0:0:0:
495,300,48916,1,10,0:0:0:0:
476,310,48989,1,8,3:0:0:0:
455,310,49062,1,8,3:0:0:0:
435,303,49135,1,8,3:0:0:0:
421,286,49209,2,0,L|415:241,3,34.5,4|4|4|4,3:0|3:0|3:0|3:0,0:0:0:0:
437,219,49501,6,0,B|382:212|382:212|344:224|344:224|288:216,1,151.800004632568,6|0,1:2|3:0,0:0:0:0:
184,314,49940,1,2,3:0:0:0:
184,314,50087,2,0,B|221:320|221:320|257:300,1,75.9000023162842,0|2,3:0|3:2,0:0:0:0:
98,272,50379,2,0,L|16:258,1,75.9000023162842,2|0,3:0|0:0,0:0:0:0:
12,146,50672,37,10,0:0:0:0:
29,160,50745,1,0,1:2:0:0:
51,163,50818,1,0,1:2:0:0:
73,158,50891,1,0,1:2:0:0:
97,176,50965,37,2,1:2:0:0:
106,144,51038,1,4,0:3:0:0:
132,125,51111,1,4,0:3:0:0:
163,118,51184,1,4,0:3:0:0:
194,126,51257,1,10,0:0:0:0:
360,274,51696,6,0,P|320:338|244:336,1,158.700003026962,6|2,1:2|1:2,0:0:0:0:
183,216,52135,2,0,L|179:134,1,79.3500015134812,8|0,0:0|0:0,0:0:0:0:
112,273,52428,1,0,2:3:0:0:
212,259,52574,1,0,2:3:0:0:
319,244,52721,2,0,L|407:232,1,79.3500015134812,8|4,0:0|1:2,0:0:0:0:
476,128,53013,6,0,P|487:93|471:52,1,79.3500015134812,2|0,0:0|1:2,0:0:0:0:
430,230,53306,2,0,P|468:236|495:264,1,79.3500015134812,10|0,0:0|0:0,0:0:0:0:
365,146,53599,2,0,P|283:146|203:146,1,158.700003026962,2|8,1:2|0:0,0:0:0:0:
78,226,54038,38,0,P|116:287|208:277,1,158.700003026962,6|2,1:2|1:2,0:0:0:0:
291,352,54477,2,0,P|255:330|206:329,1,79.3500015134812,8|0,0:0|1:2,0:0:0:0:
288,242,54770,1,0,0:0:0:0:
393,286,54916,1,0,1:2:0:0:
511,242,55062,2,0,B|525:206|525:206|508:162,1,79.3500015134812,10|4,0:0|1:2,0:0:0:0:
400,71,55355,6,0,P|447:127|530:122,1,158.700003026962,2|10,0:0|0:0,0:0:0:0:
294,93,55794,2,0,L|304:12,1,79.3500015134812,2|0,1:2|0:0,0:0:0:0:
350,183,56087,2,0,L|269:211,1,79.3500015134812,2|8,1:2|0:0,0:0:0:0:
159,312,56379,6,0,B|213:309|213:309|251:328|251:328|313:324,1,158.700003026962,6|0,1:2|1:2,0:0:0:0:
409,384,56818,2,0,P|452:383|483:360,1,79.3500015134812,10|0,0:0|0:0,0:0:0:0:
391,269,57111,1,0,1:2:0:0:
313,323,57257,1,0,1:2:0:0:
235,378,57404,2,0,L|153:374,1,79.3500015134812,10|4,0:0|1:2,0:0:0:0:
48,308,57696,38,0,P|125:328|194:283,1,158.700003026962,2|8,0:0|0:0,0:0:0:0:
313,323,58135,2,0,L|306:237,1,79.3500015134812,2|0,1:2|0:0,0:0:0:0:
189,289,58428,2,0,L|197:380,1,79.3500015134812,2|8,1:2|0:0,0:0:0:0:
313,323,58721,6,0,B|354:323|354:323|384:323|398:342|430:342|430:342|473:342,1,158.700003026962,6|0,1:2|1:2,0:0:0:0:
468,342,59160,22,0,B|485:302|485:302|465:258,1,82.7999974731446,10|0,0:0|1:2,0:0:0:0:
292,285,59452,2,0,B|275:325|275:325|295:369,1,82.7999974731446,2|0,0:0|1:2,0:0:0:0:
372,208,59745,1,10,0:0:0:0:
247,139,59891,1,0,1:2:0:0:
245,125,59965,1,0,1:2:0:0:
243,111,60038,22,0,L|237:69,3,39.6750007567406,10|0|0|0,0:0|1:2|1:2|1:2,0:0:0:0:
133,165,60330,2,0,L|129:213,3,39.6750007567406,10|0|0|0,0:0|1:2|1:2|1:2,0:0:0:0:
265,254,60623,2,0,L|259:212,3,39.6750007567406,10|0|0|0,0:0|1:2|1:2|1:2,0:0:0:0:
216,346,60916,1,10,0:0:0:0:
216,346,60989,1,0,1:2:0:0:
216,346,61062,6,0,P|273:302|354:315,1,158.700003026962,6|2,1:2|1:2,0:0:0:0:
440,260,61501,2,0,L|455:181,1,79.3500015134812,8|0,0:0|0:0,0:0:0:0:
354,217,61794,1,0,1:2:0:0:
244,202,61940,1,0,1:2:0:0:
146,260,62087,2,0,L|55:253,1,79.3500015134812,10|4,0:0|1:2,0:0:0:0:
173,364,62379,6,0,B|239:358|239:358|280:387|331:376,1,158.700003026962,2|8,0:0|0:0,0:0:0:0:
412,282,62818,1,0,0:0:0:0:
412,282,62965,2,0,B|425:244|425:244|407:200,1,79.3500015134812,2|2,1:2|1:2,0:0:0:0:
327,247,63257,1,8,0:0:0:0:
456,321,63404,38,0,P|452:243|447:153,1,158.700003026962,6|2,1:2|1:2,0:0:0:0:
384,69,63843,2,0,L|467:54,1,79.3500015134812,8|0,0:0|1:2,0:0:0:0:
304,149,64135,1,0,0:0:0:0:
218,88,64282,1,0,1:2:0:0:
126,122,64428,2,0,L|40:122,1,79.3500015134812,10|4,0:0|1:2,0:0:0:0:
0,242,64721,6,0,B|58:238|58:238|94:254|94:254|154:249,1,158.700003026962,2|10,0:0|0:0,0:0:0:0:
286,329,65160,2,0,P|248:335|211:320,1,79.3500015134812,2|0,1:2|0:0,0:0:0:0:
324,214,65452,2,0,L|316:129,1,79.3500015134812,2|8,1:2|0:0,0:0:0:0:
256,241,65745,6,0,P|336:237|421:233,1,158.700003026962,6|0,1:2|1:2,0:0:0:0:
512,290,66184,2,0,L|522:372,1,79.3500015134812,10|0,0:0|0:0,0:0:0:0:
422,222,66477,1,0,1:2:0:0:
499,152,66623,1,0,1:2:0:0:
439,68,66770,2,0,B|453:29|453:29|437:-5,1,79.3500015134812,10|0,0:0|1:2,0:0:0:0:
305,46,67062,38,0,B|267:57|227:36|227:36|189:17|150:25,1,158.700003026962,2|8,0:0|0:0,0:0:0:0:
22,0,67501,2,0,L|37:78,1,79.3500015134812,2|0,0:0|1:2,0:0:0:0:
8,199,67794,2,0,L|90:186,1,79.3500015134812,2|8,1:2|0:0,0:0:0:0:
206,319,68087,6,0,P|144:341|72:273,1,158.700003026962,6|0,1:2|1:2,0:0:0:0:
214,191,68526,22,0,L|206:137,3,39.6750007567406,2|0|0|0,1:2|1:2|1:2|1:2,0:0:0:0:
324,181,68818,2,0,L|354:150,3,39.6750007567406,10|0|8|0,0:0|1:2|0:2|1:2,0:0:0:0:
385,277,69111,1,0,1:2:0:0:
364,271,69184,1,0,1:2:0:0:
344,273,69257,1,8,0:2:0:0:
327,282,69330,1,0,1:2:0:0:
316,297,69404,54,0,P|397:288|468:279,1,119.025002270222,2|0,1:2|0:2,0:0:0:0:
474,301,69696,38,0,L|467:254,3,39.6750007567406,2|0|2|0,1:2|0:0|1:2|0:0,0:0:0:0:
512,173,69989,2,0,L|465:157,3,39.6750007567406,8|8|8|8,0:0|3:0|3:0|3:0,0:0:0:0:
485,55,70282,1,4,3:0:0:0:
470,60,70355,1,4,3:0:0:0:
454,64,70428,1,4,3:0:0:0:
438,69,70501,1,4,3:0:0:0:
422,73,70574,6,0,P|356:73|306:22,1,138,6|0,1:2|1:2,0:0:0:0:
270,130,71013,1,2,1:2:0:0:
270,130,71160,2,0,P|298:112|335:105,1,69,8|0,0:0|1:2,0:0:0:0:
176,105,71452,2,0,P|174:71|186:36,1,69,2|0,1:2|1:2,0:0:0:0:
76,138,71745,6,0,P|27:94|7:20,1,138,10|0,0:0|1:2,0:0:0:0:
117,45,72184,1,2,1:2:0:0:
117,45,72330,2,0,L|190:38,1,69,8|0,0:0|1:2,0:0:0:0:
283,54,72623,2,0,L|356:47,1,69,2|0,1:2|1:2,0:0:0:0:
466,119,72916,38,0,P|437:149|393:149,1,79.3500015134812,14|0,0:0|1:2,0:0:0:0:
440,245,73209,1,0,1:2:0:0:
440,245,73355,1,0,1:2:0:0:
315,306,73501,6,0,P|303:265|325:227,1,79.3500015134812,14|0,0:0|1:2,0:0:0:0:
218,220,73794,1,0,1:2:0:0:
218,220,73940,1,0,1:2:0:0:
232,86,74087,6,0,P|273:96|295:134,1,79.3500015134812,14|4,0:2|0:3,0:0:0:0:
105,118,74379,2,0,B|87:82|87:82|104:47,1,79.3500015134812,4|4,0:3|0:3,0:0:0:0:
190,207,74672,1,10,0:2:0:0:
188,229,74745,1,0,1:2:0:0:
185,250,74818,1,0,1:2:0:0:
183,272,74891,1,0,1:2:0:0:
174,303,74965,37,4,3:0:0:0:
201,287,75038,1,4,3:0:0:0:
232,289,75111,1,4,3:0:0:0:
262,300,75184,1,4,3:0:0:0:
281,325,75257,1,4,1:2:0:0:
285,328,77599,5,6,1:2:0:0:
285,328,77745,2,0,L|212:328,1,69,2|8,0:0|0:0,0:0:0:0:
380,292,78038,1,2,1:2:0:0:
380,292,78184,2,0,L|337:231,1,69,2|0,0:0|1:2,0:0:0:0:
476,326,78477,2,0,P|485:271|498:204,1,103.5,10|0,0:0|0:0,0:0:0:0:
512,198,78770,6,0,P|479:178|485:147,2,69,2|2|8,1:2|1:2|0:0,0:0:0:0:
402,91,79209,1,2,1:2:0:0:
402,91,79355,2,0,P|372:110|332:108,1,69,2|0,0:0|1:2,0:0:0:0:
271,187,79648,2,0,P|240:174|204:171,1,69,10|0,0:0|0:0,0:0:0:0:
91,134,79940,37,6,1:2:0:0:
91,134,80087,2,0,L|22:134,1,69,2|8,0:0|0:0,0:0:0:0:
179,92,80379,1,2,1:2:0:0:
234,149,80526,1,2,0:0:0:0:
292,205,80672,1,0,1:2:0:0:
381,163,80818,2,0,P|434:163|490:163,1,103.5,10|0,0:0|0:0,0:0:0:0:
508,127,81111,5,10,0:0:0:0:
508,127,81257,2,0,L|517:203,1,69,2|0,1:2|1:2,0:0:0:0:
429,284,81550,1,10,0:0:0:0:
429,284,81696,2,0,L|438:360,1,69,2|0,1:2|1:2,0:0:0:0:
310,326,81989,1,10,0:0:0:0:
289,326,82062,1,8,0:0:0:0:
268,326,82135,1,10,0:0:0:0:
247,326,82209,1,8,0:0:0:0:
226,339,82282,6,0,P|230:319|230:293,3,34.5,6|0|0|0,0:0|1:2|1:2|1:2,0:0:0:0:
153,244,82574,2,0,P|135:249|119:251,3,34.5,10|0|0|0,0:0|1:2|1:2|1:2,0:0:0:0:
176,126,82867,2,0,P|183:141|193:155,3,34.5,10|0|0|0,0:0|1:2|1:2|1:2,0:0:0:0:
291,158,83160,2,0,P|299:144|313:131,3,34.5,10|0|0|0,0:2|1:2|1:2|1:2,0:0:0:0:
325,257,83452,38,0,L|397:257,1,69,14|2,1:2|1:2,0:0:0:0:
256,331,83745,1,8,0:0:0:0:
219,223,83891,2,0,L|195:197,2,34.5,2|0|10,1:2|1:2|0:0,0:0:0:0:
111,282,84184,1,0,1:2:0:0:
89,292,84257,1,0,1:2:0:0:
64,293,84330,1,14,3:0:0:0:
40,286,84404,1,4,3:0:0:0:
21,270,84477,1,4,3:0:0:0:
11,247,84550,1,4,3:0:0:0:
8,223,84623,6,0,L|-13:302,1,69,6|0,1:2|0:0,0:0:0:0:
90,151,84916,1,10,0:0:0:0:
90,151,85062,2,0,L|30:97,1,69,2|0,1:2|0:0,0:0:0:0:
111,254,85355,2,0,B|160:249|160:249|197:265|197:265|245:259,1,138,2|0,1:2|0:0,0:0:0:0:
366,301,85794,6,0,P|435:285|457:226,1,138,2|8,1:2|0:0,0:0:0:0:
446,327,86233,2,0,L|517:352,1,69,2|0,1:2|0:0,0:0:0:0:
271,349,86526,2,0,L|336:326,1,69,2|8,1:2|0:0,0:0:0:0:
392,384,86818,38,0,P|392:315|392:241,1,138,2|0,0:0|0:0,0:0:0:0:
451,181,87257,2,0,P|484:198|477:225,1,69,10|0,0:0|1:2,0:0:0:0:
392,117,87550,2,0,L|392:45,1,69,2|0,0:0|1:2,0:0:0:0:
295,21,87843,2,0,P|284:56|309:70,1,69,10|0,0:0|0:0,0:0:0:0:
451,181,88135,6,0,P|391:151|308:158,1,138,2|8,1:2|0:0,0:0:0:0:
198,110,88574,2,0,P|205:180|212:253,1,138,2|0,1:2|1:2,0:0:0:0:
311,361,89013,2,0,L|316:293,1,69,8|0,0:0|0:0,0:0:0:0:
164,335,89306,5,4,1:2:0:0:
164,335,89599,2,0,L|92:335,1,69,10|0,0:0|1:2,0:0:0:0:
22,262,89891,2,0,B|8:230|8:230|21:198,1,69,2|0,0:0|1:2,0:0:0:0:
100,120,90184,2,0,P|67:111|40:80,1,69,10|0,0:0|0:0,0:0:0:0:
166,228,90477,38,0,P|219:194|295:203,1,138,2|8,1:2|0:0,0:0:0:0:
382,168,90916,2,0,P|347:169|308:147,1,69,2|0,1:2|0:0,0:0:0:0:
512,102,91209,2,0,P|494:132|455:152,1,69,2|8,1:2|0:0,0:0:0:0:
365,90,91501,1,2,1:2:0:0:
503,34,91648,6,0,L|514:114,1,69,14|0,0:0|1:2,0:0:0:0:
365,90,91940,2,0,L|295:94,1,69,8|0,0:0|1:2,0:0:0:0:
435,250,92233,6,0,L|425:178,1,69,10|0,0:0|0:2,0:0:0:0:
248,238,92526,2,0,L|316:233,1,69,8|0,0:0|1:2,0:0:0:0:
160,165,92818,1,10,0:0:0:0:
138,166,92891,1,0,1:2:0:0:
116,168,92964,1,0,1:2:0:0:
94,169,93037,1,0,1:2:0:0:
74,185,93111,38,0,L|72:139,3,34.5,8|8|10|8,3:3|3:0|3:0|3:0,0:0:0:0:
8,262,93404,2,0,L|-30:237,3,34.5,4|4|4|4,3:0|3:0|3:0|3:0,0:0:0:0:
14,368,93696,2,0,P|53:343|116:344,1,103.5,12|0,0:0|0:0,0:0:0:0:
108,312,93989,6,0,P|142:321|175:315,1,69,4|0,1:2|0:0,0:0:0:0:
237,384,94282,2,0,P|261:359|273:327,1,69,10|0,0:0|1:2,0:0:0:0:
389,331,94574,2,0,P|379:297|358:271,1,69,2|0,0:0|1:2,0:0:0:0:
426,168,94867,2,0,P|393:160|360:166,1,69,10|0,0:0|0:0,0:0:0:0:
238,262,95160,6,0,B|188:257|188:257|151:271|151:271|103:267,1,138,2|10,1:2|0:0,0:0:0:0:
186,153,95599,2,0,P|195:187|184:219,1,69,2|0,1:2|0:0,0:0:0:0:
267,351,95891,2,0,P|258:317|269:285,1,69,2|8,1:2|0:0,0:0:0:0:
391,321,96184,38,0,P|463:321|534:321,1,138,2|0,0:0|0:0,0:0:0:0:
471,211,96623,2,0,L|394:225,1,69,10|0,0:0|1:2,0:0:0:0:
297,241,96916,2,0,L|220:255,1,69,2|0,0:0|1:2,0:0:0:0:
123,274,97209,2,0,L|46:288,1,69,10|0,0:0|0:0,0:0:0:0:
9,154,97501,6,0,L|80:159,1,69,2|0,1:2|1:2,0:0:0:0:
181,98,97794,1,10,0:0:0:0:
181,98,97940,2,0,P|184:169|243:200,1,138,2|0,1:2|1:2,0:0:0:0:
253,189,98306,1,0,1:2:0:0:
268,179,98379,2,0,L|337:184,1,69,12|0,0:0|0:0,0:0:0:0:
472,198,98672,5,4,1:2:0:0:
472,198,98965,1,10,0:0:0:0:
472,198,99111,2,0,B|485:165|485:165|470:131,1,69,2|0,1:2|0:0,0:0:0:0:
424,293,99404,2,0,P|459:292|493:303,1,69,2|8,1:2|0:0,0:0:0:0:
368,209,99696,2,0,B|314:209|314:209|276:237|235:220,1,138,2|0,0:0|1:2,0:0:0:0:
198,119,100135,37,8,0:0:0:0:
197,118,100282,2,0,L|263:140,1,69,2|0,1:2|0:0,0:0:0:0:
384,80,100574,1,2,1:2:0:0:
384,80,100648,1,0,1:2:0:0:
384,80,100721,2,0,L|318:58,1,69,8|0,0:0|0:0,0:0:0:0:
487,128,101013,6,0,L|499:91,3,34.5,12|0|0|0,0:0|1:2|1:2|1:2,0:0:0:0:
512,229,101306,2,0,L|538:257,3,34.5,8|0|0|0,0:0|1:2|1:2|1:2,0:0:0:0:
414,199,101599,2,0,L|371:211,3,34.5,8|0|0|0,0:0|1:2|1:2|1:2,0:0:0:0:
487,128,101891,2,0,L|499:91,3,34.5,8|0|0|0,0:0|1:2|1:2|1:2,0:0:0:0:
384,80,102184,6,0,B|358:86|334:74|334:74|310:62|283:69,1,103.5,12|0,1:2|0:0,0:0:0:0:
260,35,102477,6,0,B|273:71|273:71|261:107,1,75.9000023162842,10|0,0:0|3:0,0:0:0:0:
139,129,102770,2,0,B|152:165|152:165|140:201,1,75.9000023162842,10|0,3:0|3:0,0:0:0:0:
19,226,103062,2,0,B|32:262|32:262|20:298,1,75.9000023162842,6|0,3:0|1:2,0:0:0:0:
10,306,103282,1,0,1:2:0:0:
0,314,103355,22,0,P|45:376|135:367,1,165.6,6|0,1:2|1:2,0:0:0:0:
220,384,103940,2,0,L|213:330,1,55.2,8|0,0:0|0:0,0:0:0:0:
316,346,104233,6,0,B|363:336|395:360|395:360|428:384|475:375,1,165.6,0|0,1:2|1:2,0:0:0:0:
504,281,104818,2,0,L|444:289,1,55.2,2|0,0:0|1:2,0:0:0:0:
362,303,105111,1,10,0:0:0:0:
362,303,105257,1,4,1:2:0:0:
106,336,105696,6,0,P|27:316|10:233,1,165.6,6|0,1:2|1:2,0:0:0:0:
51,168,106282,2,0,P|58:141|48:111,1,55.2,10|0,0:0|0:0,0:0:0:0:
135,45,106574,38,0,B|179:45|179:45|217:45|212:68|252:68|252:68|295:68,1,165.6,2|0,1:2|1:2,0:0:0:0:
379,108,107160,2,0,L|388:53,1,55.2,2|0,0:0|1:2,0:0:0:0:
480,40,107452,1,8,0:0:0:0:
480,40,107599,2,0,P|472:93|462:155,1,110.4,4|8,1:2|0:0,0:0:0:0:
509,233,108038,6,0,B|505:229|479:260|423:259,1,82.8,4|0,1:2|0:0,0:0:0:0:
443,270,108330,22,0,B|432:337,1,62.0999981048585,2|0,0:0|1:2,0:0:0:0:
334,300,108623,2,0,B|292:300|292:300|273:307|273:307|254:300|254:300|208:300,1,124.199996209717,10|0,0:0|1:2,0:0:0:0:
52,274,109209,2,0,B|40:303|40:303|52:336,1,62.0999981048585,2|0,0:0|1:2,0:0:0:0:
13,204,109501,54,0,P|57:230|115:222,1,110.4,2|8,0:0|0:0,0:0:0:0:
198,265,109940,1,4,1:2:0:0:
198,265,110087,2,0,L|138:261,1,55.2,2|0,0:0|0:0,0:0:0:0:
301,273,110379,38,0,P|354:276|411:279,1,110.4,14|0,0:0|1:2,0:0:0:0:
498,221,110818,1,0,1:2:0:0:
498,221,110965,2,0,P|465:220|450:195,1,55.2,10|0,0:0|1:2,0:0:0:0:
467,345,111257,2,0,P|486:326|512:328,1,55.2,0|0,1:2|1:2,0:0:0:0:
379,284,111550,6,0,P|322:286|268:288,1,110.4,14|0,0:0|1:2,0:0:0:0:
177,320,111989,1,0,1:2:0:0:
177,320,112135,2,0,P|179:290|170:264,1,55.2,14|8,0:0|0:0,0:0:0:0:
87,326,112428,2,0,P|78:299|81:272,1,55.2,8|8,0:0|0:0,0:0:0:0:
9,184,112721,6,0,P|78:188|131:144,1,138,14|2,1:2|1:2,0:0:0:0:
240,168,113160,1,2,1:2:0:0:
240,168,113306,2,0,L|233:94,1,69,8|0,0:0|1:2,0:0:0:0:
343,240,113599,38,0,P|376:303|345:359,1,138,2|10,1:2|0:0,0:0:0:0:
251,345,114038,1,0,0:0:0:0:
130,329,114184,38,0,B|96:322|96:322|63:331,1,69,2|0,1:2|1:2,0:0:0:0:
0,224,114477,1,10,0:0:0:0:
17,234,114550,1,8,3:0:0:0:
37,235,114623,1,8,3:0:0:0:
57,231,114696,1,8,3:0:0:0:
73,217,114770,2,0,L|64:178,3,34.5,4|4|4|4,3:0|3:0|3:0|3:0,0:0:0:0:
50,149,115062,6,0,B|104:149|154:149|154:149|197:178,1,151.800004632568,6|0,1:2|3:0,0:0:0:0:
308,165,115501,1,2,3:0:0:0:
308,165,115648,2,0,B|303:202|303:202|326:241,1,75.9000023162842,0|0,3:2|3:2,0:0:0:0:
241,75,115940,2,0,B|275:59|275:59|298:20,1,75.9000023162842,2|0,3:2|0:0,0:0:0:0:
396,98,116233,21,10,0:0:0:0:
414,110,116306,1,0,1:2:0:0:
436,112,116379,1,0,1:2:0:0:
457,105,116452,1,0,1:2:0:0:
480,81,116526,5,6,3:0:0:0:
484,113,116599,1,4,3:0:0:0:
489,145,116672,1,4,3:0:0:0:
495,177,116745,1,4,3:0:0:0:
500,209,116818,1,8,0:0:0:0:
309,336,117257,38,0,B|352:324|385:349|385:349|418:375|459:364,1,158.700003026962,6|2,1:2|1:2,0:0:0:0:
380,225,117696,2,0,B|395:262|395:262|378:301,1,79.3500015134812,8|0,0:0|0:0,0:0:0:0:
287,246,117989,1,0,1:2:0:0:
181,225,118135,1,0,1:2:0:0:
72,246,118282,2,0,L|-9:246,1,79.3500015134812,8|4,0:0|1:2,0:0:0:0:
181,225,118574,6,0,P|193:187|175:146,1,79.3500015134812,2|0,0:0|1:2,0:0:0:0:
146,344,118867,2,0,P|181:326|220:328,1,79.3500015134812,10|0,0:0|0:0,0:0:0:0:
296,249,119160,2,0,B|352:255|352:255|391:237|391:237|450:243,1,158.700003026962,2|8,1:2|0:0,0:0:0:0:
506,138,119599,6,0,P|449:182|367:165,1,158.700003026962,6|2,1:2|1:2,0:0:0:0:
285,133,120038,2,0,L|277:46,1,79.3500015134812,8|0,0:0|1:2,0:0:0:0:
282,278,120330,1,0,0:0:0:0:
230,205,120477,1,0,1:2:0:0:
367,254,120623,2,0,L|443:280,1,79.3500015134812,10|4,0:0|1:2,0:0:0:0:
289,360,120916,38,0,P|217:369|165:308,1,158.700003026962,2|10,0:0|0:0,0:0:0:0:
62,384,121355,2,0,L|142:379,1,79.3500015134812,2|0,1:2|0:0,0:0:0:0:
0,236,121648,2,0,L|8:317,1,79.3500015134812,2|8,1:2|0:0,0:0:0:0:
82,161,121940,6,0,B|123:161|123:161|154:161|168:183|200:183|200:183|237:183,1,158.700003026962,6|0,1:2|1:2,0:0:0:0:
345,153,122379,2,0,L|340:233,1,79.3500015134812,8|0,0:0|0:0,0:0:0:0:
244,98,122672,1,0,1:2:0:0:
352,64,122818,1,0,1:2:0:0:
250,0,122965,2,0,L|171:-8,1,79.3500015134812,10|4,0:0|1:2,0:0:0:0:
70,115,123257,6,0,P|138:140|204:93,1,158.700003026962,2|8,0:0|0:0,0:0:0:0:
135,253,123696,2,0,L|117:175,1,79.3500015134812,2|0,1:2|0:0,0:0:0:0:
256,306,123989,2,0,L|256:226,1,79.3500015134812,2|8,1:2|0:0,0:0:0:0:
378,253,124282,38,0,P|395:177|413:97,1,158.700003026962,6|0,1:2|1:2,0:0:0:0:
412,98,124721,38,0,B|371:88|371:88|330:104,1,82.7999974731446,10|0,0:0|1:2,0:0:0:0:
212,90,125013,2,0,B|196:52|196:52|206:11,1,82.7999974731446,2|0,0:0|1:2,0:0:0:0:
116,169,125306,1,10,0:0:0:0:
130,292,125452,1,0,1:2:0:0:
137,280,125526,1,0,1:2:0:0:
145,268,125599,38,0,L|96:262,3,39.6750007567406,10|8|0|0,0:0|1:2|1:2|1:2,0:0:0:0:
236,331,125891,2,0,L|276:326,3,39.6750007567406,10|0|0|0,0:0|1:2|1:2|1:2,0:0:0:0:
401,269,126184,2,0,L|352:263,3,39.6750007567406,10|0|0|0,0:0|1:2|1:2|1:2,0:0:0:0:
454,353,126477,1,10,0:0:0:0:
454,353,126550,1,0,1:2:0:0:
454,353,126623,6,0,B|431:312|453:280|453:280|476:248|454:204,1,158.700003026962,6|2,1:2|1:2,0:0:0:0:
395,97,127062,2,0,B|434:103|434:103|471:85,1,79.3500015134812,8|0,0:0|0:0,0:0:0:0:
422,10,127355,1,0,1:2:0:0:
422,10,127501,1,0,1:2:0:0:
470,93,127648,2,0,B|434:110|434:110|395:104,1,79.3500015134812,10|4,0:0|1:2,0:0:0:0:
320,208,127940,38,0,P|378:258|453:241,1,158.700003026962,2|8,0:0|0:0,0:0:0:0:
357,356,128379,1,0,0:0:0:0:
357,356,128526,2,0,L|366:270,1,79.3500015134812,2|2,1:2|1:2,0:0:0:0:
256,318,128818,1,8,0:0:0:0:
131,318,128965,6,0,P|49:318|-29:318,1,158.700003026962,6|2,1:2|1:2,0:0:0:0:
77,203,129404,2,0,P|108:225|147:226,1,79.3500015134812,8|0,0:0|0:0,0:0:0:0:
242,243,129696,1,0,0:0:0:0:
334,218,129843,1,0,1:2:0:0:
427,240,129989,2,0,L|508:240,1,79.3500015134812,10|4,0:0|1:2,0:0:0:0:
441,360,130282,6,0,P|364:372|309:319,1,158.700003026962,2|10,0:0|0:0,0:0:0:0:
427,240,130721,2,0,L|417:158,1,79.3500015134812,2|0,1:2|0:0,0:0:0:0:
439,49,131013,2,0,L|449:128,1,79.3500015134812,2|8,1:2|0:0,0:0:0:0:
306,97,131306,38,0,B|237:97|237:97|218:89|218:89|149:89,1,158.700003026962,6|0,1:2|1:2,0:0:0:0:
35,122,131745,2,0,P|-5:113|-27:73,1,79.3500015134812,8|0,0:0|0:0,0:0:0:0:
125,57,132038,1,0,1:2:0:0:
114,161,132184,1,0,1:2:0:0:
104,273,132330,2,0,L|96:352,1,79.3500015134812,10|0,0:0|1:2,0:0:0:0:
238,321,132623,6,0,P|315:316|344:248,1,158.700003026962,2|8,0:0|0:0,0:0:0:0:
420,361,133062,2,0,P|387:340|340:338,1,79.3500015134812,2|0,0:0|1:2,0:0:0:0:
458,265,133355,2,0,L|537:260,1,79.3500015134812,2|8,1:2|0:0,0:0:0:0:
411,146,133648,6,0,P|330:149|246:152,1,158.700003026962,6|0,1:2|1:2,0:0:0:0:
106,176,134087,6,0,L|102:127,3,39.6750007567406,2|0|0|0,1:2|1:2|1:2|1:2,0:0:0:0:
27,252,134379,2,0,L|-10:237,3,39.6750007567406,10|0|8|0,1:2|0:0|0:0|1:2,0:0:0:0:
60,359,134672,1,0,1:2:0:0:
79,344,134745,1,0,1:2:0:0:
102,338,134818,1,0,1:2:0:0:
125,338,134891,1,0,1:2:0:0:
148,344,134965,22,0,B|192:342|192:342|221:354|221:354|265:351,1,119.025002270222,2|0,1:2|0:0,0:0:0:0:
290,373,135257,6,0,L|291:321,3,39.6750007567406,2|0|2|0,1:2|0:0|1:2|0:0,0:0:0:0:
400,348,135550,2,0,L|401:296,3,39.6750007567406,10|8|8|8,0:0|3:0|3:0|3:0,0:0:0:0:
511,318,135843,1,6,3:0:0:0:
511,308,135916,1,4,3:0:0:0:
511,298,135989,1,4,3:0:0:0:
511,288,136062,1,4,3:0:0:0:
512,278,136135,6,0,P|445:275|395:213,1,138,6|0,1:2|1:2,0:0:0:0:
315,167,136574,1,2,1:2:0:0:
315,167,136721,2,0,L|301:238,1,69,8|0,0:0|1:2,0:0:0:0:
207,247,137013,2,0,L|168:189,1,69,2|0,1:2|1:2,0:0:0:0:
148,319,137306,38,0,P|74:311|8:304,1,138,10|0,0:0|1:2,0:0:0:0:
0,198,137745,1,2,1:2:0:0:
0,198,137891,2,0,P|28:216|68:220,1,69,8|0,0:0|1:2,0:0:0:0:
152,210,138184,2,0,P|181:194|205:162,1,69,2|0,1:2|1:2,0:0:0:0:
318,159,138477,6,0,B|303:123|303:123|319:87,1,79.3500015134812,14|0,0:0|1:2,0:0:0:0:
406,130,138770,1,0,1:2:0:0:
406,130,138916,1,0,1:2:0:0:
410,239,139062,6,0,B|425:275|425:275|409:311,1,79.3500015134812,14|0,0:0|1:2,0:0:0:0:
322,268,139355,1,0,1:2:0:0:
322,268,139501,1,0,1:2:0:0:
249,369,139648,38,0,P|230:342|191:354,1,79.3500015134812,14|8,0:0|3:0,0:0:0:0:
69,277,139940,2,0,P|110:281|143:251,1,79.3500015134812,8|8,3:0|3:0,0:0:0:0:
268,197,140233,1,10,0:0:0:0:
246,187,140306,1,0,1:2:0:0:
224,176,140379,1,0,1:2:0:0:
202,166,140452,1,0,1:2:0:0:
169,154,140526,5,4,3:0:0:0:
202,147,140599,1,4,3:0:0:0:
235,140,140672,1,4,3:0:0:0:
268,134,140745,1,4,3:0:0:0:
302,128,140818,1,4,1:2:0:0:
256,192,143160,12,0,144623,0:0:0:0:
68,68,144916,6,0,L|58:14,1,34.5,10|0,0:0|0:0,0:0:0:0:
159,59,145062,2,0,L|152:17,1,34.5,10|0,0:0|0:0,0:0:0:0:
62,84,145209,38,0,L|52:30,1,34.5,10|0,0:0|0:0,0:0:0:0:
153,75,145355,2,0,L|146:33,1,34.5,10|0,0:0|0:0,0:0:0:0:
118,166,145501,38,0,B|139:331|139:331|220:321,1,248.399992419434,6|0,1:2|1:2,0:0:0:0:
366,383,146087,37,10,0:0:0:0:
366,383,146233,2,0,P|335:371|299:371,1,69,2|0,1:2|0:0,0:0:0:0:
387,283,146526,2,0,P|455:292|509:255,1,138,2|10,1:2|0:0,0:0:0:0:
510,255,146965,6,0,L|512:186,1,69,2|0,1:2|1:2,0:0:0:0:
424,182,147257,2,0,L|410:101,1,69,10|0,0:0|1:2,0:0:0:0:
316,153,147550,2,0,L|261:110,1,69,2|8,0:0|0:0,0:0:0:0:
191,199,147843,38,0,L|115:195,1,69,2|8,1:2|0:0,0:0:0:0:
22,228,148135,2,0,P|11:195|22:160,1,69,2|0,1:2|1:2,0:0:0:0:
0,328,148428,1,10,0:0:0:0:
0,328,148574,2,0,P|38:281|120:289,1,138,2|2,1:2|1:2,0:0:0:0:
125,290,148940,1,0,1:2:0:0:
141,298,149013,6,0,L|119:228,1,69,0|10,1:2|0:0,0:0:0:0:
262,231,149306,2,0,L|235:295,1,69,2|0,1:2|1:2,0:0:0:0:
307,353,149599,6,0,L|376:330,1,69,10|8,0:0|0:0,0:0:0:0:
472,298,149891,2,0,L|537:278,1,69,2|2,1:2|1:2,0:0:0:0:
474,363,150184,38,0,P|483:332|472:297,1,69,6|8,1:2|0:0,0:0:0:0:
371,264,150477,2,0,P|362:295|373:330,1,69,2|0,1:2|1:2,0:0:0:0:
430,177,150770,1,10,0:0:0:0:
430,177,150916,2,0,P|377:218|307:208,1,138,2|2,1:2|1:2,0:0:0:0:
295,218,151282,1,0,1:2:0:0:
281,224,151355,6,0,L|206:218,1,69,0|10,1:2|0:0,0:0:0:0:
110,224,151648,2,0,L|35:218,1,69,2|0,1:2|0:0,0:0:0:0:
134,331,151940,6,0,L|124:239,1,69,10|0,0:0|1:2,0:0:0:0:
198,177,152233,2,0,L|188:85,1,69,2|2,0:0|1:2,0:0:0:0:
183,96,152452,1,0,1:2:0:0:
176,84,152526,38,0,P|212:86|244:70,1,69,2|8,1:2|0:0,0:0:0:0:
363,27,152818,38,0,B|350:62|350:62|363:98,1,75.9000023162842,2|0,1:2|1:2,0:0:0:0:
510,121,153111,2,0,B|486:92|486:92|448:85,1,75.9000023162842,10|0,0:0|1:2,0:0:0:0:
358,201,153404,2,0,B|394:194|394:194|419:165,1,75.9000023162842,2|8,0:0|0:0,0:0:0:0:
461,285,153696,5,2,1:2:0:0:
385,347,153843,1,8,0:0:0:0:
385,347,153916,1,8,0:0:0:0:
385,347,153989,2,0,B|306:344,1,75.9000023162842,8|0,0:0|1:2,0:0:0:0:
216,377,154282,2,0,L|219:300,1,75.9000023162842,10|8,0:0|0:0,0:0:0:0:
127,338,154574,2,0,P|63:336|3:334,1,113.850003474426,0|0,1:2|0:0,0:0:0:0:
0,384,154867,22,0,B|-9:322|-9:322|-19:260|-1:217|57:198|106:233,1,258.75,6|0,1:2|0:0,0:0:0:0:
105,232,155452,22,0,B|117:197|117:197|104:158,1,75.9000023162842,10|0,0:0|1:2,0:0:0:0:
223,220,155745,2,0,B|234:184|234:184|221:145,1,75.9000023162842,2|0,0:0|1:2,0:0:0:0:
338,210,156038,2,0,B|349:174|349:174|336:135,1,75.9000023162842,2|0,2:2|1:2,2:2:0:0:
414,293,156330,5,2,1:2:0:0:
414,293,156477,2,0,B|375:320|375:320|320:320|320:320|280:349,1,151.800004632568,2|0,1:2|1:2,0:0:0:0:
170,332,156916,1,0,1:2:0:0:
149,342,156989,1,0,1:2:0:0:
126,344,157062,1,0,1:2:0:0:
102,338,157135,1,0,1:2:0:0:
83,322,157209,54,0,L|5:322,1,75.9000023162842,0|0,1:2|1:2,0:0:0:0:
46,219,157501,2,0,B|34:184|34:184|46:147,1,75.9000023162842,2|0,1:2|1:2,0:0:0:0:
165,199,157794,2,0,B|154:163|154:163|166:126,1,75.9000023162842,10|0,0:0|1:2,0:0:0:0:
282,183,158087,2,0,B|271:147|271:147|283:110,1,75.9000023162842,2|0,0:0|1:2,0:0:0:0:
400,249,158379,6,0,L|479:261,1,75.9000023162842,2|0,0:0|1:2,0:0:0:0:
330,315,158672,2,0,L|360:386,1,75.9000023162842,2|0,1:2|1:2,0:0:0:0:
232,321,158965,1,8,0:0:0:0:
227,334,159038,1,8,0:0:0:0:
223,347,159111,1,8,0:0:0:0:
219,361,159184,1,8,0:0:0:0:
214,376,159257,2,0,L|264:371,3,37.9500011581421,2|2|2|2,1:2|1:2|1:2|1:2,0:0:0:0:
122,382,159550,54,0,B|55:402|5:336|38:281|38:281|9:250|9:250|9:206,1,258.75,6|0,1:2|1:2,0:0:0:0:
9,205,160135,6,0,B|85:199,1,75.9000023162842,10|0,0:0|0:0,0:0:0:0:
222,268,160428,2,0,L|146:275,1,75.9000023162842,2|0,1:2|1:2,0:0:0:0:
273,173,160721,2,0,B|349:167,1,75.9000023162842,2|8,1:2|0:0,0:0:0:0:
486,257,161014,2,0,L|410:264,1,75.9000023162842,2|0,1:2|1:2,0:0:0:0:
314,377,161306,54,0,B|327:341|327:341|313:306,1,75.9000023162842,10|2,0:2|1:2,0:0:0:0:
222,268,161599,2,0,B|209:304|209:304|223:339,1,75.9000023162842,2|2,1:2|1:2,0:0:0:0:
344,202,161891,6,0,L|334:124,1,75.9000023162842,0|0,1:2|1:2,0:0:0:0:
434,276,162184,2,0,L|510:269,1,75.9000023162842,2|0,1:2|1:2,0:0:0:0:
369,362,162477,2,0,B|317:362|317:362|291:372|291:372|267:362|267:362|220:362,1,151.800004632568,8|10,0:0|0:0,0:0:0:0:
221,362,162843,1,0,1:2:0:0:
221,362,162916,1,8,0:0:0:0:
57,313,163062,54,2,L|133:306,1,75.9000023162842,2|10,1:2|0:0,0:0:0:0:
171,219,163355,2,0,L|109:171,1,75.9000023162842,8|8,0:0|0:0,0:0:0:0:
251,95,163648,2,0,L|266:170,1,75.9000023162842,8|8,0:0|0:0,0:0:0:0:
378,188,163940,2,0,L|415:114,1,75.9000023162842,8|8,0:0|0:0,0:0:0:0:
459,289,164233,54,0,B|413:280|381:306|381:306|348:332|303:322,1,165.6,6|0,1:2|0:0,0:0:0:0:
217,350,164818,2,0,L|219:284,2,55.2,8|0|0,0:0|0:0|0:0,0:0:0:0:
88,221,165404,2,0,L|21:221,2,55.2,0|0|0,1:2|0:0|0:0,0:0:0:0:
224,151,165989,2,0,L|226:85,1,55.2,8|0,0:0|0:0,0:0:0:0:
188,24,166282,38,0,P|250:70|335:62,1,165.6,2|0,0:0|0:0,0:0:0:0:
373,148,166867,2,0,P|444:113|526:126,1,165.6,2|0,0:0|0:0,0:0:0:0:
470,61,167452,1,2,0:0:0:0:
504,229,167745,6,0,P|501:286|498:349,1,110.4,0|2,1:2|0:0,0:0:0:0:
400,340,168184,1,0,1:2:0:0:
400,340,168330,2,0,L|367:295,1,55.2,8|0,0:2|0:0,0:0:0:0:
313,384,168623,2,0,L|252:369,1,55.2,2|0,0:0|1:2,0:0:0:0:
146,384,168916,6,0,L|160:330,2,55.2,4|0|0,1:2|0:0|0:0,0:0:0:0:
22,208,169501,2,0,L|33:263,2,55.2,8|0|0,0:0|0:0|0:0,0:0:0:0:
146,132,170087,2,0,L|160:78,1,55.2,0|0,1:2|0:0,0:0:0:0:
74,90,170379,37,2,0:0:0:0:
244,121,170672,2,0,P|300:118|357:115,1,110.4,10|0,0:0|0:0,0:0:0:0:
482,228,171257,6,0,P|442:288|349:283,1,165.6,2|0,1:2|0:0,0:0:0:0:
397,353,171843,5,10,0:0:0:0:
401,220,172135,1,0,1:2:0:0:
222,363,172428,37,10,0:0:0:0:
230,190,172721,1,0,1:2:0:0:
61,271,173013,6,0,L|124:273,1,55.2,8|0,0:0|1:2,0:0:0:0:
198,276,173306,2,0,L|261:278,1,55.2,2|0,1:2|1:2,0:0:0:0:
334,317,173599,6,0,P|347:294|374:274,2,55.2,4|0|0,1:2|0:0|0:0,0:0:0:0:
198,276,174184,2,0,P|183:253|180:219,2,55.2,8|0|0,0:0|0:0|0:0,0:0:0:0:
87,366,174770,2,0,P|57:366|28:353,1,55.2,0|0,1:2|0:0,0:0:0:0:
75,287,175062,37,2,0:0:0:0:
214,359,175355,2,0,P|270:357|327:355,1,110.4,10|0,0:0|0:0,0:0:0:0:
377,292,175794,1,2,0:0:0:0:
446,376,175940,6,0,P|494:358|502:290,1,110.4,0|0,1:2|0:0,0:0:0:0:
485,228,176379,2,0,L|419:230,1,55.2,0|8,1:2|0:0,0:0:0:0:
288,267,176818,2,0,L|354:265,1,55.2,0|0,1:2|1:2,0:0:0:0:
186,292,177111,5,8,0:0:0:0:
186,292,177257,1,0,1:2:0:0:
186,292,177404,2,0,B|179:262|179:262|189:229,1,55.2,10|0,3:0|1:2,0:0:0:0:
318,301,177696,2,0,B|325:331|325:331|315:364,1,55.2,10|4,0:0|3:0,0:0:0:0:
222,330,177989,2,0,P|181:330|140:330,1,82.8,4|0,3:0|0:0,0:0:0:0:
117,342,178282,38,0,P|64:346|21:312,3,110.4,6|2|8|2,1:2|0:0|0:0|0:0,0:0:0:0:
205,255,179452,6,0,P|180:212|202:172,3,96.599997052002,2|2|8|2,1:2|0:0|0:0|0:0,0:0:0:0:
325,268,180623,6,0,P|348:240|390:247,3,82.7999974731446,2|2|8|2,1:2|0:0|0:0|0:0,0:0:0:0:
373,360,181794,38,0,B|410:350|439:368|439:368|468:384|509:377,1,138,2|8,1:2|0:0,0:0:0:0:
486,296,182526,1,0,1:2:0:0:
486,296,182818,1,0,1:2:0:0:
372,272,182965,6,0,P|384:308|374:343,1,69,12|0,0:0|1:2,0:0:0:0:
285,278,183257,2,0,P|278:311|290:343,1,69,0|0,1:2|1:2,0:0:0:0:
175,231,183550,6,0,P|179:268|163:301,1,69,8|0,0:0|1:2,0:0:0:0:
84,219,183842,2,0,P|71:250|76:284,1,69,0|0,1:2|1:2,0:0:0:0:
307,190,184135,38,0,B|294:158|294:158|301:124,1,69,8|0,0:0|1:2,0:0:0:0:
403,184,184427,2,0,B|409:150|409:150|397:118,1,69,0|0,1:2|1:2,0:0:0:0:
184,129,184721,6,0,B|199:97|199:97|196:63,1,69,8|0,0:0|1:2,0:0:0:0:
85,108,185013,2,0,B|81:73|81:73|97:42,1,69,0|0,1:2|1:2,0:0:0:0:
33,233,185306,5,8,0:0:0:0:
50,219,185379,1,8,0:0:0:0:
70,212,185452,1,0,1:2:0:0:
91,212,185526,1,0,1:2:0:0:
112,216,185599,2,0,L|120:176,3,34.5,2|2|2|2,1:2|1:2|1:2|1:2,0:0:0:0:
199,244,185891,37,8,0:0:0:0:
218,251,185965,1,8,0:0:0:0:
238,251,186038,1,0,1:2:0:0:
258,248,186111,1,0,1:2:0:0:
276,239,186184,2,0,L|282:286,3,34.5,2|2|2|2,1:2|1:2|1:2|1:2,0:0:0:0:
365,208,186477,6,0,L|447:208,1,75.9000023162842,4|0,1:2|1:2,0:0:0:0:
382,88,186770,22,0,B|327:92|327:92|288:77|288:77|234:80,1,151.800004632568,2|8,1:2|0:0,0:0:0:0:
120,54,187209,1,0,1:2:0:0:
120,54,187355,2,0,L|129:134,1,75.9000023162842,2|0,1:2|0:0,0:0:0:0:
62,226,187648,6,0,L|-15:232,1,75.9000023162842,10|0,0:0|1:2,0:0:0:0:
114,326,187940,1,2,0:0:0:0:
114,326,188087,2,0,B|148:310|148:310|190:319,1,75.9000023162842,2|8,1:2|0:0,0:0:0:0:
302,279,188379,1,0,1:2:0:0:
302,279,188452,1,0,1:2:0:0:
302,279,188526,2,0,B|315:317|315:317|303:352,1,75.9000023162842,10|0,0:0|1:2,0:0:0:0:
431,320,188818,54,0,L|470:320,3,37.9500011581421,10|0|0|0,0:0|1:2|1:2|1:2,0:0:0:0:
397,231,189111,2,0,L|431:213,1,37.9500011581421,10|0,0:0|1:2,0:0:0:0:
318,143,189257,6,0,L|305:185,3,37.9500011581421,2|0|8|0,1:2|1:2|0:2|1:2,0:0:0:0:
183,151,189550,1,0,1:2:0:0:
183,151,189623,1,0,1:2:0:0:
183,151,189696,2,0,L|197:195,3,37.9500011581421,10|0|0|0,0:0|1:2|1:2|1:2,0:0:0:0:
134,249,189989,37,10,0:0:0:0:
207,201,190135,1,8,0:0:0:0:
300,198,190282,1,8,0:0:0:0:
389,244,190428,1,10,0:0:0:0:
445,330,190574,1,8,0:0:0:0:
454,317,190648,1,8,0:0:0:0:
463,304,190721,2,0,L|488:261,3,37.9500011581421,10|8|8|8,0:0|0:0|0:0|0:0,0:0:0:0:
512,247,191013,38,0,P|428:250|380:192,1,158.700003026962,6|0,1:2|1:2,0:0:0:0:
288,279,191452,2,0,L|373:275,1,79.3500015134812,10|0,0:0|0:0,0:0:0:0:
180,228,191745,1,0,1:2:0:0:
201,312,191891,1,0,1:2:0:0:
267,192,192038,2,0,L|260:113,1,79.3500015134812,10|0,0:0|1:2,0:0:0:0:
217,302,192330,5,2,0:0:0:0:
217,302,192477,2,0,L|292:336,1,79.3500015134812,2|8,1:2|0:0,0:0:0:0:
156,203,192770,2,0,L|91:248,1,79.3500015134812,2|0,0:0|1:2,0:0:0:0:
267,192,193062,2,0,L|260:113,1,79.3500015134812,2|8,1:2|0:0,0:0:0:0:
404,156,193355,6,0,P|485:139|505:73,1,158.700003026962,4|0,1:2|1:2,0:0:0:0:
483,187,193794,2,0,B|499:225|499:225|485:262,1,79.3500015134812,10|0,0:0|1:2,0:0:0:0:
355,226,194087,1,0,0:0:0:0:
410,291,194233,1,2,1:2:0:0:
404,156,194379,2,0,L|400:77,1,79.3500015134812,10|0,0:0|1:2,0:0:0:0:
257,121,194672,38,0,P|176:121|93:121,1,158.700003026962,2|8,0:0|0:0,0:0:0:0:
53,210,195111,2,0,P|143:211|191:150,1,158.700003026962,2|0,1:2|1:2,0:0:0:0:
116,90,195550,1,10,0:0:0:0:
0,149,195696,6,0,P|12:231|24:312,1,158.700003026962,6|0,2:0|1:2,0:0:0:0:
139,249,196135,2,0,P|122:212|133:170,1,79.3500015134812,10|0,0:0|0:0,0:0:0:0:
215,321,196428,2,0,P|174:316|144:286,1,79.3500015134812,2|0,1:2|1:2,0:0:0:0:
319,297,196721,2,0,P|295:329|253:340,1,79.3500015134812,10|0,0:0|1:2,0:0:0:0:
310,173,197013,6,0,B|353:200|353:200|411:200|411:200|452:227,1,158.700003026962,2|8,0:0|0:0,0:0:0:0:
371,100,197452,2,0,P|317:146|236:133,1,158.700003026962,2|0,0:0|1:2,0:0:0:0:
122,66,197891,1,10,0:2:0:0:
122,66,198038,38,0,P|130:151|137:230,1,158.700003026962,4|0,1:2|1:2,0:0:0:0:
36,327,198477,38,0,B|50:288|50:288|34:249,1,82.7999974731446,10|0,0:0|0:0,0:0:0:0:
152,366,198770,1,10,0:0:0:0:
167,346,198843,1,0,1:2:0:0:
190,339,198916,1,0,1:2:0:0:
214,341,198989,1,0,1:2:0:0:
236,350,199062,2,0,L|291:350,3,41.3999987365723,2|0|2|0,1:2|0:0|1:2|0:0,0:0:0:0:
378,384,199355,38,0,L|393:341,3,39.6750007567406,10|0|0|0,0:0|1:2|1:2|1:2,0:0:0:0:
498,337,199648,2,0,L|477:288,3,39.6750007567406,10|0|0|0,0:0|1:2|1:2|1:2,0:0:0:0:
512,205,199940,2,0,L|470:196,3,39.6750007567406,10|0|0|0,0:0|1:2|1:2|1:2,0:0:0:0:
498,116,200233,1,10,0:0:0:0:
498,116,200306,1,0,1:2:0:0:
498,116,200379,6,0,P|451:178|374:182,1,158.700003026962,6|2,1:2|1:2,0:0:0:0:
288,297,200818,2,0,P|319:279|370:276,1,79.3500015134812,12|0,0:0|0:0,0:0:0:0:
244,197,201111,1,0,1:2:0:0:
162,256,201257,1,0,1:2:0:0:
77,214,201404,2,0,L|-4:222,1,79.3500015134812,10|4,0:0|1:2,0:0:0:0:
67,344,201696,38,0,P|136:332|161:252,1,158.700003026962,2|8,0:0|0:0,0:0:0:0:
269,306,202135,1,0,0:0:0:0:
269,306,202282,2,0,L|348:297,1,79.3500015134812,2|2,1:2|1:2,0:0:0:0:
440,326,202574,1,8,0:0:0:0:
510,234,202721,6,0,P|531:162|477:109,1,158.700003026962,6|2,1:2|1:2,0:0:0:0:
350,111,203160,2,0,L|383:184,1,79.3500015134812,8|0,0:0|1:2,0:0:0:0:
424,28,203452,1,0,0:0:0:0:
307,18,203599,1,0,1:2:0:0:
192,7,203745,2,0,L|109:-2,1,79.3500015134812,10|4,0:0|1:2,0:0:0:0:
7,115,204038,6,0,P|82:132|146:68,1,158.700003026962,2|10,0:0|0:0,0:0:0:0:
179,186,204477,2,0,L|101:177,1,79.3500015134812,2|0,1:2|0:0,0:0:0:0:
345,186,204770,2,0,L|267:177,1,79.3500015134812,2|8,1:2|0:0,0:0:0:0:
452,159,205062,38,0,B|472:199|449:234|449:234|427:269|446:310,1,158.700003026962,6|0,1:2|1:2,0:0:0:0:
316,372,205501,2,0,B|356:368|356:368|392:383,1,79.3500015134812,10|0,0:0|0:0,0:0:0:0:
244,301,205794,1,0,1:2:0:0:
149,324,205940,1,0,1:2:0:0:
55,301,206087,2,0,P|41:264|56:229,1,79.3500015134812,10|0,0:0|1:2,0:0:0:0:
1,126,206379,6,0,P|61:187|130:179,1,158.700003026962,2|8,0:0|0:0,0:0:0:0:
238,186,206818,2,0,L|230:106,1,79.3500015134812,2|0,0:0|1:2,0:0:0:0:
343,222,207111,2,0,L|395:157,1,79.3500015134812,2|8,1:2|0:0,0:0:0:0:
512,308,207404,6,0,P|435:320|346:334,1,158.700003026962,6|0,1:2|1:2,0:0:0:0:
236,360,207843,6,0,L|239:318,3,41.3999987365723,2|0|0|0,1:2|1:2|1:2|1:2,0:0:0:0:
147,259,208135,2,0,L|104:256,3,41.3999987365723,10|0|8|0,0:0|1:2|0:0|1:2,0:0:0:0:
245,211,208428,1,0,1:2:0:0:
245,197,208501,1,0,1:2:0:0:
246,183,208574,1,8,0:0:0:0:
247,169,208647,1,0,1:2:0:0:
238,142,208721,22,0,P|287:173|346:168,1,119.025002270222,6|0,1:2|0:0,0:0:0:0:
383,183,209013,6,0,L|378:143,3,39.6750007567406,8|8|8|8,3:0|3:0|3:0|3:0,0:0:0:0:
407,290,209306,2,0,L|349:276,3,39.6750007567406,6|4|4|4,3:0|3:0|3:0|3:0,0:0:0:0:
294,358,209599,1,10,0:0:0:0:
275,337,209672,1,8,0:0:0:0:
249,327,209745,1,8,0:0:0:0:
221,327,209818,1,8,0:0:0:0:
194,332,209891,6,0,P|157:279|192:224,1,138,6|0,0:0|0:0,0:0:0:0:
279,163,210330,1,2,1:2:0:0:
279,163,210477,2,0,L|221:122,1,69,8|0,0:0|0:0,0:0:0:0:
321,250,210770,2,0,L|391:236,1,69,2|0,1:2|0:0,0:0:0:0:
508,159,211062,38,0,L|438:148,1,69,2|0,0:0|1:2,0:0:0:0:
351,134,211355,2,0,L|281:123,1,69,2|0,0:0|1:2,0:0:0:0:
193,109,211648,1,8,0:0:0:0:
264,235,211940,1,2,0:0:0:0:
338,361,212233,6,0,B|280:361|280:361|259:351|259:351|201:351,1,138,6|0,1:2|0:0,0:0:0:0:
103,306,212672,1,2,1:2:0:0:
103,306,212818,2,0,P|113:340|103:371,1,69,8|0,0:0|0:0,0:0:0:0:
4,320,213111,2,0,P|-6:286|4:255,1,69,2|0,1:2|1:2,0:0:0:0:
71,159,213404,6,0,L|-3:137,2,69,2|8|0,0:0|0:0|1:2,0:0:0:0:
160,113,213843,1,0,1:2:0:0:
160,113,213989,2,0,L|182:39,1,69,10|8,0:0|0:0,0:0:0:0:
67,45,214282,1,6,1:2:0:0:
160,231,214574,38,0,P|191:288|231:360,1,138,6|0,1:2|1:2,0:0:0:0:
303,280,215013,1,2,1:2:0:0:
303,280,215160,2,0,P|338:289|358:268,1,69,8|0,0:0|1:2,0:0:0:0:
481,341,215452,2,0,P|444:341|418:365,1,69,2|0,1:2|1:2,0:0:0:0:
512,229,215745,6,0,P|506:160|500:80,1,138,10|0,0:0|1:2,0:0:0:0:
422,19,216184,1,2,1:2:0:0:
422,19,216330,2,0,P|404:51|377:67,1,69,8|0,0:0|1:2,0:0:0:0:
285,85,216623,2,0,P|248:85|220:70,1,69,2|0,1:2|1:2,0:0:0:0:
137,194,216916,6,0,L|219:190,1,79.3500015134812,14|0,0:2|1:2,0:0:0:0:
3,199,217209,1,8,0:0:0:0:
118,276,217355,2,0,L|143:311,2,39.6750007567406,0|0|14,1:2|1:2|0:0,0:0:0:0:
69,140,217648,1,0,1:2:0:0:
34,279,217794,2,0,B|9:365,1,79.3500015134812,8|0,0:0|1:2,0:0:0:0:
7,370,218013,1,0,1:2:0:0:
3,384,218087,37,14,0:0:0:0:
131,346,218233,2,0,L|142:303,2,39.6750007567406,0|0|8,1:2|1:2|0:0,0:0:0:0:
260,308,218526,2,0,L|271:265,2,39.6750007567406,0|0|10,1:2|1:2|0:0,0:0:0:0:
387,265,218818,1,0,1:2:0:0:
391,249,218891,1,0,1:2:0:0:
395,233,218965,5,8,0:0:0:0:
420,251,219038,1,8,0:0:0:0:
451,253,219111,1,8,0:0:0:0:
480,242,219184,1,8,0:0:0:0:
497,221,219257,5,6,1:2:0:0:
481,126,219404,2,0,L|469:59,1,69,2|8,1:2|0:0,0:0:0:0:
367,111,219696,1,2,1:2:0:0:
276,48,219843,1,2,0:0:0:0:
353,35,219989,1,0,1:2:0:0:
290,125,220135,2,0,P|240:134|188:144,1,103.5,10|0,0:0|0:0,0:0:0:0:
169,176,220428,38,0,P|139:160|96:158,2,69,2|2|8,1:2|1:2|0:0,0:0:0:0:
290,125,220867,1,2,1:2:0:0:
290,125,221013,2,0,P|318:107|342:70,1,69,2|0,0:0|1:2,0:0:0:0:
275,254,221306,2,0,P|276:287|295:326,1,69,10|0,0:0|0:0,0:0:0:0:
373,199,221599,5,2,1:2:0:0:
373,199,221745,2,0,L|455:199,1,69,2|8,0:0|0:0,0:0:0:0:
262,155,222038,1,2,1:2:0:0:
262,155,222184,2,0,L|259:233,1,69,2|0,0:0|1:2,0:0:0:0:
146,179,222477,2,0,P|94:179|39:179,1,103.5,10|0,0:0|0:0,0:0:0:0:
14,199,222770,6,0,L|10:152,3,39.6750007567406,10|8|0|0,0:0|0:0|1:2|1:2,0:0:0:0:
24,307,223062,6,0,L|-13:322,3,39.6750007567406,10|8|8|8,3:0|3:0|3:0|3:0,0:0:0:0:
122,359,223355,2,0,L|161:368,3,39.6750007567406,6|4|4|4,3:0|3:0|3:0|3:0,0:0:0:0:
264,322,223648,5,10,0:0:0:0:
276,317,223721,1,0,1:2:0:0:
288,312,223794,1,0,1:2:0:0:
300,307,223867,1,0,1:2:0:0:
331,317,223940,6,0,B|348:280|348:280|331:238,1,82.7999974731446,14|0,0:0|1:2,0:0:0:0:
231,221,224233,1,10,0:0:0:0:
131,199,224379,2,0,L|89:207,2,41.3999987365723,2|0|10,1:2|1:2|0:0,0:0:0:0:
242,181,224672,1,0,1:2:0:0:
354,161,224818,6,0,L|376:77,1,82.7999974731446,10|0,0:0|1:2,0:0:0:0:
366,68,225038,1,0,1:2:0:0:
357,56,225111,2,0,P|396:43|425:16,1,82.7999974731446,10|2,0:0|1:2,0:0:0:0:
306,167,225404,2,0,P|346:171|379:193,1,82.7999974731446,10|0,0:0|1:2,0:0:0:0:
265,57,225696,2,0,P|226:47|195:20,1,82.7999974731446,10|0,0:0|1:2,0:0:0:0:
214,180,225989,2,0,P|179:202|159:238,1,82.7999974731446,10|0,0:0|1:2,0:0:0:0:
65,107,226282,6,0,L|-21:104,1,82.7999974731446,14|0,0:2|1:2,0:0:0:0:
178,33,226574,1,10,0:0:0:0:
93,28,226721,2,0,L|81:-11,2,41.3999987365723,2|0|10,1:2|1:2|0:0,0:0:0:0:
133,158,227013,1,0,1:2:0:0:
254,117,227160,38,0,L|336:119,1,82.7999974731446,10|0,0:0|1:2,0:0:0:0:
353,113,227379,1,0,1:2:0:0:
369,107,227452,2,0,P|386:142|429:138,1,82.7999974731446,10|2,0:0|1:2,0:0:0:0:
512,227,227745,2,0,P|468:230|445:262,1,82.7999974731446,10|0,0:0|1:2,0:0:0:0:
350,306,228038,1,10,2:0:0:0:
350,319,228111,1,8,0:3:0:0:
351,332,228184,1,8,0:3:0:0:
352,346,228257,1,8,0:3:0:0:
377,366,228330,5,10,0:0:0:0:
343,369,228404,1,8,0:0:0:0:
310,372,228477,1,0,1:2:0:0:
277,374,228550,1,0,1:2:0:0:
244,376,228623,6,0,L|161:382,1,82.7999974731446,14|0,0:2|1:2,0:0:0:0:
71,321,228916,1,10,0:0:0:0:
172,260,229062,1,2,1:2:0:0:
171,273,229135,1,0,1:2:0:0:
169,287,229209,1,10,0:0:0:0:
61,215,229355,1,0,1:2:0:0:
183,161,229501,38,0,L|191:73,1,82.7999974731446,14|0,0:0|1:2,0:0:0:0:
179,66,229721,1,0,1:2:0:0:
169,54,229794,2,0,P|210:43|227:10,1,82.7999974731446,10|2,0:0|1:2,0:0:0:0:
355,132,230087,2,0,P|324:101|287:103,1,82.7999974731446,10|0,0:0|1:2,0:0:0:0:
416,36,230379,2,0,L|499:30,1,82.7999974731446,10|0,0:0|1:0,0:0:0:0:
288,103,230672,2,0,L|196:107,1,82.7999974731446,14|0,0:2|1:2,0:0:0:0:
398,180,230965,6,0,L|403:270,1,82.7999974731446,14|0,1:2|1:2,0:0:0:0:
483,154,231257,1,10,0:0:0:0:
391,96,231404,1,2,1:2:0:0:
390,82,231477,1,0,1:2:0:0:
389,68,231550,1,10,0:0:0:0:
296,163,231696,1,0,1:2:0:0:
196,81,231843,5,14,0:2:0:0:
299,60,231989,1,10,0:2:0:0:
404,38,232135,2,0,P|452:104|409:168,1,165.599994946289,14|10,0:0|2:2,0:0:0:0:
501,227,232574,1,0,1:2:0:0:
501,227,232648,1,0,1:2:0:0:
501,227,232721,37,14,0:0:0:0:
409,204,232867,5,10,0:0:0:0:
309,228,233013,21,14,0:0:0:0:
248,322,233160,5,14,0:0:0:0:
