osu file format v14

[General]
AudioFilename: audio.mp3
AudioLeadIn: 0
PreviewTime: 116160
Countdown: 1
SampleSet: Soft
StackLeniency: 0.7
Mode: 0
LetterboxInBreaks: 0
WidescreenStoryboard: 1

[Editor]
Bookmarks: 102477
DistanceSpacing: 0.9
BeatDivisor: 4
GridSize: 32
TimelineZoom: 2.2

[Metadata]
Title:Xing Noises
TitleUnicode:Xing Noises
Artist:UNDEAD CORPORATION
ArtistUnicode:UNDEAD CORPORATION
Creator:Niva
Version:Hyper Voice
Source:osu!
Tags:u_c_official crossing flashback flash back featured artist rock metal english mappers' guild 朱美 Akemi 窪田道元 Dougen Kubota 仁耶 Jinya 社長 Shachou YU-TO
BeatmapID:2199786
BeatmapSetID:1021829

[Difficulty]
HPDrainRate:5.5
CircleSize:4.2
OverallDifficulty:8.5
ApproachRate:9.2
SliderMultiplier:1.5
SliderTickRate:1

[Events]
//Background and Video events
0,0,"temporary bg.png",0,0
//Break Periods
2,141018,141989
//Storyboard Layer 0 (Background)
//Storyboard Layer 1 (Fail)
//Storyboard Layer 2 (Pass)
//Storyboard Layer 3 (Foreground)
//Storyboard Layer 4 (Overlay)
//Storyboard Sound Samples

[TimingPoints]
331,292.682926829268,4,2,77,80,1,0
7355,-100,4,2,77,50,0,0
8233,-100,4,2,77,55,0,0
8526,-100,4,2,77,60,0,0
8818,-100,4,2,77,65,0,0
9111,-100,4,2,77,70,0,0
9404,-100,4,2,77,80,0,0
36916,-90.9090909090909,4,2,77,85,0,0
37794,-125,4,2,77,80,0,0
37867,-125,4,2,77,70,0,0
42770,-111.111111111111,4,2,77,75,0,0
43940,-125,4,2,77,70,0,0
46648,-125,4,2,77,5,0,0
46721,-125,4,2,77,70,0,0
46794,-125,4,2,77,5,0,0
46867,-125,4,2,77,75,0,0
46940,-125,4,2,77,5,0,0
47013,-125,4,2,77,75,0,0
47087,-125,4,2,77,5,0,0
47160,-100,4,2,77,80,0,0
48623,-100,4,2,77,85,0,0
49501,-90.9090909090909,4,2,77,75,0,0
50233,-90.9090909090909,4,2,78,75,0,0
50379,-90.9090909090909,4,2,77,75,0,0
50672,-90.9090909090909,4,2,77,80,0,0
51696,-86.9565217391304,4,2,77,90,0,1
52867,-86.9565217391304,4,2,70,90,0,1
53013,-86.9565217391304,4,2,77,90,0,1
55209,-86.9565217391304,4,2,70,90,0,1
55355,-86.9565217391304,4,2,77,90,0,1
57550,-86.9565217391304,4,2,70,90,0,1
57696,-86.9565217391304,4,2,77,90,0,1
59160,-83.3333333333333,4,2,77,95,0,1
60038,-86.9565217391304,4,2,77,90,0,1
61062,-86.9565217391304,4,2,77,90,0,1
62233,-86.9565217391304,4,2,70,90,0,1
62379,-86.9565217391304,4,2,77,90,0,1
64574,-86.9565217391304,4,2,70,90,0,1
64721,-86.9565217391304,4,2,77,90,0,1
68526,-86.9565217391304,4,2,77,95,0,1
69404,-86.9565217391304,4,2,77,90,0,1
69696,-86.9565217391304,4,2,78,90,0,1
69989,-86.9565217391304,4,2,77,90,0,1
70574,-100,4,2,77,90,0,0
70648,-100,4,2,77,80,0,0
72916,-86.9565217391304,4,2,77,90,0,1
75257,-86.9565217391304,4,2,77,80,0,0
77599,-100,4,2,77,80,0,0
102477,-90.9090909090909,4,2,77,85,0,0
103355,-125,4,2,77,80,0,0
103428,-125,4,2,77,70,0,0
108330,-111.111111111111,4,2,77,75,0,0
109501,-125,4,2,77,70,0,0
112209,-125,4,2,77,5,0,0
112282,-125,4,2,77,70,0,0
112355,-125,4,2,77,5,0,0
112428,-125,4,2,77,75,0,0
112501,-125,4,2,77,5,0,0
112574,-125,4,2,77,75,0,0
112648,-125,4,2,77,5,0,0
112721,-100,4,2,77,80,0,0
114184,-100,4,2,77,85,0,0
115062,-90.9090909090909,4,2,77,75,0,0
116233,-90.9090909090909,4,2,77,80,0,0
117257,-86.9565217391304,4,2,77,90,0,1
118428,-86.9565217391304,4,2,70,90,0,1
118574,-86.9565217391304,4,2,77,90,0,1
120770,-86.9565217391304,4,2,77,90,0,1
120916,-86.9565217391304,4,2,77,90,0,1
123111,-86.9565217391304,4,2,70,90,0,1
123257,-86.9565217391304,4,2,77,90,0,1
124721,-83.3333333333333,4,2,77,95,0,1
125599,-86.9565217391304,4,2,77,90,0,1
127794,-86.9565217391304,4,2,70,90,0,1
127940,-86.9565217391304,4,2,77,90,0,1
130135,-86.9565217391304,4,2,70,90,0,1
130282,-86.9565217391304,4,2,77,90,0,1
134087,-86.9565217391304,4,2,77,95,0,1
134965,-86.9565217391304,4,2,77,90,0,1
135257,-86.9565217391304,4,2,78,90,0,1
135550,-86.9565217391304,4,2,77,90,0,1
136135,-100,4,2,77,90,0,0
136209,-100,4,2,77,80,0,0
138477,-86.9565217391304,4,2,77,90,0,1
140818,-86.9565217391304,4,2,77,80,0,0
143160,-86.9565217391304,4,2,77,50,0,0
143745,-86.9565217391304,4,2,77,55,0,0
144038,-86.9565217391304,4,2,77,60,0,0
144330,-86.9565217391304,4,2,77,65,0,0
144623,-86.9565217391304,4,2,77,70,0,0
144916,-100,4,2,77,90,0,0
144989,-100,4,2,77,5,0,0
145062,-100,4,2,77,90,0,0
145135,-100,4,2,77,5,0,0
145209,-100,4,2,77,90,0,0
145282,-100,4,2,77,5,0,0
145355,-100,4,2,77,90,0,0
145428,-100,4,2,77,5,0,0
145501,-83.3333333333333,4,2,77,85,0,0
146087,-100,4,2,77,80,0,0
152818,-90.9090909090909,4,2,77,85,0,0
154867,-80,4,2,77,90,0,0
155452,-90.9090909090909,4,2,77,85,0,0
159257,-90.9090909090909,4,2,78,85,0,0
159550,-80,4,2,77,85,0,0
160135,-90.9090909090909,4,2,77,85,0,0
161306,-90.9090909090909,4,2,79,85,0,0
161379,-90.9090909090909,4,2,77,5,0,0
161452,-90.9090909090909,4,2,78,85,0,0
161526,-90.9090909090909,4,2,77,5,0,0
161599,-90.9090909090909,4,2,78,85,0,0
161672,-90.9090909090909,4,2,77,5,0,0
161745,-90.9090909090909,4,2,78,85,0,0
161818,-90.9090909090909,4,2,77,5,0,0
161891,-90.9090909090909,4,2,77,85,0,0
164233,-125,4,2,77,85,0,0
164306,-125,4,2,77,70,0,0
179452,-142.857142857143,4,2,77,65,0,0
180623,-166.666666666667,4,2,77,60,0,0
181794,-200,4,2,77,55,0,0
182379,-200,4,2,77,70,0,0
182965,-100,4,2,77,70,0,0
183550,-100,4,2,77,75,0,0
184135,-100,4,2,77,80,0,0
185599,-100,4,2,78,80,0,0
185891,-100,4,2,77,80,0,0
186184,-100,4,2,78,80,0,0
186477,292.682926829268,4,2,77,80,1,0
186477,-90.9090909090909,4,2,77,80,0,0
186770,-90.9090909090909,4,2,77,85,0,0
191013,-86.9565217391304,4,2,77,90,0,1
198477,-83.3333333333333,4,2,77,95,0,1
199062,-83.3333333333333,4,2,79,95,0,1
199135,-83.3333333333333,4,2,79,5,0,1
199209,-83.3333333333333,4,2,79,95,0,1
199282,-83.3333333333333,4,2,79,5,0,1
199355,-86.9565217391304,4,2,77,90,0,1
201550,-86.9565217391304,4,2,70,90,0,1
201696,-86.9565217391304,4,2,77,90,0,1
203891,-86.9565217391304,4,2,70,90,0,1
204038,-86.9565217391304,4,2,77,90,0,1
207843,-83.3333333333333,4,2,77,95,0,1
208721,-86.9565217391304,4,2,77,90,0,1
209891,-100,4,2,77,90,0,0
209965,-100,4,2,77,80,0,0
216916,-86.9565217391304,4,2,77,90,0,1
219257,-100,4,2,77,90,0,0
219330,-100,4,2,77,80,0,0
222770,-86.9565217391304,4,2,77,80,0,0
223062,-86.9565217391304,4,2,77,85,0,0
223940,-83.3333333333333,4,2,77,90,0,1
232867,-80,4,2,77,90,0,1
233013,-76.9230769230769,4,2,77,90,0,1
233160,-74.0740740740741,4,2,77,90,0,1
233306,-74.0740740740741,4,2,77,90,0,0

[Colours]
Combo1 : 120,0,191
Combo2 : 151,255,255
Combo3 : 43,253,190
Combo4 : 255,253,174
Combo5 : 192,90,254

[HitObjects]
256,192,7355,12,0,9111,0:0:0:0:
155,357,9404,5,8,0:0:0:0:
129,99,9696,5,6,1:2:0:0:
129,99,9843,2,0,P|124:59|120:21,1,75,2|8,0:0|0:0,0:0:0:0:
143,234,10135,1,2,1:2:0:0:
87,172,10282,1,2,0:0:0:0:
210,116,10428,1,0,1:2:0:0:
220,199,10574,2,0,B|250:193|274:207|274:207|296:220|328:215,1,112.5,10|0,0:0|0:0,0:0:0:0:
344,227,10867,5,2,1:2:0:0:
428,207,11013,1,2,1:2:0:0:
512,188,11160,1,8,0:0:0:0:
482,112,11306,37,2,1:2:0:0:
459,215,11452,1,2,0:0:0:0:
380,86,11599,1,0,1:2:0:0:
357,189,11745,2,0,P|316:189|280:189,1,75,10|0,0:0|0:0,0:0:0:0:
165,79,12038,5,2,1:2:0:0:
165,79,12184,2,0,P|197:97|239:97,1,75,2|8,0:0|0:0,0:0:0:0:
154,191,12477,1,2,1:2:0:0:
154,191,12623,2,0,P|122:210|102:241,1,75,2|0,0:0|1:2,0:0:0:0:
65,120,12916,2,0,P|34:80|54:25,1,112.5,10|0,0:0|0:0,0:0:0:0:
65,15,13209,5,2,1:2:0:0:
163,35,13355,1,2,1:2:0:0:
261,53,13501,1,8,0:0:0:0:
258,37,13648,37,2,1:2:0:0:
192,124,13794,1,2,0:0:0:0:
288,180,13940,1,0,1:2:0:0:
233,259,14087,2,0,P|238:299|243:334,1,75,10|0,0:0|0:0,0:0:0:0:
357,298,14379,5,6,1:2:0:0:
357,298,14526,2,0,P|396:298|445:298,1,75,2|8,0:0|0:0,0:0:0:0:
273,335,14818,1,2,1:2:0:0:
194,292,14965,1,2,0:0:0:0:
116,346,15111,1,0,1:2:0:0:
36,286,15257,2,0,P|-5:255|-2:192,1,112.5,10|0,0:0|0:0,0:0:0:0:
8,181,15550,5,10,0:0:0:0:
110,194,15696,1,2,1:2:0:0:
213,207,15843,1,0,1:2:0:0:
287,106,15989,37,10,0:0:0:0:
200,174,16135,1,2,1:2:0:0:
307,238,16282,1,0,1:2:0:0:
192,307,16428,1,10,0:0:0:0:
191,321,16501,1,8,0:0:0:0:
190,335,16574,1,10,0:0:0:0:
189,350,16648,1,8,0:0:0:0:
188,364,16721,6,0,L|142:358,3,37.5,6|0|0|0,1:2|1:2|1:2|1:2,0:0:0:0:
272,283,17013,2,0,L|257:236,3,37.5,10|0|0|0,0:0|1:2|1:2|1:2,0:0:0:0:
388,307,17306,2,0,L|415:267,3,37.5,10|0|0|0,0:0|1:2|1:2|1:2,0:0:0:0:
507,199,17599,1,10,0:0:0:0:
473,202,17672,1,0,1:2:0:0:
441,189,17745,1,0,1:2:0:0:
420,161,17818,1,0,1:2:0:0:
418,126,17891,6,0,P|420:91|422:51,1,75,14|2,1:2|1:2,0:0:0:0:
512,105,18184,1,8,0:0:0:0:
420,225,18330,1,2,1:2:0:0:
420,225,18404,1,0,1:2:0:0:
420,225,18477,1,10,0:2:0:0:
316,169,18623,1,0,1:2:0:0:
316,169,18696,1,0,1:2:0:0:
316,169,18770,1,14,3:3:0:0:
285,184,18843,1,4,0:3:0:0:
251,185,18916,1,4,0:3:0:0:
219,174,18989,1,4,0:3:0:0:
195,150,19062,38,0,P|159:150|105:150,1,75,4|0,1:2|0:0,0:0:0:0:
45,280,19355,2,0,B|31:245|31:245|45:207,1,75,10|0,0:0|1:2,0:0:0:0:
16,361,19648,1,2,0:0:0:0:
16,361,19794,2,0,P|74:315|152:310,1,150,2|0,1:2|0:0,0:0:0:0:
298,257,20233,6,0,P|260:255|223:230,1,75,2|0,1:2|1:2,0:0:0:0:
285,169,20526,1,10,0:0:0:0:
222,248,20672,6,0,P|253:267|290:268,1,75,2|0,1:2|0:0,0:0:0:0:
364,335,20965,2,0,P|396:316|416:285,1,75,2|8,1:2|0:0,0:0:0:0:
512,223,21257,2,0,P|506:152|500:73,1,150,2|0,0:0|0:0,0:0:0:0:
500,73,21696,38,0,P|497:35|494:-8,1,75,10|0,0:0|1:2,0:0:0:0:
395,111,21989,2,0,P|357:91|317:71,1,75,2|0,0:0|1:2,0:0:0:0:
385,221,22282,2,0,P|350:242|315:263,1,75,10|0,0:0|0:0,0:0:0:0:
175,308,22574,6,0,P|217:314|247:339,1,75,2|0,1:2|1:2,0:0:0:0:
185,384,22867,1,10,0:0:0:0:
86,272,23013,2,0,P|161:272|209:217,1,150,2|0,1:2|1:2,0:0:0:0:
146,153,23452,1,8,0:0:0:0:
238,94,23599,1,0,0:0:0:0:
140,32,23745,5,4,1:2:0:0:
140,32,24038,2,8,P|110:13|77:-8,1,75,10|0,0:0|1:2,0:0:0:0:
42,113,24330,1,2,0:2:0:0:
42,113,24477,2,0,P|88:62|169:51,1,150,2|0,1:2|0:0,0:0:0:0:
321,97,24916,38,0,B|285:88|285:88|246:97,1,75,2|0,1:2|1:2,0:0:0:0:
190,209,25209,1,8,0:0:0:0:
190,209,25355,2,0,B|226:218|226:218|265:209,1,75,2|0,1:2|0:0,0:0:0:0:
354,271,25648,2,0,P|292:236|212:242,1,150,2|0,1:2|1:2,0:0:0:0:
457,180,26087,6,0,P|466:146|477:102,1,75,14|0,0:2|1:2,0:0:0:0:
312,80,26379,2,0,P|331:113|351:146,1,75,8|0,0:0|1:2,0:0:0:0:
281,233,26672,5,10,0:0:0:0:
200,249,26818,1,0,1:2:0:0:
113,222,26965,1,8,0:0:0:0:
79,133,27111,1,0,1:2:0:0:
108,40,27257,37,10,0:0:0:0:
122,39,27330,1,0,1:2:0:0:
137,37,27404,1,0,1:2:0:0:
151,36,27477,1,0,1:2:0:0:
188,49,27550,5,8,3:3:0:0:
202,48,27623,1,8,3:0:0:0:
217,46,27697,1,10,3:0:0:0:
231,45,27770,1,8,3:0:0:0:
261,57,27843,5,4,3:0:0:0:
272,25,27916,1,4,3:0:0:0:
299,6,27989,1,4,3:0:0:0:
332,0,28062,1,4,3:0:0:0:
363,10,28135,2,0,B|392:6|417:17|417:17|443:29|474:22,1,112.5,12|0,1:2|0:0,0:0:0:0:
500,0,28428,38,0,P|489:36|501:74,1,75,4|0,1:2|0:0,0:0:0:0:
418,162,28721,2,0,P|381:158|342:154,1,75,10|0,0:0|1:2,0:0:0:0:
445,264,29013,1,2,0:0:0:0:
445,264,29160,2,0,P|369:257|294:250,1,150,2|0,1:2|0:0,0:0:0:0:
161,262,29599,6,0,P|169:229|160:190,1,75,2|0,1:2|1:2,0:0:0:0:
5,269,29891,1,8,0:0:0:0:
5,269,30038,2,0,P|29:297|65:307,1,75,2|0,1:2|0:0,0:0:0:0:
69,129,30330,2,0,P|36:138|7:165,1,75,2|8,1:2|0:2,0:0:0:0:
6,165,30623,2,0,P|81:160|166:155,1,150,2|0,0:0|0:0,0:0:0:0:
314,118,31062,6,0,P|279:115|240:112,1,75,10|0,0:0|1:2,0:0:0:0:
404,126,31355,1,2,0:0:0:0:
493,134,31501,2,0,P|512:102|503:61,1,75,2|8,1:2|0:0,0:0:0:0:
453,0,31794,38,0,P|466:69|483:157,1,150,2|0,0:0|1:2,0:0:0:0:
423,239,32233,1,10,0:0:0:0:
423,239,32379,2,0,P|461:240|496:253,1,75,2|0,1:2|0:0,0:0:0:0:
335,260,32672,1,0,1:2:0:0:
335,260,32745,1,0,1:2:0:0:
335,260,32818,1,12,0:0:0:0:
360,176,32965,1,0,1:2:0:0:
350,357,33111,5,4,1:2:0:0:
350,357,33404,2,0,P|344:319|338:282,1,75,10|0,0:0|1:2,0:0:0:0:
236,334,33696,2,0,P|168:332|126:264,1,150,2|8,0:0|0:0,0:0:0:0:
126,268,34135,1,0,0:0:0:0:
222,166,34282,6,0,B|251:161|274:175|274:175|297:189|331:182,1,112.5,2|0,1:2|0:0,0:0:0:0:
368,172,34574,1,10,0:0:0:0:
460,101,34721,2,0,P|458:65|455:21,1,75,2|0,1:2|0:0,0:0:0:0:
512,194,35013,1,2,1:2:0:0:
512,194,35087,1,0,1:2:0:0:
512,194,35160,2,0,P|486:244|428:252,1,112.5,10|0,0:0|0:0,0:0:0:0:
405,326,35452,38,0,P|388:315|362:305,3,37.5,14|0|0|0,0:0|1:2|1:2|1:2,0:0:0:0:
294,384,35745,2,0,P|289:364|278:338,3,37.5,8|0|2|0,0:0|1:2|1:2|1:2,0:0:0:0:
170,367,36038,2,0,P|181:350|190:324,3,37.5,8|0|0|0,0:0|1:2|1:2|1:2,0:0:0:0:
90,286,36330,1,8,0:0:0:0:
74,287,36404,1,0,1:2:0:0:
59,288,36477,1,0,1:2:0:0:
44,288,36550,1,0,1:2:0:0:
29,289,36623,6,0,P|5:242|30:189,1,112.5,12|0,1:2|0:0,0:0:0:0:
0,151,36916,22,0,B|36:149|36:149|45:154|45:154|81:152,1,82.5000025177003,10|0,0:0|3:0,0:0:0:0:
197,192,37209,2,0,B|233:190|233:190|242:195|242:195|278:193,1,82.5000025177003,10|0,0:3|3:0,0:0:0:0:
393,231,37501,2,0,B|429:229|429:229|438:234|438:234|474:232,1,82.5000025177003,6|0,3:0|1:0,0:0:0:0:
512,254,37721,1,0,1:2:0:0:
512,254,37794,54,0,P|474:330|379:326,1,180,6|0,1:2|1:2,0:0:0:0:
317,366,38379,2,0,P|346:356|379:354,1,60,8|0,0:0|0:0,0:0:0:0:
237,303,38672,38,0,B|148:303|148:303|116:333|62:327,1,180,0|0,1:2|1:2,0:0:0:0:
33,250,39257,2,0,L|-27:250,1,60,2|0,0:0|1:2,0:0:0:0:
65,171,39550,1,10,0:0:0:0:
65,171,39696,1,4,1:2:0:0:
176,312,40135,6,0,P|259:290|279:202,1,180,6|0,1:2|1:2,0:0:0:0:
186,169,40721,2,0,L|198:232,1,60,10|0,0:0|0:0,0:0:0:0:
281,303,41013,6,0,B|347:298|347:298|398:318|398:318|465:312,1,180,2|0,1:2|1:2,0:0:0:0:
500,234,41599,2,0,L|435:229,1,60,2|0,0:0|1:2,0:0:0:0:
361,191,41891,1,8,0:0:0:0:
361,191,42038,2,0,P|420:186|460:132,1,120,4|8,1:2|0:0,0:0:0:0:
270,148,42477,38,0,P|258:194|276:241,1,90,4|0,1:2|0:0,0:0:0:0:
237,225,42770,38,0,B|247:258|247:258|236:289,1,67.4999979400635,2|0,0:0|1:2,0:0:0:0:
136,188,43062,2,0,B|92:188|92:188|70:195|70:195|48:188|48:188|1:188,1,134.999995880127,10|0,0:0|1:2,0:0:0:0:
234,144,43648,2,0,B|223:113|223:113|234:80,1,67.4999979400635,2|0,0:0|1:2,0:0:0:0:
290,14,43940,38,0,P|255:54|184:60,1,120,2|8,0:0|0:0,0:0:0:0:
101,119,44379,1,4,0:0:0:0:
101,119,44526,2,0,P|96:85|91:48,1,60,2|0,0:0|0:0,0:0:0:0:
164,241,44818,6,0,P|171:300|179:365,1,120,14|0,0:0|1:2,0:0:0:0:
275,332,45257,1,0,1:2:0:0:
275,332,45404,2,0,P|304:334|341:337,1,60,10|0,0:0|1:2,0:0:0:0:
412,372,45696,2,0,P|441:374|478:377,1,60,0|0,1:2|1:2,0:0:0:0:
503,262,45989,37,14,0:0:0:0:
503,262,46135,1,0,1:2:0:0:
411,278,46282,1,0,1:2:0:0:
411,278,46428,1,0,1:2:0:0:
320,288,46574,6,0,L|277:288,1,30,14|0,0:0|0:0,0:0:0:0:
224,337,46721,2,0,L|210:296,1,30,8|0,0:0|0:0,0:0:0:0:
145,259,46867,2,0,L|179:233,1,30,8|4,0:0|0:0,0:0:0:0:
193,162,47014,2,0,L|227:187,1,30,8|0,0:0|0:0,0:0:0:0:
293,210,47160,6,0,P|371:210|453:210,1,150,14|2,1:2|1:2,0:0:0:0:
369,178,47599,1,2,1:2:0:0:
282,239,47745,1,8,0:0:0:0:
200,170,47891,1,0,1:2:0:0:
113,248,48038,2,0,P|52:235|22:170,1,112.5,2|0,0:0|1:2,0:0:0:0:
24,196,48330,38,0,L|29:110,1,75,10|0,0:0|1:2,0:0:0:0:
120,28,48623,37,2,1:2:0:0:
120,28,48696,1,0,1:2:0:0:
120,28,48770,1,0,1:2:0:0:
120,28,48843,1,0,1:2:0:0:
120,28,48916,5,10,0:0:0:0:
142,48,48989,1,8,3:0:0:0:
170,58,49062,1,8,3:0:0:0:
199,55,49135,1,8,3:0:0:0:
226,45,49209,1,4,3:0:0:0:
251,29,49282,1,4,3:0:0:0:
279,18,49355,1,4,3:0:0:0:
308,19,49428,1,4,3:0:0:0:
336,29,49501,54,0,B|388:96|388:96|339:163,1,165.000005035401,6|0,1:2|3:0,0:0:0:0:
290,233,49940,1,2,3:0:0:0:
239,155,50087,1,0,3:0:0:0:
183,240,50233,1,2,3:2:0:0:
131,148,50379,2,0,P|88:145|43:142,1,82.5000025177003,2|0,3:0|0:0,0:0:0:0:
1,251,50672,53,10,0:0:0:0:
3,269,50745,1,0,1:2:0:0:
5,287,50818,1,0,1:2:0:0:
7,305,50891,1,0,1:2:0:0:
0,341,50965,37,2,1:2:0:0:
29,318,51038,1,4,0:3:0:0:
66,317,51111,1,4,0:3:0:0:
99,332,51184,1,4,0:3:0:0:
122,360,51257,1,10,0:0:0:0:
391,280,51696,6,0,P|311:284|210:289,1,172.500003290176,6|2,1:2|1:2,0:0:0:0:
99,333,52135,2,0,B|76:296|76:296|96:249,1,86.2500016450882,8|0,0:0|0:0,0:0:0:0:
219,288,52428,1,0,2:3:0:0:
175,358,52574,1,0,2:3:0:0:
168,222,52721,1,8,0:0:0:0:
99,333,52867,1,4,1:2:0:0:
6,262,53013,6,0,P|50:259|93:256,1,86.2500016450882,2|0,0:0|1:2,0:0:0:0:
162,175,53306,2,0,P|159:133|155:81,1,86.2500016450882,10|0,0:0|0:0,0:0:0:0:
80,174,53599,2,0,P|143:231|220:300,1,172.500003290176,2|8,1:2|0:0,0:0:0:0:
317,380,54038,38,0,P|401:369|429:294,1,172.500003290176,6|2,1:2|1:2,0:0:0:0:
362,253,54477,2,0,P|404:254|448:256,1,86.2500016450882,8|0,0:0|1:2,0:0:0:0:
238,210,54770,1,0,0:0:0:0:
164,302,54916,1,0,1:2:0:0:
147,214,55062,1,10,0:0:0:0:
255,294,55209,1,4,1:2:0:0:
322,167,55355,6,0,P|315:83|308:-5,1,172.500003290176,2|10,0:0|0:0,0:0:0:0:
184,87,55794,2,0,P|178:122|225:129,1,86.2500016450882,2|0,1:2|0:0,0:0:0:0:
328,250,56087,2,0,P|366:239|359:200,1,86.2500016450882,2|8,1:2|0:0,0:0:0:0:
171,342,56379,6,0,P|85:350|-1:358,1,172.500003290176,6|0,1:2|1:2,0:0:0:0:
299,370,56818,2,0,P|341:366|384:362,1,86.2500016450882,10|0,0:0|0:0,0:0:0:0:
231,254,57111,1,0,1:2:0:0:
188,379,57257,1,0,1:2:0:0:
337,338,57404,1,10,0:0:0:0:
242,230,57550,1,4,1:2:0:0:
168,338,57696,38,0,B|93:337|93:337|49:367|-6:349,1,172.500003290176,2|8,0:0|0:0,0:0:0:0:
31,245,58135,2,0,P|4:212|2:160,1,86.2500016450882,2|0,1:2|0:0,0:0:0:0:
186,260,58428,2,0,P|190:303|157:344,1,86.2500016450882,2|8,1:2|0:0,0:0:0:0:
110,215,58721,6,0,P|196:210|285:205,1,172.500003290176,6|0,1:2|1:2,0:0:0:0:
416,157,59160,22,0,B|437:197|437:197|424:239,1,89.9999972534181,10|0,0:0|1:2,0:0:0:0:
282,205,59452,2,0,P|236:202|189:199,1,89.9999972534181,2|0,0:0|1:2,0:0:0:0:
333,131,59745,1,10,0:0:0:0:
342,275,59891,1,0,1:0:0:0:
343,290,59965,1,0,1:2:0:0:
344,307,60038,54,0,L|299:309,3,43.1250008225441,10|0|0|0,0:0|1:2|1:2|1:2,0:0:0:0:
460,331,60330,2,0,L|457:283,3,43.1250008225441,10|0|0|0,0:0|1:2|1:2|1:2,0:0:0:0:
498,179,60623,1,10,0:0:0:0:
469,187,60696,1,0,1:2:0:0:
438,181,60770,1,0,1:2:0:0:
414,162,60843,1,0,1:2:0:0:
404,133,60916,1,10,0:0:0:0:
407,103,60989,1,0,1:2:0:0:
430,72,61062,38,0,B|386:101|386:101|322:101|322:101|276:135,1,172.500003290176,6|2,1:2|1:2,0:0:0:0:
106,76,61501,2,0,P|150:76|195:76,1,86.2500016450882,8|0,0:0|0:0,0:0:0:0:
344,76,61794,1,0,1:2:0:0:
267,11,61940,1,0,1:2:0:0:
225,162,62087,1,10,0:0:0:0:
316,162,62233,1,4,1:2:0:0:
168,270,62379,6,0,P|219:343|296:337,1,172.500003290176,2|8,0:0|0:0,0:0:0:0:
413,362,62818,1,0,0:0:0:0:
413,362,62965,2,0,P|368:361|323:360,1,86.2500016450882,2|2,1:2|1:2,0:0:0:0:
372,245,63257,1,8,0:0:0:0:
454,384,63404,6,0,P|367:383|277:382,1,172.500003290176,6|2,1:2|1:2,0:0:0:0:
159,309,63843,2,0,P|204:306|242:280,1,86.2500016450882,8|0,0:0|1:2,0:0:0:0:
88,369,64135,1,0,0:0:0:0:
26,241,64282,1,0,1:2:0:0:
9,327,64428,1,10,0:0:0:0:
114,234,64574,1,4,1:2:0:0:
283,372,64721,38,0,P|196:371|106:370,1,172.500003290176,2|10,0:0|0:0,0:0:0:0:
16,250,65160,2,0,P|54:267|101:266,1,86.2500016450882,2|0,1:2|0:0,0:0:0:0:
201,237,65452,2,0,P|234:212|257:171,1,86.2500016450882,2|8,1:2|0:0,0:0:0:0:
262,54,65745,6,0,P|270:142|279:228,1,172.500003290176,6|0,1:2|1:2,0:0:0:0:
371,357,66184,2,0,B|382:316|382:316|360:277,1,86.2500016450882,10|0,0:0|0:0,0:0:0:0:
279,315,66477,1,0,1:2:0:0:
199,337,66623,1,0,1:2:0:0:
106,317,66770,1,10,0:0:0:0:
61,224,66916,1,0,1:2:0:0:
101,111,67062,6,0,B|146:96|181:126|181:126|217:156|262:139,1,172.500003290176,2|8,0:0|0:0,0:0:0:0:
365,208,67501,2,0,P|403:195|429:157,1,86.2500016450882,2|0,0:0|1:2,0:0:0:0:
512,76,67794,2,0,P|499:37|461:12,1,86.2500016450882,2|8,1:2|0:0,0:0:0:0:
358,133,68087,38,0,P|367:237|374:323,1,172.500003290176,6|0,1:2|1:2,0:0:0:0:
267,373,68526,37,2,1:2:0:0:
267,373,68599,1,0,1:2:0:0:
267,373,68672,1,0,1:2:0:0:
267,373,68745,1,0,1:2:0:0:
267,373,68818,2,0,L|220:386,3,43.1250008225441,10|0|8|0,0:0|1:2|0:2|1:2,0:0:0:0:
181,289,69111,2,0,L|130:302,3,43.1250008225441,0|0|8|0,1:2|1:2|0:2|1:2,0:0:0:0:
0,333,69404,37,2,1:2:0:0:
17,333,69477,1,0,1:2:0:0:
32,333,69550,1,8,1:2:0:0:
49,334,69623,1,8,1:2:0:0:
66,334,69696,6,0,L|62:288,1,43.1250008225441,2|0,1:2|0:0,0:0:0:0:
150,335,69843,2,0,L|154:381,1,43.1250008225441,2|0,1:2|0:0,0:0:0:0:
236,333,69989,37,8,0:0:0:0:
253,333,70062,1,8,3:0:0:0:
270,333,70135,1,8,3:0:0:0:
287,333,70209,1,8,3:0:0:0:
303,327,70282,5,4,3:0:0:0:
335,339,70355,1,4,3:0:0:0:
367,326,70428,1,4,3:0:0:0:
398,340,70501,1,4,3:0:0:0:
429,326,70574,6,0,P|499:313|519:233,1,150,6|0,1:2|1:2,0:0:0:0:
466,154,71013,1,2,1:2:0:0:
466,154,71160,2,0,P|504:152|545:151,1,75,8|0,0:0|1:2,0:0:0:0:
373,182,71452,1,2,1:2:0:0:
315,104,71599,1,0,1:2:0:0:
358,17,71745,38,0,P|301:62|220:56,1,150,10|0,0:0|1:2,0:0:0:0:
113,89,72184,1,2,1:2:0:0:
113,89,72330,2,0,P|72:89|39:89,1,75,8|0,0:0|1:2,0:0:0:0:
157,20,72623,1,2,1:2:0:0:
186,129,72770,1,0,1:2:0:0:
268,247,72916,6,0,B|304:244|304:244|319:251|319:251|354:249,1,86.2500016450882,14|0,0:0|1:2,0:0:0:0:
187,318,73209,1,0,1:2:0:0:
187,318,73355,1,0,1:2:0:0:
99,256,73501,6,0,B|62:258|62:258|47:251|47:251|12:253,1,86.2500016450882,14|0,0:0|1:2,0:0:0:0:
187,318,73794,1,0,1:2:0:0:
187,318,73940,1,0,1:2:0:0:
269,246,74087,37,14,0:2:0:0:
99,256,74233,1,4,0:3:0:0:
230,158,74379,1,4,0:3:0:0:
130,164,74526,1,4,0:3:0:0:
168,31,74672,5,10,0:2:0:0:
168,43,74745,1,0,1:2:0:0:
170,55,74818,1,0,1:2:0:0:
171,68,74891,1,0,1:2:0:0:
190,102,74965,5,4,3:0:0:0:
161,127,75038,1,4,3:0:0:0:
123,130,75111,1,4,3:0:0:0:
87,114,75184,1,4,3:0:0:0:
71,78,75257,1,4,1:2:0:0:
71,78,77599,37,6,1:2:0:0:
71,78,77745,2,0,L|-12:77,1,75,2|8,0:0|0:0,0:0:0:0:
122,162,78038,1,2,1:2:0:0:
122,162,78184,2,0,B|110:198|110:198|123:235,1,75,2|0,0:0|1:2,0:0:0:0:
206,108,78477,2,0,P|255:132|307:107,1,112.5,10|0,0:0|0:0,0:0:0:0:
323,121,78770,5,2,1:2:0:0:
403,79,78916,1,2,1:2:0:0:
491,32,79062,1,8,0:0:0:0:
511,125,79209,5,2,1:2:0:0:
403,79,79355,1,2,0:0:0:0:
323,121,79501,1,0,1:2:0:0:
241,95,79648,2,0,P|201:95|163:95,1,75,10|0,0:0|0:0,0:0:0:0:
96,185,79940,37,6,1:2:0:0:
96,185,80087,2,0,B|58:176|58:176|21:187,1,75,2|8,0:0|0:0,0:0:0:0:
184,179,80379,1,2,1:2:0:0:
257,204,80526,1,2,0:0:0:0:
329,179,80672,1,0,1:2:0:0:
421,204,80818,2,0,P|444:251|416:302,1,112.5,10|0,0:0|0:0,0:0:0:0:
426,322,81111,5,10,0:0:0:0:
327,315,81257,1,2,1:2:0:0:
228,309,81404,1,0,1:2:0:0:
249,384,81550,5,10,0:0:0:0:
339,316,81696,1,2,1:2:0:0:
233,274,81843,1,0,1:2:0:0:
137,333,81989,1,10,0:0:0:0:
122,335,82062,1,8,0:0:0:0:
107,336,82135,1,10,0:0:0:0:
91,337,82209,1,8,0:0:0:0:
74,348,82282,38,0,L|68:299,3,37.5,6|0|0|0,0:0|1:2|1:2|1:2,0:0:0:0:
187,335,82574,2,0,L|182:372,3,37.5,10|0|0|0,0:0|1:2|1:2|1:2,0:0:0:0:
302,348,82867,2,0,L|296:299,3,37.5,10|0|0|0,0:0|1:2|1:2|1:2,0:0:0:0:
411,335,83160,1,10,0:2:0:0:
443,345,83233,1,0,1:2:0:0:
477,338,83306,1,0,1:2:0:0:
497,311,83379,1,0,1:2:0:0:
491,277,83452,6,0,P|489:241|486:192,1,75,14|2,1:2|1:2,0:0:0:0:
399,137,83745,1,8,0:0:0:0:
488,74,83891,1,2,1:2:0:0:
488,74,83965,1,0,1:2:0:0:
488,74,84038,1,10,0:0:0:0:
396,3,84184,1,0,1:2:0:0:
396,3,84257,1,0,1:2:0:0:
396,3,84330,1,14,3:0:0:0:
377,31,84404,1,4,3:0:0:0:
346,44,84477,1,4,3:0:0:0:
312,44,84550,1,4,3:0:0:0:
282,28,84623,6,0,P|244:28|205:28,1,75,6|0,1:2|0:0,0:0:0:0:
99,79,84916,1,10,0:0:0:0:
99,79,85062,2,0,P|61:79|11:79,1,75,2|0,1:2|0:0,0:0:0:0:
126,9,85355,2,0,B|117:48|143:79|143:79|169:107|158:150,1,150,2|0,1:2|0:0,0:0:0:0:
297,136,85794,38,0,P|277:167|244:184,1,75,2|0,1:2|1:2,0:0:0:0:
243,184,86087,1,8,0:0:0:0:
325,291,86233,2,0,P|288:290|257:271,1,75,2|0,1:2|0:0,0:0:0:0:
190,384,86526,2,0,P|172:351|173:315,1,75,2|8,1:2|0:0,0:0:0:0:
71,345,86818,6,0,P|137:345|231:345,1,150,2|0,0:0|0:0,0:0:0:0:
358,368,87257,2,0,P|328:353|305:319,1,75,10|0,0:0|1:2,0:0:0:0:
460,274,87550,2,0,P|462:307|444:344,1,75,2|0,0:0|1:2,0:0:0:0:
320,236,87843,2,0,P|347:217|388:214,1,75,10|0,0:0|0:0,0:0:0:0:
485,137,88135,6,0,P|423:181|348:177,1,150,2|8,1:2|0:0,0:0:0:0:
255,142,88574,2,0,B|218:170|218:170|161:170|161:170|122:198,1,150,2|0,1:2|1:2,0:0:0:0:
47,244,89013,1,8,0:0:0:0:
127,335,89160,1,0,0:0:0:0:
49,380,89306,37,4,1:2:0:0:
49,380,89599,2,0,P|11:380|-28:380,1,75,10|0,0:0|1:2,0:0:0:0:
107,302,89891,2,0,P|90:271|71:235,1,75,2|0,0:0|1:2,0:0:0:0:
205,302,90184,2,0,P|217:268|231:228,1,75,10|0,0:0|0:0,0:0:0:0:
334,202,90477,6,0,P|261:203|209:144,1,150,2|8,1:2|0:0,0:0:0:0:
309,70,90916,2,0,P|346:68|384:65,1,75,2|0,1:2|0:0,0:0:0:0:
480,98,91209,2,0,P|442:96|406:94,1,75,2|8,1:2|0:0,0:0:0:0:
441,189,91501,1,2,1:2:0:0:
498,286,91648,6,0,P|500:325|480:357,1,75,14|0,0:0|1:2,0:0:0:0:
381,335,91940,2,0,P|375:298|395:266,1,75,8|0,0:0|1:2,0:0:0:0:
267,290,92233,37,10,0:0:0:0:
184,314,92379,1,0,0:2:0:0:
101,290,92526,1,8,0:0:0:0:
18,314,92672,1,0,1:2:0:0:
35,212,92818,5,10,0:0:0:0:
33,196,92891,1,0,1:2:0:0:
31,181,92965,1,0,1:2:0:0:
30,165,93038,1,0,1:2:0:0:
49,143,93111,5,8,3:3:0:0:
47,127,93184,1,8,3:0:0:0:
45,112,93258,1,10,3:0:0:0:
44,97,93331,1,8,3:0:0:0:
18,75,93404,37,4,3:0:0:0:
50,84,93477,1,4,3:0:0:0:
82,77,93550,1,4,3:0:0:0:
105,53,93623,1,4,3:0:0:0:
115,21,93696,2,0,P|155:53|214:51,1,112.5,12|0,0:0|0:0,0:0:0:0:
244,72,93989,6,0,P|207:72|169:72,1,75,4|0,1:2|0:0,0:0:0:0:
337,19,94282,2,0,P|342:58|348:102,1,75,10|0,0:0|1:2,0:0:0:0:
446,154,94574,2,0,P|405:173|379:206,1,75,2|0,0:0|1:2,0:0:0:0:
375,290,94867,2,0,P|380:329|385:371,1,75,10|0,0:0|0:0,0:0:0:0:
259,343,95160,6,0,P|185:338|149:274,1,150,2|10,1:2|0:0,0:0:0:0:
86,191,95599,2,0,P|77:228|68:263,1,75,2|0,1:2|0:0,0:0:0:0:
218,203,95891,2,0,P|212:169|205:129,1,75,2|8,1:2|0:0,0:0:0:0:
130,63,96184,38,0,B|170:56|202:78|202:78|234:100|278:91,1,150,2|0,0:0|0:0,0:0:0:0:
368,143,96623,2,0,P|372:104|412:70,1,75,10|0,0:0|1:2,0:0:0:0:
388,233,96916,2,0,P|356:210|346:158,1,75,2|0,0:0|1:2,0:0:0:0:
475,260,97209,2,0,P|439:276|389:258,1,75,10|0,0:0|0:0,0:0:0:0:
274,345,97501,6,0,B|311:337|311:337|348:347,1,75,2|0,1:2|1:2,0:0:0:0:
180,316,97794,1,10,0:0:0:0:
180,316,97940,2,0,P|111:315|63:255,1,150,2|0,1:2|1:2,0:0:0:0:
63,255,98306,1,0,1:2:0:0:
63,255,98379,1,12,0:0:0:0:
146,349,98526,1,0,0:0:0:0:
257,282,98672,5,4,1:2:0:0:
257,282,98965,1,10,0:0:0:0:
257,282,99111,2,0,P|294:280|333:278,1,75,2|0,1:2|0:0,0:0:0:0:
458,338,99404,2,0,P|419:340|382:342,1,75,2|8,1:2|0:0,0:0:0:0:
432,222,99696,38,0,P|504:197|506:113,1,150,2|0,0:0|1:2,0:0:0:0:
411,69,100135,1,8,0:0:0:0:
411,69,100282,2,0,P|406:30|400:-15,1,75,2|0,1:2|0:0,0:0:0:0:
331,129,100574,1,2,1:2:0:0:
331,129,100648,1,0,1:2:0:0:
331,129,100721,2,0,P|271:129|219:129,1,112.5,8|0,0:0|0:0,0:0:0:0:
143,151,101013,6,0,L|138:95,3,37.5,12|0|0|0,0:0|1:2|1:2|1:2,0:0:0:0:
47,219,101306,2,0,L|42:165,3,37.5,8|0|0|0,0:0|1:2|1:2|1:2,0:0:0:0:
153,276,101599,2,0,L|148:220,3,37.5,8|0|0|0,0:0|1:2|1:2|1:2,0:0:0:0:
55,316,101891,1,8,0:0:0:0:
56,331,101965,1,0,1:2:0:0:
57,345,102038,1,0,1:2:0:0:
58,359,102111,1,0,1:2:0:0:
42,380,102184,6,0,P|97:366|157:370,1,112.5,12|0,1:2|0:0,0:0:0:0:
194,384,102477,6,0,B|192:348|192:348|197:339|197:339|195:303,1,82.5000025177003,10|0,0:0|3:0,0:0:0:0:
321,357,102770,2,0,B|319:321|319:321|324:312|324:312|322:276,1,82.5000025177003,10|0,3:0|3:0,0:0:0:0:
445,332,103062,2,0,B|443:296|443:296|448:287|448:287|446:251,1,82.5000025177003,6|0,3:0|1:2,0:0:0:0:
467,216,103282,1,0,1:2:0:0:
467,216,103355,22,0,P|386:180|368:98,1,180,6|0,1:2|1:2,0:0:0:0:
453,28,103940,2,0,P|461:57|448:94,1,60,8|0,0:0|0:0,0:0:0:0:
333,64,104233,6,0,B|288:64|288:64|243:64|254:88|208:88|208:88|159:88,1,180,0|0,1:2|1:2,0:0:0:0:
138,202,104818,2,0,P|122:178|105:152,1,60,2|0,0:0|1:2,0:0:0:0:
33,196,105111,1,10,0:0:0:0:
33,196,105257,1,4,1:2:0:0:
1,356,105696,6,0,P|67:301|162:306,1,180,6|0,1:2|1:2,0:0:0:0:
157,303,106282,2,0,P|153:276|148:244,1,60,10|0,0:0|0:0,0:0:0:0:
261,271,106574,38,0,B|308:260|348:284|348:284|387:308|439:295,1,180,2|0,1:2|1:2,0:0:0:0:
494,229,107160,2,0,B|505:200|505:200|492:166,1,60,2|0,0:0|1:2,0:0:0:0:
409,132,107452,1,8,0:0:0:0:
409,132,107599,2,0,P|470:133|514:96,1,120,4|8,1:2|0:0,0:0:0:0:
388,35,108038,6,0,P|343:35|298:35,1,90,4|0,1:2|0:0,0:0:0:0:
294,60,108330,22,0,B|261:53|261:53|224:61,1,67.4999979400635,2|0,0:0|1:2,0:0:0:0:
138,49,108623,2,0,B|77:49|77:49|63:43|63:43|4:43,1,134.999995880127,10|0,0:0|1:2,0:0:0:0:
164,202,109209,2,0,B|176:171|176:171|163:138,1,67.4999979400635,2|0,0:0|1:2,0:0:0:0:
98,264,109501,54,0,P|137:234|207:228,1,120,2|8,0:0|0:0,0:0:0:0:
312,191,109940,1,4,1:2:0:0:
312,191,110087,2,0,P|286:175|267:140,1,60,2|0,0:0|0:0,0:0:0:0:
433,221,110379,38,0,P|412:275|359:300,1,120,14|0,0:0|1:2,0:0:0:0:
256,333,110818,1,0,1:2:0:0:
256,333,110965,2,0,L|256:265,1,60,10|0,0:0|1:2,0:0:0:0:
256,183,111257,2,0,L|256:115,1,60,0|0,1:2|1:2,0:0:0:0:
333,77,111550,5,14,0:0:0:0:
256,31,111696,1,0,1:2:0:0:
179,77,111843,1,0,1:2:0:0:
256,124,111989,1,0,1:2:0:0:
354,176,112135,6,0,L|384:194,1,30,14|4,0:0|0:0,0:0:0:0:
298,236,112282,2,0,L|313:272,1,30,8|0,0:0|0:0,0:0:0:0:
214,236,112428,2,0,L|202:263,1,30,8|0,0:0|0:0,0:0:0:0:
158,176,112575,2,0,L|132:191,1,30,8|0,0:0|0:0,0:0:0:0:
24,251,112721,38,0,P|39:331|99:355,1,150,14|2,1:2|1:2,0:0:0:0:
186,320,113160,1,2,1:2:0:0:
226,384,113306,1,8,0:0:0:0:
266,320,113452,1,0,1:2:0:0:
351,354,113599,2,0,L|464:354,1,112.5,2|0,1:2|0:0,0:0:0:0:
464,354,113891,6,0,P|497:340|515:301,1,75,10|0,0:0|0:0,0:0:0:0:
467,207,114184,21,2,1:2:0:0:
467,196,114257,1,0,1:2:0:0:
468,184,114330,1,0,1:2:0:0:
469,173,114404,1,0,1:2:0:0:
478,142,114477,5,10,0:0:0:0:
454,164,114550,1,8,3:0:0:0:
422,171,114623,1,8,3:0:0:0:
389,168,114696,1,8,3:0:0:0:
359,154,114770,1,4,3:0:0:0:
340,127,114843,1,4,3:0:0:0:
333,95,114916,1,4,3:0:0:0:
342,64,114989,1,4,3:0:0:0:
361,36,115062,54,0,B|300:40|300:40|259:27|259:27|197:31,1,165.000005035401,6|0,1:2|3:0,0:0:0:0:
145,126,115501,1,2,3:0:0:0:
95,37,115648,1,0,3:2:0:0:
196,53,115794,1,0,3:2:0:0:
68,53,115940,2,0,P|27:53|-15:53,1,82.5000025177003,2|0,3:2|0:0,0:0:0:0:
75,163,116233,21,10,0:0:0:0:
71,178,116306,1,0,1:2:0:0:
69,194,116379,1,0,1:2:0:0:
66,210,116452,1,0,1:2:0:0:
44,241,116526,5,6,3:0:0:0:
80,233,116599,1,4,3:0:0:0:
115,244,116672,1,4,3:0:0:0:
142,269,116745,1,4,3:0:0:0:
152,304,116818,1,8,0:0:0:0:
451,195,117257,6,0,P|365:207|311:149,1,172.500003290176,6|2,1:2|1:2,0:0:0:0:
297,263,117696,2,0,P|333:241|376:241,1,86.2500016450882,8|0,0:0|0:0,0:0:0:0:
205,195,117989,1,0,1:2:0:0:
112,187,118135,1,0,1:2:0:0:
9,179,118282,1,8,0:0:0:0:
123,162,118428,1,4,1:2:0:0:
245,143,118574,38,0,P|241:99|236:50,1,86.2500016450882,2|0,0:0|1:2,0:0:0:0:
250,258,118867,2,0,P|210:240|171:222,1,86.2500016450882,10|0,0:0|0:0,0:0:0:0:
330,206,119160,2,0,P|413:197|501:187,1,172.500003290176,2|8,1:2|0:0,0:0:0:0:
299,343,119599,6,0,P|217:361|148:309,1,172.500003290176,6|2,1:2|1:2,0:0:0:0:
47,251,120038,2,0,P|50:296|53:341,1,86.2500016450882,8|0,0:0|1:2,0:0:0:0:
39,103,120330,1,0,0:0:0:0:
110,128,120477,1,0,1:2:0:0:
0,195,120623,1,10,0:0:0:0:
132,238,120770,1,4,1:2:0:0:
262,171,120916,6,0,B|306:160|344:186|344:186|381:213|426:202,1,172.500003290176,2|10,0:0|0:0,0:0:0:0:
495,99,121355,2,0,B|451:105|451:105|415:84,1,86.2500016450882,2|0,1:2|0:0,0:0:0:0:
430,5,121648,2,0,B|473:-1|473:-1|510:20,1,86.2500016450882,2|8,1:2|0:0,0:0:0:0:
457,82,121940,38,0,P|372:85|283:88,1,172.500003290176,6|0,1:2|1:2,0:0:0:0:
226,200,122379,2,0,P|263:183|310:181,1,86.2500016450882,8|0,0:0|0:0,0:0:0:0:
167,93,122672,1,0,1:2:0:0:
99,177,122818,1,0,1:2:0:0:
4,84,122965,1,10,0:0:0:0:
104,2,123111,1,4,1:2:0:0:
208,90,123257,6,0,P|290:94|381:98,1,172.500003290176,2|8,0:0|0:0,0:0:0:0:
332,190,123696,2,0,P|292:172|271:122,1,86.2500016450882,2|0,1:2|0:0,0:0:0:0:
372,283,123989,2,0,P|336:308|282:301,1,86.2500016450882,2|8,1:2|0:0,0:0:0:0:
191,375,124282,6,0,P|262:330|346:338,1,172.500003290176,6|0,1:2|1:2,0:0:0:0:
90,319,124721,6,0,P|84:275|78:229,1,89.9999972534181,10|0,0:0|1:2,0:0:0:0:
132,118,125013,2,0,P|126:73|120:23,1,89.9999972534181,2|0,0:0|1:2,0:0:0:0:
43,132,125306,1,10,0:0:0:0:
177,226,125452,1,0,1:2:0:0:
177,226,125526,1,0,1:2:0:0:
177,226,125599,22,0,L|221:226,3,43.1250008225441,10|8|0|0,0:0|1:2|1:2|1:2,0:0:0:0:
331,167,125891,2,0,L|331:124,3,43.1250008225441,10|0|0|0,0:0|1:2|1:2|1:2,0:0:0:0:
428,250,126184,1,10,0:0:0:0:
430,282,126257,1,0,1:2:0:0:
422,313,126330,1,0,1:2:0:0:
399,337,126404,1,0,1:2:0:0:
369,350,126477,1,10,0:0:0:0:
336,350,126550,1,0,1:2:0:0:
301,332,126623,6,0,B|237:329|237:329|199:350|199:350|133:347,1,172.500003290176,6|2,1:2|1:2,0:0:0:0:
278,224,127062,2,0,P|239:205|223:166,1,86.2500016450882,8|0,0:0|0:0,0:0:0:0:
382,179,127355,1,0,1:2:0:0:
459,262,127501,1,0,1:2:0:0:
409,356,127648,1,10,0:0:0:0:
301,332,127794,1,4,1:2:0:0:
367,227,127940,6,0,P|283:223|193:218,1,172.500003290176,2|8,0:0|0:0,0:0:0:0:
484,195,128379,1,0,0:0:0:0:
484,195,128526,2,0,B|494:237|494:237|474:281,1,86.2500016450882,2|2,1:2|1:2,0:0:0:0:
366,227,128818,1,8,0:0:0:0:
294,88,128965,38,0,P|382:94|440:39,1,172.500003290176,6|2,1:2|1:2,0:0:0:0:
348,188,129404,2,0,B|330:228|330:228|346:269,1,86.2500016450882,8|0,0:0|0:0,0:0:0:0:
372,362,129696,1,0,0:0:0:0:
458,301,129843,1,0,1:2:0:0:
345,267,129989,1,10,0:2:0:0:
232,301,130135,1,4,1:2:0:0:
103,272,130282,6,0,P|28:248|11:163,1,172.500003290176,2|10,0:0|0:0,0:0:0:0:
158,223,130721,2,0,P|152:266|169:304,1,86.2500016450882,2|0,1:2|0:0,0:0:0:0:
248,212,131013,2,0,P|265:250|259:293,1,86.2500016450882,2|8,1:2|0:0,0:0:0:0:
375,245,131306,6,0,B|438:243|438:243|479:267|479:267|543:265,1,172.500003290176,6|0,1:2|1:2,0:0:0:0:
447,205,131745,2,0,P|462:168|443:120,1,86.2500016450882,8|0,0:0|0:0,0:0:0:0:
326,151,132038,1,0,1:2:0:0:
236,96,132184,1,0,1:2:0:0:
334,32,132330,1,10,0:0:0:0:
236,96,132476,1,0,1:2:0:0:
411,158,132623,38,0,P|366:230|285:226,1,172.500003290176,2|8,0:0|0:0,0:0:0:0:
345,351,133062,2,0,P|351:310|357:263,1,86.2500016450882,2|0,0:0|1:2,0:0:0:0:
219,319,133355,2,0,P|199:282|177:241,1,86.2500016450882,2|8,1:2|0:0,0:0:0:0:
101,379,133648,6,0,P|23:369|-5:288,1,172.500003290176,6|0,1:2|1:2,0:0:0:0:
63,188,134087,21,2,1:2:0:0:
63,188,134160,1,0,1:2:0:0:
63,188,134233,1,0,1:2:0:0:
63,188,134306,1,0,1:2:0:0:
63,188,134379,2,0,L|57:123,3,43.1250008225441,10|0|8|0,1:2|0:0|0:0|1:2,0:0:0:0:
186,211,134672,2,0,L|183:165,3,43.1250008225441,0|0|0|0,1:2|1:2|1:2|1:2,0:0:0:0:
306,181,134965,53,2,1:2:0:0:
305,163,135038,1,0,1:2:0:0:
304,145,135111,1,0,1:2:0:0:
303,127,135184,1,0,1:2:0:0:
293,106,135257,38,0,L|347:104,1,43.1250008225441,2|0,1:2|0:0,0:0:0:0:
406,43,135404,2,0,L|428:81,1,43.1250008225441,2|0,1:2|0:0,0:0:0:0:
512,119,135550,5,10,0:0:0:0:
510,136,135623,1,8,3:0:0:0:
508,153,135696,1,8,3:0:0:0:
506,170,135770,1,8,3:0:0:0:
511,204,135843,5,6,3:0:0:0:
477,195,135916,1,4,3:0:0:0:
444,205,135989,1,4,3:0:0:0:
423,232,136062,1,4,3:0:0:0:
418,266,136135,38,0,B|363:261|363:261|318:280|318:280|266:276,1,150,6|0,1:2|1:2,0:0:0:0:
176,319,136574,1,2,1:2:0:0:
176,319,136721,2,0,P|220:317|258:315,1,75,8|0,0:0|1:2,0:0:0:0:
87,361,137013,1,2,1:2:0:0:
27,286,137160,1,0,1:2:0:0:
86,186,137306,6,0,P|112:122|63:53,1,150,10|0,0:0|1:2,0:0:0:0:
8,130,137745,1,2,1:2:0:0:
8,130,137891,2,0,P|52:128|91:126,1,75,8|0,0:0|1:2,0:0:0:0:
183,123,138184,1,2,1:2:0:0:
282,118,138330,1,0,1:2:0:0:
374,241,138477,6,0,P|347:276|339:322,1,86.2500016450882,14|0,0:0|1:2,0:0:0:0:
248,246,138770,1,0,1:2:0:0:
248,246,138916,1,0,1:2:0:0:
132,274,139062,38,0,P|148:314|184:344,1,86.2500016450882,14|0,0:0|1:2,0:0:0:0:
55,362,139355,1,0,1:2:0:0:
55,362,139501,1,0,1:2:0:0:
13,230,139648,5,14,0:0:0:0:
132,274,139794,1,8,3:0:0:0:
217,181,139940,1,8,3:0:0:0:
152,73,140087,1,8,3:0:0:0:
31,92,140233,5,10,0:0:0:0:
33,103,140306,1,0,1:2:0:0:
36,115,140379,1,0,1:2:0:0:
40,127,140452,1,0,1:2:0:0:
42,162,140526,37,4,3:0:0:0:
73,149,140599,1,4,3:0:0:0:
107,154,140672,1,4,3:0:0:0:
134,175,140745,1,4,3:0:0:0:
145,207,140818,1,4,1:2:0:0:
256,192,143160,12,0,144623,0:0:0:0:
295,119,144916,6,0,B|289:101|289:101|299:73,1,37.5,10|0,0:0|0:0,0:0:0:0:
391,110,145062,2,0,B|397:132|397:132|387:156,1,37.5,10|0,0:0|0:0,0:0:0:0:
303,110,145209,6,0,B|297:92|297:92|307:64,1,37.5,10|0,0:0|0:0,0:0:0:0:
399,101,145355,2,0,B|405:123|405:123|395:147,1,37.5,10|0,0:0|0:0,0:0:0:0:
504,182,145501,6,0,B|404:177|404:177|333:211|333:211|242:207,1,269.999991760254,6|0,1:2|1:2,0:0:0:0:
334,311,146087,21,10,0:0:0:0:
334,311,146233,2,0,P|343:276|332:237,1,75,2|0,1:2|0:0,0:0:0:0:
397,384,146526,2,0,P|332:349|249:358,1,150,2|10,1:2|0:0,0:0:0:0:
160,346,146965,1,2,1:2:0:0:
63,339,147111,1,0,1:2:0:0:
59,324,147257,5,10,0:0:0:0:
152,361,147404,1,0,1:2:0:0:
244,315,147550,1,2,0:0:0:0:
340,364,147696,1,8,0:0:0:0:
437,310,147843,6,0,P|475:309|513:308,1,75,2|8,1:2|0:0,0:0:0:0:
378,219,148135,2,0,P|389:183|376:145,1,75,2|0,1:2|1:2,0:0:0:0:
285,239,148428,1,10,0:0:0:0:
285,239,148574,2,0,P|267:205|231:188,1,75,2|0,1:2|0:0,0:0:0:0:
231,323,148867,1,2,1:2:0:0:
231,323,148940,1,0,1:2:0:0:
231,323,149013,38,0,P|195:312|156:325,1,75,0|10,1:2|0:0,0:0:0:0:
79,283,149306,1,2,1:2:0:0:
0,242,149452,1,0,1:2:0:0:
72,337,149599,5,10,0:0:0:0:
72,216,149745,1,8,0:0:0:0:
0,316,149891,1,2,1:2:0:0:
120,275,150038,1,2,1:2:0:0:
232,199,150184,6,0,P|242:238|272:264,1,75,6|8,1:2|0:0,0:0:0:0:
248,115,150477,2,0,P|219:143|211:182,1,75,2|0,1:2|1:2,0:0:0:0:
329,82,150770,1,10,0:0:0:0:
329,82,150916,2,0,P|290:71|252:84,1,75,2|0,1:2|0:0,0:0:0:0:
431,120,151209,1,2,1:2:0:0:
431,120,151282,1,0,1:2:0:0:
431,120,151355,38,0,B|442:83|442:83|425:38,1,75,0|10,1:2|0:0,0:0:0:0:
347,89,151648,1,2,1:2:0:0:
347,89,151794,1,0,0:0:0:0:
337,204,151940,5,10,0:0:0:0:
260,158,152087,1,0,1:2:0:0:
163,143,152233,1,2,0:0:0:0:
55,164,152379,1,2,1:2:0:0:
55,164,152452,1,0,1:2:0:0:
55,164,152526,6,0,P|45:127|34:84,1,75,2|8,1:2|0:0,0:0:0:0:
0,262,152818,6,0,B|38:262|38:262|44:266|44:266|87:266,1,82.5000025177003,2|0,1:2|1:2,0:0:0:0:
197,235,153111,2,0,B|235:235|235:235|241:239|241:239|284:239,1,82.5000025177003,10|0,0:0|1:2,0:0:0:0:
394,208,153404,2,0,B|432:208|432:208|438:212|438:212|481:212,1,82.5000025177003,2|8,0:0|0:0,0:0:0:0:
436,335,153696,5,2,1:2:0:0:
356,384,153843,1,8,0:0:0:0:
356,384,153916,1,8,0:0:0:0:
356,384,153989,1,8,0:0:0:0:
321,239,154135,1,0,1:2:0:0:
413,248,154282,2,0,P|450:248|500:248,1,82.5000025177003,10|8,0:0|0:0,0:0:0:0:
283,324,154574,2,0,P|219:324|160:324,1,123.75000377655,0|0,1:2|0:0,0:0:0:0:
112,382,154867,38,0,B|142:337|154:274|118:207|46:209|8:268|33:315,1,281.25,6|0,1:2|0:0,0:0:0:0:
32,313,155452,6,0,B|70:329|70:329|116:318,1,82.5000025177003,10|0,0:0|1:2,0:0:0:0:
211,370,155745,2,0,B|243:345|243:345|257:299,1,82.5000025177003,2|0,0:0|1:2,0:0:0:0:
361,264,156038,2,0,B|355:223|355:223|323:188,1,82.5000025177003,2|0,2:2|1:2,2:2:0:0:
208,162,156330,5,2,1:2:0:0:
208,162,156477,2,0,B|263:158|263:158|312:180|312:180|369:173,1,165.000005035401,2|0,1:2|1:2,0:0:0:0:
478,103,156916,1,0,1:2:0:0:
479,120,156990,1,0,1:2:0:0:
480,137,157063,1,0,1:2:0:0:
481,154,157136,1,0,1:2:0:0:
482,173,157209,54,0,P|484:216|489:278,1,82.5000025177003,0|0,1:2|1:2,0:0:0:0:
359,338,157501,2,0,B|392:336|392:336|411:344|411:344|450:342,1,82.5000025177003,2|0,1:2|1:2,0:0:0:0:
297,267,157794,2,0,B|256:277|256:277|212:266,1,82.5000025177003,10|0,0:0|1:2,0:0:0:0:
72,342,158087,2,0,B|101:344|101:344|119:336|119:336|153:338,1,82.5000025177003,2|0,0:0|1:2,0:0:0:0:
309,342,158379,6,0,B|287:308|287:308|297:264,1,82.5000025177003,2|0,0:0|1:2,0:0:0:0:
387,253,158672,2,0,B|409:287|409:287|399:331,1,82.5000025177003,2|0,1:2|1:2,0:0:0:0:
247,312,158965,1,8,0:0:0:0:
263,310,159038,1,8,0:0:0:0:
279,309,159111,1,8,0:0:0:0:
295,308,159184,1,8,0:0:0:0:
312,325,159257,54,0,L|306:278,1,41.2500012588501,2|2,1:2|1:2,1:1:0:0:
297,208,159404,2,0,L|291:161,1,41.2500012588501,2|2,1:2|1:2,0:0:0:0:
356,124,159550,6,0,B|290:124|290:124|233:142|233:142|178:113|178:113|145:141|90:130,1,281.25,6|0,1:2|1:2,0:0:0:0:
15,249,160135,54,0,B|52:233|52:233|98:243,1,82.5000025177003,10|0,0:0|0:0,0:0:0:0:
191,274,160428,2,0,B|231:283|231:283|269:267,1,82.5000025177003,2|0,1:2|1:2,0:0:0:0:
397,362,160721,6,0,P|355:359|313:356,1,82.5000025177003,2|8,1:2|0:0,0:0:0:0:
461,269,161013,2,0,P|438:233|412:193,1,82.5000025177003,2|0,1:2|1:2,0:0:0:0:
512,373,161306,54,0,L|478:349,1,41.2500012588501,10|0,0:2|0:0,0:0:0:0:
438,323,161452,2,0,L|404:300,1,41.2500012588501,2|0,1:2|0:0,0:0:0:0:
353,293,161599,6,0,L|387:316,1,41.2500012588501,2|0,1:2|0:0,0:0:0:0:
283,248,161745,2,0,L|317:271,1,41.2500012588501,2|0,1:2|0:0,0:0:0:0:
173,194,161891,54,0,B|211:176|211:176|221:137,1,82.5000025177003,0|0,1:2|1:2,0:0:0:0:
64,194,162184,2,0,B|60:235|60:235|89:264,1,82.5000025177003,2|0,1:2|1:2,0:0:0:0:
53,365,162477,2,0,B|115:365|115:365|146:381|146:381|224:381,1,165.000005035401,8|10,0:0|0:0,0:0:0:0:
214,381,162843,1,0,1:2:0:0:
214,381,162916,1,8,0:0:0:0:
285,291,163062,6,0,P|262:257|234:217,1,82.5000025177003,2|8,1:2|0:0,0:0:0:0:
393,273,163355,2,0,P|398:233|403:189,1,82.5000025177003,8|8,0:0|0:0,0:0:0:0:
470,327,163648,53,8,0:0:0:0:
391,284,163794,1,8,0:0:0:0:
292,269,163940,1,8,0:0:0:0:
190,295,164087,1,8,0:0:0:0:
107,375,164233,22,0,P|29:348|26:245,1,180,6|0,1:2|0:0,0:0:0:0:
82,208,164818,2,0,P|113:211|148:214,2,60,8|0|0,0:0|0:0|0:0,0:0:0:0:
283,309,165404,2,0,P|251:312|219:315,2,60,0|0|0,1:2|0:0|0:0,0:0:0:0:
443,214,165989,2,0,P|412:211|382:208,1,60,8|0,0:0|0:0,0:0:0:0:
294,173,166282,6,0,P|384:176|448:117,1,180,2|0,0:0|0:0,0:0:0:0:
354,118,166867,2,0,P|419:176|507:172,1,180,2|0,0:0|0:0,0:0:0:0:
493,91,167452,1,2,0:0:0:0:
426,272,167745,6,0,P|428:240|430:209,2,60,0|0|2,1:2|0:0|0:0,0:0:0:0:
325,290,168184,1,0,1:2:0:0:
325,290,168330,2,0,L|284:231,1,60,8|0,0:0|1:2,0:0:0:0:
258,366,168623,2,0,B|185:353,1,60,2|0,0:0|1:2,0:0:0:0:
114,338,168916,38,0,P|145:331|169:310,2,60,4|0|0,1:2|0:0|0:0,0:0:0:0:
236,231,169501,2,0,P|245:200|239:169,2,60,8|0|0,0:0|0:0|0:0,0:0:0:0:
202,73,170087,2,0,P|180:49|150:39,1,60,0|0,1:2|0:0,0:0:0:0:
144,54,170379,6,0,P|171:65|191:87,1,60,2|0,0:0|0:0,0:0:0:0:
296,74,170672,2,0,B|340:74|340:74|371:87|371:87|414:87,1,120,10|0,0:0|0:0,0:0:0:0:
512,244,171257,6,0,P|451:318|352:300,1,180,2|0,1:2|0:0,0:0:0:0:
300,328,171843,37,10,0:0:0:0:
465,343,172135,1,0,1:2:0:0:
206,226,172428,5,10,0:0:0:0:
16,248,172721,1,0,1:2:0:0:
311,96,173013,6,0,P|341:98|374:100,1,60,8|0,0:0|1:2,0:0:0:0:
460,94,173306,2,0,P|430:92|400:89,1,60,2|0,1:2|1:2,0:0:0:0:
492,192,173599,38,0,P|512:170|541:158,2,60,4|0|0,1:2|0:0|0:0,0:0:0:0:
323,120,174184,2,0,P|313:91|318:60,2,60,8|0|0,0:0|0:0|0:0,0:0:0:0:
165,210,174770,2,0,P|135:203|111:184,1,60,0|0,1:2|0:0,0:0:0:0:
120,173,175062,6,0,P|143:191|172:197,1,60,2|0,0:0|0:0,0:0:0:0:
244,274,175355,2,0,P|270:222|323:186,1,120,10|0,0:0|0:0,0:0:0:0:
401,125,175794,1,2,0:0:0:0:
414,136,175940,6,0,P|345:150|294:113,1,120,0|0,1:2|0:0,0:0:0:0:
259,46,176379,1,0,1:2:0:0:
260,132,176526,1,8,0:0:0:0:
260,132,176818,37,0,1:2:0:0:
354,78,176965,1,0,1:2:0:0:
247,21,177111,6,0,P|216:22|187:23,1,60,8|0,0:0|1:2,0:0:0:0:
354,78,177404,2,0,P|385:77|414:76,1,60,10|0,3:0|1:2,0:0:0:0:
263,140,177696,1,10,0:0:0:0:
346,177,177843,1,4,3:0:0:0:
305,252,177989,2,0,P|309:299|313:343,1,90,4|0,3:0|0:0,0:0:0:0:
314,374,178282,6,0,P|267:338|199:342,3,120,6|2|8|2,1:2|0:0|0:0|0:0,0:0:0:0:
396,286,179452,38,0,P|444:272|472:216,3,104.999996795654,2|2|8|2,1:2|0:0|0:0|0:0,0:0:0:0:
351,339,180623,6,0,P|350:294|320:253,3,89.9999972534181,2|2|8|2,1:2|0:0|0:0|0:0,0:0:0:0:
264,320,181794,6,0,P|185:320|108:320,1,150,2|8,1:2|0:0,0:0:0:0:
21,325,182526,1,0,1:2:0:0:
21,325,182818,1,0,1:2:0:0:
110,355,182965,38,0,P|107:317|104:278,1,75,12|0,0:0|1:2,0:0:0:0:
21,325,183257,1,0,1:2:0:0:
21,325,183404,1,0,1:2:0:0:
224,322,183550,6,0,P|234:289|247:245,1,75,8|0,0:0|1:2,0:0:0:0:
142,269,183843,1,0,1:2:0:0:
142,269,183989,1,0,1:2:0:0:
344,360,184135,6,0,P|374:338|405:315,1,75,8|0,0:0|1:2,0:0:0:0:
309,266,184428,1,0,1:2:0:0:
309,266,184574,1,0,1:2:0:0:
351,369,184721,38,0,P|381:346|419:320,1,75,8|0,0:0|1:2,0:0:0:0:
220,329,185013,2,0,P|217:291|214:248,1,75,0|0,1:2|1:2,0:0:0:0:
96,377,185306,1,8,0:0:0:0:
76,375,185379,1,8,0:0:0:0:
57,373,185452,1,0,1:2:0:0:
37,370,185525,1,0,1:2:0:0:
10,379,185599,6,0,L|15:329,1,37.5,2|2,1:2|1:2,0:0:0:0:
1,307,185745,2,0,L|4:270,1,37.5,2|2,1:2|1:2,0:0:0:0:
0,183,185891,5,8,0:0:0:0:
22,182,185965,1,8,0:0:0:0:
44,181,186038,1,0,1:2:0:0:
66,180,186111,1,0,1:2:0:0:
94,188,186184,38,0,L|92:148,1,37.5,2|2,1:2|1:2,0:0:0:0:
116,122,186330,2,0,L|115:80,1,37.5,2|2,1:2|1:2,0:0:0:0:
209,147,186477,6,0,P|250:147|292:147,1,82.5000025177003,4|0,1:2|1:2,0:0:0:0:
474,247,186770,22,0,B|411:243|411:243|374:262|374:262|307:258,1,165.000005035401,2|8,1:2|0:0,0:0:0:0:
174,263,187209,1,0,1:2:0:0:
174,263,187355,2,0,B|174:324|174:324|188:302,1,82.5000025177003,2|0,1:2|0:0,0:0:0:0:
319,131,187648,6,0,B|347:81|347:81|319:90,1,82.5000025177003,10|0,0:0|1:2,0:0:0:0:
204,75,187940,1,2,0:0:0:0:
204,75,188087,2,0,B|166:26|166:26|161:50,1,82.5000025177003,2|8,1:2|0:0,0:0:0:0:
113,158,188379,1,0,1:2:0:0:
113,158,188452,1,0,1:2:0:0:
113,158,188525,2,0,B|58:178|58:178|84:186,1,82.5000025177003,10|0,0:2|0:0,0:0:0:0:
351,270,188818,54,0,L|394:270,3,41.2500012588501,10|0|0|0,0:0|1:2|1:2|1:2,0:0:0:0:
265,333,189111,2,0,L|273:378,1,41.2500012588501,10|0,0:0|1:2,0:0:0:0:
199,250,189257,6,0,L|192:205,3,41.2500012588501,2|0|8|0,1:2|1:2|0:2|1:2,0:0:0:0:
108,311,189550,1,0,1:2:0:0:
101,311,189623,1,0,1:2:0:0:
94,311,189697,2,0,L|52:311,3,41.2500012588501,10|0|0|0,0:0|1:2|1:2|1:2,0:0:0:0:
18,223,189989,22,0,P|37:235|58:226,1,41.2500012588501,10|0,0:0|1:2,0:0:0:0:
82,113,190135,2,0,P|75:130|86:150,1,41.2500012588501,8|0,0:0|1:2,0:0:0:0:
205,107,190282,6,0,P|187:123|179:155,1,41.2500012588501,8|0,0:0|1:2,0:0:0:0:
322,172,190428,2,0,P|295:175|277:185,1,41.2500012588501,10|0,0:0|1:2,0:0:0:0:
344,305,190574,37,8,0:0:0:0:
317,296,190648,1,8,0:0:0:0:
294,305,190720,1,10,0:0:0:0:
264,296,190794,1,8,0:0:0:0:
238,305,190866,1,8,0:0:0:0:
209,296,190939,1,8,0:0:0:0:
181,305,191013,6,0,P|91:305|4:305,1,172.500003290176,6|0,1:2|1:2,0:0:0:0:
31,150,191452,2,0,P|61:178|105:188,1,86.2500016450882,10|0,0:0|0:0,0:0:0:0:
181,305,191745,1,0,1:2:0:0:
187,166,191891,1,0,1:2:0:0:
102,272,192038,2,0,P|74:310|50:342,1,86.2500016450882,10|0,0:0|1:2,0:0:0:0:
246,239,192330,5,2,0:0:0:0:
246,239,192477,2,0,P|288:249|293:214,1,86.2500016450882,2|8,1:2|0:0,0:0:0:0:
142,181,192770,2,0,P|129:139|93:143,1,86.2500016450882,2|0,0:0|1:2,0:0:0:0:
91,289,193062,2,0,P|61:320|73:360,1,86.2500016450882,2|8,1:2|0:0,0:0:0:0:
216,347,193355,38,0,B|261:336|300:363|300:363|339:389|383:378,1,172.500003290176,4|0,1:2|1:2,0:0:0:0:
478,256,193794,2,0,B|462:297|462:297|478:340,1,86.2500016450882,10|0,0:0|1:2,0:0:0:0:
386,211,194087,1,0,0:0:0:0:
512,162,194233,1,2,1:2:0:0:
377,107,194379,2,0,P|373:65|369:20,1,86.2500016450882,10|0,0:0|1:2,0:0:0:0:
170,165,194672,6,0,P|216:241|292:240,1,172.500003290176,2|8,0:0|0:0,0:0:0:0:
415,283,195111,2,0,P|331:276|237:268,1,172.500003290176,2|0,1:2|1:2,0:0:0:0:
160,318,195550,1,10,0:0:0:0:
55,378,195696,6,0,P|-13:324|4:242,1,172.500003290176,6|0,2:0|1:2,0:0:0:0:
169,187,196135,2,0,P|161:233|153:278,1,86.2500016450882,10|0,0:0|0:0,0:0:0:0:
301,220,196428,2,0,P|293:266|285:312,1,86.2500016450882,2|0,1:2|1:2,0:0:0:0:
433,253,196721,2,0,P|425:299|417:343,1,86.2500016450882,10|0,0:0|1:2,0:0:0:0:
404,147,197013,38,0,P|448:147|487:125,1,86.2500016450882,2|0,0:0|1:2,0:0:0:0:
350,51,197306,1,8,0:0:0:0:
350,51,197452,2,0,B|289:56|289:56|242:36|242:36|181:41,1,172.500003290176,2|0,0:0|1:2,0:0:0:0:
74,11,197891,1,10,0:2:0:0:
0,136,198038,6,0,P|43:207|128:199,1,172.500003290176,4|0,1:2|1:2,0:0:0:0:
257,274,198477,22,0,B|233:274|233:274|214:280|214:280|195:274|195:274|168:274,1,89.9999972534181,10|0,0:0|0:0,0:0:0:0:
339,310,198770,1,10,0:0:0:0:
367,322,198843,1,0,1:2:0:0:
398,323,198916,1,0,1:2:0:0:
427,310,198989,1,0,1:2:0:0:
446,285,199062,6,0,L|442:235,1,44.999998626709,2|0,1:2|0:0,0:0:0:0:
507,172,199209,2,0,L|458:147,1,44.999998626709,2|0,1:2|0:0,0:0:0:0:
414,75,199355,37,10,0:0:0:0:
397,76,199428,1,0,1:2:0:0:
379,77,199501,1,0,1:2:0:0:
362,79,199574,1,0,1:2:0:0:
344,80,199648,1,10,0:0:0:0:
326,81,199721,1,0,1:2:0:0:
308,82,199794,1,0,1:2:0:0:
290,83,199867,1,0,1:2:0:0:
260,57,199940,37,10,0:0:0:0:
271,95,200013,1,0,1:2:0:0:
267,134,200087,1,0,1:2:0:0:
243,164,200160,1,0,1:2:0:0:
208,181,200233,1,10,0:0:0:0:
169,181,200306,1,0,1:2:0:0:
134,164,200379,6,0,P|143:245|154:336,1,172.500003290176,6|2,1:2|1:2,0:0:0:0:
57,270,200818,2,0,P|12:267|-29:264,1,86.2500016450882,12|0,0:0|0:0,0:0:0:0:
154,335,201111,1,0,1:2:0:0:
224,279,201257,1,0,1:2:0:0:
299,344,201404,1,10,0:0:0:0:
382,287,201550,1,4,1:2:0:0:
475,354,201696,6,0,P|537:306|518:224,1,172.500003290176,2|8,0:0|0:0,0:0:0:0:
401,241,202135,1,0,0:0:0:0:
401,241,202282,2,0,P|361:246|315:252,1,86.2500016450882,2|2,1:2|1:2,0:0:0:0:
234,213,202574,1,8,0:0:0:0:
113,273,202721,38,0,P|38:253|23:164,1,172.500003290176,6|2,1:2|1:2,0:0:0:0:
77,70,203160,2,0,P|30:67|-14:64,1,86.2500016450882,8|0,0:0|1:2,0:0:0:0:
192,40,203452,1,0,0:0:0:0:
139,124,203599,1,0,1:2:0:0:
210,200,203745,1,10,0:0:0:0:
138,278,203891,1,4,1:2:0:0:
225,363,204038,6,0,P|157:316|67:320,1,172.500003290176,2|10,0:0|0:0,0:0:0:0:
146,217,204477,2,0,P|117:243|138:278,1,86.2500016450882,2|0,1:2|0:0,0:0:0:0:
279,220,204770,2,0,P|275:177|270:118,1,86.2500016450882,2|8,1:2|0:0,0:0:0:0:
384,317,205062,6,0,P|470:299|501:224,1,172.500003290176,6|0,1:2|1:2,0:0:0:0:
479,321,205501,2,0,P|506:357|533:391,1,86.2500016450882,10|0,0:0|0:0,0:0:0:0:
428,256,205794,1,0,1:2:0:0:
375,185,205940,1,0,1:2:0:0:
325,276,206087,1,10,0:0:0:0:
274,372,206233,1,0,1:2:0:0:
152,310,206379,38,0,B|108:325|71:290|71:290|38:256|-9:269,1,172.500003290176,2|8,0:0|0:0,0:0:0:0:
112,155,206818,2,0,B|103:197|103:197|133:230,1,86.2500016450882,2|0,0:0|1:2,0:0:0:0:
234,299,207111,2,0,B|276:308|276:308|309:278,1,86.2500016450882,2|8,1:2|0:0,0:0:0:0:
444,207,207404,6,0,P|359:206|312:134,1,172.500003290176,6|0,1:2|1:2,0:0:0:0:
206,91,207843,21,2,1:2:0:0:
184,97,207916,1,0,1:2:0:0:
162,91,207989,1,0,1:2:0:0:
140,97,208062,1,0,1:2:0:0:
118,91,208135,6,0,L|115:45,3,44.999998626709,10|0|8|0,0:0|1:2|0:0|1:2,0:0:0:0:
20,183,208428,2,0,L|15:133,3,44.999998626709,0|0|8|0,1:2|1:2|0:0|1:2,0:0:0:0:
5,290,208721,38,0,B|67:283|67:283|110:301|110:301|177:293,1,172.500003290176,6|8,1:2|3:0,0:0:0:0:
196,306,209087,1,8,3:0:0:0:
221,310,209160,1,8,3:0:0:0:
245,302,209233,1,8,3:0:0:0:
270,325,209306,37,6,3:0:0:0:
295,302,209379,1,4,3:0:0:0:
329,299,209453,1,4,3:0:0:0:
361,311,209526,1,4,3:0:0:0:
384,279,209599,5,10,0:0:0:0:
403,312,209672,1,8,0:0:0:0:
438,327,209745,1,8,0:0:0:0:
476,323,209818,1,8,0:0:0:0:
509,304,209891,6,0,P|503:234|496:155,1,150,6|0,0:0|0:0,0:0:0:0:
408,185,210330,1,2,1:2:0:0:
408,185,210477,2,0,P|426:217|458:235,1,75,8|0,0:0|0:0,0:0:0:0:
318,187,210770,2,0,P|299:219|300:257,1,75,2|0,1:2|0:0,0:0:0:0:
183,139,211062,38,0,P|216:122|253:122,1,75,2|0,0:0|1:2,0:0:0:0:
299,255,211355,2,0,P|299:218|318:187,1,75,2|0,0:0|1:2,0:0:0:0:
458,235,211648,2,0,P|426:217|408:185,1,75,10|0,0:0|0:0,0:0:0:0:
489,157,211940,1,2,0:0:0:0:
378,300,212233,6,0,B|322:296|322:296|283:312|283:312|228:308,1,150,6|0,1:2|0:0,0:0:0:0:
142,353,212672,1,2,1:2:0:0:
142,353,212818,2,0,P|183:349|228:345,1,75,8|0,0:0|0:0,0:0:0:0:
50,362,213111,1,2,1:2:0:0:
50,362,213257,1,0,1:2:0:0:
50,362,213404,6,0,P|39:328|52:288,1,75,2|8,0:0|0:0,0:0:0:0:
137,304,213696,1,0,1:2:0:0:
224,315,213843,1,0,1:2:0:0:
332,290,213989,38,0,P|292:293|249:296,1,75,10|8,0:0|0:0,0:0:0:0:
137,304,214282,1,6,1:2:0:0:
310,150,214574,6,0,P|387:157|461:164,1,150,6|0,1:2|1:2,0:0:0:0:
512,95,215013,1,2,1:2:0:0:
512,95,215160,2,0,P|479:112|434:112,1,75,8|0,0:0|1:2,0:0:0:0:
468,200,215452,1,2,1:2:0:0:
496,287,215599,1,0,1:2:0:0:
377,260,215745,6,0,P|296:257|225:254,1,150,10|0,0:0|1:2,0:0:0:0:
294,370,216184,1,2,1:2:0:0:
294,370,216330,2,0,P|306:337|289:296,1,75,8|0,0:0|1:2,0:0:0:0:
211,336,216623,1,2,1:2:0:0:
124,300,216770,1,0,1:2:0:0:
17,336,216916,38,0,P|13:293|9:248,1,86.2500016450882,14|0,0:2|1:2,0:0:0:0:
144,188,217209,1,8,0:0:0:0:
6,152,217355,1,0,1:2:0:0:
6,152,217428,1,0,1:2:0:0:
6,152,217501,1,14,0:0:0:0:
124,300,217648,5,0,1:2:0:0:
262,222,217794,1,8,0:0:0:0:
110,182,217940,1,0,1:2:0:0:
110,182,218013,1,0,1:2:0:0:
110,182,218087,6,0,P|104:140|97:91,1,86.2500016450882,14|0,0:0|1:2,0:0:0:0:
201,121,218306,1,0,1:2:0:0:
215,126,218379,2,0,P|209:85|203:34,1,86.2500016450882,8|0,0:0|1:2,0:0:0:0:
314,84,218599,1,0,1:2:0:0:
330,77,218672,38,0,P|349:122|335:157,1,86.2500016450882,10|0,0:0|1:2,0:0:0:0:
358,191,218891,5,0,1:2:0:0:
318,172,218965,1,8,0:0:0:0:
278,188,219038,1,8,0:0:0:0:
263,228,219111,1,8,0:0:0:0:
278,270,219184,1,8,0:0:0:0:
315,288,219257,6,0,B|329:322|329:322|315:360,1,75,6|2,1:2|1:2,0:0:0:0:
229,326,219550,1,8,0:0:0:0:
236,236,219696,1,2,1:2:0:0:
315,288,219843,1,2,0:0:0:0:
229,326,219989,1,0,1:2:0:0:
133,288,220135,2,0,B|103:288|103:288|72:288|81:299|50:299|50:299|23:299,1,112.5,10|0,0:0|0:0,0:0:0:0:
5,288,220428,37,2,1:2:0:0:
101,323,220574,1,2,1:2:0:0:
199,358,220721,1,8,0:0:0:0:
145,237,220867,5,2,1:2:0:0:
199,358,221013,1,2,0:0:0:0:
250,237,221160,1,0,1:2:0:0:
296,323,221306,2,0,P|334:323|371:323,1,75,10|0,0:0|0:0,0:0:0:0:
449,204,221599,5,2,1:2:0:0:
448,204,221745,2,0,P|414:218|376:217,1,75,2|8,0:0|0:0,0:0:0:0:
267,237,222038,1,2,1:2:0:0:
267,237,222184,2,0,P|250:269|230:306,1,75,2|0,0:0|1:2,0:0:0:0:
218,144,222477,2,0,P|185:106|170:44,1,112.5,10|0,0:0|0:0,0:0:0:0:
134,63,222770,38,0,B|139:44|139:44|132:21,3,43.1250008225441,10|8|0|0,0:0|0:0|1:2|1:2,0:0:0:0:
45,133,223062,38,0,L|-3:133,3,43.1250008225441,10|8|8|8,3:0|3:0|3:0|3:0,0:0:0:0:
154,185,223355,5,6,3:0:0:0:
176,200,223428,1,4,3:0:0:0:
204,205,223501,1,4,3:0:0:0:
231,203,223574,1,4,3:0:0:0:
255,190,223648,1,10,0:0:0:0:
280,178,223721,1,0,1:2:0:0:
307,173,223794,1,0,1:2:0:0:
334,175,223867,1,0,1:2:0:0:
359,183,223940,6,0,P|356:140|353:92,1,89.9999972534181,14|0,0:0|1:2,0:0:0:0:
314,263,224233,1,10,0:0:0:0:
440,313,224379,1,2,1:2:0:0:
440,313,224452,1,0,1:2:0:0:
440,313,224526,1,10,0:0:0:0:
374,384,224672,1,0,1:2:0:0:
256,352,224818,6,0,B|213:360|213:360|170:342,1,89.9999972534181,10|0,0:0|1:2,0:0:0:0:
169,356,225038,1,0,1:2:0:0:
167,370,225111,1,10,0:0:0:0:
83,304,225257,1,2,1:2:0:0:
182,247,225404,1,10,0:0:0:0:
70,199,225550,1,0,1:2:0:0:
194,132,225696,5,10,0:0:0:0:
215,118,225770,1,0,1:2:0:0:
204,97,225843,1,0,1:2:0:0:
179,95,225916,1,0,1:2:0:0:
175,119,225989,37,10,0:0:0:0:
215,118,226062,1,8,0:0:0:0:
255,116,226135,1,0,1:2:0:0:
295,114,226209,1,0,1:2:0:0:
334,93,226282,6,0,P|337:137|340:185,1,89.9999972534181,14|0,0:2|1:2,0:0:0:0:
347,318,226574,1,10,0:0:0:0:
415,241,226721,1,2,1:2:0:0:
415,241,226794,1,0,1:2:0:0:
415,241,226867,1,10,0:0:0:0:
272,273,227013,1,0,1:2:0:0:
125,314,227160,6,0,P|166:331|207:349,1,89.9999972534181,10|0,0:0|1:2,0:0:0:0:
222,355,227379,1,0,1:2:0:0:
236,361,227452,1,10,0:0:0:0:
272,273,227599,1,2,1:2:0:0:
125,314,227745,1,10,0:0:0:0:
4,237,227891,1,0,1:2:0:0:
4,237,227965,1,0,1:2:0:0:
4,237,228038,37,10,2:0:0:0:
39,244,228111,1,8,0:3:0:0:
74,236,228184,1,8,0:3:0:0:
102,213,228257,1,8,0:3:0:0:
115,179,228330,1,10,0:0:0:0:
114,142,228404,1,8,0:0:0:0:
98,109,228477,1,0,1:2:0:0:
69,87,228550,1,0,1:2:0:0:
34,76,228623,6,0,L|39:124,3,44.999998626709,14|0|0|0,0:2|1:2|1:2|1:2,0:0:0:0:
129,43,228916,2,0,L|132:90,1,44.999998626709,10|0,0:0|1:2,0:0:0:0:
230,13,229062,2,0,L|233:60,1,44.999998626709,2|0,1:2|1:2,0:0:0:0:
240,157,229209,5,10,0:0:0:0:
260,180,229282,1,0,1:2:0:0:
291,189,229355,1,0,1:2:0:0:
322,186,229428,1,0,1:2:0:0:
348,169,229501,38,0,L|359:222,3,44.999998626709,14|0|0|0,0:0|1:2|1:2|1:2,0:0:0:0:
457,230,229794,2,0,L|423:281,1,44.999998626709,10|0,0:0|1:2,0:0:0:0:
499,358,229940,2,0,L|446:353,1,44.999998626709,2|0,1:2|1:2,0:0:0:0:
351,345,230087,5,10,0:0:0:0:
318,341,230160,1,0,1:2:0:0:
290,354,230233,1,0,1:2:0:0:
262,337,230306,1,0,1:2:0:0:
230,333,230379,1,10,0:0:0:0:
305,256,230526,1,0,1:0:0:0:
305,256,230599,1,0,1:0:0:0:
305,256,230672,1,14,0:2:0:0:
307,156,230818,1,0,1:2:0:0:
311,51,230965,6,0,L|312:7,3,44.999998626709,14|0|0|0,1:2|1:2|1:2|1:2,0:0:0:0:
209,79,231257,2,0,L|209:34,1,44.999998626709,10|0,0:0|1:2,0:0:0:0:
109,108,231404,2,0,L|109:63,1,44.999998626709,2|0,1:2|1:2,0:0:0:0:
78,204,231550,37,10,0:0:0:0:
106,191,231623,1,0,1:2:0:0:
138,195,231696,1,0,1:2:0:0:
165,213,231770,1,0,1:2:0:0:
180,242,231843,2,0,L|230:235,1,44.999998626709,14|0,0:2|1:2,0:0:0:0:
307,192,231989,2,0,L|333:234,1,44.999998626709,10|0,0:2|1:2,0:0:0:0:
426,277,232135,6,0,P|400:332|332:346,1,134.999995880127,14|0,0:0|1:2,0:0:0:0:
316,376,232428,1,10,2:2:0:0:
186,357,232574,1,0,1:2:0:0:
186,357,232648,1,0,1:2:0:0:
186,357,232721,6,0,L|191:312,1,44.999998626709,14|0,0:0|1:2,0:0:0:0:
83,298,232867,38,0,L|79:252,1,46.875,10|0,0:0|1:2,0:0:0:0:
205,207,233013,38,0,L|211:155,1,48.7499977684022,14|0,0:0|1:2,0:0:0:0:
68,117,233160,6,0,L|63:66,1,50.6250001931191,14|0,0:0|1:2,0:0:0:0:
