osu file format v14

[General]
AudioFilename: audio.mp3
AudioLeadIn: 0
PreviewTime: 28752
Countdown: 0
SampleSet: Soft
StackLeniency: 0.7
Mode: 0
LetterboxInBreaks: 0
WidescreenStoryboard: 1

[Editor]
Bookmarks: 1895,5323,8752,12180,15609,19037,22466,25894,29323,32752,36180,39609,43037,46466,49894,53323,56752
DistanceSpacing: 1
BeatDivisor: 4
GridSize: 32
TimelineZoom: 1.2

[Metadata]
Title:Without the end
TitleUnicode:Without the end
Artist:UNDEAD CORPORATION
ArtistUnicode:UNDEAD CORPORATION
Creator:eiri-
Version:Normal
Source:東方紅魔郷 ~ the Embodiment of Scarlet Devil.
Tags:Ayyri Featured Artist FA Mappers' Guild Instrumental Video Game 妖魔夜行 TOHO Complete Box RED 東方Project ZUN Rumia ルーミア Team Shanghai Alice Touhou Koumakyou EoSD Stage 1 Boss TH06 TH 06 私はもう死んでいる?
BeatmapID:2312577
BeatmapSetID:1106521

[Difficulty]
HPDrainRate:3
CircleSize:3
OverallDifficulty:4
ApproachRate:4
SliderMultiplier:1.2
SliderTickRate:1

[Events]
//Background and Video events
0,0,"Rumia 386.jpg",0,0
//Break Periods
//Storyboard Layer 0 (Background)
//Storyboard Layer 1 (Fail)
//Storyboard Layer 2 (Pass)
//Storyboard Layer 3 (Foreground)
//Storyboard Layer 4 (Overlay)
//Storyboard Sound Samples

[TimingPoints]
1895,571.428571428571,3,2,1,50,1,0
46466,-100,3,2,1,30,0,0
48180,-100,3,2,1,25,0,0
49894,-100,3,2,1,20,0,0
51609,-100,3,2,1,15,0,0
53323,-100,3,2,1,10,0,0
55037,-100,3,2,1,7,0,0
56752,-100,3,2,1,5,0,0

[Colours]
Combo1 : 202,137,241
Combo2 : 121,238,139
Combo3 : 141,177,243
Combo4 : 241,184,107

[HitObjects]
32,320,1895,6,0,P|64:303|103:292,1,60,2|0,0:0|0:0,0:0:0:0:
145,307,2466,2,0,L|268:331,1,120
374,360,3609,1,2,0:0:0:0:
403,243,4180,1,2,0:0:0:0:
432,126,4752,1,2,0:0:0:0:
312,138,5323,6,0,P|274:109|258:84,1,60,2|0,0:0|0:0,0:0:0:0:
257,40,5894,2,0,P|213:28|143:81,1,120,0|0,0:0|0:0,0:0:0:0:
90,175,7037,2,0,L|104:258,1,60,2|0,0:0|0:0,0:0:0:0:
93,294,7609,2,0,L|213:269,1,120,0|2,0:0|0:0,0:0:0:0:
319,324,8752,6,0,L|398:340,1,60,2|0,0:0|0:0,0:0:0:0:
437,328,9323,2,0,P|422:276|377:202,1,120,0|0,0:0|0:0,0:0:0:0:
298,140,10466,1,2,0:0:0:0:
186,183,11037,1,2,0:0:0:0:
74,226,11609,1,2,0:0:0:0:
19,118,12180,6,0,P|37:69|52:46,1,60,2|0,0:0|0:0,0:0:0:0:
94,34,12752,2,0,P|139:53|217:59,1,120,0|0,0:0|0:0,0:0:0:0:
325,28,13894,2,0,P|370:68|395:136,1,120,2|0,0:0|0:0,0:0:0:0:
322,351,15609,6,0,P|341:311|367:290,1,60,2|0,0:0|0:0,0:0:0:0:
391,255,16180,2,0,P|330:220|278:226,1,120,0|0,0:0|0:0,0:0:0:0:
172,271,17323,1,2,0:0:0:0:
214,158,17894,1,2,0:0:0:0:
256,45,18466,1,2,0:0:0:0:
140,77,19037,6,0,L|74:58,1,60,2|0,0:0|0:0,0:0:0:0:
23,46,19609,2,0,L|43:176,1,120,0|0,0:0|0:0,0:0:0:0:
64,282,20752,2,0,P|102:264|124:262,1,60,2|0,0:0|0:0,0:0:0:0:
166,299,21323,2,0,L|307:288,1,120,0|2,0:0|0:0,0:0:0:0:
404,295,22466,6,0,L|416:230,1,60,2|0,0:0|0:0,0:0:0:0:
445,184,23037,2,0,P|415:147|342:141,1,120,0|0,0:0|0:0,0:0:0:0:
250,211,24180,1,2,0:0:0:0:
131,228,24752,1,2,0:0:0:0:
12,245,25323,1,2,0:0:0:0:
23,125,25894,6,0,L|95:139,1,60,2|0,0:0|0:0,0:0:0:0:
136,110,26466,2,0,L|263:87,1,120,0|2,0:0|0:0,0:0:0:0:
374,66,27609,2,0,P|355:101|347:130,1,60,2|0,0:0|0:0,0:0:0:0:
389,164,28180,2,0,P|408:199|409:292,1,120,0|2,0:0|0:0,0:0:0:0:
389,333,29037,1,2,0:0:0:0:
389,333,29323,6,0,L|306:318,1,60,2|0,0:0|0:0,0:0:0:0:
276,349,29894,2,0,L|155:371,1,120,0|2,0:0|0:0,0:0:0:0:
43,333,31037,1,2,0:0:0:0:
85,220,31609,1,2,0:0:0:0:
127,107,32180,1,2,0:0:0:0:
228,171,32752,6,0,L|310:163,1,60,2|0,0:0|0:0,0:0:0:0:
336,130,33323,2,0,L|472:144,1,120,0|0,0:0|0:0,0:0:0:0:
417,257,34466,2,0,P|430:294|446:313,1,60,2|0,0:0|0:0,0:0:0:0:
491,345,35037,2,0,L|355:359,1,120,0|2,0:0|0:0,0:0:0:0:
315,364,35894,1,2,0:0:0:0:
315,364,36180,6,0,L|332:281,1,60,2|0,0:0|0:0,0:0:0:0:
359,254,36752,2,0,L|336:131,1,120,0|2,0:0|0:0,0:0:0:0:
318,16,37894,1,2,0:0:0:0:
205,57,38466,1,2,0:0:0:0:
92,98,39037,1,2,0:0:0:0:
153,199,39609,6,0,L|145:279,1,60,2|0,0:0|0:0,0:0:0:0:
136,317,40180,2,0,P|199:293|268:282,1,120,0|0,0:0|0:0,0:0:0:0:
363,323,41323,2,0,L|438:311,1,60,2|0,0:0|0:0,0:0:0:0:
481,303,41894,2,0,L|449:175,1,120,0|2,0:0|0:0,0:0:0:0:
467,128,42752,1,2,0:0:0:0:
467,128,43037,6,0,L|478:59,1,60,2|0,0:0|0:0,0:0:0:0:
480,8,43609,2,0,L|351:25,1,120,0|2,0:0|0:0,0:0:0:0:
259,85,44752,2,0,P|185:76|130:49,2,120,2|2|2,0:0|0:0|0:0,0:0:0:0:
375,54,46466,5,2,0:0:0:0:
356,172,47037,1,0,0:0:0:0:
238,153,47609,1,2,0:0:0:0:
257,35,48180,2,0,L|121:49,1,120,2|0,0:0|0:0,0:0:0:0:
18,63,49323,1,2,0:0:0:0:
29,182,49894,5,2,0:0:0:0:
256,192,50180,12,0,56752,0:0:0:0:
