osu file format v14

[General]
AudioFilename: audio.mp3
AudioLeadIn: 0
PreviewTime: 28571
Countdown: 1
SampleSet: Soft
StackLeniency: 0.7
Mode: 2
LetterboxInBreaks: 0
WidescreenStoryboard: 0

[Editor]
DistanceSpacing: 1.2
BeatDivisor: 4
GridSize: 4
TimelineZoom: 1.8

[Metadata]
Title:Without the end
TitleUnicode:Without the end
Artist:UNDEAD CORPORATION
ArtistUnicode:UNDEAD CORPORATION
Creator:bigh
Version:Cup
Source:東方紅魔郷 ~ the Embodiment of Scarlet Devil.
Tags:bighzonda Featured Artist FA piano Instrumental Video Game vg vgm 妖魔夜行 TOHO Complete Box RED 東方Project ZUN Rumia ルーミア Team Shanghai Alice Touhou Koumakyou EoSD Stage 1 Boss TH06 TH 06 私はもう死んでいる?
BeatmapID:3506387
BeatmapSetID:1715998

[Difficulty]
HPDrainRate:3.5
CircleSize:3.5
OverallDifficulty:3.5
ApproachRate:3.5
SliderMultiplier:2.1
SliderTickRate:0.5

[Events]
//Background and Video events
0,0,"bg.jpg",0,0
//Break Periods
//Storyboard Layer 0 (Background)
//Storyboard Layer 1 (Fail)
//Storyboard Layer 2 (Pass)
//Storyboard Layer 3 (Foreground)
//Storyboard Layer 4 (Overlay)
//Storyboard Sound Samples

[TimingPoints]
1857,571.428571428571,3,2,1,40,1,0
49856,-100,3,2,1,35,0,0
51571,-100,3,2,1,30,0,0
53285,-100,3,2,1,25,0,0
54999,-100,3,2,1,20,0,0
56714,-100,3,2,1,10,0,0
59571,-100,3,2,1,5,0,0
62428,-100,3,2,2,5,0,0

[Colours]
Combo1 : 215,185,83
Combo2 : 219,79,79
Combo3 : 186,116,112
Combo4 : 208,168,140

[HitObjects]
179,313,1857,6,0,L|179:96,1,210,6|0,0:0|0:0,0:0:0:0:
390,209,3571,2,0,P|466:176|322:3,1,420,2|0,0:0|0:0,0:0:0:0:
111,132,5285,6,0,L|327:134,1,210,2|0,0:0|0:0,0:0:0:0:
111,226,6999,1,0,0:0:0:0:
448,171,8142,1,2,0:0:0:0:
237,125,8714,6,0,L|457:114,1,210,2|0,0:0|0:0,0:0:0:0:
238,64,10428,1,2,0:0:0:0:
80,92,10999,1,2,0:0:0:0:
80,211,11571,1,2,0:0:0:0:
290,270,12142,6,0,P|346:262|419:127,1,210,2|0,0:0|0:0,0:0:0:0:
171,107,15571,6,0,L|393:108,1,210,6|0,0:0|0:0,0:0:0:0:
170,147,17285,2,0,P|172:220|443:370,1,420,2|0,0:0|0:0,0:0:0:0:
229,211,18999,6,0,L|12:212,1,210,2|0,0:0|0:0,0:0:0:0:
233,125,20714,1,0,0:0:0:0:
25,75,21856,1,2,0:0:0:0:
235,45,22428,6,0,L|225:276,1,210,2|0,0:0|0:0,0:0:0:0:
435,269,24142,1,2,0:0:0:0:
223,198,24714,1,2,0:0:0:0:
222,58,25285,1,2,0:0:0:0:
428,58,25856,6,0,L|204:59,1,210,2|0,0:0|0:0,0:0:0:0:
8,60,26999,1,2,0:0:0:0:
219,47,27571,1,0,0:0:0:0:
504,142,28714,1,2,0:0:0:0:
252,136,29285,6,0,P|184:136|105:23,1,210,6|0,0:0|0:0,0:0:0:0:
316,22,30428,1,2,0:0:0:0:
107,31,30999,1,2,0:0:0:0:
316,22,31571,1,2,0:0:0:0:
316,22,32142,1,2,0:0:0:0:
104,68,32714,6,0,P|44:96|120:176,1,210,2|0,0:0|0:0,0:0:0:0:
408,68,34428,2,0,P|468:96|392:176,1,210
192,152,35571,1,2,0:0:0:0:
402,150,36142,6,0,P|355:108|216:59,1,210,2|0,0:0|0:0,0:0:0:0:
8,78,37285,1,2,0:0:0:0:
216,58,37856,1,2,0:0:0:0:
8,78,38428,1,2,0:0:0:0:
8,78,38999,1,2,0:0:0:0:
260,162,39571,6,0,L|48:162,1,210,2|0,0:0|0:0,0:0:0:0:
344,82,41285,2,0,L|132:82,1,210
344,82,42428,1,2,0:0:0:0:
92,90,42999,6,0,B|136:122|136:122|304:122,1,210,6|0,0:0|0:0,0:0:0:0:
80,178,44142,1,2,0:0:0:0:
292,174,44714,1,2,0:0:0:0:
492,180,45285,1,2,0:0:0:0:
492,180,45856,1,2,0:0:0:0:
280,180,46428,5,2,0:0:0:0:
68,176,47000,1,2,0:0:0:0:
68,176,47571,1,2,0:0:0:0:
280,180,48142,1,2,0:0:0:0:
111,240,49285,1,2,0:0:0:0:
320,222,49856,6,0,P|313:114|212:83,1,210,2|0,0:0|0:0,0:0:0:0:
34,46,50999,1,2,0:0:0:0:
213,52,51571,1,2,0:0:0:0:
381,51,52142,1,2,0:0:0:0:
229,51,52714,1,2,0:0:0:0:
99,51,53285,5,2,0:0:0:0:
277,53,54999,5,0,0:0:0:0:
256,192,56714,12,0,62428,0:0:0:0:
