osu file format v14

[General]
AudioFilename: UNDEAD CORPORATION - Uzu.mp3
AudioLeadIn: 0
PreviewTime: 140377
Countdown: 0
SampleSet: Soft
StackLeniency: 0.7
Mode: 3
LetterboxInBreaks: 0
SpecialStyle: 0
WidescreenStoryboard: 0

[Editor]
DistanceSpacing: 2
BeatDivisor: 4
GridSize: 4
TimelineZoom: 1.1

[Metadata]
Title:Uzu
TitleUnicode:Uzu
Artist:UNDEAD CORPORATION
ArtistUnicode:UNDEAD CORPORATION
Creator:Rudalek
Version:Hard
Source:東方Project
Tags:puxtu touhou the road of the misfortune god dark road mountain of faith th10 stage 2 pinetree パイン 桂琳 Oni Fairy-tale Book 鬼伽草子 Oni Togizoushi Reitaisai8
BeatmapID:668422
BeatmapSetID:297805

[Difficulty]
HPDrainRate:7.5
CircleSize:4
OverallDifficulty:7.5
ApproachRate:5
SliderMultiplier:1.4
SliderTickRate:1

[Events]
//Background and Video events
0,0,"hina.jpg",0,0
//Break Periods
//Storyboard Layer 0 (Background)
//Storyboard Layer 1 (Fail)
//Storyboard Layer 2 (Pass)
//Storyboard Layer 3 (Foreground)
//Storyboard Sound Samples

[TimingPoints]
83,220.588235294118,4,2,0,50,1,0

[HitObjects]
320,192,83,5,0,0:0:0:0:
448,192,303,1,0,0:0:0:0:
64,192,524,1,0,0:0:0:0:
192,192,744,1,0,0:0:0:0:
320,192,965,1,0,0:0:0:0:
64,192,1075,1,0,0:0:0:0:
448,192,1185,1,0,0:0:0:0:
64,192,1406,1,0,0:0:0:0:
192,192,1480,1,0,0:0:0:0:
448,192,1553,1,0,0:0:0:0:
320,192,1627,1,0,0:0:0:0:
64,192,1700,1,0,0:0:0:0:
192,192,1774,1,0,0:0:0:0:
320,192,1847,1,4,0:0:0:0:
448,192,1847,1,0,0:0:0:0:
192,192,2068,1,0,0:0:0:0:
448,192,2288,1,8,0:0:0:0:
64,192,2288,1,0,0:0:0:0:
320,192,2509,1,0,0:0:0:0:
64,192,2619,1,0,0:0:0:0:
192,192,2619,1,0,0:0:0:0:
320,192,2730,1,0,0:0:0:0:
64,192,2840,1,0,0:0:0:0:
448,192,2840,1,0,0:0:0:0:
192,192,2950,1,0,0:0:0:0:
320,192,3171,1,0,0:0:0:0:
448,192,3171,1,8,0:0:0:0:
192,192,3391,1,0,0:0:0:0:
320,192,3465,1,0,0:0:0:0:
448,192,3538,1,0,0:0:0:0:
192,192,3612,1,0,0:0:0:0:
192,192,3832,1,0,0:0:0:0:
448,192,4053,1,8,0:0:0:0:
64,192,4053,1,0,0:0:0:0:
64,192,4274,1,0,0:0:0:0:
448,192,4384,1,0,0:0:0:0:
320,192,4384,1,0,0:0:0:0:
192,192,4494,1,0,0:0:0:0:
64,192,4605,1,0,0:0:0:0:
448,192,4605,1,0,0:0:0:0:
320,192,4715,1,0,0:0:0:0:
64,192,4935,1,0,0:0:0:0:
192,192,4935,1,8,0:0:0:0:
320,192,5156,1,0,0:0:0:0:
192,192,5230,1,0,0:0:0:0:
64,192,5303,1,0,0:0:0:0:
320,192,5377,1,0,0:0:0:0:
192,192,5597,1,0,0:0:0:0:
64,192,5818,1,0,0:0:0:0:
448,192,5818,1,8,0:0:0:0:
192,192,6038,1,0,0:0:0:0:
448,192,6149,1,0,0:0:0:0:
320,192,6149,1,0,0:0:0:0:
192,192,6259,1,0,0:0:0:0:
64,192,6369,1,0,0:0:0:0:
448,192,6369,1,0,0:0:0:0:
320,192,6480,1,0,0:0:0:0:
64,192,6700,1,0,0:0:0:0:
192,192,6700,1,8,0:0:0:0:
192,192,6921,1,0,0:0:0:0:
320,192,6994,1,0,0:0:0:0:
448,192,7068,1,0,0:0:0:0:
192,192,7141,1,0,0:0:0:0:
320,192,7362,1,0,0:0:0:0:
64,192,7582,1,0,0:0:0:0:
448,192,7582,1,8,0:0:0:0:
320,192,7803,1,0,0:0:0:0:
64,192,7913,1,0,0:0:0:0:
448,192,7913,1,0,0:0:0:0:
192,192,8024,1,0,0:0:0:0:
320,192,8134,1,0,0:0:0:0:
64,192,8244,128,0,8465:0:0:0:0:
448,192,8244,1,0,0:0:0:0:
192,192,8244,1,0,0:0:0:0:
320,192,8465,1,0,0:0:0:0:
192,192,8575,1,0,0:0:0:0:
320,192,8685,1,0,0:0:0:0:
192,192,8796,1,0,0:0:0:0:
448,192,8906,1,0,0:0:0:0:
64,192,9016,1,0,0:0:0:0:
320,192,9127,1,0,0:0:0:0:
192,192,9237,1,0,0:0:0:0:
448,192,9347,128,2,9568:0:0:0:0:
64,192,9347,1,0,0:0:0:0:
320,192,9347,1,8,0:0:0:0:
64,192,9568,1,0,0:0:0:0:
192,192,9678,1,0,0:0:0:0:
320,192,9788,1,0,0:0:0:0:
64,192,9899,1,0,0:0:0:0:
192,192,10009,1,0,0:0:0:0:
320,192,10119,1,0,0:0:0:0:
448,192,10230,128,2,10450:0:0:0:0:
64,192,10230,1,0,0:0:0:0:
192,192,10230,1,8,0:0:0:0:
192,192,10450,1,0,0:0:0:0:
320,192,10524,1,0,0:0:0:0:
448,192,10597,1,0,0:0:0:0:
192,192,10671,1,0,0:0:0:0:
320,192,10781,1,0,0:0:0:0:
64,192,10891,1,0,0:0:0:0:
192,192,11002,1,0,0:0:0:0:
448,192,11112,128,2,11332:0:0:0:0:
64,192,11112,1,0,0:0:0:0:
320,192,11112,1,8,0:0:0:0:
192,192,11332,1,0,0:0:0:0:
320,192,11443,1,0,0:0:0:0:
192,192,11553,1,0,0:0:0:0:
448,192,11663,1,0,0:0:0:0:
320,192,11774,1,0,0:0:0:0:
64,192,11884,1,0,0:0:0:0:
448,192,11994,128,2,12215:0:0:0:0:
192,192,11994,1,0,0:0:0:0:
320,192,11994,1,8,0:0:0:0:
320,192,12215,1,0,0:0:0:0:
192,192,12288,1,0,0:0:0:0:
64,192,12362,1,0,0:0:0:0:
320,192,12435,1,0,0:0:0:0:
192,192,12546,1,0,0:0:0:0:
448,192,12656,1,0,0:0:0:0:
192,192,12766,1,0,0:0:0:0:
448,192,12877,128,2,13097:0:0:0:0:
64,192,12877,1,0,0:0:0:0:
320,192,12877,1,8,0:0:0:0:
320,192,13097,1,0,0:0:0:0:
64,192,13207,1,0,0:0:0:0:
320,192,13318,1,0,0:0:0:0:
192,192,13428,1,0,0:0:0:0:
448,192,13538,1,0,0:0:0:0:
320,192,13649,1,0,0:0:0:0:
448,192,13759,128,2,13980:0:0:0:0:
64,192,13759,1,0,0:0:0:0:
192,192,13759,1,8,0:0:0:0:
192,192,13980,1,0,0:0:0:0:
320,192,14053,1,0,0:0:0:0:
448,192,14127,1,0,0:0:0:0:
192,192,14200,1,0,0:0:0:0:
64,192,14310,1,0,0:0:0:0:
320,192,14421,1,0,0:0:0:0:
192,192,14531,1,0,0:0:0:0:
448,192,14641,128,2,14862:0:0:0:0:
64,192,14641,1,0,0:0:0:0:
320,192,14641,1,8,0:0:0:0:
64,192,14862,1,0,0:0:0:0:
320,192,14972,1,0,0:0:0:0:
192,192,15082,1,8,0:0:0:0:
64,192,15193,1,8,0:0:0:0:
192,192,15303,1,8,0:0:0:0:
448,192,15524,128,2,15744:0:0:0:0:
192,192,15524,1,8,0:0:0:0:
192,192,15744,1,8,0:0:0:0:
64,192,15965,1,0,0:0:0:0:
320,192,15965,1,4,0:0:0:0:
64,192,16185,128,0,16406:0:0:0:0:
320,192,16406,128,0,16627:0:0:0:0:
448,192,16627,128,0,17068:0:0:0:0:
64,192,16847,1,8,0:0:0:0:
320,192,17068,128,0,17288:0:0:0:0:
448,192,17288,128,0,17399:0:0:0:0:
192,192,17399,128,0,17509:0:0:0:0:
320,192,17509,128,0,17730:0:0:0:0:
448,192,17730,128,8,17950:0:0:0:0:
320,192,17950,128,0,18171:0:0:0:0:
192,192,18171,128,0,18391:0:0:0:0:
64,192,18391,128,0,18612:0:0:0:0:
448,192,18612,1,8,0:0:0:0:
320,192,18612,128,0,18722:0:0:0:0:
192,192,18722,128,0,18832:0:0:0:0:
64,192,18832,128,0,19053:0:0:0:0:
448,192,19053,128,0,19494:0:0:0:0:
192,192,19274,128,0,19494:0:0:0:0:
64,192,19494,1,8,0:0:0:0:
320,192,19715,128,0,19935:0:0:0:0:
448,192,19935,128,0,20156:0:0:0:0:
64,192,20156,128,0,20597:0:0:0:0:
320,192,20377,1,8,0:0:0:0:
192,192,20597,128,0,20818:0:0:0:0:
320,192,20818,128,0,20928:0:0:0:0:
64,192,20928,128,0,21038:0:0:0:0:
192,192,21038,128,0,21259:0:0:0:0:
320,192,21259,128,8,21480:0:0:0:0:
448,192,21480,128,0,21700:0:0:0:0:
320,192,21700,128,0,21921:0:0:0:0:
448,192,21921,128,0,22141:0:0:0:0:
320,192,22141,128,8,22252:0:0:0:0:
64,192,22252,128,0,22362:0:0:0:0:
192,192,22362,128,0,22582:0:0:0:0:
320,192,22582,1,8,0:0:0:0:
448,192,22582,128,0,23024:0:0:0:0:
192,192,22803,1,8,0:0:0:0:
320,192,23024,1,8,0:0:0:0:
192,192,23097,1,0,0:0:0:0:
64,192,23171,1,0,0:0:0:0:
320,192,23244,1,0,0:0:0:0:
192,192,23318,1,0,0:0:0:0:
448,192,23391,1,0,0:0:0:0:
320,192,23465,1,0,0:0:0:0:
192,192,23538,1,0,0:0:0:0:
64,192,23612,1,0,0:0:0:0:
320,192,23685,1,4,0:0:0:0:
448,192,23685,1,8,0:0:0:0:
320,192,23906,1,0,0:0:0:0:
64,192,24016,1,0,0:0:0:0:
320,192,24127,1,0,0:0:0:0:
64,192,24237,1,0,0:0:0:0:
192,192,24347,1,0,0:0:0:0:
448,192,24347,1,8,0:0:0:0:
320,192,24568,1,0,0:0:0:0:
64,192,24678,1,0,0:0:0:0:
192,192,24678,1,0,0:0:0:0:
448,192,24788,1,0,0:0:0:0:
320,192,24899,1,0,0:0:0:0:
192,192,24899,1,0,0:0:0:0:
64,192,25009,1,0,0:0:0:0:
64,192,25230,1,0,0:0:0:0:
448,192,25230,1,8,0:0:0:0:
320,192,25450,1,0,0:0:0:0:
448,192,25560,1,0,0:0:0:0:
192,192,25560,1,0,0:0:0:0:
320,192,25671,1,0,0:0:0:0:
192,192,25891,1,0,0:0:0:0:
320,192,26112,1,0,0:0:0:0:
448,192,26112,1,8,0:0:0:0:
192,192,26332,1,0,0:0:0:0:
64,192,26443,1,0,0:0:0:0:
320,192,26443,1,0,0:0:0:0:
192,192,26553,1,0,0:0:0:0:
448,192,26663,1,0,0:0:0:0:
192,192,26774,1,0,0:0:0:0:
320,192,26994,1,0,0:0:0:0:
64,192,27105,1,0,0:0:0:0:
320,192,27215,1,0,0:0:0:0:
192,192,27435,1,0,0:0:0:0:
448,192,27546,1,0,0:0:0:0:
192,192,27656,1,0,0:0:0:0:
448,192,27766,1,0,0:0:0:0:
64,192,27877,1,0,0:0:0:0:
320,192,27877,1,8,0:0:0:0:
192,192,28097,1,0,0:0:0:0:
320,192,28207,1,0,0:0:0:0:
448,192,28207,1,0,0:0:0:0:
64,192,28318,1,0,0:0:0:0:
192,192,28428,1,0,0:0:0:0:
320,192,28428,1,0,0:0:0:0:
448,192,28538,1,0,0:0:0:0:
192,192,28649,1,0,0:0:0:0:
448,192,28759,1,0,0:0:0:0:
64,192,28759,1,8,0:0:0:0:
192,192,28980,1,0,0:0:0:0:
448,192,29090,1,0,0:0:0:0:
320,192,29090,1,0,0:0:0:0:
64,192,29200,1,0,0:0:0:0:
448,192,29310,1,0,0:0:0:0:
64,192,29421,1,0,0:0:0:0:
448,192,29531,1,0,0:0:0:0:
320,192,29641,1,8,0:0:0:0:
192,192,29641,1,0,0:0:0:0:
192,192,29862,1,0,0:0:0:0:
64,192,29972,1,0,0:0:0:0:
448,192,29972,1,0,0:0:0:0:
320,192,30082,1,0,0:0:0:0:
448,192,30193,1,0,0:0:0:0:
320,192,30303,1,0,0:0:0:0:
192,192,30524,1,0,0:0:0:0:
320,192,30634,1,0,0:0:0:0:
192,192,30744,1,0,0:0:0:0:
320,192,30965,1,0,0:0:0:0:
64,192,31075,1,0,0:0:0:0:
320,192,31185,1,0,0:0:0:0:
64,192,31296,1,0,0:0:0:0:
448,192,31406,1,8,0:0:0:0:
320,192,31406,1,0,0:0:0:0:
192,192,31627,1,0,0:0:0:0:
320,192,31737,1,0,0:0:0:0:
448,192,31737,1,0,0:0:0:0:
64,192,31847,1,0,0:0:0:0:
448,192,31957,1,0,0:0:0:0:
192,192,31957,1,0,0:0:0:0:
320,192,32068,1,0,0:0:0:0:
448,192,32288,1,8,0:0:0:0:
192,192,32288,1,0,0:0:0:0:
320,192,32509,1,0,0:0:0:0:
192,192,32619,1,0,0:0:0:0:
64,192,32619,1,0,0:0:0:0:
448,192,32730,1,0,0:0:0:0:
64,192,32950,1,0,0:0:0:0:
448,192,33171,1,8,0:0:0:0:
192,192,33171,1,0,0:0:0:0:
64,192,33391,1,0,0:0:0:0:
320,192,33502,1,0,0:0:0:0:
192,192,33502,1,0,0:0:0:0:
64,192,33612,1,0,0:0:0:0:
320,192,33722,1,0,0:0:0:0:
64,192,33832,1,0,0:0:0:0:
320,192,34053,1,0,0:0:0:0:
64,192,34163,1,0,0:0:0:0:
320,192,34274,1,0,0:0:0:0:
192,192,34494,1,0,0:0:0:0:
448,192,34605,1,0,0:0:0:0:
192,192,34715,1,0,0:0:0:0:
448,192,34825,1,0,0:0:0:0:
64,192,34935,1,0,0:0:0:0:
192,192,34935,1,8,0:0:0:0:
320,192,35156,1,0,0:0:0:0:
448,192,35266,1,0,0:0:0:0:
64,192,35266,1,0,0:0:0:0:
192,192,35377,1,0,0:0:0:0:
448,192,35487,1,0,0:0:0:0:
320,192,35487,1,0,0:0:0:0:
64,192,35597,1,0,0:0:0:0:
320,192,35818,1,8,0:0:0:0:
192,192,35818,1,0,0:0:0:0:
448,192,36038,1,0,0:0:0:0:
64,192,36149,1,0,0:0:0:0:
192,192,36149,1,0,0:0:0:0:
320,192,36259,1,0,0:0:0:0:
64,192,36369,1,0,0:0:0:0:
320,192,36480,1,0,0:0:0:0:
448,192,36700,1,0,0:0:0:0:
64,192,36700,1,0,0:0:0:0:
320,192,36810,1,0,0:0:0:0:
448,192,36921,1,0,0:0:0:0:
192,192,37141,1,0,0:0:0:0:
64,192,37215,1,0,0:0:0:0:
448,192,37288,1,0,0:0:0:0:
320,192,37362,1,0,0:0:0:0:
192,192,37435,1,0,0:0:0:0:
448,192,37509,1,0,0:0:0:0:
320,192,37582,1,0,0:0:0:0:
192,192,37656,1,0,0:0:0:0:
320,192,37730,1,0,0:0:0:0:
64,192,37803,1,4,0:0:0:0:
448,192,37803,1,8,0:0:0:0:
192,192,38024,1,0,0:0:0:0:
320,192,38134,1,0,0:0:0:0:
64,192,38244,1,0,0:0:0:0:
192,192,38355,1,0,0:0:0:0:
448,192,38465,1,8,0:0:0:0:
64,192,38465,128,2,38685:0:0:0:0:
320,192,38465,1,0,0:0:0:0:
320,192,38685,1,0,0:0:0:0:
192,192,38796,1,0,0:0:0:0:
448,192,38906,1,0,0:0:0:0:
192,192,39016,1,0,0:0:0:0:
320,192,39127,1,0,0:0:0:0:
192,192,39237,1,0,0:0:0:0:
320,192,39347,1,0,0:0:0:0:
448,192,39347,1,8,0:0:0:0:
64,192,39347,128,2,39568:0:0:0:0:
320,192,39568,1,0,0:0:0:0:
192,192,39641,1,0,0:0:0:0:
64,192,39715,1,0,0:0:0:0:
320,192,39788,1,0,0:0:0:0:
448,192,39899,1,0,0:0:0:0:
64,192,40009,1,0,0:0:0:0:
320,192,40119,1,0,0:0:0:0:
64,192,40230,128,2,40450:0:0:0:0:
192,192,40230,1,0,0:0:0:0:
448,192,40230,1,8,0:0:0:0:
448,192,40450,1,0,0:0:0:0:
192,192,40560,1,0,0:0:0:0:
448,192,40671,1,0,0:0:0:0:
320,192,40781,1,0,0:0:0:0:
192,192,40891,1,0,0:0:0:0:
448,192,41002,1,0,0:0:0:0:
320,192,41112,1,8,0:0:0:0:
192,192,41112,1,0,0:0:0:0:
64,192,41112,128,2,41332:0:0:0:0:
192,192,41332,1,0,0:0:0:0:
320,192,41406,1,0,0:0:0:0:
448,192,41480,1,0,0:0:0:0:
192,192,41553,1,0,0:0:0:0:
320,192,41663,1,0,0:0:0:0:
448,192,41774,1,0,0:0:0:0:
320,192,41884,1,0,0:0:0:0:
192,192,41994,1,0,0:0:0:0:
64,192,41994,128,2,42215:0:0:0:0:
448,192,41994,1,8,0:0:0:0:
192,192,42215,1,0,0:0:0:0:
320,192,42325,1,0,0:0:0:0:
64,192,42435,1,0,0:0:0:0:
192,192,42546,1,0,0:0:0:0:
448,192,42656,1,0,0:0:0:0:
192,192,42766,1,0,0:0:0:0:
320,192,42877,1,0,0:0:0:0:
448,192,42877,1,8,0:0:0:0:
64,192,42877,128,2,43097:0:0:0:0:
320,192,43097,1,0,0:0:0:0:
192,192,43171,1,0,0:0:0:0:
64,192,43244,1,0,0:0:0:0:
320,192,43318,1,0,0:0:0:0:
192,192,43428,1,0,0:0:0:0:
448,192,43538,1,0,0:0:0:0:
320,192,43649,1,0,0:0:0:0:
64,192,43759,128,2,43980:0:0:0:0:
448,192,43759,1,8,0:0:0:0:
192,192,43759,1,0,0:0:0:0:
448,192,43980,1,0,0:0:0:0:
192,192,44090,1,0,0:0:0:0:
320,192,44200,1,8,0:0:0:0:
448,192,44310,1,8,0:0:0:0:
320,192,44421,1,8,0:0:0:0:
320,192,44641,1,8,0:0:0:0:
64,192,44641,128,2,44862:0:0:0:0:
320,192,44862,1,8,0:0:0:0:
448,192,45082,1,0,0:0:0:0:
192,192,45193,1,0,0:0:0:0:
448,192,45303,1,0,0:0:0:0:
192,192,45413,1,0,0:0:0:0:
64,192,45524,1,0,0:0:0:0:
320,192,45524,1,8,0:0:0:0:
64,192,45744,1,0,0:0:0:0:
448,192,45855,1,0,0:0:0:0:
192,192,45855,1,0,0:0:0:0:
320,192,45965,1,0,0:0:0:0:
64,192,46075,1,0,0:0:0:0:
448,192,46075,1,0,0:0:0:0:
320,192,46185,1,0,0:0:0:0:
448,192,46406,1,8,0:0:0:0:
320,192,46406,1,0,0:0:0:0:
192,192,46627,1,0,0:0:0:0:
320,192,46737,1,0,0:0:0:0:
64,192,46737,1,0,0:0:0:0:
192,192,46847,1,0,0:0:0:0:
320,192,47068,1,0,0:0:0:0:
448,192,47288,1,8,0:0:0:0:
64,192,47288,1,0,0:0:0:0:
192,192,47509,1,0,0:0:0:0:
320,192,47619,1,0,0:0:0:0:
448,192,47619,1,0,0:0:0:0:
64,192,47730,1,0,0:0:0:0:
192,192,47840,1,0,0:0:0:0:
64,192,47950,1,0,0:0:0:0:
320,192,48171,1,0,0:0:0:0:
192,192,48281,1,0,0:0:0:0:
320,192,48391,1,0,0:0:0:0:
192,192,48612,1,0,0:0:0:0:
448,192,48722,1,0,0:0:0:0:
192,192,48832,1,0,0:0:0:0:
448,192,48943,1,0,0:0:0:0:
320,192,49053,1,8,0:0:0:0:
64,192,49053,1,0,0:0:0:0:
320,192,49274,1,0,0:0:0:0:
64,192,49384,1,0,0:0:0:0:
448,192,49384,1,0,0:0:0:0:
192,192,49494,1,0,0:0:0:0:
448,192,49605,1,0,0:0:0:0:
320,192,49605,1,0,0:0:0:0:
64,192,49715,1,0,0:0:0:0:
192,192,49935,1,0,0:0:0:0:
448,192,49935,1,0,0:0:0:0:
320,192,50156,1,0,0:0:0:0:
192,192,50266,1,0,0:0:0:0:
448,192,50266,1,0,0:0:0:0:
320,192,50377,1,0,0:0:0:0:
64,192,50487,1,0,0:0:0:0:
320,192,50597,1,0,0:0:0:0:
64,192,50818,1,0,0:0:0:0:
448,192,50818,1,0,0:0:0:0:
192,192,51038,1,0,0:0:0:0:
64,192,51149,1,0,0:0:0:0:
448,192,51149,1,0,0:0:0:0:
192,192,51259,1,0,0:0:0:0:
320,192,51369,1,0,0:0:0:0:
448,192,51480,1,0,0:0:0:0:
64,192,51480,1,0,0:0:0:0:
320,192,51553,1,0,0:0:0:0:
192,192,51627,1,0,0:0:0:0:
64,192,51700,1,0,0:0:0:0:
448,192,51774,1,0,0:0:0:0:
320,192,51847,1,0,0:0:0:0:
192,192,51921,1,0,0:0:0:0:
64,192,51994,1,0,0:0:0:0:
192,192,52068,1,0,0:0:0:0:
448,192,52141,1,8,0:0:0:0:
320,192,52141,1,0,0:0:0:0:
320,192,52362,1,0,0:0:0:0:
448,192,52582,1,0,0:0:0:0:
64,192,52582,1,4,0:0:0:0:
320,192,53024,1,0,0:0:0:0:
320,192,53244,1,0,0:0:0:0:
192,192,53465,1,0,0:0:0:0:
64,192,53465,1,4,0:0:0:0:
192,192,53906,1,0,0:0:0:0:
192,192,54127,1,0,0:0:0:0:
64,192,54347,1,4,0:0:0:0:
320,192,54347,1,0,0:0:0:0:
64,192,54788,1,4,0:0:0:0:
448,192,54788,1,0,0:0:0:0:
192,192,55009,1,0,0:0:0:0:
320,192,55119,1,8,0:0:0:0:
64,192,55119,1,0,0:0:0:0:
448,192,55340,1,0,0:0:0:0:
192,192,55450,1,4,0:0:0:0:
320,192,55450,1,0,0:0:0:0:
192,192,55671,1,0,0:0:0:0:
192,192,55891,1,0,0:0:0:0:
448,192,56112,1,0,0:0:0:0:
320,192,56112,1,4,0:0:0:0:
320,192,56553,1,0,0:0:0:0:
320,192,56774,1,0,0:0:0:0:
64,192,56994,1,4,0:0:0:0:
448,192,56994,1,0,0:0:0:0:
320,192,57215,1,0,0:0:0:0:
448,192,57288,1,0,0:0:0:0:
320,192,57362,1,0,0:0:0:0:
192,192,57435,1,8,0:0:0:0:
64,192,57435,1,0,0:0:0:0:
320,192,57656,1,0,0:0:0:0:
64,192,57766,1,0,0:0:0:0:
448,192,57766,1,8,0:0:0:0:
320,192,57987,1,0,0:0:0:0:
64,192,58097,1,0,0:0:0:0:
448,192,58097,1,8,0:0:0:0:
320,192,58318,1,0,0:0:0:0:
64,192,58428,1,0,0:0:0:0:
448,192,58428,1,8,0:0:0:0:
320,192,58649,1,0,0:0:0:0:
192,192,58759,1,8,0:0:0:0:
64,192,58759,1,0,0:0:0:0:
320,192,58869,1,0,0:0:0:0:
192,192,58980,1,8,0:0:0:0:
64,192,58980,1,0,0:0:0:0:
192,192,59200,1,0,0:0:0:0:
448,192,59421,1,0,0:0:0:0:
320,192,59641,1,0,0:0:0:0:
64,192,59641,1,8,0:0:0:0:
448,192,59862,1,0,0:0:0:0:
192,192,60082,1,0,0:0:0:0:
64,192,60193,1,0,0:0:0:0:
320,192,60193,1,8,0:0:0:0:
448,192,60303,1,0,0:0:0:0:
448,192,60524,1,8,0:0:0:0:
320,192,60524,1,0,0:0:0:0:
64,192,60744,1,0,0:0:0:0:
320,192,60965,1,0,0:0:0:0:
64,192,61185,1,0,0:0:0:0:
448,192,61406,1,0,0:0:0:0:
192,192,61406,1,8,0:0:0:0:
320,192,61627,1,0,0:0:0:0:
64,192,61847,1,0,0:0:0:0:
320,192,62068,1,0,0:0:0:0:
64,192,62288,1,0,0:0:0:0:
448,192,62288,1,8,0:0:0:0:
320,192,62509,1,0,0:0:0:0:
192,192,62619,1,0,0:0:0:0:
448,192,62619,1,8,0:0:0:0:
64,192,62730,1,0,0:0:0:0:
192,192,62950,1,0,0:0:0:0:
448,192,63171,1,8,0:0:0:0:
64,192,63171,1,0,0:0:0:0:
192,192,63391,1,0,0:0:0:0:
320,192,63612,1,0,0:0:0:0:
448,192,63832,1,0,0:0:0:0:
192,192,64053,1,0,0:0:0:0:
320,192,64053,1,8,0:0:0:0:
448,192,64274,1,0,0:0:0:0:
320,192,64494,1,0,0:0:0:0:
192,192,64715,1,0,0:0:0:0:
448,192,64935,1,8,0:0:0:0:
64,192,64935,1,0,0:0:0:0:
192,192,65156,1,0,0:0:0:0:
64,192,65377,1,0,0:0:0:0:
448,192,65377,1,8,0:0:0:0:
192,192,65597,1,0,0:0:0:0:
320,192,65707,1,0,0:0:0:0:
448,192,65707,1,8,0:0:0:0:
64,192,65818,1,0,0:0:0:0:
192,192,65928,1,0,0:0:0:0:
448,192,66038,1,8,0:0:0:0:
64,192,66038,1,0,0:0:0:0:
320,192,66259,1,0,0:0:0:0:
320,192,66480,1,0,0:0:0:0:
192,192,66700,1,0,0:0:0:0:
64,192,66700,1,4,0:0:0:0:
192,192,67141,1,0,0:0:0:0:
192,192,67362,1,0,0:0:0:0:
64,192,67582,1,4,0:0:0:0:
320,192,67582,1,0,0:0:0:0:
64,192,68024,1,0,0:0:0:0:
64,192,68244,1,0,0:0:0:0:
320,192,68465,1,4,0:0:0:0:
448,192,68465,1,0,0:0:0:0:
192,192,68906,1,4,0:0:0:0:
320,192,68906,1,0,0:0:0:0:
448,192,69127,1,0,0:0:0:0:
64,192,69237,1,0,0:0:0:0:
192,192,69237,1,8,0:0:0:0:
448,192,69457,1,0,0:0:0:0:
64,192,69568,1,4,0:0:0:0:
320,192,69568,1,0,0:0:0:0:
192,192,69788,1,0,0:0:0:0:
192,192,70009,1,0,0:0:0:0:
320,192,70230,1,0,0:0:0:0:
448,192,70230,1,8,0:0:0:0:
320,192,70671,1,0,0:0:0:0:
320,192,70891,1,0,0:0:0:0:
64,192,71112,1,0,0:0:0:0:
448,192,71112,1,8,0:0:0:0:
64,192,71332,1,0,0:0:0:0:
192,192,71406,1,0,0:0:0:0:
320,192,71480,1,0,0:0:0:0:
448,192,71553,1,8,0:0:0:0:
64,192,71553,1,0,0:0:0:0:
192,192,71774,1,0,0:0:0:0:
448,192,71884,1,8,0:0:0:0:
320,192,71884,1,0,0:0:0:0:
192,192,72105,1,0,0:0:0:0:
448,192,72215,1,8,0:0:0:0:
320,192,72215,1,0,0:0:0:0:
192,192,72435,1,0,0:0:0:0:
448,192,72546,1,8,0:0:0:0:
320,192,72546,1,0,0:0:0:0:
320,192,72766,1,0,0:0:0:0:
64,192,72877,1,0,0:0:0:0:
448,192,72877,1,0,0:0:0:0:
320,192,72987,1,0,0:0:0:0:
64,192,73097,1,0,0:0:0:0:
448,192,73097,1,0,0:0:0:0:
320,192,73318,1,0,0:0:0:0:
64,192,73538,1,0,0:0:0:0:
448,192,73759,1,8,0:0:0:0:
192,192,73759,1,0,0:0:0:0:
64,192,73980,1,0,0:0:0:0:
448,192,74200,1,0,0:0:0:0:
192,192,74421,1,0,0:0:0:0:
64,192,74641,1,0,0:0:0:0:
448,192,74641,1,8,0:0:0:0:
192,192,74862,1,0,0:0:0:0:
320,192,75082,1,0,0:0:0:0:
64,192,75303,1,0,0:0:0:0:
448,192,75524,1,8,0:0:0:0:
192,192,75524,1,0,0:0:0:0:
64,192,75744,1,0,0:0:0:0:
320,192,75965,1,0,0:0:0:0:
64,192,76185,1,0,0:0:0:0:
320,192,76406,1,0,0:0:0:0:
448,192,76406,1,8,0:0:0:0:
192,192,76627,1,0,0:0:0:0:
64,192,76737,1,0,0:0:0:0:
320,192,76737,1,8,0:0:0:0:
448,192,76847,1,0,0:0:0:0:
192,192,77068,1,0,0:0:0:0:
448,192,77288,1,8,0:0:0:0:
320,192,77288,1,0,0:0:0:0:
192,192,77509,1,0,0:0:0:0:
448,192,77730,1,8,0:0:0:0:
64,192,77730,1,0,0:0:0:0:
320,192,77950,1,0,0:0:0:0:
448,192,78171,1,8,0:0:0:0:
64,192,78171,1,0,0:0:0:0:
320,192,78391,1,0,0:0:0:0:
192,192,78612,1,8,0:0:0:0:
64,192,78612,1,0,0:0:0:0:
192,192,78832,1,0,0:0:0:0:
320,192,78943,1,0,0:0:0:0:
64,192,79053,1,0,0:0:0:0:
192,192,79053,1,8,0:0:0:0:
320,192,79274,5,0,0:0:0:0:
448,192,79384,1,0,0:0:0:0:
64,192,79494,1,0,0:0:0:0:
192,192,79494,1,8,0:0:0:0:
320,192,79605,1,0,0:0:0:0:
64,192,79715,1,0,0:0:0:0:
192,192,79715,1,8,0:0:0:0:
448,192,79935,1,0,0:0:0:0:
320,192,80009,1,0,0:0:0:0:
192,192,80082,1,0,0:0:0:0:
64,192,80156,1,0,0:0:0:0:
320,192,80230,1,0,0:0:0:0:
192,192,80303,1,0,0:0:0:0:
64,192,80377,1,4,0:0:0:0:
448,192,80377,1,0,0:0:0:0:
320,192,80818,1,0,0:0:0:0:
192,192,81038,1,0,0:0:0:0:
448,192,81259,1,0,0:0:0:0:
320,192,81700,1,0,0:0:0:0:
192,192,81921,1,0,0:0:0:0:
64,192,82141,1,0,0:0:0:0:
448,192,82141,1,8,0:0:0:0:
192,192,82215,1,0,0:0:0:0:
320,192,82288,1,0,0:0:0:0:
448,192,82362,1,0,0:0:0:0:
64,192,82435,1,0,0:0:0:0:
192,192,82509,1,0,0:0:0:0:
320,192,82582,1,0,0:0:0:0:
448,192,82582,1,8,0:0:0:0:
192,192,82656,1,0,0:0:0:0:
64,192,82730,1,0,0:0:0:0:
448,192,82803,1,0,0:0:0:0:
320,192,82877,1,0,0:0:0:0:
192,192,82950,1,0,0:0:0:0:
320,192,83024,1,8,0:0:0:0:
448,192,83024,1,0,0:0:0:0:
320,192,83134,1,8,0:0:0:0:
448,192,83134,1,0,0:0:0:0:
192,192,83244,128,0,83465:0:0:0:0:
320,192,83465,1,0,0:0:0:0:
64,192,83575,1,0,0:0:0:0:
320,192,83685,1,0,0:0:0:0:
64,192,83796,1,0,0:0:0:0:
192,192,83906,1,0,0:0:0:0:
320,192,84016,1,0,0:0:0:0:
192,192,84127,1,0,0:0:0:0:
320,192,84237,1,0,0:0:0:0:
64,192,84347,1,0,0:0:0:0:
448,192,84347,1,8,0:0:0:0:
448,192,84568,1,0,0:0:0:0:
64,192,84678,1,0,0:0:0:0:
192,192,84678,1,0,0:0:0:0:
320,192,84788,1,0,0:0:0:0:
64,192,84899,1,0,0:0:0:0:
448,192,84899,1,0,0:0:0:0:
192,192,85009,1,0,0:0:0:0:
64,192,85230,1,0,0:0:0:0:
320,192,85230,1,8,0:0:0:0:
192,192,85450,1,0,0:0:0:0:
448,192,85560,1,0,0:0:0:0:
320,192,85560,1,0,0:0:0:0:
64,192,85671,1,0,0:0:0:0:
448,192,85891,1,0,0:0:0:0:
64,192,85891,1,0,0:0:0:0:
320,192,86112,1,8,0:0:0:0:
192,192,86112,1,0,0:0:0:0:
320,192,86332,1,0,0:0:0:0:
448,192,86443,1,0,0:0:0:0:
192,192,86443,1,0,0:0:0:0:
320,192,86553,1,0,0:0:0:0:
64,192,86663,1,0,0:0:0:0:
320,192,86774,1,0,0:0:0:0:
192,192,86994,1,0,0:0:0:0:
448,192,87105,1,0,0:0:0:0:
192,192,87215,1,0,0:0:0:0:
64,192,87435,1,0,0:0:0:0:
320,192,87546,1,0,0:0:0:0:
64,192,87656,1,0,0:0:0:0:
320,192,87766,1,0,0:0:0:0:
64,192,87877,1,0,0:0:0:0:
448,192,87877,1,8,0:0:0:0:
192,192,88097,1,0,0:0:0:0:
320,192,88207,1,0,0:0:0:0:
448,192,88207,1,0,0:0:0:0:
192,192,88318,1,0,0:0:0:0:
448,192,88428,1,0,0:0:0:0:
64,192,88428,1,0,0:0:0:0:
320,192,88538,1,0,0:0:0:0:
64,192,88649,1,0,0:0:0:0:
448,192,88759,1,8,0:0:0:0:
192,192,88759,1,0,0:0:0:0:
320,192,88980,1,0,0:0:0:0:
192,192,89090,1,0,0:0:0:0:
64,192,89090,1,0,0:0:0:0:
448,192,89200,1,0,0:0:0:0:
192,192,89310,1,0,0:0:0:0:
320,192,89421,1,0,0:0:0:0:
64,192,89531,1,0,0:0:0:0:
320,192,89641,1,0,0:0:0:0:
448,192,89641,1,8,0:0:0:0:
192,192,89862,1,0,0:0:0:0:
448,192,89972,1,0,0:0:0:0:
64,192,89972,1,0,0:0:0:0:
192,192,90082,1,0,0:0:0:0:
448,192,90193,1,0,0:0:0:0:
192,192,90303,1,0,0:0:0:0:
64,192,90524,1,0,0:0:0:0:
320,192,90634,1,0,0:0:0:0:
64,192,90744,1,0,0:0:0:0:
320,192,90965,1,0,0:0:0:0:
64,192,91075,1,0,0:0:0:0:
320,192,91185,1,0,0:0:0:0:
64,192,91296,1,0,0:0:0:0:
448,192,91406,1,8,0:0:0:0:
192,192,91406,1,0,0:0:0:0:
192,192,91627,1,0,0:0:0:0:
448,192,91737,1,0,0:0:0:0:
64,192,91737,1,0,0:0:0:0:
320,192,91847,1,0,0:0:0:0:
64,192,91957,1,0,0:0:0:0:
192,192,91957,1,0,0:0:0:0:
320,192,92068,1,0,0:0:0:0:
64,192,92288,1,0,0:0:0:0:
320,192,92288,1,8,0:0:0:0:
448,192,92509,1,0,0:0:0:0:
192,192,92619,1,0,0:0:0:0:
320,192,92619,1,0,0:0:0:0:
448,192,92730,1,0,0:0:0:0:
192,192,92950,1,0,0:0:0:0:
64,192,92950,1,0,0:0:0:0:
448,192,93171,1,8,0:0:0:0:
64,192,93171,1,0,0:0:0:0:
192,192,93391,1,0,0:0:0:0:
448,192,93502,1,0,0:0:0:0:
320,192,93502,1,0,0:0:0:0:
64,192,93612,1,0,0:0:0:0:
192,192,93722,1,0,0:0:0:0:
64,192,93832,1,0,0:0:0:0:
448,192,94053,1,0,0:0:0:0:
192,192,94163,1,0,0:0:0:0:
448,192,94274,1,0,0:0:0:0:
448,192,94494,1,0,0:0:0:0:
192,192,94605,1,0,0:0:0:0:
448,192,94715,1,0,0:0:0:0:
192,192,94825,1,0,0:0:0:0:
64,192,94935,1,0,0:0:0:0:
320,192,94935,1,8,0:0:0:0:
64,192,95156,1,0,0:0:0:0:
448,192,95266,1,0,0:0:0:0:
192,192,95266,1,0,0:0:0:0:
320,192,95377,1,0,0:0:0:0:
192,192,95487,1,0,0:0:0:0:
64,192,95487,1,0,0:0:0:0:
320,192,95597,1,0,0:0:0:0:
192,192,95818,1,8,0:0:0:0:
64,192,95818,1,0,0:0:0:0:
320,192,96038,1,0,0:0:0:0:
64,192,96149,1,0,0:0:0:0:
448,192,96149,1,0,0:0:0:0:
320,192,96259,1,0,0:0:0:0:
64,192,96369,1,0,0:0:0:0:
320,192,96480,1,0,0:0:0:0:
192,192,96700,1,0,0:0:0:0:
64,192,96810,1,0,0:0:0:0:
192,192,96921,1,0,0:0:0:0:
320,192,97141,1,0,0:0:0:0:
192,192,97215,1,0,0:0:0:0:
64,192,97288,1,0,0:0:0:0:
448,192,97362,1,0,0:0:0:0:
320,192,97435,1,0,0:0:0:0:
192,192,97509,1,0,0:0:0:0:
320,192,97582,1,0,0:0:0:0:
64,192,97656,1,0,0:0:0:0:
192,192,97730,1,0,0:0:0:0:
448,192,97803,1,8,0:0:0:0:
320,192,97803,1,4,0:0:0:0:
320,192,98024,1,0,0:0:0:0:
192,192,98134,1,0,0:0:0:0:
320,192,98244,1,0,0:0:0:0:
64,192,98355,1,0,0:0:0:0:
192,192,98465,128,2,98685:0:0:0:0:
320,192,98465,1,0,0:0:0:0:
448,192,98465,1,8,0:0:0:0:
320,192,98685,1,0,0:0:0:0:
64,192,98796,1,0,0:0:0:0:
320,192,98906,1,0,0:0:0:0:
64,192,99016,1,0,0:0:0:0:
192,192,99127,1,0,0:0:0:0:
64,192,99237,1,0,0:0:0:0:
192,192,99347,128,2,99568:0:0:0:0:
448,192,99347,1,8,0:0:0:0:
320,192,99347,1,0,0:0:0:0:
320,192,99568,1,0,0:0:0:0:
192,192,99641,1,0,0:0:0:0:
64,192,99715,1,0,0:0:0:0:
320,192,99788,1,0,0:0:0:0:
192,192,99899,1,0,0:0:0:0:
448,192,100009,1,0,0:0:0:0:
320,192,100119,1,0,0:0:0:0:
192,192,100230,128,2,100450:0:0:0:0:
448,192,100230,1,8,0:0:0:0:
64,192,100230,1,0,0:0:0:0:
320,192,100450,1,0,0:0:0:0:
64,192,100560,1,0,0:0:0:0:
448,192,100671,1,0,0:0:0:0:
320,192,100781,1,0,0:0:0:0:
192,192,100891,1,0,0:0:0:0:
320,192,101002,1,0,0:0:0:0:
192,192,101112,128,2,101332:0:0:0:0:
64,192,101112,1,0,0:0:0:0:
448,192,101112,1,8,0:0:0:0:
64,192,101332,1,0,0:0:0:0:
320,192,101406,1,0,0:0:0:0:
448,192,101480,1,0,0:0:0:0:
192,192,101553,1,0,0:0:0:0:
320,192,101663,1,0,0:0:0:0:
192,192,101774,1,0,0:0:0:0:
448,192,101884,1,0,0:0:0:0:
192,192,101994,128,2,102215:0:0:0:0:
64,192,101994,1,0,0:0:0:0:
320,192,101994,1,8,0:0:0:0:
448,192,102215,1,0,0:0:0:0:
192,192,102325,1,0,0:0:0:0:
64,192,102435,1,0,0:0:0:0:
448,192,102546,1,0,0:0:0:0:
320,192,102656,1,0,0:0:0:0:
448,192,102766,1,0,0:0:0:0:
320,192,102877,1,8,0:0:0:0:
192,192,102877,128,2,103097:0:0:0:0:
64,192,102877,1,0,0:0:0:0:
320,192,103097,1,0,0:0:0:0:
192,192,103171,1,0,0:0:0:0:
64,192,103244,1,0,0:0:0:0:
320,192,103318,1,0,0:0:0:0:
448,192,103428,1,0,0:0:0:0:
192,192,103538,1,0,0:0:0:0:
64,192,103649,1,0,0:0:0:0:
192,192,103759,128,2,103980:0:0:0:0:
448,192,103759,1,8,0:0:0:0:
320,192,103759,1,0,0:0:0:0:
448,192,103980,1,0,0:0:0:0:
320,192,104090,1,0,0:0:0:0:
448,192,104200,1,8,0:0:0:0:
192,192,104310,1,8,0:0:0:0:
448,192,104421,1,8,0:0:0:0:
448,192,104641,1,8,0:0:0:0:
192,192,104641,128,2,104862:0:0:0:0:
448,192,104862,1,8,0:0:0:0:
192,192,105082,1,0,0:0:0:0:
192,192,105303,1,0,0:0:0:0:
64,192,105524,1,0,0:0:0:0:
320,192,105524,1,8,0:0:0:0:
64,192,105744,1,0,0:0:0:0:
320,192,105744,1,0,0:0:0:0:
192,192,105855,1,0,0:0:0:0:
64,192,105965,1,0,0:0:0:0:
448,192,105965,1,0,0:0:0:0:
320,192,106075,1,0,0:0:0:0:
192,192,106185,1,0,0:0:0:0:
320,192,106406,1,8,0:0:0:0:
192,192,106406,1,0,0:0:0:0:
64,192,106516,1,0,0:0:0:0:
320,192,106627,1,0,0:0:0:0:
64,192,106737,1,0,0:0:0:0:
192,192,106847,1,0,0:0:0:0:
320,192,106957,1,0,0:0:0:0:
64,192,107068,1,0,0:0:0:0:
320,192,107178,1,0,0:0:0:0:
192,192,107288,1,0,0:0:0:0:
448,192,107288,1,8,0:0:0:0:
64,192,107509,1,0,0:0:0:0:
448,192,107509,1,0,0:0:0:0:
320,192,107582,1,0,0:0:0:0:
192,192,107656,1,0,0:0:0:0:
64,192,107730,1,0,0:0:0:0:
320,192,107803,1,0,0:0:0:0:
192,192,107877,1,0,0:0:0:0:
64,192,107950,1,0,0:0:0:0:
320,192,108024,1,0,0:0:0:0:
192,192,108097,1,0,0:0:0:0:
448,192,108171,1,0,0:0:0:0:
320,192,108244,1,0,0:0:0:0:
192,192,108318,1,0,0:0:0:0:
64,192,108391,1,4,0:0:0:0:
448,192,108391,1,8,0:0:0:0:
192,192,108612,1,0,0:0:0:0:
192,192,108832,1,0,0:0:0:0:
64,192,109053,1,0,0:0:0:0:
448,192,109053,1,8,0:0:0:0:
192,192,109274,1,0,0:0:0:0:
320,192,109494,1,0,0:0:0:0:
64,192,109605,1,0,0:0:0:0:
320,192,109715,1,0,0:0:0:0:
192,192,109788,1,0,0:0:0:0:
64,192,109862,1,0,0:0:0:0:
320,192,109935,1,0,0:0:0:0:
448,192,109935,1,8,0:0:0:0:
320,192,110156,1,0,0:0:0:0:
192,192,110377,1,0,0:0:0:0:
192,192,110597,1,0,0:0:0:0:
64,192,110818,1,0,0:0:0:0:
448,192,110818,1,8,0:0:0:0:
192,192,111038,1,0,0:0:0:0:
448,192,111259,1,8,0:0:0:0:
64,192,111259,1,0,0:0:0:0:
448,192,111480,1,8,0:0:0:0:
64,192,111480,1,0,0:0:0:0:
448,192,111700,1,8,0:0:0:0:
64,192,111700,1,0,0:0:0:0:
64,192,111921,1,0,0:0:0:0:
448,192,111921,1,8,0:0:0:0:
192,192,112141,1,4,0:0:0:0:
64,192,112362,128,0,112582:0:0:0:0:
320,192,112582,128,0,112803:0:0:0:0:
448,192,112803,128,0,113244:0:0:0:0:
64,192,113024,1,8,0:0:0:0:
320,192,113244,128,0,113465:0:0:0:0:
448,192,113465,128,0,113575:0:0:0:0:
192,192,113575,128,0,113685:0:0:0:0:
320,192,113685,128,0,113906:0:0:0:0:
448,192,113906,128,8,114127:0:0:0:0:
320,192,114127,128,0,114347:0:0:0:0:
192,192,114347,128,0,114568:0:0:0:0:
64,192,114568,128,0,114788:0:0:0:0:
320,192,114788,128,8,114899:0:0:0:0:
448,192,114788,1,0,0:0:0:0:
192,192,114899,128,0,115009:0:0:0:0:
64,192,115009,128,0,115230:0:0:0:0:
448,192,115230,128,0,115671:0:0:0:0:
192,192,115450,128,0,115671:0:0:0:0:
64,192,115671,1,8,0:0:0:0:
320,192,115891,128,0,116112:0:0:0:0:
448,192,116112,128,0,116332:0:0:0:0:
64,192,116332,128,0,116774:0:0:0:0:
320,192,116553,1,8,0:0:0:0:
192,192,116774,128,0,116994:0:0:0:0:
320,192,116994,128,0,117105:0:0:0:0:
64,192,117105,128,0,117215:0:0:0:0:
192,192,117215,128,0,117435:0:0:0:0:
320,192,117435,128,8,117656:0:0:0:0:
448,192,117656,128,0,117877:0:0:0:0:
320,192,117877,128,0,118097:0:0:0:0:
448,192,118097,128,0,118318:0:0:0:0:
320,192,118318,128,8,118428:0:0:0:0:
64,192,118428,128,0,118538:0:0:0:0:
192,192,118538,128,0,118759:0:0:0:0:
448,192,118759,128,0,119200:0:0:0:0:
192,192,120524,128,0,122730:0:0:0:0:
320,192,121847,1,2,0:0:0:0:
448,192,122288,1,2,0:0:0:0:
320,192,122509,1,0,0:0:0:0:
448,192,122730,1,0,0:0:0:0:
64,192,122730,1,4,0:0:0:0:
192,192,123171,1,0,0:0:0:0:
448,192,123612,1,0,0:0:0:0:
320,192,123612,1,0,0:0:0:0:
192,192,124053,1,0,0:0:0:0:
320,192,124274,1,0,0:0:0:0:
192,192,124494,1,0,0:0:0:0:
320,192,124715,1,0,0:0:0:0:
192,192,124935,1,0,0:0:0:0:
64,192,125377,1,4,0:0:0:0:
448,192,125377,1,0,0:0:0:0:
64,192,125818,1,0,0:0:0:0:
192,192,126038,1,0,0:0:0:0:
448,192,126259,1,0,0:0:0:0:
320,192,126259,1,0,0:0:0:0:
192,192,126700,1,0,0:0:0:0:
64,192,127141,1,0,0:0:0:0:
320,192,127141,1,0,0:0:0:0:
192,192,127582,1,0,0:0:0:0:
448,192,127803,1,0,0:0:0:0:
192,192,128024,1,0,0:0:0:0:
448,192,128244,1,0,0:0:0:0:
192,192,128465,1,0,0:0:0:0:
448,192,128906,1,0,0:0:0:0:
192,192,128906,1,4,0:0:0:0:
320,192,129347,1,0,0:0:0:0:
192,192,129568,1,0,0:0:0:0:
64,192,129788,1,0,0:0:0:0:
448,192,129788,1,0,0:0:0:0:
64,192,130230,1,0,0:0:0:0:
320,192,130671,1,0,0:0:0:0:
192,192,130671,1,0,0:0:0:0:
64,192,131112,1,0,0:0:0:0:
320,192,131332,1,0,0:0:0:0:
64,192,131553,1,0,0:0:0:0:
320,192,131774,1,0,0:0:0:0:
64,192,131994,1,0,0:0:0:0:
192,192,132435,1,4,0:0:0:0:
448,192,132435,1,0,0:0:0:0:
192,192,132877,1,0,0:0:0:0:
320,192,133097,1,0,0:0:0:0:
448,192,133318,1,0,0:0:0:0:
64,192,133318,1,0,0:0:0:0:
192,192,133759,1,0,0:0:0:0:
64,192,134200,1,0,0:0:0:0:
192,192,134200,1,0,0:0:0:0:
64,192,134641,1,0,0:0:0:0:
448,192,134862,1,0,0:0:0:0:
64,192,135082,1,0,0:0:0:0:
448,192,135303,1,0,0:0:0:0:
64,192,135524,1,0,0:0:0:0:
448,192,135965,1,0,0:0:0:0:
192,192,135965,1,4,0:0:0:0:
448,192,136406,1,0,0:0:0:0:
320,192,136627,1,0,0:0:0:0:
192,192,136847,1,0,0:0:0:0:
64,192,136847,1,0,0:0:0:0:
320,192,137068,1,0,0:0:0:0:
192,192,137288,1,0,0:0:0:0:
320,192,137730,1,0,0:0:0:0:
192,192,138171,1,0,0:0:0:0:
64,192,138391,1,0,0:0:0:0:
192,192,138612,1,4,0:0:0:0:
448,192,138612,1,0,0:0:0:0:
320,192,140377,1,0,0:0:0:0:
192,192,140377,1,0,0:0:0:0:
320,192,140597,1,0,0:0:0:0:
192,192,140597,1,0,0:0:0:0:
448,192,141259,1,0,0:0:0:0:
320,192,141259,1,0,0:0:0:0:
448,192,141480,1,0,0:0:0:0:
320,192,141480,1,0,0:0:0:0:
192,192,142141,1,0,0:0:0:0:
64,192,142141,1,0,0:0:0:0:
192,192,142362,1,0,0:0:0:0:
64,192,142362,1,0,0:0:0:0:
192,192,142582,1,0,0:0:0:0:
320,192,142656,1,0,0:0:0:0:
448,192,142730,1,0,0:0:0:0:
320,192,142803,1,0,0:0:0:0:
64,192,142877,1,0,0:0:0:0:
192,192,142950,1,0,0:0:0:0:
320,192,143024,1,0,0:0:0:0:
448,192,143024,1,8,0:0:0:0:
192,192,143244,1,0,0:0:0:0:
64,192,143355,1,0,0:0:0:0:
320,192,143355,1,8,0:0:0:0:
320,192,143575,1,0,0:0:0:0:
448,192,143685,1,8,0:0:0:0:
192,192,143685,1,0,0:0:0:0:
320,192,143906,1,0,0:0:0:0:
320,192,144127,1,0,0:0:0:0:
448,192,144347,1,0,0:0:0:0:
64,192,144347,1,4,0:0:0:0:
320,192,144788,1,0,0:0:0:0:
320,192,145009,1,0,0:0:0:0:
64,192,145230,1,0,0:0:0:0:
192,192,145230,1,0,0:0:0:0:
320,192,145450,1,0,0:0:0:0:
192,192,145524,1,0,0:0:0:0:
64,192,145597,1,0,0:0:0:0:
320,192,145671,1,0,0:0:0:0:
448,192,145671,1,8,0:0:0:0:
64,192,145891,1,0,0:0:0:0:
320,192,146002,1,8,0:0:0:0:
192,192,146002,1,0,0:0:0:0:
64,192,146222,1,0,0:0:0:0:
192,192,146332,1,0,0:0:0:0:
320,192,146332,1,8,0:0:0:0:
64,192,146553,1,0,0:0:0:0:
192,192,146663,1,0,0:0:0:0:
320,192,146663,1,8,0:0:0:0:
320,192,146884,1,0,0:0:0:0:
64,192,146994,1,0,0:0:0:0:
448,192,146994,1,8,0:0:0:0:
320,192,147105,1,0,0:0:0:0:
64,192,147215,1,0,0:0:0:0:
448,192,147215,1,8,0:0:0:0:
320,192,147435,1,0,0:0:0:0:
64,192,147656,1,0,0:0:0:0:
320,192,147877,1,0,0:0:0:0:
448,192,147877,1,8,0:0:0:0:
64,192,148097,1,0,0:0:0:0:
320,192,148318,1,0,0:0:0:0:
448,192,148428,1,8,0:0:0:0:
192,192,148428,1,0,0:0:0:0:
64,192,148538,1,0,0:0:0:0:
448,192,148759,1,8,0:0:0:0:
320,192,148759,1,0,0:0:0:0:
64,192,148980,1,0,0:0:0:0:
320,192,149200,1,0,0:0:0:0:
64,192,149421,1,0,0:0:0:0:
320,192,149641,1,0,0:0:0:0:
448,192,149641,1,8,0:0:0:0:
64,192,149862,1,0,0:0:0:0:
448,192,150082,1,0,0:0:0:0:
192,192,150303,1,0,0:0:0:0:
320,192,150524,1,8,0:0:0:0:
64,192,150524,1,0,0:0:0:0:
192,192,150744,1,0,0:0:0:0:
320,192,150855,1,8,0:0:0:0:
64,192,150855,1,0,0:0:0:0:
448,192,150965,1,0,0:0:0:0:
320,192,151185,1,0,0:0:0:0:
64,192,151406,1,0,0:0:0:0:
192,192,151406,1,8,0:0:0:0:
320,192,151627,1,0,0:0:0:0:
64,192,151847,1,0,0:0:0:0:
320,192,152068,1,0,0:0:0:0:
448,192,152288,1,8,0:0:0:0:
64,192,152288,1,0,0:0:0:0:
192,192,152509,1,0,0:0:0:0:
448,192,152730,1,0,0:0:0:0:
192,192,152950,1,0,0:0:0:0:
448,192,153171,1,8,0:0:0:0:
64,192,153171,1,0,0:0:0:0:
192,192,153391,1,0,0:0:0:0:
64,192,153612,1,0,0:0:0:0:
448,192,153612,1,8,0:0:0:0:
192,192,153832,1,0,0:0:0:0:
64,192,153943,1,0,0:0:0:0:
448,192,153943,1,8,0:0:0:0:
320,192,154053,1,0,0:0:0:0:
64,192,154163,1,0,0:0:0:0:
448,192,154274,1,8,0:0:0:0:
320,192,154274,1,0,0:0:0:0:
192,192,154494,1,0,0:0:0:0:
192,192,154715,1,0,0:0:0:0:
64,192,154935,1,4,0:0:0:0:
320,192,154935,1,0,0:0:0:0:
320,192,155377,1,0,0:0:0:0:
320,192,155597,1,0,0:0:0:0:
64,192,155818,1,4,0:0:0:0:
192,192,155818,1,0,0:0:0:0:
192,192,156259,1,0,0:0:0:0:
192,192,156480,1,0,0:0:0:0:
448,192,156700,1,0,0:0:0:0:
64,192,156700,1,4,0:0:0:0:
192,192,157141,1,4,0:0:0:0:
448,192,157141,1,0,0:0:0:0:
320,192,157362,1,0,0:0:0:0:
64,192,157472,1,0,0:0:0:0:
448,192,157472,1,8,0:0:0:0:
192,192,157693,1,0,0:0:0:0:
64,192,157803,1,0,0:0:0:0:
320,192,157803,1,8,0:0:0:0:
192,192,158024,1,0,0:0:0:0:
192,192,158244,1,0,0:0:0:0:
64,192,158465,1,4,0:0:0:0:
320,192,158465,1,0,0:0:0:0:
192,192,158906,1,0,0:0:0:0:
192,192,159127,1,0,0:0:0:0:
448,192,159347,1,0,0:0:0:0:
320,192,159347,1,4,0:0:0:0:
192,192,159568,1,0,0:0:0:0:
64,192,159641,1,0,0:0:0:0:
192,192,159715,1,0,0:0:0:0:
448,192,159788,1,8,0:0:0:0:
320,192,159788,1,0,0:0:0:0:
192,192,160009,1,0,0:0:0:0:
448,192,160119,1,8,0:0:0:0:
64,192,160119,1,0,0:0:0:0:
192,192,160340,1,0,0:0:0:0:
448,192,160450,1,8,0:0:0:0:
64,192,160450,1,0,0:0:0:0:
192,192,160671,1,0,0:0:0:0:
448,192,160781,1,8,0:0:0:0:
64,192,160781,1,0,0:0:0:0:
192,192,161002,1,0,0:0:0:0:
448,192,161112,1,8,0:0:0:0:
320,192,161112,1,0,0:0:0:0:
192,192,161222,1,0,0:0:0:0:
448,192,161332,1,8,0:0:0:0:
320,192,161332,1,0,0:0:0:0:
64,192,161553,1,0,0:0:0:0:
192,192,161774,1,0,0:0:0:0:
448,192,161994,1,0,0:0:0:0:
64,192,161994,1,0,0:0:0:0:
320,192,162215,1,0,0:0:0:0:
192,192,162435,1,0,0:0:0:0:
320,192,162656,1,0,0:0:0:0:
64,192,162877,1,0,0:0:0:0:
448,192,162877,1,8,0:0:0:0:
320,192,163097,1,0,0:0:0:0:
192,192,163318,1,0,0:0:0:0:
320,192,163538,1,0,0:0:0:0:
448,192,163759,1,0,0:0:0:0:
64,192,163759,1,0,0:0:0:0:
192,192,163980,1,0,0:0:0:0:
320,192,164200,1,0,0:0:0:0:
192,192,164421,1,0,0:0:0:0:
448,192,164641,1,8,0:0:0:0:
64,192,164641,1,0,0:0:0:0:
192,192,164862,1,0,0:0:0:0:
64,192,164972,1,0,0:0:0:0:
320,192,164972,1,8,0:0:0:0:
192,192,165082,1,0,0:0:0:0:
320,192,165303,1,0,0:0:0:0:
192,192,165524,1,8,0:0:0:0:
64,192,165524,1,0,0:0:0:0:
320,192,165744,1,0,0:0:0:0:
448,192,165965,1,8,0:0:0:0:
192,192,165965,1,0,0:0:0:0:
320,192,166185,1,0,0:0:0:0:
64,192,166406,1,0,0:0:0:0:
448,192,166406,1,8,0:0:0:0:
192,192,166627,1,0,0:0:0:0:
320,192,166737,1,0,0:0:0:0:
64,192,166847,1,0,0:0:0:0:
192,192,166847,1,8,0:0:0:0:
192,192,167068,1,0,0:0:0:0:
320,192,167178,1,0,0:0:0:0:
64,192,167288,1,0,0:0:0:0:
192,192,167288,1,8,0:0:0:0:
320,192,167509,1,0,0:0:0:0:
448,192,167619,1,0,0:0:0:0:
192,192,167730,1,0,0:0:0:0:
64,192,167730,1,0,0:0:0:0:
320,192,167803,1,0,0:0:0:0:
448,192,167877,1,0,0:0:0:0:
64,192,167950,1,0,0:0:0:0:
192,192,168024,1,0,0:0:0:0:
448,192,168097,1,0,0:0:0:0:
320,192,168171,1,0,0:0:0:0:
64,192,168244,1,0,0:0:0:0:
192,192,168318,1,0,0:0:0:0:
320,192,168391,1,0,0:0:0:0:
192,192,169053,1,0,0:0:0:0:
320,192,169053,1,0,0:0:0:0:
448,192,169494,1,0,0:0:0:0:
320,192,169568,1,0,0:0:0:0:
192,192,169641,1,0,0:0:0:0:
64,192,169715,1,0,0:0:0:0:
192,192,169788,1,0,0:0:0:0:
448,192,169862,1,0,0:0:0:0:
320,192,169935,1,0,0:0:0:0:
64,192,170009,1,0,0:0:0:0:
192,192,170082,1,0,0:0:0:0:
448,192,170156,1,0,0:0:0:0:
320,192,170156,1,4,0:0:0:0:
192,192,170377,1,8,0:0:0:0:
64,192,170377,1,0,0:0:0:0:
320,192,170450,1,0,0:0:0:0:
448,192,170524,1,0,0:0:0:0:
64,192,170597,1,0,0:0:0:0:
192,192,170671,1,0,0:0:0:0:
320,192,170744,1,0,0:0:0:0:
448,192,170818,1,8,0:0:0:0:
64,192,170818,1,0,0:0:0:0:
320,192,170891,1,0,0:0:0:0:
192,192,170965,1,0,0:0:0:0:
64,192,171038,1,0,0:0:0:0:
320,192,171112,1,0,0:0:0:0:
448,192,171185,1,0,0:0:0:0:
64,192,171259,1,0,0:0:0:0:
192,192,171259,1,8,0:0:0:0:
320,192,171480,1,0,0:0:0:0:
448,192,171480,1,8,0:0:0:0:
320,192,171700,1,0,0:0:0:0:
448,192,171700,1,8,0:0:0:0:
320,192,171921,1,0,0:0:0:0:
448,192,171921,1,8,0:0:0:0:
64,192,172141,1,0,0:0:0:0:
448,192,172141,1,0,0:0:0:0:
192,192,172362,1,0,0:0:0:0:
64,192,172582,1,0,0:0:0:0:
448,192,172582,1,8,0:0:0:0:
320,192,172803,1,0,0:0:0:0:
64,192,172913,1,0,0:0:0:0:
448,192,172913,1,0,0:0:0:0:
192,192,173024,1,0,0:0:0:0:
320,192,173134,1,0,0:0:0:0:
448,192,173134,1,0,0:0:0:0:
64,192,173244,1,0,0:0:0:0:
320,192,173465,1,0,0:0:0:0:
448,192,173465,1,8,0:0:0:0:
192,192,173685,1,0,0:0:0:0:
320,192,173759,1,0,0:0:0:0:
448,192,173832,1,0,0:0:0:0:
192,192,173906,1,0,0:0:0:0:
320,192,174127,1,0,0:0:0:0:
448,192,174347,1,8,0:0:0:0:
64,192,174347,1,0,0:0:0:0:
192,192,174568,1,0,0:0:0:0:
320,192,174678,1,0,0:0:0:0:
448,192,174678,1,0,0:0:0:0:
192,192,174788,1,0,0:0:0:0:
64,192,174899,1,0,0:0:0:0:
320,192,174899,1,0,0:0:0:0:
192,192,175009,1,0,0:0:0:0:
448,192,175230,1,8,0:0:0:0:
320,192,175230,1,0,0:0:0:0:
320,192,175450,1,0,0:0:0:0:
192,192,175524,1,0,0:0:0:0:
64,192,175597,1,0,0:0:0:0:
320,192,175671,1,0,0:0:0:0:
192,192,175891,1,0,0:0:0:0:
448,192,176112,1,8,0:0:0:0:
64,192,176112,1,0,0:0:0:0:
320,192,176332,1,0,0:0:0:0:
448,192,176443,1,0,0:0:0:0:
192,192,176443,1,0,0:0:0:0:
64,192,176553,1,0,0:0:0:0:
320,192,176663,1,0,0:0:0:0:
448,192,176663,1,0,0:0:0:0:
192,192,176774,1,0,0:0:0:0:
448,192,176994,1,8,0:0:0:0:
320,192,176994,1,0,0:0:0:0:
192,192,177215,1,0,0:0:0:0:
320,192,177288,1,0,0:0:0:0:
448,192,177362,1,0,0:0:0:0:
192,192,177435,1,0,0:0:0:0:
192,192,177656,1,0,0:0:0:0:
64,192,177877,1,0,0:0:0:0:
448,192,177877,1,8,0:0:0:0:
192,192,178097,1,0,0:0:0:0:
64,192,178207,1,0,0:0:0:0:
448,192,178207,1,0,0:0:0:0:
320,192,178318,1,8,0:0:0:0:
192,192,178428,1,8,0:0:0:0:
320,192,178538,1,8,0:0:0:0:
320,192,178759,1,8,0:0:0:0:
320,192,178980,1,8,0:0:0:0:
192,192,179200,1,0,0:0:0:0:
192,192,179421,1,0,0:0:0:0:
64,192,179641,1,0,0:0:0:0:
320,192,179641,1,8,0:0:0:0:
192,192,179862,1,0,0:0:0:0:
320,192,180082,1,0,0:0:0:0:
64,192,180193,1,0,0:0:0:0:
448,192,180303,1,0,0:0:0:0:
320,192,180524,1,8,0:0:0:0:
64,192,180524,1,0,0:0:0:0:
192,192,180744,1,0,0:0:0:0:
64,192,180965,1,0,0:0:0:0:
64,192,181185,1,0,0:0:0:0:
192,192,181406,1,0,0:0:0:0:
320,192,181406,1,8,0:0:0:0:
192,192,181627,1,0,0:0:0:0:
64,192,181847,1,0,0:0:0:0:
448,192,181957,1,0,0:0:0:0:
320,192,182068,1,0,0:0:0:0:
448,192,182288,1,8,0:0:0:0:
192,192,182288,1,0,0:0:0:0:
320,192,182509,1,0,0:0:0:0:
64,192,182730,1,0,0:0:0:0:
192,192,182730,1,0,0:0:0:0:
192,192,182950,1,0,0:0:0:0:
448,192,183171,1,8,0:0:0:0:
64,192,183171,1,0,0:0:0:0:
192,192,183391,1,0,0:0:0:0:
320,192,183612,1,0,0:0:0:0:
448,192,183722,1,0,0:0:0:0:
64,192,183832,1,0,0:0:0:0:
320,192,184053,1,8,0:0:0:0:
192,192,184053,1,0,0:0:0:0:
192,192,184274,1,0,0:0:0:0:
64,192,184494,1,0,0:0:0:0:
448,192,184715,5,0,0:0:0:0:
320,192,184788,1,0,0:0:0:0:
192,192,184862,1,0,0:0:0:0:
448,192,184935,1,8,0:0:0:0:
64,192,184935,1,0,0:0:0:0:
448,192,185156,1,0,0:0:0:0:
64,192,185156,1,0,0:0:0:0:
192,192,185377,1,8,0:0:0:0:
320,192,185487,1,8,0:0:0:0:
192,192,185597,1,8,0:0:0:0:
192,192,185818,1,0,0:0:0:0:
192,192,186038,1,12,0:0:0:0:
320,192,186700,128,2,187141:0:0:0:0:
320,192,187582,128,2,188024:0:0:0:0:
320,192,188465,128,2,188906:0:0:0:0:
320,192,189347,128,2,189788:0:0:0:0:
320,192,190230,128,2,190671:0:0:0:0:
320,192,191112,128,2,191553:0:0:0:0:
