osu file format v14

[General]
AudioFilename: audio.mp3
AudioLeadIn: 0
PreviewTime: 91099
Countdown: 1
SampleSet: Normal
StackLeniency: 0.7
Mode: 1
LetterboxInBreaks: 0
WidescreenStoryboard: 1

[Editor]
Bookmarks: 19157,20998,37613,52382,59769,74538,91152,104075,111459,126228,140998,155767,166844,181613,196382,203767,216690,234690
DistanceSpacing: 2.6
BeatDivisor: 4
GridSize: 32
TimelineZoom: 2

[Metadata]
Title:Under the scarlet sky pt. 3
TitleUnicode:Under the scarlet sky pt. 3
Artist:UNDEAD CORPORATION
ArtistUnicode:UNDEAD CORPORATION
Creator:Hivie
Version:Idealism's Muzukashii
Source:東方紅魔郷 ~ the Embodiment of Scarlet Devil.
Tags:metal english featured artist fa osu! mappers' guild mpg Idealism project touhou comiket 79 rumia ルーミア remilia 極鉄 gokutetsu th6 c79 ほおずきみたいに紅 銀ーsilverー
BeatmapID:2662306
BeatmapSetID:1275058

[Difficulty]
HPDrainRate:6
CircleSize:2
OverallDifficulty:5
ApproachRate:9
SliderMultiplier:1.4
SliderTickRate:1

[Events]
//Background and Video events
0,0,"bg.jpg",0,80
//Break Periods
//Storyboard Layer 0 (Background)
//Storyboard Layer 1 (Fail)
//Storyboard Layer 2 (Pass)
//Storyboard Layer 3 (Foreground)
//Storyboard Layer 4 (Overlay)
//Storyboard Sound Samples

[TimingPoints]
1743,625,4,1,0,30,1,0
19157,230.769230769231,4,1,0,100,1,0
19157,-125,4,1,0,100,0,0
91099,-111.111111111111,4,1,0,100,0,0
91157,-111.111111111111,4,1,0,100,0,1
104080,-111.111111111111,4,1,0,100,0,0
104137,-125,4,1,0,100,0,0
140945,-111.111111111111,4,1,0,100,0,0
141003,-111.111111111111,4,1,0,100,0,1
155772,-111.111111111111,4,1,0,100,0,0
156003,-125,4,1,0,100,0,0
203714,-111.111111111111,4,1,0,100,0,0
203772,-111.111111111111,4,1,0,100,0,1
216695,-111.111111111111,4,1,0,100,0,0
216753,-125,4,1,0,100,0,0

[HitObjects]
258,197,1743,5,0,0:0:0:0:
258,197,2993,1,0,0:0:0:0:
258,197,3461,1,8,0:0:0:0:
258,197,4243,1,8,0:0:0:0:
258,197,4711,1,8,0:0:0:0:
258,197,5493,1,8,0:0:0:0:
258,197,6743,1,0,0:0:0:0:
258,197,7680,1,0,0:0:0:0:
258,197,8305,1,0,0:0:0:0:
258,197,8618,1,0,0:0:0:0:
258,197,8930,1,0,0:0:0:0:
258,197,9243,1,8,0:0:0:0:
258,197,9868,1,8,0:0:0:0:
258,197,10493,1,0,0:0:0:0:
261,197,11743,1,8,0:0:0:0:
291,217,12993,1,0,0:0:0:0:
253,202,13461,1,8,0:0:0:0:
253,202,14243,1,8,0:0:0:0:
253,202,14711,1,8,0:0:0:0:
253,202,15493,1,8,0:0:0:0:
235,200,16743,1,8,0:0:0:0:
235,200,17680,1,8,0:0:0:0:
235,200,18305,1,0,0:0:0:0:
235,200,18618,1,0,0:0:0:0:
235,200,18930,1,8,0:0:0:0:
235,200,19157,1,8,0:0:0:0:
235,200,19214,1,8,0:0:0:0:
235,200,19272,1,8,0:0:0:0:
235,200,19387,1,0,0:0:0:0:
235,200,19618,1,0,0:0:0:0:
235,200,19849,1,8,0:0:0:0:
235,200,19964,1,8,0:0:0:0:
235,200,20080,1,0,0:0:0:0:
241,197,20195,1,8,0:0:0:0:
242,197,20310,1,0,0:0:0:0:
242,198,20541,1,12,0:0:0:0:
241,201,21003,1,4,0:0:0:0:
229,198,21233,1,0,0:0:0:0:
229,198,21349,1,8,0:0:0:0:
230,199,21810,1,8,0:0:0:0:
231,199,22041,1,0,0:0:0:0:
229,198,22272,1,8,0:0:0:0:
229,198,22503,1,8,0:0:0:0:
229,198,22618,1,0,0:0:0:0:
234,206,22733,1,0,0:0:0:0:
230,199,22849,1,0,0:0:0:0:
231,199,23080,1,0,0:0:0:0:
229,198,23195,1,8,0:0:0:0:
229,198,23657,1,8,0:0:0:0:
227,200,23887,1,0,0:0:0:0:
231,199,24118,1,8,0:0:0:0:
227,200,24349,1,0,0:0:0:0:
227,200,24464,1,8,0:0:0:0:
229,198,24580,1,8,0:0:0:0:
230,199,24695,1,0,0:0:0:0:
227,200,24926,1,0,0:0:0:0:
231,199,25041,1,8,0:0:0:0:
227,200,25503,1,8,0:0:0:0:
230,199,25733,1,0,0:0:0:0:
239,205,25964,1,0,0:0:0:0:
239,205,26022,1,0,0:0:0:0:
239,205,26080,1,0,0:0:0:0:
234,202,26195,1,8,0:0:0:0:
234,202,26310,1,0,0:0:0:0:
239,203,26541,1,0,0:0:0:0:
239,203,26657,1,0,0:0:0:0:
239,203,26772,1,0,0:0:0:0:
239,205,26887,1,8,0:0:0:0:
239,210,27118,1,0,0:0:0:0:
239,210,27233,1,8,0:0:0:0:
240,210,27464,1,0,0:0:0:0:
240,210,27580,1,8,0:0:0:0:
240,210,27695,1,8,0:0:0:0:
239,205,27926,1,0,0:0:0:0:
240,210,28387,1,4,0:0:0:0:
233,207,28618,1,0,0:0:0:0:
231,209,28733,1,8,0:0:0:0:
230,210,29195,1,8,0:0:0:0:
230,210,29426,1,0,0:0:0:0:
233,207,29657,1,8,0:0:0:0:
230,210,29887,1,8,0:0:0:0:
230,210,30003,1,0,0:0:0:0:
231,209,30118,1,0,0:0:0:0:
230,210,30233,1,0,0:0:0:0:
230,210,30464,1,0,0:0:0:0:
224,209,30580,1,8,0:0:0:0:
230,210,31041,1,8,0:0:0:0:
230,210,31272,1,0,0:0:0:0:
230,210,31503,1,8,0:0:0:0:
230,210,31733,1,0,0:0:0:0:
230,210,31849,1,8,0:0:0:0:
224,209,31964,1,8,0:0:0:0:
230,210,32080,1,0,0:0:0:0:
227,203,32310,1,0,0:0:0:0:
227,203,32426,1,8,0:0:0:0:
218,206,32657,1,0,0:0:0:0:
218,206,32714,1,0,0:0:0:0:
218,206,32772,1,0,0:0:0:0:
218,206,32887,1,8,0:0:0:0:
216,204,33118,1,0,0:0:0:0:
214,204,33349,1,8,0:0:0:0:
213,204,33407,1,8,0:0:0:0:
213,204,33464,1,8,0:0:0:0:
218,206,33580,1,0,0:0:0:0:
218,206,33695,1,8,0:0:0:0:
218,206,33926,1,0,0:0:0:0:
221,207,34387,1,0,0:0:0:0:
218,206,34849,1,8,0:0:0:0:
218,206,34907,1,8,0:0:0:0:
218,206,34964,1,8,0:0:0:0:
221,207,35080,1,0,0:0:0:0:
221,207,35195,1,0,0:0:0:0:
221,207,35310,1,8,0:0:0:0:
211,209,35772,1,12,0:0:0:0:
211,217,36118,1,0,0:0:0:0:
211,216,36233,1,0,0:0:0:0:
211,216,36349,1,8,0:0:0:0:
204,217,36464,1,8,0:0:0:0:
204,217,36580,1,0,0:0:0:0:
203,216,36695,1,8,0:0:0:0:
203,216,37041,1,8,0:0:0:0:
203,216,37157,1,8,0:0:0:0:
204,217,37272,1,0,0:0:0:0:
204,217,37330,1,0,0:0:0:0:
204,217,37387,1,0,0:0:0:0:
204,217,37618,1,12,0:0:0:0:
218,220,37849,1,0,0:0:0:0:
218,220,37964,1,8,0:0:0:0:
218,220,38195,1,8,0:0:0:0:
215,221,38310,1,8,0:0:0:0:
215,221,38426,1,0,0:0:0:0:
215,221,38657,1,8,0:0:0:0:
206,217,38772,1,0,0:0:0:0:
199,214,38887,1,8,0:0:0:0:
201,217,39118,1,8,0:0:0:0:
204,217,39349,1,0,0:0:0:0:
206,220,39464,1,8,0:0:0:0:
213,218,39810,1,8,0:0:0:0:
213,218,40041,1,8,0:0:0:0:
208,220,40157,1,8,0:0:0:0:
208,220,40272,1,0,0:0:0:0:
201,217,40503,1,8,0:0:0:0:
201,217,40733,1,0,0:0:0:0:
201,217,40964,1,8,0:0:0:0:
203,217,41080,1,0,0:0:0:0:
203,217,41195,1,0,0:0:0:0:
190,214,41310,1,8,0:0:0:0:
214,202,41541,1,0,0:0:0:0:
214,202,41657,1,8,0:0:0:0:
207,206,42118,1,0,0:0:0:0:
206,212,42349,1,8,0:0:0:0:
214,202,42580,1,0,0:0:0:0:
207,206,42810,1,0,0:0:0:0:
207,206,42926,1,8,0:0:0:0:
207,206,43041,1,0,0:0:0:0:
214,202,43157,1,8,0:0:0:0:
214,202,43387,1,0,0:0:0:0:
213,200,43503,1,8,0:0:0:0:
209,199,43733,1,8,0:0:0:0:
209,199,43964,1,0,0:0:0:0:
214,202,44080,1,8,0:0:0:0:
214,202,44426,1,8,0:0:0:0:
209,199,44541,1,8,0:0:0:0:
209,199,44657,1,0,0:0:0:0:
209,199,44772,1,8,0:0:0:0:
209,199,45003,1,12,0:0:0:0:
199,206,45233,1,0,0:0:0:0:
199,206,45349,1,8,0:0:0:0:
197,206,45810,1,0,0:0:0:0:
219,199,46041,1,0,0:0:0:0:
219,199,46157,1,0,0:0:0:0:
219,199,46272,1,8,0:0:0:0:
218,202,46387,1,0,0:0:0:0:
212,205,46503,1,8,0:0:0:0:
227,200,46733,1,0,0:0:0:0:
227,200,46849,1,8,0:0:0:0:
205,202,47195,1,0,0:0:0:0:
205,202,47426,1,8,0:0:0:0:
212,205,47541,1,8,0:0:0:0:
215,194,47657,1,0,0:0:0:0:
227,200,47887,1,8,0:0:0:0:
222,195,48118,1,0,0:0:0:0:
222,195,48349,1,8,0:0:0:0:
219,198,48464,1,0,0:0:0:0:
215,194,48580,1,0,0:0:0:0:
215,194,48695,1,8,0:0:0:0:
219,198,48926,1,0,0:0:0:0:
222,195,49041,1,8,0:0:0:0:
229,197,49503,1,0,0:0:0:0:
228,196,49733,1,8,0:0:0:0:
228,196,49964,1,0,0:0:0:0:
218,195,50195,1,0,0:0:0:0:
218,195,50310,1,8,0:0:0:0:
218,195,50426,1,0,0:0:0:0:
218,195,50541,1,8,0:0:0:0:
218,192,50772,1,0,0:0:0:0:
218,192,50887,1,0,0:0:0:0:
216,188,51003,1,0,0:0:0:0:
218,195,51233,1,0,0:0:0:0:
213,188,51349,1,0,0:0:0:0:
218,195,51464,1,8,0:0:0:0:
218,192,51695,1,8,0:0:0:0:
218,192,51810,1,0,0:0:0:0:
218,192,51926,1,8,0:0:0:0:
218,195,52080,1,0,0:0:0:0:
218,195,52233,1,0,0:0:0:0:
213,188,52387,1,12,0:0:0:0:
218,192,52618,1,0,0:0:0:0:
218,192,52733,1,8,0:0:0:0:
218,195,53195,1,8,0:0:0:0:
218,192,53426,1,0,0:0:0:0:
219,193,53657,1,8,0:0:0:0:
218,195,53887,1,8,0:0:0:0:
218,195,54003,1,0,0:0:0:0:
218,195,54118,1,0,0:0:0:0:
204,186,54233,1,0,0:0:0:0:
215,186,54464,1,0,0:0:0:0:
218,192,54580,1,8,0:0:0:0:
211,185,55041,1,8,0:0:0:0:
215,186,55272,1,0,0:0:0:0:
211,185,55503,1,8,0:0:0:0:
211,185,55733,1,0,0:0:0:0:
211,185,55849,1,8,0:0:0:0:
211,185,55964,1,8,0:0:0:0:
211,185,56080,1,0,0:0:0:0:
211,185,56310,1,0,0:0:0:0:
206,188,56426,1,8,0:0:0:0:
202,188,56887,1,8,0:0:0:0:
202,188,57118,1,0,0:0:0:0:
206,188,57349,1,0,0:0:0:0:
206,188,57407,1,0,0:0:0:0:
209,190,57464,1,0,0:0:0:0:
209,190,57580,1,8,0:0:0:0:
202,188,57695,1,0,0:0:0:0:
202,188,57926,1,0,0:0:0:0:
202,188,58041,1,0,0:0:0:0:
202,188,58157,1,0,0:0:0:0:
206,188,58272,1,8,0:0:0:0:
206,188,58503,1,0,0:0:0:0:
209,190,58618,1,8,0:0:0:0:
202,188,58849,1,0,0:0:0:0:
202,188,58964,1,8,0:0:0:0:
202,188,59080,1,8,0:0:0:0:
206,188,59310,1,0,0:0:0:0:
202,188,59772,1,12,0:0:0:0:
202,188,60003,1,0,0:0:0:0:
199,182,60118,1,8,0:0:0:0:
202,188,60349,1,8,0:0:0:0:
202,188,60580,1,0,0:0:0:0:
202,188,60810,1,0,0:0:0:0:
199,182,60926,1,0,0:0:0:0:
204,180,61041,1,8,0:0:0:0:
199,182,61157,1,0,0:0:0:0:
204,180,61272,1,8,0:0:0:0:
200,173,61503,1,0,0:0:0:0:
204,180,61618,1,8,0:0:0:0:
191,173,62195,1,8,0:0:0:0:
200,173,62426,1,0,0:0:0:0:
202,178,62657,1,8,0:0:0:0:
205,177,62772,1,8,0:0:0:0:
202,178,62887,1,0,0:0:0:0:
205,177,63118,1,0,0:0:0:0:
204,177,63233,1,8,0:0:0:0:
200,173,63349,1,0,0:0:0:0:
202,178,63464,1,8,0:0:0:0:
205,177,63695,1,0,0:0:0:0:
208,174,63810,1,8,0:0:0:0:
189,180,64272,1,0,0:0:0:0:
189,180,64503,1,8,0:0:0:0:
190,181,64733,1,0,0:0:0:0:
189,180,64964,1,8,0:0:0:0:
189,180,65080,1,0,0:0:0:0:
189,180,65195,1,0,0:0:0:0:
189,180,65310,1,8,0:0:0:0:
196,175,65541,1,0,0:0:0:0:
196,175,65657,1,8,0:0:0:0:
196,175,65887,1,8,0:0:0:0:
189,180,66118,1,0,0:0:0:0:
189,180,66233,1,8,0:0:0:0:
196,175,66580,1,8,0:0:0:0:
196,175,66695,1,8,0:0:0:0:
196,175,66810,1,0,0:0:0:0:
189,180,66926,1,8,0:0:0:0:
189,180,67157,1,12,0:0:0:0:
185,175,67503,1,0,0:0:0:0:
177,176,67733,1,8,0:0:0:0:
197,206,67964,1,0,0:0:0:0:
219,199,68195,1,0,0:0:0:0:
219,199,68310,1,0,0:0:0:0:
219,199,68426,1,8,0:0:0:0:
218,202,68541,1,0,0:0:0:0:
212,205,68657,1,8,0:0:0:0:
227,200,68887,1,0,0:0:0:0:
227,200,69003,1,8,0:0:0:0:
205,202,69349,1,0,0:0:0:0:
205,202,69580,1,8,0:0:0:0:
212,205,69695,1,8,0:0:0:0:
215,194,69810,1,0,0:0:0:0:
227,200,70041,1,8,0:0:0:0:
222,195,70272,1,0,0:0:0:0:
222,195,70503,1,8,0:0:0:0:
219,198,70618,1,0,0:0:0:0:
215,194,70733,1,0,0:0:0:0:
215,194,70849,1,8,0:0:0:0:
219,198,71080,1,0,0:0:0:0:
222,195,71195,1,8,0:0:0:0:
229,197,71657,1,0,0:0:0:0:
228,196,71887,1,8,0:0:0:0:
228,196,72118,1,0,0:0:0:0:
218,195,72349,1,0,0:0:0:0:
218,195,72464,1,8,0:0:0:0:
218,195,72580,1,0,0:0:0:0:
218,195,72695,1,8,0:0:0:0:
228,196,72926,1,0,0:0:0:0:
228,196,73041,1,0,0:0:0:0:
228,196,73157,1,0,0:0:0:0:
218,195,73387,1,0,0:0:0:0:
218,195,73503,1,0,0:0:0:0:
218,195,73618,1,8,0:0:0:0:
219,195,73849,1,8,0:0:0:0:
220,195,73964,1,0,0:0:0:0:
220,195,74080,1,8,0:0:0:0:
218,195,74233,1,0,0:0:0:0:
218,195,74387,1,0,0:0:0:0:
218,195,74541,1,12,0:0:0:0:
231,194,75003,1,0,0:0:0:0:
218,195,75233,1,0,0:0:0:0:
218,195,75349,1,0,0:0:0:0:
218,195,75464,1,8,0:0:0:0:
213,200,75695,1,0,0:0:0:0:
213,199,75810,1,0,0:0:0:0:
208,200,75926,1,0,0:0:0:0:
204,200,76157,1,12,0:0:0:0:
202,200,76387,1,4,0:0:0:0:
208,200,76849,1,0,0:0:0:0:
212,198,77080,1,0,0:0:0:0:
212,198,77195,1,0,0:0:0:0:
212,198,77310,1,0,0:0:0:0:
208,200,77541,1,0,0:0:0:0:
208,200,77657,1,0,0:0:0:0:
208,200,77772,1,8,0:0:0:0:
212,198,78003,1,4,0:0:0:0:
212,198,78233,1,12,0:0:0:0:
208,200,78695,1,0,0:0:0:0:
212,198,78926,1,0,0:0:0:0:
212,198,79041,1,0,0:0:0:0:
212,198,79157,1,0,0:0:0:0:
208,200,79387,1,0,0:0:0:0:
208,200,79503,1,0,0:0:0:0:
208,200,79618,1,8,0:0:0:0:
204,196,79849,1,12,0:0:0:0:
204,196,80080,1,12,0:0:0:0:
192,193,80541,1,8,0:0:0:0:
192,193,80772,1,0,0:0:0:0:
185,187,81003,1,8,0:0:0:0:
185,187,81118,1,8,0:0:0:0:
185,187,81233,1,0,0:0:0:0:
185,187,81349,1,0,0:0:0:0:
185,187,81464,1,8,0:0:0:0:
192,193,81695,1,0,0:0:0:0:
183,192,81810,1,12,0:0:0:0:
191,194,82387,1,0,0:0:0:0:
192,193,82618,1,0,0:0:0:0:
192,193,82733,1,0,0:0:0:0:
191,195,82849,1,8,0:0:0:0:
192,194,83080,1,8,0:0:0:0:
192,194,83195,1,0,0:0:0:0:
192,194,83310,1,8,0:0:0:0:
192,193,83541,1,12,0:0:0:0:
192,193,83657,1,4,0:0:0:0:
192,194,84233,1,8,0:0:0:0:
192,194,84464,1,0,0:0:0:0:
192,193,84580,1,0,0:0:0:0:
192,193,84695,1,8,0:0:0:0:
192,194,84926,1,8,0:0:0:0:
192,194,85041,1,0,0:0:0:0:
192,194,85157,1,8,0:0:0:0:
183,192,85387,1,4,0:0:0:0:
183,193,85503,1,12,0:0:0:0:
184,197,86080,1,8,0:0:0:0:
183,192,86310,1,0,0:0:0:0:
183,193,86426,1,0,0:0:0:0:
184,197,86541,1,8,0:0:0:0:
184,197,86772,1,8,0:0:0:0:
184,197,86887,1,0,0:0:0:0:
184,197,87003,1,8,0:0:0:0:
183,192,87233,1,12,0:0:0:0:
183,192,87349,1,12,0:0:0:0:
197,184,88387,1,8,0:0:0:0:
197,184,88445,1,8,0:0:0:0:
197,184,88503,1,8,0:0:0:0:
197,184,88618,1,0,0:0:0:0:
197,184,88733,1,0,0:0:0:0:
197,184,88849,1,8,0:0:0:0:
189,183,89080,1,0,0:0:0:0:
189,183,89310,1,12,0:0:0:0:
182,181,89541,1,0,0:0:0:0:
182,181,89657,1,8,0:0:0:0:
181,181,89772,1,0,0:0:0:0:
181,181,89887,1,0,0:0:0:0:
181,181,90003,1,8,0:0:0:0:
170,175,90233,1,8,0:0:0:0:
170,175,90464,1,8,0:0:0:0:
170,175,90580,1,8,0:0:0:0:
170,176,90695,1,0,0:0:0:0:
170,176,90926,1,0,0:0:0:0:
170,175,91157,1,12,0:0:0:0:
183,179,91387,1,0,0:0:0:0:
183,179,91503,1,0,0:0:0:0:
183,179,91618,1,8,0:0:0:0:
188,179,91849,1,0,0:0:0:0:
188,179,92080,1,8,0:0:0:0:
188,179,92137,1,8,0:0:0:0:
188,179,92195,1,8,0:0:0:0:
183,179,92310,1,0,0:0:0:0:
183,179,92426,1,8,0:0:0:0:
181,170,93003,1,8,0:0:0:0:
183,179,93233,1,8,0:0:0:0:
183,179,93349,1,0,0:0:0:0:
183,179,93407,1,0,0:0:0:0:
183,179,93464,1,0,0:0:0:0:
185,173,93580,1,8,0:0:0:0:
185,173,93695,1,0,0:0:0:0:
181,170,93926,1,8,0:0:0:0:
185,173,94503,1,0,0:0:0:0:
166,170,94560,1,0,0:0:0:0:
166,170,94618,1,0,0:0:0:0:
186,179,94849,1,12,0:0:0:0:
181,167,95080,1,0,0:0:0:0:
181,167,95195,1,8,0:0:0:0:
181,167,95310,1,0,0:0:0:0:
181,167,95426,1,0,0:0:0:0:
185,173,95541,1,8,0:0:0:0:
169,169,95772,1,0,0:0:0:0:
170,170,96003,1,8,0:0:0:0:
170,170,96118,1,0,0:0:0:0:
169,170,96176,1,0,0:0:0:0:
169,170,96233,1,0,0:0:0:0:
169,169,96349,1,0,0:0:0:0:
169,169,96464,1,8,0:0:0:0:
169,169,96695,1,12,0:0:0:0:
177,169,97041,1,12,0:0:0:0:
176,169,97387,1,12,0:0:0:0:
169,169,97618,1,4,0:0:0:0:
177,169,97849,1,0,0:0:0:0:
177,169,97907,1,0,0:0:0:0:
177,169,97964,1,0,0:0:0:0:
171,159,98080,1,0,0:0:0:0:
183,170,98310,1,0,0:0:0:0:
142,154,98541,1,12,0:0:0:0:
166,168,98772,1,0,0:0:0:0:
164,168,98887,1,0,0:0:0:0:
161,170,99003,1,8,0:0:0:0:
160,171,99233,1,0,0:0:0:0:
160,171,99464,1,8,0:0:0:0:
157,173,99522,1,8,0:0:0:0:
157,173,99580,1,8,0:0:0:0:
157,173,99695,1,0,0:0:0:0:
158,173,99810,1,8,0:0:0:0:
156,178,100387,1,8,0:0:0:0:
159,179,100618,1,8,0:0:0:0:
157,173,100733,1,0,0:0:0:0:
158,173,100791,1,0,0:0:0:0:
158,173,100849,1,0,0:0:0:0:
156,178,100964,1,8,0:0:0:0:
156,178,101080,1,0,0:0:0:0:
156,178,101310,1,8,0:0:0:0:
159,179,101541,1,0,0:0:0:0:
159,179,101657,1,0,0:0:0:0:
157,173,101772,1,8,0:0:0:0:
158,173,101887,1,0,0:0:0:0:
156,178,102003,1,8,0:0:0:0:
156,178,102233,1,8,0:0:0:0:
150,180,102464,1,8,0:0:0:0:
150,171,102580,1,8,0:0:0:0:
157,173,102810,1,8,0:0:0:0:
157,173,102926,1,8,0:0:0:0:
146,167,103157,1,0,0:0:0:0:
146,167,103272,1,8,0:0:0:0:
146,167,103387,1,0,0:0:0:0:
150,171,103503,1,0,0:0:0:0:
150,171,103618,1,8,0:0:0:0:
241,201,104080,1,4,0:0:0:0:
229,198,104310,1,0,0:0:0:0:
229,198,104426,1,8,0:0:0:0:
230,199,104887,1,8,0:0:0:0:
231,199,105118,1,0,0:0:0:0:
229,198,105349,1,8,0:0:0:0:
229,198,105580,1,8,0:0:0:0:
229,198,105695,1,0,0:0:0:0:
234,206,105810,1,0,0:0:0:0:
230,199,105926,1,0,0:0:0:0:
231,199,106157,1,0,0:0:0:0:
229,198,106272,1,8,0:0:0:0:
229,198,106733,1,8,0:0:0:0:
227,200,106964,1,0,0:0:0:0:
231,199,107195,1,8,0:0:0:0:
227,200,107426,1,0,0:0:0:0:
227,200,107541,1,8,0:0:0:0:
229,198,107657,1,8,0:0:0:0:
230,199,107772,1,0,0:0:0:0:
227,200,108003,1,0,0:0:0:0:
231,199,108118,1,8,0:0:0:0:
227,200,108580,1,8,0:0:0:0:
230,199,108810,1,0,0:0:0:0:
239,205,109041,1,0,0:0:0:0:
239,205,109099,1,0,0:0:0:0:
239,205,109157,1,0,0:0:0:0:
234,202,109272,1,8,0:0:0:0:
234,202,109387,1,0,0:0:0:0:
239,203,109618,1,0,0:0:0:0:
239,203,109733,1,0,0:0:0:0:
239,203,109849,1,0,0:0:0:0:
239,205,109964,1,8,0:0:0:0:
239,210,110195,1,0,0:0:0:0:
239,210,110310,1,8,0:0:0:0:
240,210,110541,1,0,0:0:0:0:
240,210,110657,1,8,0:0:0:0:
240,210,110772,1,8,0:0:0:0:
239,205,111003,1,0,0:0:0:0:
240,210,111464,1,12,0:0:0:0:
202,188,111695,1,0,0:0:0:0:
199,182,111810,1,8,0:0:0:0:
202,188,112041,1,8,0:0:0:0:
202,188,112272,1,0,0:0:0:0:
202,188,112503,1,0,0:0:0:0:
199,182,112618,1,0,0:0:0:0:
204,180,112733,1,8,0:0:0:0:
199,182,112849,1,0,0:0:0:0:
204,180,112964,1,8,0:0:0:0:
200,173,113195,1,0,0:0:0:0:
204,180,113310,1,8,0:0:0:0:
191,173,113887,1,8,0:0:0:0:
200,173,114118,1,0,0:0:0:0:
202,178,114349,1,8,0:0:0:0:
205,177,114464,1,8,0:0:0:0:
202,178,114580,1,0,0:0:0:0:
205,177,114810,1,0,0:0:0:0:
204,177,114926,1,8,0:0:0:0:
200,173,115041,1,0,0:0:0:0:
202,178,115157,1,8,0:0:0:0:
205,177,115387,1,0,0:0:0:0:
208,174,115503,1,8,0:0:0:0:
189,180,115964,1,0,0:0:0:0:
189,180,116195,1,8,0:0:0:0:
190,181,116426,1,0,0:0:0:0:
189,180,116657,1,8,0:0:0:0:
189,180,116772,1,0,0:0:0:0:
189,180,116887,1,0,0:0:0:0:
189,180,117003,1,8,0:0:0:0:
196,175,117233,1,0,0:0:0:0:
196,175,117349,1,8,0:0:0:0:
196,175,117580,1,8,0:0:0:0:
189,180,117810,1,0,0:0:0:0:
189,180,117926,1,8,0:0:0:0:
196,175,118272,1,8,0:0:0:0:
196,175,118387,1,8,0:0:0:0:
196,175,118503,1,0,0:0:0:0:
189,180,118618,1,8,0:0:0:0:
189,180,118849,1,12,0:0:0:0:
185,175,119195,1,0,0:0:0:0:
177,176,119426,1,8,0:0:0:0:
197,206,119657,1,0,0:0:0:0:
219,199,119887,1,0,0:0:0:0:
219,199,120003,1,0,0:0:0:0:
219,199,120118,1,8,0:0:0:0:
218,202,120233,1,0,0:0:0:0:
212,205,120349,1,8,0:0:0:0:
227,200,120580,1,0,0:0:0:0:
227,200,120695,1,8,0:0:0:0:
205,202,121041,1,0,0:0:0:0:
205,202,121272,1,8,0:0:0:0:
212,205,121387,1,8,0:0:0:0:
215,194,121503,1,0,0:0:0:0:
227,200,121733,1,8,0:0:0:0:
222,195,121964,1,0,0:0:0:0:
222,195,122195,1,8,0:0:0:0:
219,198,122310,1,0,0:0:0:0:
215,194,122426,1,0,0:0:0:0:
215,194,122541,1,8,0:0:0:0:
219,198,122772,1,0,0:0:0:0:
222,195,122887,1,8,0:0:0:0:
229,197,123349,1,0,0:0:0:0:
228,196,123580,1,8,0:0:0:0:
228,196,123810,1,0,0:0:0:0:
218,195,124041,1,0,0:0:0:0:
218,195,124157,1,8,0:0:0:0:
218,195,124272,1,0,0:0:0:0:
218,195,124387,1,8,0:0:0:0:
228,196,124618,1,0,0:0:0:0:
228,196,124733,1,0,0:0:0:0:
228,196,124849,1,0,0:0:0:0:
218,195,125080,1,0,0:0:0:0:
218,195,125195,1,0,0:0:0:0:
218,195,125310,1,8,0:0:0:0:
219,195,125541,1,8,0:0:0:0:
220,195,125657,1,0,0:0:0:0:
220,195,125772,1,8,0:0:0:0:
218,195,125926,1,0,0:0:0:0:
218,195,126080,1,0,0:0:0:0:
218,195,126233,1,12,0:0:0:0:
231,194,126695,1,0,0:0:0:0:
218,195,126926,1,0,0:0:0:0:
218,195,127041,1,0,0:0:0:0:
218,195,127157,1,8,0:0:0:0:
213,200,127387,1,0,0:0:0:0:
213,199,127503,1,0,0:0:0:0:
208,200,127618,1,0,0:0:0:0:
204,200,127849,1,12,0:0:0:0:
202,200,127964,1,4,0:0:0:0:
208,200,128541,1,0,0:0:0:0:
212,198,128772,1,0,0:0:0:0:
212,198,128887,1,0,0:0:0:0:
212,198,129003,1,0,0:0:0:0:
208,200,129233,1,0,0:0:0:0:
208,200,129349,1,0,0:0:0:0:
208,200,129464,1,8,0:0:0:0:
212,198,129695,1,4,0:0:0:0:
212,198,129810,1,12,0:0:0:0:
208,200,130387,1,0,0:0:0:0:
212,198,130618,1,0,0:0:0:0:
212,198,130733,1,0,0:0:0:0:
212,198,130849,1,0,0:0:0:0:
208,200,131080,1,0,0:0:0:0:
208,200,131195,1,0,0:0:0:0:
208,200,131310,1,8,0:0:0:0:
204,196,131541,1,12,0:0:0:0:
204,196,131657,1,12,0:0:0:0:
192,193,132233,1,8,0:0:0:0:
192,193,132464,1,0,0:0:0:0:
185,187,132695,1,8,0:0:0:0:
185,187,132810,1,8,0:0:0:0:
185,187,132926,1,0,0:0:0:0:
185,187,133041,1,0,0:0:0:0:
185,187,133157,1,8,0:0:0:0:
192,193,133387,1,12,0:0:0:0:
183,192,133618,1,4,0:0:0:0:
191,194,134080,1,0,0:0:0:0:
192,193,134310,1,0,0:0:0:0:
192,193,134426,1,0,0:0:0:0:
191,195,134541,1,8,0:0:0:0:
192,194,134772,1,8,0:0:0:0:
192,194,134887,1,0,0:0:0:0:
192,194,135003,1,8,0:0:0:0:
192,193,135233,1,12,0:0:0:0:
192,193,135464,1,4,0:0:0:0:
192,194,135926,1,8,0:0:0:0:
192,194,136157,1,0,0:0:0:0:
192,193,136272,1,0,0:0:0:0:
192,193,136387,1,8,0:0:0:0:
192,194,136618,1,8,0:0:0:0:
192,194,136733,1,0,0:0:0:0:
192,194,136849,1,8,0:0:0:0:
183,192,137080,1,4,0:0:0:0:
183,193,137310,1,12,0:0:0:0:
184,197,137772,1,8,0:0:0:0:
183,192,138003,1,0,0:0:0:0:
183,193,138118,1,0,0:0:0:0:
184,197,138233,1,8,0:0:0:0:
184,197,138464,1,8,0:0:0:0:
184,197,138580,1,0,0:0:0:0:
184,197,138695,1,8,0:0:0:0:
183,192,138926,1,12,0:0:0:0:
183,192,139157,1,12,0:0:0:0:
184,197,139387,1,0,0:0:0:0:
184,197,139503,1,0,0:0:0:0:
184,197,139618,1,8,0:0:0:0:
184,197,139733,1,0,0:0:0:0:
183,192,139849,1,8,0:0:0:0:
197,184,140080,1,0,0:0:0:0:
197,184,140233,1,0,0:0:0:0:
197,184,140387,1,0,0:0:0:0:
197,184,140541,1,8,0:0:0:0:
178,174,141003,1,12,0:0:0:0:
183,179,141233,1,0,0:0:0:0:
183,179,141349,1,0,0:0:0:0:
183,179,141464,1,8,0:0:0:0:
188,179,141695,1,0,0:0:0:0:
188,179,141926,1,8,0:0:0:0:
188,179,141983,1,8,0:0:0:0:
188,179,142041,1,8,0:0:0:0:
183,179,142157,1,0,0:0:0:0:
183,179,142272,1,8,0:0:0:0:
181,170,142849,1,8,0:0:0:0:
183,179,143080,1,8,0:0:0:0:
183,179,143195,1,0,0:0:0:0:
183,179,143253,1,0,0:0:0:0:
183,179,143310,1,0,0:0:0:0:
185,173,143426,1,8,0:0:0:0:
185,173,143541,1,0,0:0:0:0:
181,170,143772,1,8,0:0:0:0:
185,173,144349,1,0,0:0:0:0:
166,170,144407,1,0,0:0:0:0:
166,170,144464,1,0,0:0:0:0:
186,179,144695,1,12,0:0:0:0:
181,167,144926,1,0,0:0:0:0:
181,167,145041,1,8,0:0:0:0:
181,167,145157,1,0,0:0:0:0:
181,167,145272,1,0,0:0:0:0:
185,173,145387,1,8,0:0:0:0:
169,169,145618,1,0,0:0:0:0:
170,170,145849,1,8,0:0:0:0:
170,170,145964,1,0,0:0:0:0:
169,170,146022,1,0,0:0:0:0:
169,170,146080,1,0,0:0:0:0:
169,169,146195,1,0,0:0:0:0:
169,169,146310,1,8,0:0:0:0:
169,169,146541,1,12,0:0:0:0:
177,169,146887,1,12,0:0:0:0:
176,169,147233,1,12,0:0:0:0:
169,169,147464,1,4,0:0:0:0:
177,169,147695,1,0,0:0:0:0:
177,169,147753,1,0,0:0:0:0:
177,169,147810,1,0,0:0:0:0:
171,159,147926,1,0,0:0:0:0:
183,170,148157,1,0,0:0:0:0:
142,154,148387,1,12,0:0:0:0:
166,168,148618,1,0,0:0:0:0:
164,168,148733,1,0,0:0:0:0:
161,170,148849,1,8,0:0:0:0:
160,171,149080,1,0,0:0:0:0:
160,171,149310,1,8,0:0:0:0:
157,173,149368,1,8,0:0:0:0:
157,173,149426,1,8,0:0:0:0:
157,173,149541,1,0,0:0:0:0:
158,173,149657,1,8,0:0:0:0:
156,178,150233,1,8,0:0:0:0:
159,179,150464,1,8,0:0:0:0:
157,173,150580,1,0,0:0:0:0:
158,173,150637,1,0,0:0:0:0:
158,173,150695,1,0,0:0:0:0:
156,178,150810,1,8,0:0:0:0:
156,178,150926,1,0,0:0:0:0:
156,178,151157,1,8,0:0:0:0:
159,179,151387,1,0,0:0:0:0:
159,179,151503,1,0,0:0:0:0:
157,173,151618,1,8,0:0:0:0:
158,173,151733,1,0,0:0:0:0:
156,178,151849,1,8,0:0:0:0:
156,178,152080,1,8,0:0:0:0:
158,173,152310,1,8,0:0:0:0:
158,173,152426,1,8,0:0:0:0:
158,173,152657,1,8,0:0:0:0:
158,173,152772,1,8,0:0:0:0:
156,178,153003,1,0,0:0:0:0:
156,178,153118,1,8,0:0:0:0:
158,173,153233,1,0,0:0:0:0:
158,173,153349,1,0,0:0:0:0:
158,173,153464,1,8,0:0:0:0:
241,201,153926,1,4,0:0:0:0:
157,179,154157,1,8,0:0:0:0:
155,178,154272,1,4,0:0:0:0:
150,171,154503,1,8,0:0:0:0:
157,179,154618,1,4,0:0:0:0:
149,184,154849,1,0,0:0:0:0:
149,183,154907,1,0,0:0:0:0:
148,182,154964,1,0,0:0:0:0:
147,182,155080,1,8,0:0:0:0:
145,180,155195,1,0,0:0:0:0:
144,177,155310,1,8,0:0:0:0:
163,174,155541,1,0,0:0:0:0:
149,176,155772,1,12,0:0:0:0:
146,172,157387,1,0,0:0:0:0:
131,177,157445,1,0,0:0:0:0:
131,177,157503,1,0,0:0:0:0:
146,172,157618,1,12,0:0:0:0:
146,172,158080,1,0,0:0:0:0:
143,178,158426,1,12,0:0:0:0:
146,172,158657,1,0,0:0:0:0:
146,172,158772,1,0,0:0:0:0:
146,172,158887,1,8,0:0:0:0:
146,172,159003,1,0,0:0:0:0:
146,172,159118,1,8,0:0:0:0:
139,167,159233,1,0,0:0:0:0:
124,161,159464,1,12,0:0:0:0:
137,179,159695,1,0,0:0:0:0:
137,180,159810,1,8,0:0:0:0:
136,179,159926,1,0,0:0:0:0:
138,174,160157,1,0,0:0:0:0:
149,175,160272,1,8,0:0:0:0:
145,170,160503,1,8,0:0:0:0:
145,170,160618,1,8,0:0:0:0:
145,170,160733,1,0,0:0:0:0:
145,170,160849,1,8,0:0:0:0:
138,174,161080,1,8,0:0:0:0:
149,175,161310,1,0,0:0:0:0:
145,170,161541,1,0,0:0:0:0:
145,170,161657,1,8,0:0:0:0:
145,170,161772,1,0,0:0:0:0:
147,171,162003,1,0,0:0:0:0:
146,171,162118,1,8,0:0:0:0:
145,170,162580,1,8,0:0:0:0:
145,170,162695,1,0,0:0:0:0:
145,170,162810,1,8,0:0:0:0:
147,171,162926,1,8,0:0:0:0:
147,171,163041,1,0,0:0:0:0:
159,160,163157,1,0,0:0:0:0:
160,162,163387,1,0,0:0:0:0:
160,162,163503,1,8,0:0:0:0:
158,162,163618,1,0,0:0:0:0:
158,162,163849,1,0,0:0:0:0:
158,162,163964,1,8,0:0:0:0:
159,160,164195,1,8,0:0:0:0:
160,162,164310,1,0,0:0:0:0:
160,162,164426,1,8,0:0:0:0:
158,162,164541,1,0,0:0:0:0:
158,162,164772,1,8,0:0:0:0:
158,162,165003,1,0,0:0:0:0:
159,160,165233,1,0,0:0:0:0:
160,162,165349,1,8,0:0:0:0:
160,162,165464,1,0,0:0:0:0:
158,162,165695,1,0,0:0:0:0:
158,162,165810,1,8,0:0:0:0:
256,192,166157,12,0,166618,0:0:0:0:
170,163,166849,5,12,0:0:0:0:
170,163,167195,1,0,0:0:0:0:
170,163,167310,1,8,0:0:0:0:
177,170,167657,1,0,0:0:0:0:
177,171,167887,1,0,0:0:0:0:
177,171,168118,1,0,0:0:0:0:
177,171,168233,1,8,0:0:0:0:
189,168,168695,1,0,0:0:0:0:
187,170,169041,1,0,0:0:0:0:
186,172,169157,1,8,0:0:0:0:
189,168,169503,1,0,0:0:0:0:
187,170,169733,1,8,0:0:0:0:
187,170,169964,1,0,0:0:0:0:
186,172,170080,1,8,0:0:0:0:
189,168,170310,1,8,0:0:0:0:
189,168,170541,1,0,0:0:0:0:
177,162,170887,1,0,0:0:0:0:
178,162,171003,1,8,0:0:0:0:
178,162,171349,1,8,0:0:0:0:
176,152,171580,1,0,0:0:0:0:
176,152,171810,1,0,0:0:0:0:
176,152,171926,1,8,0:0:0:0:
176,152,172387,1,0,0:0:0:0:
182,152,172733,1,0,0:0:0:0:
182,152,172849,1,8,0:0:0:0:
183,152,173195,1,8,0:0:0:0:
176,152,173426,1,8,0:0:0:0:
171,151,173541,1,0,0:0:0:0:
182,152,173772,1,8,0:0:0:0:
182,152,173887,1,8,0:0:0:0:
182,152,174003,1,0,0:0:0:0:
176,147,174233,1,12,0:0:0:0:
171,151,174580,1,0,0:0:0:0:
182,152,174695,1,8,0:0:0:0:
176,147,175041,1,8,0:0:0:0:
176,152,175272,1,0,0:0:0:0:
176,152,175503,1,0,0:0:0:0:
180,152,175618,1,8,0:0:0:0:
176,147,176080,1,0,0:0:0:0:
176,152,176426,1,0,0:0:0:0:
176,152,176541,1,8,0:0:0:0:
176,147,176887,1,8,0:0:0:0:
176,152,177118,1,0,0:0:0:0:
176,152,177349,1,0,0:0:0:0:
176,152,177464,1,8,0:0:0:0:
176,147,177695,1,8,0:0:0:0:
176,147,177926,1,0,0:0:0:0:
169,141,178272,1,0,0:0:0:0:
167,143,178387,1,8,0:0:0:0:
165,149,178733,1,8,0:0:0:0:
166,150,178964,1,0,0:0:0:0:
166,151,179195,1,0,0:0:0:0:
169,150,179310,1,8,0:0:0:0:
165,149,179772,1,12,0:0:0:0:
174,147,180003,1,8,0:0:0:0:
166,151,180118,1,0,0:0:0:0:
169,150,180349,1,0,0:0:0:0:
165,149,180464,1,8,0:0:0:0:
165,149,180580,1,0,0:0:0:0:
165,149,180695,1,8,0:0:0:0:
151,149,181041,1,8,0:0:0:0:
151,149,181099,1,8,0:0:0:0:
151,149,181157,1,8,0:0:0:0:
151,149,181272,1,8,0:0:0:0:
151,149,181387,1,0,0:0:0:0:
150,149,181618,1,12,0:0:0:0:
150,149,182310,1,0,0:0:0:0:
151,149,182541,1,8,0:0:0:0:
151,149,182887,1,8,0:0:0:0:
151,149,183233,1,0,0:0:0:0:
150,149,183464,1,8,0:0:0:0:
138,152,184387,1,0,0:0:0:0:
132,145,185080,1,0,0:0:0:0:
138,152,185195,1,0,0:0:0:0:
138,152,185310,1,12,0:0:0:0:
139,156,185657,1,0,0:0:0:0:
139,153,185772,1,0,0:0:0:0:
137,154,186233,1,8,0:0:0:0:
139,156,186580,1,0,0:0:0:0:
139,153,186926,1,8,0:0:0:0:
137,154,187157,1,0,0:0:0:0:
129,157,187618,1,0,0:0:0:0:
129,157,188080,1,8,0:0:0:0:
129,157,188541,1,8,0:0:0:0:
129,157,188772,1,0,0:0:0:0:
129,157,188887,1,0,0:0:0:0:
129,157,189003,1,12,0:0:0:0:
122,160,189695,1,0,0:0:0:0:
155,161,189926,1,8,0:0:0:0:
134,166,190272,1,8,0:0:0:0:
132,167,190618,1,0,0:0:0:0:
138,163,190849,1,8,0:0:0:0:
141,169,191772,1,0,0:0:0:0:
134,166,192233,1,8,0:0:0:0:
141,169,192464,1,0,0:0:0:0:
141,169,192580,1,0,0:0:0:0:
141,169,192695,1,12,0:0:0:0:
206,170,193387,1,0,0:0:0:0:
206,170,193618,1,8,0:0:0:0:
206,170,193964,1,0,0:0:0:0:
206,170,194310,1,0,0:0:0:0:
206,170,194541,1,12,0:0:0:0:
206,170,195003,1,12,0:0:0:0:
206,170,195464,1,0,0:0:0:0:
206,170,195580,1,8,0:0:0:0:
206,170,195695,1,0,0:0:0:0:
206,170,195810,1,0,0:0:0:0:
206,170,195926,1,8,0:0:0:0:
206,170,196157,1,0,0:0:0:0:
206,170,196387,1,12,0:0:0:0:
245,181,199618,1,8,0:0:0:0:
245,181,199676,1,8,0:0:0:0:
245,181,199733,1,8,0:0:0:0:
245,181,199849,1,0,0:0:0:0:
245,181,199964,1,0,0:0:0:0:
245,181,200080,1,12,0:0:0:0:
236,180,200310,1,4,0:0:0:0:
236,180,200541,1,12,0:0:0:0:
236,180,200772,1,4,0:0:0:0:
236,180,201003,1,12,0:0:0:0:
236,180,201233,1,0,0:0:0:0:
236,180,201349,1,0,0:0:0:0:
236,180,201464,1,8,0:0:0:0:
236,180,201695,1,0,0:0:0:0:
189,183,201926,1,12,0:0:0:0:
182,181,202157,1,0,0:0:0:0:
182,181,202272,1,8,0:0:0:0:
181,181,202387,1,0,0:0:0:0:
181,181,202503,1,0,0:0:0:0:
181,181,202618,1,8,0:0:0:0:
170,175,202849,1,8,0:0:0:0:
170,175,203080,1,8,0:0:0:0:
170,175,203195,1,8,0:0:0:0:
170,176,203310,1,0,0:0:0:0:
170,176,203541,1,0,0:0:0:0:
178,174,203772,1,12,0:0:0:0:
183,179,204003,1,0,0:0:0:0:
183,179,204118,1,0,0:0:0:0:
183,179,204233,1,8,0:0:0:0:
188,179,204464,1,0,0:0:0:0:
188,179,204695,1,8,0:0:0:0:
188,179,204753,1,8,0:0:0:0:
188,179,204810,1,8,0:0:0:0:
183,179,204926,1,0,0:0:0:0:
183,179,205041,1,8,0:0:0:0:
181,170,205618,1,8,0:0:0:0:
183,179,205849,1,8,0:0:0:0:
183,179,205964,1,0,0:0:0:0:
183,179,206022,1,0,0:0:0:0:
183,179,206080,1,0,0:0:0:0:
185,173,206195,1,8,0:0:0:0:
185,173,206310,1,0,0:0:0:0:
181,170,206541,1,8,0:0:0:0:
185,173,207118,1,0,0:0:0:0:
166,170,207176,1,0,0:0:0:0:
166,170,207233,1,0,0:0:0:0:
186,179,207464,1,12,0:0:0:0:
181,167,207695,1,0,0:0:0:0:
181,167,207810,1,8,0:0:0:0:
181,167,207926,1,0,0:0:0:0:
181,167,208041,1,0,0:0:0:0:
185,173,208157,1,8,0:0:0:0:
169,169,208387,1,0,0:0:0:0:
170,170,208618,1,8,0:0:0:0:
170,170,208733,1,0,0:0:0:0:
169,170,208791,1,0,0:0:0:0:
169,170,208849,1,0,0:0:0:0:
169,169,208964,1,0,0:0:0:0:
169,169,209080,1,8,0:0:0:0:
169,169,209310,1,12,0:0:0:0:
177,169,209657,1,12,0:0:0:0:
176,169,210003,1,12,0:0:0:0:
169,169,210233,1,4,0:0:0:0:
177,169,210464,1,0,0:0:0:0:
177,169,210522,1,0,0:0:0:0:
177,169,210580,1,0,0:0:0:0:
171,159,210695,1,0,0:0:0:0:
183,170,210926,1,0,0:0:0:0:
142,154,211157,1,12,0:0:0:0:
166,168,211387,1,0,0:0:0:0:
164,168,211503,1,0,0:0:0:0:
161,170,211618,1,8,0:0:0:0:
160,171,211849,1,0,0:0:0:0:
160,171,212080,1,8,0:0:0:0:
157,173,212137,1,8,0:0:0:0:
157,173,212195,1,8,0:0:0:0:
157,173,212310,1,0,0:0:0:0:
158,173,212426,1,8,0:0:0:0:
156,178,213003,1,8,0:0:0:0:
159,179,213233,1,8,0:0:0:0:
157,173,213349,1,0,0:0:0:0:
158,173,213407,1,0,0:0:0:0:
158,173,213464,1,0,0:0:0:0:
156,178,213580,1,8,0:0:0:0:
156,178,213695,1,0,0:0:0:0:
156,178,213926,1,8,0:0:0:0:
159,179,214157,1,0,0:0:0:0:
159,179,214272,1,0,0:0:0:0:
157,173,214387,1,8,0:0:0:0:
158,173,214503,1,0,0:0:0:0:
156,178,214618,1,8,0:0:0:0:
156,178,214849,1,8,0:0:0:0:
159,179,215080,1,8,0:0:0:0:
159,179,215195,1,8,0:0:0:0:
163,181,215426,1,8,0:0:0:0:
163,181,215541,1,8,0:0:0:0:
146,167,215772,1,0,0:0:0:0:
146,167,215887,1,8,0:0:0:0:
146,167,216003,1,0,0:0:0:0:
150,171,216118,1,0,0:0:0:0:
150,171,216233,1,8,0:0:0:0:
241,201,216695,1,4,0:0:0:0:
229,198,216926,1,0,0:0:0:0:
229,198,217041,1,8,0:0:0:0:
230,199,217503,1,8,0:0:0:0:
231,199,217733,1,0,0:0:0:0:
229,198,217964,1,8,0:0:0:0:
229,198,218195,1,8,0:0:0:0:
229,198,218310,1,0,0:0:0:0:
234,206,218426,1,0,0:0:0:0:
230,199,218541,1,0,0:0:0:0:
231,199,218772,1,0,0:0:0:0:
229,198,218887,1,8,0:0:0:0:
229,198,219349,1,8,0:0:0:0:
227,200,219580,1,0,0:0:0:0:
231,199,219810,1,8,0:0:0:0:
227,200,220041,1,0,0:0:0:0:
227,200,220157,1,8,0:0:0:0:
229,198,220272,1,8,0:0:0:0:
230,199,220387,1,0,0:0:0:0:
227,200,220618,1,0,0:0:0:0:
231,199,220733,1,8,0:0:0:0:
227,200,221195,1,8,0:0:0:0:
230,199,221426,1,0,0:0:0:0:
239,205,221657,1,0,0:0:0:0:
239,205,221714,1,0,0:0:0:0:
239,205,221772,1,0,0:0:0:0:
234,202,221887,1,8,0:0:0:0:
234,202,222003,1,0,0:0:0:0:
239,203,222233,1,0,0:0:0:0:
239,203,222349,1,0,0:0:0:0:
239,203,222464,1,0,0:0:0:0:
239,205,222580,1,8,0:0:0:0:
239,210,222810,1,0,0:0:0:0:
239,210,222926,1,8,0:0:0:0:
240,210,223157,1,0,0:0:0:0:
240,210,223272,1,8,0:0:0:0:
240,210,223387,1,8,0:0:0:0:
239,205,223618,1,0,0:0:0:0:
240,210,224080,1,4,0:0:0:0:
233,207,224310,1,0,0:0:0:0:
231,209,224426,1,8,0:0:0:0:
230,210,224887,1,8,0:0:0:0:
230,210,225118,1,0,0:0:0:0:
233,207,225349,1,8,0:0:0:0:
230,210,225580,1,8,0:0:0:0:
230,210,225695,1,0,0:0:0:0:
231,209,225810,1,0,0:0:0:0:
230,210,225926,1,0,0:0:0:0:
230,210,226157,1,0,0:0:0:0:
224,209,226272,1,8,0:0:0:0:
230,210,226733,1,8,0:0:0:0:
230,210,226964,1,0,0:0:0:0:
230,210,227195,1,8,0:0:0:0:
230,210,227426,1,0,0:0:0:0:
230,210,227541,1,8,0:0:0:0:
224,209,227657,1,8,0:0:0:0:
230,210,227772,1,0,0:0:0:0:
227,203,228003,1,0,0:0:0:0:
227,203,228118,1,8,0:0:0:0:
218,206,228349,1,0,0:0:0:0:
218,206,228407,1,0,0:0:0:0:
218,206,228464,1,0,0:0:0:0:
218,206,228580,1,8,0:0:0:0:
216,204,228810,1,0,0:0:0:0:
214,204,229041,1,8,0:0:0:0:
213,204,229099,1,8,0:0:0:0:
213,204,229157,1,8,0:0:0:0:
218,206,229272,1,0,0:0:0:0:
218,206,229387,1,8,0:0:0:0:
218,206,229618,1,0,0:0:0:0:
221,207,230080,1,0,0:0:0:0:
218,206,230541,1,8,0:0:0:0:
218,206,230599,1,8,0:0:0:0:
218,206,230657,1,8,0:0:0:0:
221,207,230772,1,0,0:0:0:0:
221,207,230887,1,0,0:0:0:0:
221,207,231003,1,8,0:0:0:0:
211,209,231464,1,12,0:0:0:0:
211,217,231810,1,0,0:0:0:0:
211,216,231926,1,0,0:0:0:0:
211,216,232041,1,8,0:0:0:0:
204,217,232157,1,8,0:0:0:0:
204,217,232272,1,0,0:0:0:0:
203,216,232387,1,8,0:0:0:0:
203,216,232733,1,8,0:0:0:0:
203,216,232849,1,8,0:0:0:0:
204,217,232964,1,0,0:0:0:0:
204,217,233022,1,0,0:0:0:0:
204,217,233080,1,0,0:0:0:0:
204,217,233310,1,4,0:0:0:0:
203,216,233541,1,0,0:0:0:0:
203,216,233772,1,0,0:0:0:0:
204,217,234003,1,0,0:0:0:0:
204,217,234233,1,0,0:0:0:0:
203,216,234387,1,0,0:0:0:0:
203,216,234541,1,0,0:0:0:0:
203,216,234695,1,0,0:0:0:0:
