osu file format v14

[General]
AudioFilename: audio.mp3
AudioLeadIn: 0
PreviewTime: 91099
Countdown: 1
SampleSet: Normal
StackLeniency: 0.2
Mode: 1
LetterboxInBreaks: 0
WidescreenStoryboard: 1

[Editor]
Bookmarks: 19157,20998,37613,52382,59769,74538,91152,104075,111459,126228,140998,155767,166844,181613,196382,203767,216690,234690
DistanceSpacing: 2.5
BeatDivisor: 4
GridSize: 32
TimelineZoom: 1.4

[Metadata]
Title:Under the scarlet sky pt. 3
TitleUnicode:Under the scarlet sky pt. 3
Artist:UNDEAD CORPORATION
ArtistUnicode:UNDEAD CORPORATION
Creator:Hivie
Version:Futsuu
Source:東方紅魔郷 ~ the Embodiment of Scarlet Devil.
Tags:metal english featured artist fa osu! mappers' guild mpg Idealism project touhou comiket 79 rumia ルーミア remilia 極鉄 gokutetsu th6 c79 ほおずきみたいに紅 銀ーsilverー
BeatmapID:2662423
BeatmapSetID:1275058

[Difficulty]
HPDrainRate:7
CircleSize:2
OverallDifficulty:4
ApproachRate:9
SliderMultiplier:1.4
SliderTickRate:1

[Events]
//Background and Video events
0,0,"bg.jpg",0,80
//Break Periods
//Storyboard Layer 0 (Background)
//Storyboard Layer 1 (Fail)
//Storyboard Layer 2 (Pass)
//Storyboard Layer 3 (Foreground)
//Storyboard Layer 4 (Overlay)
//Storyboard Sound Samples

[TimingPoints]
1743,625,4,1,0,30,1,0
19157,230.769230769231,4,1,0,100,1,0
19157,-142.857142857143,4,1,0,100,0,0
91157,-142.857142857143,4,1,0,100,0,1
104080,-142.857142857143,4,1,0,100,0,0
104134,-142.857142857143,4,1,0,100,0,0
141003,-142.857142857143,4,1,0,100,0,1
155772,-142.857142857143,4,1,0,100,0,0
156000,-142.857142857143,4,1,0,100,0,0
203772,-142.857142857143,4,1,0,100,0,1
216695,-142.857142857143,4,1,0,100,0,0
216750,-142.857142857143,4,1,0,100,0,0

[HitObjects]
256,192,1743,5,0,0:0:0:0:
256,192,2993,1,0,0:0:0:0:
256,192,4243,1,8,0:0:0:0:
256,192,4711,1,8,0:0:0:0:
256,192,5493,1,8,0:0:0:0:
256,192,6743,1,0,0:0:0:0:
256,192,7680,1,0,0:0:0:0:
256,192,8618,1,0,0:0:0:0:
256,192,9243,1,8,0:0:0:0:
256,192,9868,1,8,0:0:0:0:
256,192,10493,1,0,0:0:0:0:
256,192,11743,1,8,0:0:0:0:
256,192,12993,1,0,0:0:0:0:
256,192,14243,1,8,0:0:0:0:
256,192,14711,1,8,0:0:0:0:
256,192,15493,1,8,0:0:0:0:
256,192,16743,1,0,0:0:0:0:
256,192,17680,1,8,0:0:0:0:
256,192,18305,1,0,0:0:0:0:
256,192,19157,1,8,0:0:0:0:
256,192,19618,1,0,0:0:0:0:
256,192,19849,1,8,0:0:0:0:
256,192,20195,1,0,0:0:0:0:
256,192,20541,1,12,0:0:0:0:
256,192,21003,1,4,0:0:0:0:
256,192,21349,1,8,0:0:0:0:
256,192,21810,1,8,0:0:0:0:
256,192,22272,1,8,0:0:0:0:
256,192,22503,1,8,0:0:0:0:
256,192,22618,1,0,0:0:0:0:
256,192,22849,1,0,0:0:0:0:
256,192,23195,1,8,0:0:0:0:
256,192,23657,1,8,0:0:0:0:
256,192,24118,1,8,0:0:0:0:
256,192,24349,1,0,0:0:0:0:
256,192,24464,1,8,0:0:0:0:
256,192,24695,1,0,0:0:0:0:
256,192,25041,1,8,0:0:0:0:
256,192,25503,1,8,0:0:0:0:
256,192,25964,1,0,0:0:0:0:
256,192,26310,1,8,0:0:0:0:
256,192,26541,1,0,0:0:0:0:
256,192,26772,1,0,0:0:0:0:
256,192,26887,1,8,0:0:0:0:
256,192,27233,1,0,0:0:0:0:
256,192,27464,1,8,0:0:0:0:
256,192,27695,1,8,0:0:0:0:
256,192,27926,1,0,0:0:0:0:
256,192,28387,1,4,0:0:0:0:
256,192,28733,1,8,0:0:0:0:
256,192,29195,1,8,0:0:0:0:
256,192,29657,1,8,0:0:0:0:
256,192,29887,1,8,0:0:0:0:
256,192,30003,1,0,0:0:0:0:
256,192,30233,1,0,0:0:0:0:
256,192,30580,1,8,0:0:0:0:
256,192,31041,1,8,0:0:0:0:
256,192,31503,1,8,0:0:0:0:
256,192,31733,1,0,0:0:0:0:
256,192,31849,1,8,0:0:0:0:
256,192,32080,1,0,0:0:0:0:
256,192,32426,1,8,0:0:0:0:
256,192,32657,1,0,0:0:0:0:
256,192,32887,1,8,0:0:0:0:
256,192,33118,1,0,0:0:0:0:
256,192,33349,1,8,0:0:0:0:
256,192,33464,1,8,0:0:0:0:
256,192,33580,1,0,0:0:0:0:
256,192,33926,1,0,0:0:0:0:
256,192,34387,1,0,0:0:0:0:
256,192,34849,1,8,0:0:0:0:
256,192,35080,1,0,0:0:0:0:
256,192,35310,1,8,0:0:0:0:
256,192,35772,1,12,0:0:0:0:
256,192,36233,1,0,0:0:0:0:
256,192,36464,1,8,0:0:0:0:
256,192,36695,1,8,0:0:0:0:
256,192,36926,1,0,0:0:0:0:
256,192,37157,1,8,0:0:0:0:
256,192,37618,1,4,0:0:0:0:
256,192,38080,1,0,0:0:0:0:
256,192,38310,1,8,0:0:0:0:
256,192,38541,1,0,0:0:0:0:
256,192,38657,1,8,0:0:0:0:
256,192,39003,1,0,0:0:0:0:
256,192,39233,1,0,0:0:0:0:
256,192,39464,1,8,0:0:0:0:
256,192,39926,1,8,0:0:0:0:
256,192,40387,1,0,0:0:0:0:
256,192,40503,1,8,0:0:0:0:
256,192,40733,1,0,0:0:0:0:
256,192,40964,1,8,0:0:0:0:
256,192,41310,1,8,0:0:0:0:
256,192,41772,1,0,0:0:0:0:
256,192,42233,1,8,0:0:0:0:
256,192,42349,1,0,0:0:0:0:
256,192,42580,1,8,0:0:0:0:
256,192,42810,1,8,0:0:0:0:
256,192,43157,1,0,0:0:0:0:
256,192,43618,1,0,0:0:0:0:
256,192,43849,1,0,0:0:0:0:
256,192,44080,1,8,0:0:0:0:
256,192,44541,1,8,0:0:0:0:
256,192,44772,1,8,0:0:0:0:
256,192,45003,1,4,0:0:0:0:
256,192,45464,1,0,0:0:0:0:
256,192,45695,1,8,0:0:0:0:
256,192,45926,1,0,0:0:0:0:
256,192,46041,1,8,0:0:0:0:
256,192,46387,1,0,0:0:0:0:
256,192,46618,1,0,0:0:0:0:
256,192,46849,1,8,0:0:0:0:
256,192,47310,1,8,0:0:0:0:
256,192,47772,1,0,0:0:0:0:
256,192,47887,1,8,0:0:0:0:
256,192,48118,1,0,0:0:0:0:
256,192,48349,1,8,0:0:0:0:
256,192,48695,1,8,0:0:0:0:
256,192,49157,1,0,0:0:0:0:
256,192,49618,1,8,0:0:0:0:
256,192,49733,1,0,0:0:0:0:
256,192,49964,1,8,0:0:0:0:
256,192,50195,1,8,0:0:0:0:
256,192,50541,1,0,0:0:0:0:
256,192,51003,1,0,0:0:0:0:
256,192,51233,1,0,0:0:0:0:
256,192,51464,1,8,0:0:0:0:
256,192,51926,1,8,0:0:0:0:
256,192,52387,1,4,0:0:0:0:
256,192,52733,1,8,0:0:0:0:
256,192,53195,1,8,0:0:0:0:
256,192,53657,1,8,0:0:0:0:
256,192,53887,1,8,0:0:0:0:
256,192,54003,1,0,0:0:0:0:
256,192,54233,1,0,0:0:0:0:
256,192,54580,1,8,0:0:0:0:
256,192,55041,1,8,0:0:0:0:
256,192,55503,1,8,0:0:0:0:
256,192,55733,1,0,0:0:0:0:
256,192,55849,1,8,0:0:0:0:
256,192,56080,1,0,0:0:0:0:
256,192,56426,1,8,0:0:0:0:
256,192,56887,1,8,0:0:0:0:
256,192,57349,1,0,0:0:0:0:
256,192,57695,1,8,0:0:0:0:
256,192,57926,1,0,0:0:0:0:
256,192,58157,1,0,0:0:0:0:
256,192,58272,1,8,0:0:0:0:
256,192,58618,1,0,0:0:0:0:
256,192,58849,1,8,0:0:0:0:
256,192,59080,1,8,0:0:0:0:
256,192,59310,1,0,0:0:0:0:
256,192,59772,1,4,0:0:0:0:
256,192,60233,1,0,0:0:0:0:
256,192,60464,1,8,0:0:0:0:
256,192,60695,1,0,0:0:0:0:
256,192,60810,1,8,0:0:0:0:
256,192,61157,1,0,0:0:0:0:
256,192,61387,1,0,0:0:0:0:
256,192,61618,1,8,0:0:0:0:
256,192,62080,1,8,0:0:0:0:
256,192,62541,1,0,0:0:0:0:
256,192,62657,1,8,0:0:0:0:
256,192,62887,1,8,0:0:0:0:
256,192,63118,1,0,0:0:0:0:
256,192,63464,1,8,0:0:0:0:
256,192,63926,1,0,0:0:0:0:
256,192,64387,1,0,0:0:0:0:
256,192,64503,1,8,0:0:0:0:
256,192,64733,1,8,0:0:0:0:
256,192,64964,1,8,0:0:0:0:
256,192,65310,1,0,0:0:0:0:
256,192,65541,1,8,0:0:0:0:
256,192,65772,1,0,0:0:0:0:
256,192,66003,1,0,0:0:0:0:
256,192,66233,1,8,0:0:0:0:
256,192,66695,1,0,0:0:0:0:
256,192,66926,1,8,0:0:0:0:
256,192,67157,1,4,0:0:0:0:
256,192,67618,1,0,0:0:0:0:
256,192,67849,1,8,0:0:0:0:
256,192,68080,1,0,0:0:0:0:
256,192,68195,1,8,0:0:0:0:
256,192,68541,1,0,0:0:0:0:
256,192,68772,1,0,0:0:0:0:
256,192,69003,1,8,0:0:0:0:
256,192,69464,1,8,0:0:0:0:
256,192,69926,1,8,0:0:0:0:
256,192,70041,1,0,0:0:0:0:
256,192,70272,1,0,0:0:0:0:
256,192,70503,1,8,0:0:0:0:
256,192,70849,1,8,0:0:0:0:
256,192,71310,1,0,0:0:0:0:
256,192,71772,1,8,0:0:0:0:
256,192,71887,1,0,0:0:0:0:
256,192,72118,1,8,0:0:0:0:
256,192,72349,1,8,0:0:0:0:
256,192,72695,1,0,0:0:0:0:
256,192,73157,1,0,0:0:0:0:
256,192,73387,1,0,0:0:0:0:
256,192,73618,1,8,0:0:0:0:
256,192,74080,1,8,0:0:0:0:
256,192,74541,1,4,0:0:0:0:
256,192,75003,1,0,0:0:0:0:
256,192,75464,1,8,0:0:0:0:
256,192,75926,1,0,0:0:0:0:
256,192,76157,1,8,0:0:0:0:
256,192,76387,1,0,0:0:0:0:
256,192,76849,1,0,0:0:0:0:
256,192,77310,1,0,0:0:0:0:
256,192,77772,1,8,0:0:0:0:
256,192,78003,1,0,0:0:0:0:
256,192,78233,1,8,0:0:0:0:
256,192,78695,1,0,0:0:0:0:
256,192,79157,1,0,0:0:0:0:
256,192,79618,1,0,0:0:0:0:
256,192,79849,1,8,0:0:0:0:
256,192,80080,1,8,0:0:0:0:
256,192,80541,1,8,0:0:0:0:
256,192,80772,1,0,0:0:0:0:
256,192,81003,1,8,0:0:0:0:
256,192,81233,1,0,0:0:0:0:
256,192,81349,1,0,0:0:0:0:
256,192,81464,1,8,0:0:0:0:
256,192,81810,1,8,0:0:0:0:
256,192,82387,1,0,0:0:0:0:
256,192,82849,1,8,0:0:0:0:
256,192,83310,1,0,0:0:0:0:
256,192,83541,1,8,0:0:0:0:
256,192,83657,1,0,0:0:0:0:
256,192,84233,1,0,0:0:0:0:
256,192,84695,1,8,0:0:0:0:
256,192,85157,1,0,0:0:0:0:
256,192,85387,1,0,0:0:0:0:
256,192,85503,1,8,0:0:0:0:
256,192,86080,1,8,0:0:0:0:
256,192,86541,1,0,0:0:0:0:
256,192,87003,1,0,0:0:0:0:
256,192,87233,1,8,0:0:0:0:
256,192,87349,1,8,0:0:0:0:
256,192,88387,1,8,0:0:0:0:
256,192,88618,1,0,0:0:0:0:
256,192,88849,1,8,0:0:0:0:
256,192,89080,1,0,0:0:0:0:
256,192,89310,1,12,0:0:0:0:
256,192,89772,1,0,0:0:0:0:
256,192,90003,1,0,0:0:0:0:
256,192,90233,1,8,0:0:0:0:
256,192,90464,1,8,0:0:0:0:
256,192,90695,1,0,0:0:0:0:
256,192,91157,1,12,0:0:0:0:
256,192,91618,1,8,0:0:0:0:
256,192,92080,1,8,0:0:0:0:
256,192,92310,1,0,0:0:0:0:
256,192,92426,1,8,0:0:0:0:
256,192,93003,1,8,0:0:0:0:
256,192,93233,1,8,0:0:0:0:
256,192,93349,1,0,0:0:0:0:
256,192,93580,1,0,0:0:0:0:
256,192,93926,1,8,0:0:0:0:
256,192,94387,1,0,0:0:0:0:
256,192,94618,1,0,0:0:0:0:
256,192,94849,1,8,0:0:0:0:
256,192,95310,1,0,0:0:0:0:
256,192,95541,1,8,0:0:0:0:
256,192,95772,1,0,0:0:0:0:
256,192,96003,1,8,0:0:0:0:
256,192,96233,1,8,0:0:0:0:
256,192,96464,1,0,0:0:0:0:
256,192,96695,1,8,0:0:0:0:
256,192,97041,1,8,0:0:0:0:
256,192,97387,1,8,0:0:0:0:
256,192,97618,1,0,0:0:0:0:
256,192,98080,1,8,0:0:0:0:
256,192,98310,1,0,0:0:0:0:
256,192,98541,1,12,0:0:0:0:
256,192,99003,1,8,0:0:0:0:
256,192,99464,1,0,0:0:0:0:
256,192,99695,1,0,0:0:0:0:
256,192,99810,1,8,0:0:0:0:
256,192,100387,1,8,0:0:0:0:
256,192,100618,1,8,0:0:0:0:
256,192,100733,1,0,0:0:0:0:
256,192,101080,1,0,0:0:0:0:
256,192,101310,1,8,0:0:0:0:
256,192,101772,1,0,0:0:0:0:
256,192,102003,1,0,0:0:0:0:
256,192,102233,1,8,0:0:0:0:
256,192,102695,1,0,0:0:0:0:
256,192,102926,1,8,0:0:0:0:
256,192,103157,1,0,0:0:0:0:
256,192,103387,1,0,0:0:0:0:
256,192,103618,1,8,0:0:0:0:
256,192,104080,1,4,0:0:0:0:
256,192,104426,1,8,0:0:0:0:
256,192,104887,1,8,0:0:0:0:
256,192,105349,1,8,0:0:0:0:
256,192,105580,1,8,0:0:0:0:
256,192,105695,1,0,0:0:0:0:
256,192,105926,1,0,0:0:0:0:
256,192,106272,1,8,0:0:0:0:
256,192,106733,1,8,0:0:0:0:
256,192,107195,1,8,0:0:0:0:
256,192,107426,1,0,0:0:0:0:
256,192,107541,1,8,0:0:0:0:
256,192,107772,1,0,0:0:0:0:
256,192,108118,1,8,0:0:0:0:
256,192,108580,1,8,0:0:0:0:
256,192,109041,1,0,0:0:0:0:
256,192,109387,1,8,0:0:0:0:
256,192,109618,1,0,0:0:0:0:
256,192,109849,1,0,0:0:0:0:
256,192,109964,1,8,0:0:0:0:
256,192,110310,1,0,0:0:0:0:
256,192,110541,1,8,0:0:0:0:
256,192,110772,1,8,0:0:0:0:
256,192,111003,1,0,0:0:0:0:
256,192,111464,1,4,0:0:0:0:
256,192,111926,1,0,0:0:0:0:
256,192,112157,1,8,0:0:0:0:
256,192,112387,1,0,0:0:0:0:
256,192,112503,1,8,0:0:0:0:
256,192,112849,1,0,0:0:0:0:
256,192,113080,1,0,0:0:0:0:
256,192,113310,1,8,0:0:0:0:
256,192,113772,1,8,0:0:0:0:
256,192,114233,1,0,0:0:0:0:
256,192,114349,1,8,0:0:0:0:
256,192,114580,1,8,0:0:0:0:
256,192,114810,1,0,0:0:0:0:
256,192,115157,1,8,0:0:0:0:
256,192,115618,1,0,0:0:0:0:
256,192,116080,1,0,0:0:0:0:
256,192,116195,1,8,0:0:0:0:
256,192,116426,1,8,0:0:0:0:
256,192,116657,1,8,0:0:0:0:
256,192,117003,1,0,0:0:0:0:
256,192,117464,1,0,0:0:0:0:
256,192,117695,1,0,0:0:0:0:
256,192,117926,1,8,0:0:0:0:
256,192,118387,1,8,0:0:0:0:
256,192,118618,1,8,0:0:0:0:
256,192,118849,1,4,0:0:0:0:
256,192,119310,1,0,0:0:0:0:
256,192,119541,1,8,0:0:0:0:
256,192,119772,1,0,0:0:0:0:
256,192,119887,1,8,0:0:0:0:
256,192,120233,1,0,0:0:0:0:
256,192,120464,1,0,0:0:0:0:
256,192,120695,1,8,0:0:0:0:
256,192,121157,1,8,0:0:0:0:
256,192,121618,1,8,0:0:0:0:
256,192,121733,1,0,0:0:0:0:
256,192,121964,1,0,0:0:0:0:
256,192,122195,1,8,0:0:0:0:
256,192,122541,1,8,0:0:0:0:
256,192,123003,1,0,0:0:0:0:
256,192,123464,1,8,0:0:0:0:
256,192,123580,1,0,0:0:0:0:
256,192,123810,1,8,0:0:0:0:
256,192,124041,1,8,0:0:0:0:
256,192,124387,1,0,0:0:0:0:
256,192,124849,1,0,0:0:0:0:
256,192,125080,1,0,0:0:0:0:
256,192,125310,1,8,0:0:0:0:
256,192,125772,1,8,0:0:0:0:
256,192,126233,1,4,0:0:0:0:
256,192,126695,1,0,0:0:0:0:
256,192,127157,1,8,0:0:0:0:
256,192,127618,1,0,0:0:0:0:
256,192,127849,1,8,0:0:0:0:
256,192,127964,1,0,0:0:0:0:
256,192,128541,1,0,0:0:0:0:
256,192,129003,1,0,0:0:0:0:
256,192,129464,1,8,0:0:0:0:
256,192,129695,1,0,0:0:0:0:
256,192,129810,1,8,0:0:0:0:
256,192,130387,1,0,0:0:0:0:
256,192,130849,1,0,0:0:0:0:
256,192,131310,1,0,0:0:0:0:
256,192,131541,1,8,0:0:0:0:
256,192,131657,1,8,0:0:0:0:
256,192,132233,1,8,0:0:0:0:
256,192,132464,1,0,0:0:0:0:
256,192,132580,1,8,0:0:0:0:
256,192,132926,1,0,0:0:0:0:
256,192,133157,1,8,0:0:0:0:
256,192,133387,1,0,0:0:0:0:
256,192,133618,1,8,0:0:0:0:
256,192,134080,1,0,0:0:0:0:
256,192,134541,1,8,0:0:0:0:
256,192,135003,1,0,0:0:0:0:
256,192,135233,1,8,0:0:0:0:
256,192,135464,1,0,0:0:0:0:
256,192,135926,1,0,0:0:0:0:
256,192,136387,1,8,0:0:0:0:
256,192,136849,1,0,0:0:0:0:
256,192,137080,1,0,0:0:0:0:
256,192,137310,1,8,0:0:0:0:
256,192,137772,1,8,0:0:0:0:
256,192,138233,1,0,0:0:0:0:
256,192,138695,1,0,0:0:0:0:
256,192,139157,1,8,0:0:0:0:
256,192,139387,1,0,0:0:0:0:
256,192,139618,1,8,0:0:0:0:
256,192,139849,1,0,0:0:0:0:
256,192,140080,1,8,0:0:0:0:
256,192,140541,1,4,0:0:0:0:
256,192,141003,1,12,0:0:0:0:
256,192,141464,1,8,0:0:0:0:
256,192,141926,1,8,0:0:0:0:
256,192,142157,1,0,0:0:0:0:
256,192,142272,1,8,0:0:0:0:
256,192,142849,1,8,0:0:0:0:
256,192,143080,1,8,0:0:0:0:
256,192,143195,1,0,0:0:0:0:
256,192,143426,1,0,0:0:0:0:
256,192,143772,1,8,0:0:0:0:
256,192,144233,1,0,0:0:0:0:
256,192,144464,1,0,0:0:0:0:
256,192,144695,1,8,0:0:0:0:
256,192,145157,1,0,0:0:0:0:
256,192,145387,1,8,0:0:0:0:
256,192,145618,1,0,0:0:0:0:
256,192,145849,1,8,0:0:0:0:
256,192,146080,1,8,0:0:0:0:
256,192,146310,1,0,0:0:0:0:
256,192,146541,1,8,0:0:0:0:
256,192,146887,1,8,0:0:0:0:
256,192,147233,1,8,0:0:0:0:
256,192,147464,1,0,0:0:0:0:
256,192,147926,1,8,0:0:0:0:
256,192,148157,1,0,0:0:0:0:
256,192,148387,1,12,0:0:0:0:
256,192,148849,1,8,0:0:0:0:
256,192,149310,1,0,0:0:0:0:
256,192,149541,1,0,0:0:0:0:
256,192,149657,1,8,0:0:0:0:
256,192,150233,1,8,0:0:0:0:
256,192,150464,1,8,0:0:0:0:
256,192,150580,1,0,0:0:0:0:
256,192,150926,1,0,0:0:0:0:
256,192,151157,1,8,0:0:0:0:
256,192,151618,1,0,0:0:0:0:
256,192,151849,1,0,0:0:0:0:
256,192,152080,1,8,0:0:0:0:
256,192,152541,1,0,0:0:0:0:
256,192,152772,1,8,0:0:0:0:
256,192,153003,1,0,0:0:0:0:
256,192,153233,1,0,0:0:0:0:
256,192,153464,1,8,0:0:0:0:
256,192,153926,1,12,0:0:0:0:
256,192,154272,1,4,0:0:0:0:
256,192,154618,1,4,0:0:0:0:
256,192,154964,1,0,0:0:0:0:
256,192,155080,1,8,0:0:0:0:
256,192,155310,1,8,0:0:0:0:
256,192,155772,1,12,0:0:0:0:
256,192,157387,1,0,0:0:0:0:
256,192,157618,1,12,0:0:0:0:
256,192,158080,1,0,0:0:0:0:
256,192,158426,1,12,0:0:0:0:
256,192,158772,1,0,0:0:0:0:
256,192,159003,1,0,0:0:0:0:
256,192,159233,1,0,0:0:0:0:
256,192,159464,1,12,0:0:0:0:
256,192,159926,1,0,0:0:0:0:
256,192,160272,1,8,0:0:0:0:
256,192,160618,1,8,0:0:0:0:
256,192,160849,1,0,0:0:0:0:
256,192,161310,1,0,0:0:0:0:
256,192,161772,1,0,0:0:0:0:
256,192,162118,1,8,0:0:0:0:
256,192,162464,1,8,0:0:0:0:
256,192,162695,1,0,0:0:0:0:
256,192,162926,1,8,0:0:0:0:
256,192,163157,1,0,0:0:0:0:
256,192,163618,1,0,0:0:0:0:
256,192,163964,1,8,0:0:0:0:
256,192,164310,1,8,0:0:0:0:
256,192,164541,1,0,0:0:0:0:
256,192,165003,1,8,0:0:0:0:
256,192,165464,1,0,0:0:0:0:
256,192,165695,1,0,0:0:0:0:
256,192,165810,1,8,0:0:0:0:
256,192,166157,1,0,0:0:0:0:
256,192,166618,1,0,0:0:0:0:
256,192,166849,1,12,0:0:0:0:
256,192,167310,1,8,0:0:0:0:
256,192,167657,1,0,0:0:0:0:
256,192,168233,1,8,0:0:0:0:
256,192,168695,1,0,0:0:0:0:
256,192,169157,1,8,0:0:0:0:
256,192,169503,1,0,0:0:0:0:
256,192,170080,1,8,0:0:0:0:
256,192,170310,1,8,0:0:0:0:
256,192,170541,1,0,0:0:0:0:
256,192,171003,1,8,0:0:0:0:
256,192,171349,1,8,0:0:0:0:
256,192,171926,1,0,0:0:0:0:
256,192,172387,1,8,0:0:0:0:
256,192,172849,1,0,0:0:0:0:
256,192,173195,1,8,0:0:0:0:
256,192,173541,1,0,0:0:0:0:
256,192,173772,1,8,0:0:0:0:
256,192,174003,1,8,0:0:0:0:
256,192,174233,1,4,0:0:0:0:
256,192,174695,1,8,0:0:0:0:
256,192,175041,1,0,0:0:0:0:
256,192,175618,1,8,0:0:0:0:
256,192,176080,1,0,0:0:0:0:
256,192,176541,1,8,0:0:0:0:
256,192,176887,1,8,0:0:0:0:
256,192,177464,1,8,0:0:0:0:
256,192,177695,1,8,0:0:0:0:
256,192,177926,1,0,0:0:0:0:
256,192,178387,1,8,0:0:0:0:
256,192,178733,1,0,0:0:0:0:
256,192,179310,1,0,0:0:0:0:
256,192,179772,1,8,0:0:0:0:
256,192,180464,1,0,0:0:0:0:
256,96,180695,1,12,0:0:0:0:
256,192,181157,1,8,0:0:0:0:
256,192,181387,1,0,0:0:0:0:
256,192,181618,1,12,0:0:0:0:
256,192,182310,1,0,0:0:0:0:
256,192,182541,1,8,0:0:0:0:
256,192,183233,1,8,0:0:0:0:
256,192,183464,1,0,0:0:0:0:
256,192,184387,1,0,0:0:0:0:
256,192,185080,1,0,0:0:0:0:
256,192,185310,1,8,0:0:0:0:
256,192,186003,1,0,0:0:0:0:
256,192,186233,1,8,0:0:0:0:
256,192,186926,1,8,0:0:0:0:
256,192,187157,1,0,0:0:0:0:
256,192,187618,1,0,0:0:0:0:
256,192,188080,1,8,0:0:0:0:
256,192,188772,1,0,0:0:0:0:
256,192,189003,1,8,0:0:0:0:
256,192,189695,1,0,0:0:0:0:
256,192,189926,1,8,0:0:0:0:
256,192,190618,1,8,0:0:0:0:
256,192,190849,1,0,0:0:0:0:
256,192,191772,1,0,0:0:0:0:
256,192,192464,1,0,0:0:0:0:
256,192,192695,1,8,0:0:0:0:
256,192,193387,1,0,0:0:0:0:
256,192,193618,1,8,0:0:0:0:
256,192,194310,1,0,0:0:0:0:
256,192,194541,1,8,0:0:0:0:
256,192,195003,1,8,0:0:0:0:
256,192,195464,1,0,0:0:0:0:
256,192,195695,1,8,0:0:0:0:
256,192,195926,1,0,0:0:0:0:
256,192,196157,1,0,0:0:0:0:
256,192,196387,1,12,0:0:0:0:
256,192,199618,1,8,0:0:0:0:
256,192,199849,1,0,0:0:0:0:
256,192,200080,1,12,0:0:0:0:
256,192,200541,1,12,0:0:0:0:
256,192,201003,1,12,0:0:0:0:
256,192,201464,1,0,0:0:0:0:
256,192,201926,1,12,0:0:0:0:
256,192,202157,1,8,0:0:0:0:
256,192,202387,1,0,0:0:0:0:
256,192,202618,1,8,0:0:0:0:
256,192,202849,1,0,0:0:0:0:
256,192,203080,1,8,0:0:0:0:
256,192,203310,1,0,0:0:0:0:
256,192,203772,1,12,0:0:0:0:
256,192,204233,1,8,0:0:0:0:
256,192,204695,1,8,0:0:0:0:
256,192,204926,1,0,0:0:0:0:
256,192,205041,1,8,0:0:0:0:
256,192,205618,1,8,0:0:0:0:
256,192,205849,1,8,0:0:0:0:
256,192,205964,1,0,0:0:0:0:
256,192,206195,1,0,0:0:0:0:
256,192,206541,1,8,0:0:0:0:
256,192,207003,1,0,0:0:0:0:
256,192,207233,1,0,0:0:0:0:
256,192,207464,1,8,0:0:0:0:
256,192,207926,1,0,0:0:0:0:
256,192,208157,1,8,0:0:0:0:
256,192,208387,1,0,0:0:0:0:
256,192,208618,1,8,0:0:0:0:
256,192,208849,1,8,0:0:0:0:
256,192,209080,1,0,0:0:0:0:
256,192,209310,1,8,0:0:0:0:
256,192,209657,1,8,0:0:0:0:
256,192,210003,1,8,0:0:0:0:
256,192,210233,1,0,0:0:0:0:
256,192,210695,1,8,0:0:0:0:
256,192,210926,1,0,0:0:0:0:
256,192,211157,1,12,0:0:0:0:
256,192,211618,1,8,0:0:0:0:
256,192,212080,1,0,0:0:0:0:
256,192,212310,1,0,0:0:0:0:
256,192,212426,1,8,0:0:0:0:
256,192,213003,1,8,0:0:0:0:
256,192,213233,1,8,0:0:0:0:
256,192,213349,1,0,0:0:0:0:
256,192,213695,1,0,0:0:0:0:
256,192,213926,1,8,0:0:0:0:
256,192,214387,1,0,0:0:0:0:
256,192,214618,1,0,0:0:0:0:
256,192,214849,1,8,0:0:0:0:
256,192,215310,1,0,0:0:0:0:
256,192,215541,1,8,0:0:0:0:
256,192,215772,1,0,0:0:0:0:
256,192,216003,1,0,0:0:0:0:
256,192,216233,1,8,0:0:0:0:
256,192,216695,1,4,0:0:0:0:
256,192,217041,1,8,0:0:0:0:
256,192,217503,1,8,0:0:0:0:
256,192,217964,1,8,0:0:0:0:
256,192,218195,1,8,0:0:0:0:
256,192,218310,1,0,0:0:0:0:
256,192,218541,1,0,0:0:0:0:
256,192,218887,1,8,0:0:0:0:
256,192,219349,1,8,0:0:0:0:
256,192,219810,1,8,0:0:0:0:
256,192,220041,1,0,0:0:0:0:
256,192,220157,1,8,0:0:0:0:
256,192,220387,1,0,0:0:0:0:
256,192,220733,1,8,0:0:0:0:
256,192,221195,1,8,0:0:0:0:
256,192,221657,1,0,0:0:0:0:
256,192,222003,1,8,0:0:0:0:
256,192,222233,1,0,0:0:0:0:
256,192,222464,1,0,0:0:0:0:
256,192,222580,1,8,0:0:0:0:
256,192,222926,1,0,0:0:0:0:
256,192,223157,1,8,0:0:0:0:
256,192,223387,1,8,0:0:0:0:
256,192,223618,1,0,0:0:0:0:
256,192,224080,1,4,0:0:0:0:
256,192,224426,1,8,0:0:0:0:
256,192,224887,1,8,0:0:0:0:
256,192,225349,1,8,0:0:0:0:
256,192,225580,1,8,0:0:0:0:
256,192,225695,1,0,0:0:0:0:
256,192,225926,1,0,0:0:0:0:
256,192,226272,1,8,0:0:0:0:
256,192,226733,1,8,0:0:0:0:
256,192,227195,1,8,0:0:0:0:
256,192,227426,1,0,0:0:0:0:
256,192,227541,1,8,0:0:0:0:
256,192,227772,1,0,0:0:0:0:
256,192,228118,1,8,0:0:0:0:
256,192,228349,1,0,0:0:0:0:
256,192,228580,1,8,0:0:0:0:
256,192,228810,1,0,0:0:0:0:
256,192,229041,1,8,0:0:0:0:
256,192,229157,1,8,0:0:0:0:
256,192,229272,1,0,0:0:0:0:
256,192,229618,1,0,0:0:0:0:
256,192,230080,1,0,0:0:0:0:
256,192,230541,1,8,0:0:0:0:
256,192,230657,1,8,0:0:0:0:
256,192,230772,1,0,0:0:0:0:
256,192,231003,1,8,0:0:0:0:
256,192,231464,1,12,0:0:0:0:
256,192,231926,1,0,0:0:0:0:
256,192,232157,1,8,0:0:0:0:
256,192,232387,1,8,0:0:0:0:
256,192,232618,1,0,0:0:0:0:
256,192,232849,1,8,0:0:0:0:
256,192,233310,1,4,0:0:0:0:
256,192,233772,1,0,0:0:0:0:
256,192,234233,1,0,0:0:0:0:
256,192,234695,1,0,0:0:0:0:
