osu file format v14

[General]
AudioFilename: audio.mp3
AudioLeadIn: 0
PreviewTime: 10137
Countdown: 0
SampleSet: Normal
StackLeniency: 1
Mode: 1
LetterboxInBreaks: 0
WidescreenStoryboard: 1

[Editor]
DistanceSpacing: 0.8
BeatDivisor: 4
GridSize: 32
TimelineZoom: 0.9000002

[Metadata]
Title:Under the scarlet sky pt,2 inst
TitleUnicode:Under the scarlet sky pt,2 inst
Artist:UNDEAD CORPORATION
ArtistUnicode:UNDEAD CORPORATION
Creator:Melissa
Version:Scarlet Devil
Source:東方紅魔郷 ~ the Embodiment of Scarlet Devil.
Tags:featured artist fa osu! Piano Instrumental touhou project 東方Project comiket 79 remilia scarlet 極鉄 gokutetsu th6 c79 ほおずきみたいに紅 銀ーsilverー
BeatmapID:2210539
BeatmapSetID:1057540

[Difficulty]
HPDrainRate:8
CircleSize:2
OverallDifficulty:4
ApproachRate:0
SliderMultiplier:1.4
SliderTickRate:1

[Events]
//Background and Video events
0,0,"529400522d84d.jpg",0,100
//Break Periods
//Storyboard Layer 0 (Background)
//Storyboard Layer 1 (Fail)
//Storyboard Layer 2 (Pass)
//Storyboard Layer 3 (Foreground)
//Storyboard Layer 4 (Overlay)
//Storyboard Sound Samples

[TimingPoints]
137,625,4,1,0,30,1,0
137,-83.3333333333333,4,1,0,30,0,0
449,-83.3333333333333,4,1,0,50,0,0
762,-83.3333333333333,4,1,0,30,0,0
1074,-83.3333333333333,4,1,0,50,0,0
1387,-83.3333333333333,4,1,0,50,0,0
1699,-83.3333333333333,4,1,0,50,0,0
2012,-83.3333333333333,4,1,0,30,0,0
2324,-83.3333333333333,4,1,0,50,0,0
2637,-83.3333333333333,4,1,0,30,0,0
2949,-83.3333333333333,4,1,0,50,0,0
3262,-83.3333333333333,4,1,0,30,0,0
3574,-83.3333333333333,4,1,0,50,0,0
3887,-83.3333333333333,4,1,0,50,0,0
5137,-83.3333333333333,4,1,0,30,0,0
5449,-83.3333333333333,4,1,0,50,0,0
5762,-83.3333333333333,4,1,0,30,0,0
6074,-83.3333333333333,4,1,0,50,0,0
6387,-83.3333333333333,4,1,0,50,0,0
6699,-83.3333333333333,4,1,0,50,0,0
7012,-83.3333333333333,4,1,0,30,0,0
7324,-83.3333333333333,4,1,0,50,0,0
7637,-83.3333333333333,4,1,0,30,0,0
7949,-83.3333333333333,4,1,0,50,0,0
8262,-83.3333333333333,4,1,0,30,0,0
8574,-83.3333333333333,4,1,0,50,0,0
8887,-83.3333333333333,4,1,0,50,0,0
9355,-83.3333333333333,4,1,0,50,0,0
9824,-83.3333333333333,4,1,0,50,0,0
10137,-83.3333333333333,4,1,0,50,0,0
10449,-83.3333333333333,4,1,0,30,0,0
10762,-83.3333333333333,4,1,0,50,0,0
11387,-83.3333333333333,4,1,0,30,0,0
11699,-83.3333333333333,4,1,0,30,0,0
11855,-83.3333333333333,4,1,0,50,0,0
12324,-83.3333333333333,4,1,0,50,0,0
12637,-83.3333333333333,4,1,0,30,0,0
12949,-83.3333333333333,4,1,0,50,0,0
13105,-83.3333333333333,4,1,0,30,0,0
13574,-83.3333333333333,4,1,0,30,0,0
13887,-83.3333333333333,4,1,0,50,0,0
15137,-83.3333333333333,4,1,0,50,0,0
15762,-83.3333333333333,4,1,0,30,0,0
16074,-83.3333333333333,4,1,0,50,0,0
16699,-83.3333333333333,4,1,0,30,0,0
17012,-83.3333333333333,4,1,0,30,0,0
17324,-83.3333333333333,4,1,0,50,0,0
17637,-83.3333333333333,4,1,0,50,0,0
17949,-83.3333333333333,4,1,0,30,0,0
18262,-83.3333333333333,4,1,0,30,0,0
18574,-83.3333333333333,4,1,0,50,0,0
18887,-83.3333333333333,4,1,0,30,0,0
20137,-83.3333333333333,4,1,0,50,0,0
20449,-83.3333333333333,4,1,0,30,0,0
20762,-83.3333333333333,4,1,0,50,0,0
21387,-83.3333333333333,4,1,0,30,0,0
21699,-83.3333333333333,4,1,0,30,0,0
21855,-83.3333333333333,4,1,0,50,0,0
22324,-83.3333333333333,4,1,0,50,0,0
22637,-83.3333333333333,4,1,0,30,0,0
22949,-83.3333333333333,4,1,0,50,0,0
23105,-83.3333333333333,4,1,0,30,0,0
23574,-83.3333333333333,4,1,0,30,0,0
23887,-83.3333333333333,4,1,0,50,0,0
25137,-83.3333333333333,4,1,0,50,0,0
25762,-83.3333333333333,4,1,0,30,0,0
26074,-83.3333333333333,4,1,0,50,0,0
26699,-83.3333333333333,4,1,0,30,0,0
27012,-83.3333333333333,4,1,0,30,0,0
27324,-83.3333333333333,4,1,0,50,0,0
27637,-83.3333333333333,4,1,0,30,0,0
27949,-83.3333333333333,4,1,0,50,0,0
28262,-83.3333333333333,4,1,0,30,0,0
28574,-83.3333333333333,4,1,0,50,0,0
28887,-83.3333333333333,4,1,0,50,0,0
29199,-83.3333333333333,4,1,0,50,0,0
29512,-83.3333333333333,4,1,0,30,0,0
29824,-83.3333333333333,4,1,0,50,0,0
30137,-83.3333333333333,4,1,0,30,0,0
30762,-83.3333333333333,4,1,0,50,0,0
31387,-83.3333333333333,4,1,0,50,0,0
31699,-83.3333333333333,4,1,0,30,0,0
32012,-83.3333333333333,4,1,0,30,0,0
32324,-83.3333333333333,4,1,0,50,0,0
32637,-83.3333333333333,4,1,0,50,0,0
32949,-83.3333333333333,4,1,0,30,0,0
33262,-83.3333333333333,4,1,0,50,0,0
33574,-83.3333333333333,4,1,0,50,0,0
35137,-83.3333333333333,4,1,0,30,0,0
35762,-83.3333333333333,4,1,0,50,0,0
36387,-83.3333333333333,4,1,0,50,0,0
36699,-83.3333333333333,4,1,0,30,0,0
37012,-83.3333333333333,4,1,0,50,0,0
37324,-83.3333333333333,4,1,0,30,0,0
37637,-83.3333333333333,4,1,0,50,0,0
37949,-83.3333333333333,4,1,0,50,0,0
38262,-83.3333333333333,4,1,0,30,0,0
38574,-83.3333333333333,4,1,0,50,0,0
38887,-83.3333333333333,4,1,0,50,0,0
39199,-83.3333333333333,4,1,0,50,0,0
39512,-83.3333333333333,4,1,0,30,0,0
39824,-83.3333333333333,4,1,0,50,0,0
40137,-83.3333333333333,4,1,0,30,0,0
40762,-83.3333333333333,4,1,0,50,0,0
41387,-83.3333333333333,4,1,0,50,0,0
41699,-83.3333333333333,4,1,0,30,0,0
42012,-83.3333333333333,4,1,0,30,0,0
42324,-83.3333333333333,4,1,0,50,0,0
42637,-83.3333333333333,4,1,0,50,0,0
42949,-83.3333333333333,4,1,0,50,0,0
43262,-83.3333333333333,4,1,0,30,0,0
43574,-83.3333333333333,4,1,0,50,0,0
45137,-83.3333333333333,4,1,0,30,0,0
45762,-83.3333333333333,4,1,0,50,0,0
46387,-83.3333333333333,4,1,0,50,0,0
46699,-83.3333333333333,4,1,0,30,0,0
47012,-83.3333333333333,4,1,0,50,0,0
47324,-83.3333333333333,4,1,0,30,0,0
47637,-83.3333333333333,4,1,0,30,0,0
47949,-83.3333333333333,4,1,0,30,0,0
48262,-83.3333333333333,4,1,0,50,0,0
48574,-83.3333333333333,4,1,0,50,0,0
49199,-83.3333333333333,4,1,0,50,0,0
49512,-83.3333333333333,4,1,0,30,0,0
50137,-83.3333333333333,4,1,0,50,0,0
50449,-83.3333333333333,4,1,0,30,0,0
50762,-83.3333333333333,4,1,0,30,0,0
51074,-83.3333333333333,4,1,0,50,0,0
51308,-83.3333333333333,4,1,0,50,0,0
51387,-83.3333333333333,4,1,0,50,0,0
52637,-83.3333333333333,4,1,0,50,0,0
52949,-83.3333333333333,4,1,0,30,0,0
53262,-83.3333333333333,4,1,0,50,0,0
53887,-83.3333333333333,4,1,0,30,0,0
54199,-83.3333333333333,4,1,0,30,0,0
54355,-83.3333333333333,4,1,0,50,0,0
54824,-83.3333333333333,4,1,0,50,0,0
55137,-83.3333333333333,4,1,0,30,0,0
55449,-83.3333333333333,4,1,0,50,0,0
55605,-83.3333333333333,4,1,0,30,0,0
56074,-83.3333333333333,4,1,0,30,0,0
56387,-83.3333333333333,4,1,0,50,0,0
57637,-83.3333333333333,4,1,0,50,0,0
58262,-83.3333333333333,4,1,0,30,0,0
58574,-83.3333333333333,4,1,0,50,0,0
59199,-83.3333333333333,4,1,0,30,0,0
59512,-83.3333333333333,4,1,0,30,0,0
59824,-83.3333333333333,4,1,0,50,0,0
60137,-83.3333333333333,4,1,0,50,0,0
60449,-83.3333333333333,4,1,0,30,0,0
60762,-83.3333333333333,4,1,0,30,0,0
61074,-83.3333333333333,4,1,0,50,0,0
61387,-83.3333333333333,4,1,0,20,0,0
62637,-83.3333333333333,4,1,0,35,0,0
62949,-83.3333333333333,4,1,0,20,0,0
63262,-83.3333333333333,4,1,0,35,0,0
63887,-83.3333333333333,4,1,0,20,0,0
64199,-83.3333333333333,4,1,0,20,0,0
64355,-83.3333333333333,4,1,0,35,0,0
64824,-83.3333333333333,4,1,0,35,0,0
65137,-83.3333333333333,4,1,0,15,0,0
65449,-83.3333333333333,4,1,0,25,0,0
65605,-83.3333333333333,4,1,0,15,0,0
66074,-83.3333333333333,4,1,0,15,0,0
66387,-83.3333333333333,4,1,0,20,0,0
67637,-83.3333333333333,4,1,0,20,0,0
68262,-83.3333333333333,4,1,0,10,0,0
68574,-83.3333333333333,4,1,0,20,0,0
69199,-83.3333333333333,4,1,0,10,0,0
69512,-83.3333333333333,4,1,0,10,0,0
69824,-83.3333333333333,4,1,0,15,0,0
70137,-83.3333333333333,4,1,0,5,0,0

[HitObjects]
256,192,137,5,0,0:0:0:0:
256,192,449,1,8,0:0:0:0:
256,192,762,1,0,0:0:0:0:
256,192,1074,1,8,0:0:0:0:
256,192,1387,1,8,0:0:0:0:
256,192,1699,1,8,0:0:0:0:
256,192,2012,1,0,0:0:0:0:
256,192,2324,1,8,0:0:0:0:
256,192,2637,1,0,0:0:0:0:
256,192,2949,1,8,0:0:0:0:
256,192,3262,1,0,0:0:0:0:
256,192,3574,1,8,0:0:0:0:
256,192,3887,1,8,0:0:0:0:
256,192,5137,1,0,0:0:0:0:
256,192,5449,1,8,0:0:0:0:
256,192,5762,1,0,0:0:0:0:
256,192,6074,1,8,0:0:0:0:
256,192,6387,1,8,0:0:0:0:
256,192,6699,1,8,0:0:0:0:
256,192,7012,1,0,0:0:0:0:
256,192,7324,1,8,0:0:0:0:
256,192,7637,1,0,0:0:0:0:
256,192,7949,1,8,0:0:0:0:
256,192,8262,1,0,0:0:0:0:
256,192,8574,1,8,0:0:0:0:
256,192,8887,1,8,0:0:0:0:
256,192,9355,1,8,0:0:0:0:
256,192,9824,1,8,0:0:0:0:
224,192,10137,1,8,0:0:0:0:
256,192,10449,1,0,0:0:0:0:
256,192,10762,1,8,0:0:0:0:
256,192,11387,1,0,0:0:0:0:
256,192,11699,1,0,0:0:0:0:
256,192,11855,1,8,0:0:0:0:
256,192,12324,1,8,0:0:0:0:
256,192,12637,1,0,0:0:0:0:
256,192,12949,1,8,0:0:0:0:
256,192,13105,1,0,0:0:0:0:
256,192,13574,1,0,0:0:0:0:
256,192,13887,1,8,0:0:0:0:
256,192,15137,1,8,0:0:0:0:
256,192,15762,1,0,0:0:0:0:
256,192,16074,1,8,0:0:0:0:
256,192,16699,1,0,0:0:0:0:
256,192,17012,1,0,0:0:0:0:
256,192,17324,1,8,0:0:0:0:
256,192,17637,1,8,0:0:0:0:
256,192,17949,1,0,0:0:0:0:
256,192,18262,1,0,0:0:0:0:
256,192,18574,1,8,0:0:0:0:
256,192,18887,1,0,0:0:0:0:
224,192,20137,1,8,0:0:0:0:
256,192,20449,1,0,0:0:0:0:
256,192,20762,1,8,0:0:0:0:
256,192,21387,1,0,0:0:0:0:
256,192,21699,1,0,0:0:0:0:
256,192,21855,1,8,0:0:0:0:
256,192,22324,1,8,0:0:0:0:
256,192,22637,1,0,0:0:0:0:
256,192,22949,1,8,0:0:0:0:
256,192,23105,1,0,0:0:0:0:
256,192,23574,1,0,0:0:0:0:
256,192,23887,1,8,0:0:0:0:
256,192,25137,1,8,0:0:0:0:
256,192,25762,1,0,0:0:0:0:
256,192,26074,1,8,0:0:0:0:
256,192,26699,1,0,0:0:0:0:
256,192,27012,1,0,0:0:0:0:
256,192,27324,1,8,0:0:0:0:
256,192,27636,1,0,0:0:0:0:
256,192,27949,1,8,0:0:0:0:
256,192,28261,1,0,0:0:0:0:
256,192,28574,1,8,0:0:0:0:
256,192,28886,1,8,0:0:0:0:
256,192,29199,1,8,0:0:0:0:
256,192,29512,1,0,0:0:0:0:
256,192,29824,1,8,0:0:0:0:
256,192,30137,1,0,0:0:0:0:
256,192,30762,5,8,0:0:0:0:
256,192,31387,1,8,0:0:0:0:
256,192,31699,1,0,0:0:0:0:
256,192,32011,1,0,0:0:0:0:
256,192,32324,1,8,0:0:0:0:
256,192,32637,1,8,0:0:0:0:
256,192,32949,1,0,0:0:0:0:
256,192,33262,1,8,0:0:0:0:
256,192,33574,1,8,0:0:0:0:
256,192,35137,5,0,0:0:0:0:
256,192,35762,1,8,0:0:0:0:
256,192,36387,1,8,0:0:0:0:
256,192,36699,1,0,0:0:0:0:
256,192,37012,1,8,0:0:0:0:
256,192,37324,1,0,0:0:0:0:
256,192,37637,1,0,0:0:0:0:
256,192,37949,1,8,0:0:0:0:
256,192,38262,1,0,0:0:0:0:
256,192,38575,1,8,0:0:0:0:
256,192,38887,1,8,0:0:0:0:
256,192,39200,1,8,0:0:0:0:
256,192,39513,1,0,0:0:0:0:
256,192,39825,1,8,0:0:0:0:
256,192,40138,1,0,0:0:0:0:
256,192,40762,5,8,0:0:0:0:
256,192,41387,1,8,0:0:0:0:
256,192,41699,1,0,0:0:0:0:
256,192,42011,1,0,0:0:0:0:
256,192,42324,1,8,0:0:0:0:
256,192,42637,1,8,0:0:0:0:
256,192,42949,1,8,0:0:0:0:
256,192,43262,1,0,0:0:0:0:
256,192,43574,1,8,0:0:0:0:
256,192,45137,5,0,0:0:0:0:
256,192,45762,1,8,0:0:0:0:
256,192,46387,1,8,0:0:0:0:
256,192,46699,1,0,0:0:0:0:
256,192,47012,1,8,0:0:0:0:
256,192,47324,1,0,0:0:0:0:
256,192,47637,1,0,0:0:0:0:
256,192,47949,1,0,0:0:0:0:
256,192,48262,1,8,0:0:0:0:
256,192,48575,1,8,0:0:0:0:
256,192,49200,1,8,0:0:0:0:
256,192,49513,1,0,0:0:0:0:
256,192,50137,1,8,0:0:0:0:
256,192,50449,1,0,0:0:0:0:
256,192,50762,1,0,0:0:0:0:
256,192,51074,1,8,0:0:0:0:
256,192,51308,1,8,0:0:0:0:
256,192,51387,1,8,0:0:0:0:
256,192,52637,1,8,0:0:0:0:
256,192,52949,1,0,0:0:0:0:
256,192,53262,1,8,0:0:0:0:
256,192,53887,1,0,0:0:0:0:
256,192,54199,1,0,0:0:0:0:
256,192,54355,1,8,0:0:0:0:
256,192,54824,1,8,0:0:0:0:
256,192,55137,1,0,0:0:0:0:
256,192,55449,1,8,0:0:0:0:
256,192,55605,1,0,0:0:0:0:
256,192,56074,1,0,0:0:0:0:
256,192,56387,1,8,0:0:0:0:
256,192,57637,1,8,0:0:0:0:
256,192,58262,1,0,0:0:0:0:
256,192,58574,1,8,0:0:0:0:
256,192,59199,1,0,0:0:0:0:
256,192,59512,1,0,0:0:0:0:
256,192,59824,1,8,0:0:0:0:
256,192,60136,1,0,0:0:0:0:
256,192,60449,1,8,0:0:0:0:
256,192,60761,1,0,0:0:0:0:
256,192,61074,1,8,0:0:0:0:
256,192,61386,1,8,0:0:0:0:
224,192,62637,1,8,0:0:0:0:
256,192,62949,1,0,0:0:0:0:
256,192,63262,1,8,0:0:0:0:
256,192,63887,1,0,0:0:0:0:
256,192,64199,1,0,0:0:0:0:
256,192,64355,1,8,0:0:0:0:
256,192,64824,1,8,0:0:0:0:
256,192,65137,1,0,0:0:0:0:
256,192,65449,1,8,0:0:0:0:
256,192,65605,1,0,0:0:0:0:
256,192,66074,1,0,0:0:0:0:
256,192,66387,1,8,0:0:0:0:
256,192,67637,1,8,0:0:0:0:
256,192,68262,1,0,0:0:0:0:
256,192,68574,1,8,0:0:0:0:
256,192,69199,1,0,0:0:0:0:
256,192,69512,1,0,0:0:0:0:
256,192,69824,1,8,0:0:0:0:
256,192,70136,1,0,0:0:0:0:
