osu file format v14

[General]
AudioFilename: audio.mp3
AudioLeadIn: 0
PreviewTime: 10137
Countdown: 0
SampleSet: Normal
StackLeniency: 1
Mode: 1
LetterboxInBreaks: 0
WidescreenStoryboard: 1

[Editor]
DistanceSpacing: 0.8
BeatDivisor: 4
GridSize: 32
TimelineZoom: 1

[Metadata]
Title:Under the scarlet sky pt,2 inst
TitleUnicode:Under the scarlet sky pt,2 inst
Artist:UNDEAD CORPORATION
ArtistUnicode:UNDEAD CORPORATION
Creator:Melissa
Version:Futsuu
Source:東方紅魔郷 ~ the Embodiment of Scarlet Devil.
Tags:featured artist fa osu! Piano Instrumental touhou project 東方Project comiket 79 remilia scarlet 極鉄 gokutetsu th6 c79 ほおずきみたいに紅 銀ーsilverー
BeatmapID:2210502
BeatmapSetID:1057540

[Difficulty]
HPDrainRate:8
CircleSize:2
OverallDifficulty:3
ApproachRate:0
SliderMultiplier:1.4
SliderTickRate:1

[Events]
//Background and Video events
0,0,"529400522d84d.jpg",0,100
//Break Periods
//Storyboard Layer 0 (Background)
//Storyboard Layer 1 (Fail)
//Storyboard Layer 2 (Pass)
//Storyboard Layer 3 (Foreground)
//Storyboard Layer 4 (Overlay)
//Storyboard Sound Samples

[TimingPoints]
137,625,4,1,0,30,1,0
137,-100,4,1,0,30,0,0
449,-100,4,1,0,30,0,0
762,-100,4,1,0,50,0,0
1387,-100,4,1,0,50,0,0
1699,-100,4,1,0,30,0,0
2012,-100,4,1,0,30,0,0
2637,-100,4,1,0,30,0,0
2949,-100,4,1,0,30,0,0
3262,-100,4,1,0,50,0,0
3887,-100,4,1,0,50,0,0
5137,-100,4,1,0,30,0,0
5449,-100,4,1,0,30,0,0
5762,-100,4,1,0,50,0,0
6387,-100,4,1,0,50,0,0
6699,-100,4,1,0,30,0,0
7012,-100,4,1,0,30,0,0
7637,-100,4,1,0,30,0,0
7949,-100,4,1,0,30,0,0
8262,-100,4,1,0,50,0,0
8887,-100,4,1,0,50,0,0
10137,-100,4,1,0,50,0,0
10762,-100,4,1,0,50,0,0
11387,-100,4,1,0,30,0,0
11855,-100,4,1,0,50,0,0
12324,-100,4,1,0,50,0,0
12637,-100,4,1,0,30,0,0
12949,-100,4,1,0,50,0,0
13105,-100,4,1,0,30,0,0
13574,-100,4,1,0,30,0,0
13887,-100,4,1,0,50,0,0
15137,-100,4,1,0,50,0,0
15762,-100,4,1,0,30,0,0
16074,-100,4,1,0,50,0,0
16699,-100,4,1,0,30,0,0
17012,-100,4,1,0,30,0,0
17324,-100,4,1,0,50,0,0
17637,-100,4,1,0,50,0,0
17949,-100,4,1,0,30,0,0
18262,-100,4,1,0,30,0,0
18574,-100,4,1,0,50,0,0
18887,-100,4,1,0,30,0,0
20137,-100,4,1,0,50,0,0
20762,-100,4,1,0,50,0,0
21387,-100,4,1,0,30,0,0
21855,-100,4,1,0,50,0,0
22324,-100,4,1,0,50,0,0
22637,-100,4,1,0,30,0,0
22949,-100,4,1,0,50,0,0
23105,-100,4,1,0,30,0,0
23574,-100,4,1,0,30,0,0
23887,-100,4,1,0,50,0,0
25137,-100,4,1,0,50,0,0
25762,-100,4,1,0,30,0,0
26074,-100,4,1,0,50,0,0
26699,-100,4,1,0,30,0,0
27012,-100,4,1,0,30,0,0
27324,-100,4,1,0,50,0,0
27637,-100,4,1,0,30,0,0
28887,-100,4,1,0,50,0,0
30137,-100,4,1,0,30,0,0
30762,-100,4,1,0,50,0,0
31387,-100,4,1,0,50,0,0
31699,-100,4,1,0,30,0,0
32012,-100,4,1,0,30,0,0
32324,-100,4,1,0,50,0,0
32637,-100,4,1,0,50,0,0
35137,-100,4,1,0,30,0,0
35762,-100,4,1,0,50,0,0
36387,-100,4,1,0,50,0,0
36699,-100,4,1,0,30,0,0
37012,-100,4,1,0,50,0,0
37324,-100,4,1,0,30,0,0
37637,-100,4,1,0,50,0,0
38887,-100,4,1,0,50,0,0
40137,-100,4,1,0,30,0,0
40762,-100,4,1,0,50,0,0
41387,-100,4,1,0,50,0,0
41699,-100,4,1,0,30,0,0
42012,-100,4,1,0,30,0,0
42324,-100,4,1,0,50,0,0
42637,-100,4,1,0,50,0,0
45137,-100,4,1,0,30,0,0
45762,-100,4,1,0,50,0,0
46387,-100,4,1,0,50,0,0
46699,-100,4,1,0,30,0,0
47012,-100,4,1,0,50,0,0
47324,-100,4,1,0,30,0,0
47637,-100,4,1,0,30,0,0
48262,-100,4,1,0,50,0,0
48574,-100,4,1,0,50,0,0
49199,-100,4,1,0,50,0,0
49512,-100,4,1,0,30,0,0
50137,-100,4,1,0,50,0,0
50449,-100,4,1,0,30,0,0
50762,-100,4,1,0,30,0,0
51074,-100,4,1,0,50,0,0
51387,-100,4,1,0,50,0,0
52637,-100,4,1,0,50,0,0
53262,-100,4,1,0,50,0,0
53887,-100,4,1,0,30,0,0
54355,-100,4,1,0,50,0,0
54824,-100,4,1,0,50,0,0
55137,-100,4,1,0,30,0,0
55449,-100,4,1,0,50,0,0
55605,-100,4,1,0,30,0,0
56074,-100,4,1,0,30,0,0
56387,-100,4,1,0,50,0,0
57637,-100,4,1,0,50,0,0
58262,-100,4,1,0,30,0,0
58574,-100,4,1,0,50,0,0
59199,-100,4,1,0,30,0,0
59512,-100,4,1,0,30,0,0
59824,-100,4,1,0,50,0,0
60137,-100,4,1,0,50,0,0
60449,-100,4,1,0,30,0,0
60762,-100,4,1,0,30,0,0
61074,-100,4,1,0,50,0,0
61387,-100,4,1,0,20,0,0
62637,-100,4,1,0,35,0,0
63262,-100,4,1,0,35,0,0
63887,-100,4,1,0,20,0,0
64355,-100,4,1,0,35,0,0
64824,-100,4,1,0,35,0,0
65137,-100,4,1,0,15,0,0
65449,-100,4,1,0,25,0,0
65605,-100,4,1,0,15,0,0
66074,-100,4,1,0,15,0,0
66387,-100,4,1,0,20,0,0
67637,-100,4,1,0,20,0,0
68262,-100,4,1,0,10,0,0
68574,-100,4,1,0,20,0,0
69199,-100,4,1,0,10,0,0
69512,-100,4,1,0,10,0,0
69824,-100,4,1,0,15,0,0
70137,-100,4,1,0,5,0,0

[HitObjects]
256,192,137,5,0,0:0:0:0:
256,192,449,1,0,0:0:0:0:
256,192,762,1,8,0:0:0:0:
256,192,1387,1,8,0:0:0:0:
256,192,1699,1,0,0:0:0:0:
256,192,2012,1,0,0:0:0:0:
256,192,2637,1,0,0:0:0:0:
256,192,2949,1,0,0:0:0:0:
256,192,3262,1,8,0:0:0:0:
256,192,3887,1,8,0:0:0:0:
256,192,5137,1,0,0:0:0:0:
256,192,5449,1,0,0:0:0:0:
256,192,5762,1,8,0:0:0:0:
256,192,6387,1,8,0:0:0:0:
256,192,6699,1,0,0:0:0:0:
256,192,7012,1,0,0:0:0:0:
256,192,7637,1,0,0:0:0:0:
256,192,7949,1,0,0:0:0:0:
256,192,8262,1,8,0:0:0:0:
256,192,8887,1,8,0:0:0:0:
256,192,10137,1,8,0:0:0:0:
256,192,10762,1,8,0:0:0:0:
256,192,11387,1,0,0:0:0:0:
256,192,11855,1,8,0:0:0:0:
256,192,12324,1,8,0:0:0:0:
256,192,12637,1,0,0:0:0:0:
256,192,12949,1,8,0:0:0:0:
256,192,13105,1,0,0:0:0:0:
256,192,13574,1,0,0:0:0:0:
256,192,13887,1,8,0:0:0:0:
256,192,15137,1,8,0:0:0:0:
256,192,15762,1,0,0:0:0:0:
256,192,16074,1,8,0:0:0:0:
256,192,16699,1,0,0:0:0:0:
256,192,17012,1,0,0:0:0:0:
256,192,17324,1,8,0:0:0:0:
256,192,17637,1,8,0:0:0:0:
256,192,17949,1,0,0:0:0:0:
256,192,18262,1,0,0:0:0:0:
256,192,18574,1,8,0:0:0:0:
256,192,18887,1,0,0:0:0:0:
256,192,20137,1,8,0:0:0:0:
256,192,20762,1,8,0:0:0:0:
256,192,21387,1,0,0:0:0:0:
256,192,21855,1,8,0:0:0:0:
256,192,22324,1,8,0:0:0:0:
256,192,22637,1,0,0:0:0:0:
256,192,22949,1,8,0:0:0:0:
256,192,23105,1,0,0:0:0:0:
256,192,23574,1,0,0:0:0:0:
256,192,23887,1,8,0:0:0:0:
256,192,25137,1,8,0:0:0:0:
256,192,25762,1,0,0:0:0:0:
256,192,26074,1,8,0:0:0:0:
256,192,26699,1,0,0:0:0:0:
256,192,27012,1,0,0:0:0:0:
256,192,27324,1,8,0:0:0:0:
256,192,27637,1,0,0:0:0:0:
256,192,28887,1,8,0:0:0:0:
256,192,30137,1,0,0:0:0:0:
256,192,30762,1,8,0:0:0:0:
256,192,31387,1,8,0:0:0:0:
256,192,31699,1,0,0:0:0:0:
256,192,32012,1,0,0:0:0:0:
256,192,32324,1,8,0:0:0:0:
256,192,32637,5,8,0:0:0:0:
256,192,35137,1,0,0:0:0:0:
256,192,35762,1,8,0:0:0:0:
256,192,36387,1,8,0:0:0:0:
256,192,36699,1,0,0:0:0:0:
256,192,37012,1,8,0:0:0:0:
256,192,37324,1,0,0:0:0:0:
256,192,37637,1,8,0:0:0:0:
256,192,38887,1,8,0:0:0:0:
256,192,40137,1,0,0:0:0:0:
256,192,40762,1,8,0:0:0:0:
256,192,41387,1,8,0:0:0:0:
256,192,41699,1,0,0:0:0:0:
256,192,42012,1,0,0:0:0:0:
256,192,42324,1,8,0:0:0:0:
256,192,42637,1,8,0:0:0:0:
256,192,45137,1,0,0:0:0:0:
256,192,45762,1,8,0:0:0:0:
256,192,46387,1,8,0:0:0:0:
256,192,46699,1,0,0:0:0:0:
256,192,47012,1,8,0:0:0:0:
256,192,47324,1,0,0:0:0:0:
256,192,47637,1,0,0:0:0:0:
256,192,48262,1,8,0:0:0:0:
256,192,48574,1,8,0:0:0:0:
256,192,49199,1,8,0:0:0:0:
256,192,49512,1,0,0:0:0:0:
256,192,50137,1,8,0:0:0:0:
256,192,50449,1,0,0:0:0:0:
256,192,50762,1,0,0:0:0:0:
256,192,51074,1,8,0:0:0:0:
256,192,51387,1,8,0:0:0:0:
256,192,52637,1,8,0:0:0:0:
256,192,53262,1,8,0:0:0:0:
256,192,53887,1,0,0:0:0:0:
256,192,54355,1,8,0:0:0:0:
256,192,54824,1,8,0:0:0:0:
256,192,55137,1,0,0:0:0:0:
256,192,55449,1,8,0:0:0:0:
256,192,55605,1,0,0:0:0:0:
256,192,56074,1,0,0:0:0:0:
256,192,56387,1,8,0:0:0:0:
256,192,57637,1,8,0:0:0:0:
256,192,58262,1,0,0:0:0:0:
256,192,58574,1,8,0:0:0:0:
256,192,59199,1,0,0:0:0:0:
256,192,59512,1,0,0:0:0:0:
256,192,59824,1,8,0:0:0:0:
256,192,60137,1,8,0:0:0:0:
256,192,60449,1,0,0:0:0:0:
256,192,60762,1,0,0:0:0:0:
256,192,61074,1,8,0:0:0:0:
256,192,61387,1,0,0:0:0:0:
256,192,62637,1,8,0:0:0:0:
256,192,63262,1,8,0:0:0:0:
256,192,63887,1,0,0:0:0:0:
256,192,64355,1,8,0:0:0:0:
256,192,64824,1,8,0:0:0:0:
256,192,65137,1,0,0:0:0:0:
256,192,65449,1,8,0:0:0:0:
256,192,65605,1,0,0:0:0:0:
256,192,66074,1,0,0:0:0:0:
256,192,66387,1,8,0:0:0:0:
256,192,67637,1,8,0:0:0:0:
256,192,68262,1,0,0:0:0:0:
256,192,68574,1,8,0:0:0:0:
256,192,69199,1,0,0:0:0:0:
256,192,69512,1,0,0:0:0:0:
256,192,69824,1,8,0:0:0:0:
256,192,70137,1,0,0:0:0:0:
