osu file format v14

[General]
AudioFilename: audio.mp3
AudioLeadIn: 0
PreviewTime: 11444
Countdown: 0
SampleSet: Normal
StackLeniency: 1
Mode: 1
LetterboxInBreaks: 0
WidescreenStoryboard: 1

[Editor]
Bookmarks: 11444
DistanceSpacing: 1
BeatDivisor: 4
GridSize: 32
TimelineZoom: 1

[Metadata]
Title:Under the scarlet sky pt,1 inst
TitleUnicode:Under the scarlet sky pt,1 inst
Artist:UNDEAD CORPORATION
ArtistUnicode:UNDEAD CORPORATION
Creator:Melissa
Version:Scarlet Devil
Source:東方紅魔郷 ~ the Embodiment of Scarlet Devil.
Tags:Featured Artist fa osu! touhou project Comiket 79 remilia scarlet 極鉄 Gokutetsu TH6 C79 ほおずきみたいに紅 銀ーSILVERー
BeatmapID:2133075
BeatmapSetID:1019375

[Difficulty]
HPDrainRate:7
CircleSize:2
OverallDifficulty:3
ApproachRate:0
SliderMultiplier:1.4
SliderTickRate:1

[Events]
//Background and Video events
0,0,"cropped-1600-900-205273.jpg",0,0
//Break Periods
//Storyboard Layer 0 (Background)
//Storyboard Layer 1 (Fail)
//Storyboard Layer 2 (Pass)
//Storyboard Layer 3 (Foreground)
//Storyboard Layer 4 (Overlay)
//Storyboard Sound Samples

[TimingPoints]
507,625,4,1,0,20,1,8
507,-100,4,1,0,20,0,0
975,-100,4,1,0,40,0,0
1444,-100,4,1,0,20,0,0
1757,625,4,1,0,40,1,8
1757,-100,4,1,0,40,0,0
2382,-100,4,1,0,40,0,0
3007,-100,4,1,0,20,0,0
3475,-100,4,1,0,40,0,0
3944,-100,4,1,0,40,0,0
4257,-100,4,1,0,20,0,0
4569,-100,4,1,0,40,0,0
4725,-100,4,1,0,20,0,0
5194,-100,4,1,0,20,0,0
5507,-100,4,1,0,40,0,0
6757,-100,4,1,0,20,0,0
7382,-100,4,1,0,20,0,0
7694,-100,4,1,0,40,0,0
8319,-100,4,1,0,20,0,0
8632,-100,4,1,0,20,0,0
8944,-100,4,1,0,40,0,0
9257,-100,4,1,0,20,0,0
9569,-100,4,1,0,40,0,0
9882,-100,4,1,0,20,0,0
10194,-100,4,1,0,20,0,0
10507,-100,4,1,0,40,0,0
11757,-100,4,1,0,40,0,0
12382,-100,4,1,0,40,0,0
13007,-100,4,1,0,20,0,0
13475,-100,4,1,0,40,0,0
13944,-100,4,1,0,40,0,0
14257,-100,4,1,0,20,0,0
14569,-100,4,1,0,40,0,0
14725,-100,4,1,0,20,0,0
15194,-100,4,1,0,20,0,0
15507,-100,4,1,0,40,0,0
16757,-100,4,1,0,40,0,0
17382,-100,4,1,0,20,0,0
17694,-100,4,1,0,40,0,0
18319,-100,4,1,0,20,0,0
18632,-100,4,1,0,20,0,0
18944,-100,4,1,0,40,0,0
21757,-100,4,1,0,40,0,0
22382,-100,4,1,0,40,0,0
23007,-100,4,1,0,20,0,0
23475,-100,4,1,0,40,0,0
23944,-100,4,1,0,40,0,0
24257,-100,4,1,0,20,0,0
24569,-100,4,1,0,40,0,0
24725,-100,4,1,0,20,0,0
25194,-100,4,1,0,20,0,0
25507,-100,4,1,0,40,0,0
26757,-100,4,1,0,40,0,0
27382,-100,4,1,0,20,0,0
27694,-100,4,1,0,40,0,0
28319,-100,4,1,0,20,0,0
28632,-100,4,1,0,20,0,0
28944,-100,4,1,0,40,0,0
29257,-100,4,1,0,20,0,0
29569,-100,4,1,0,40,0,0
29882,-100,4,1,0,20,0,0
30194,-100,4,1,0,20,0,0
30507,-100,4,1,0,40,0,0
31757,-100,4,1,0,40,0,0
32382,-100,4,1,0,40,0,0
33007,645.161290322581,4,1,0,20,1,8
33007,-96.8992248062015,4,1,0,20,0,0
33490,-100,4,1,0,40,0,0
33974,-100,4,1,0,40,0,0
34297,648.648648648649,4,1,0,20,1,0
34297,-96.3391136801541,4,1,0,20,0,0
34621,-100,4,1,0,40,0,0
34783,-100,4,1,0,20,0,0
34945,652.173913043478,4,1,0,40,1,8
34945,-95.8772770853308,4,1,0,40,0,8
35271,-95.8772770853308,4,1,0,20,0,8
35597,666.666666666667,4,1,0,40,1,8
35597,-93.7207122774133,4,1,0,40,0,0
36263,681.818181818182,4,1,0,40,1,8
36263,-91.6590284142988,4,1,0,40,0,8
36944,685.714285714286,4,1,0,40,1,0
36944,-91.1577028258888,4,1,0,40,0,0
37629,714.285714285714,4,1,0,20,1,8
37629,-87.4890638670166,4,1,0,20,0,8
37986,-87.4890638670166,4,1,0,40,0,8
38343,727.272727272727,4,1,0,40,1,8
38343,-85.9106529209622,4,1,0,40,0,8
38690,-85.9106529209622,4,1,0,20,0,0
39070,759.493670886076,4,1,0,20,1,8
39070,-82.3045267489712,4,1,0,20,0,8
39449,-82.3045267489712,4,1,0,40,0,8
39829,754.716981132075,4,1,0,20,1,0
39829,-82.7814569536424,4,1,0,20,0,0
40195,-82.7814569536424,4,1,0,20,0,0
40583,774.193548387097,4,1,0,40,1,8
40583,-80.7102502017756,4,1,0,40,0,0
40970,810.810810810811,4,1,0,20,1,8
40970,-77.1010023130301,4,1,0,20,0,0
41172,-77.1010023130301,4,1,0,40,0,8
41375,-77.1010023130301,4,1,0,20,0,8

[HitObjects]
256,192,507,5,0,0:0:0:0:
256,192,975,1,8,0:0:0:0:
256,192,1444,1,0,0:0:0:0:
256,192,1757,1,8,0:0:0:0:
256,192,2382,1,8,0:0:0:0:
256,192,3007,1,0,0:0:0:0:
256,192,3475,1,8,0:0:0:0:
256,192,3944,1,8,0:0:0:0:
256,192,4257,1,0,0:0:0:0:
256,192,4569,1,8,0:0:0:0:
256,192,4725,1,0,0:0:0:0:
256,192,5194,5,0,0:0:0:0:
256,192,5507,1,8,0:0:0:0:
256,192,6757,5,0,0:0:0:0:
256,192,7382,1,0,0:0:0:0:
256,192,7694,1,8,0:0:0:0:
256,192,8319,1,0,0:0:0:0:
256,192,8632,1,0,0:0:0:0:
256,192,8944,1,8,0:0:0:0:
256,192,9257,1,8,0:0:0:0:
256,192,9569,1,0,0:0:0:0:
256,192,9882,1,0,0:0:0:0:
256,192,10194,1,0,0:0:0:0:
256,192,10507,1,8,0:0:0:0:
256,192,11757,1,8,0:0:0:0:
256,192,12382,1,8,0:0:0:0:
256,192,13007,1,0,0:0:0:0:
256,192,13475,1,8,0:0:0:0:
256,192,13944,1,8,0:0:0:0:
256,192,14257,1,0,0:0:0:0:
256,192,14569,1,8,0:0:0:0:
256,192,14725,1,0,0:0:0:0:
256,192,15194,5,0,0:0:0:0:
256,192,15507,1,8,0:0:0:0:
256,192,16757,5,8,0:0:0:0:
256,192,17382,1,0,0:0:0:0:
256,192,17694,1,8,0:0:0:0:
256,192,18319,1,0,0:0:0:0:
256,192,18632,1,0,0:0:0:0:
256,192,18944,5,8,0:0:0:0:
256,192,20507,1,8,0:0:0:0:
256,192,21757,5,8,0:0:0:0:
256,192,22382,1,8,0:0:0:0:
256,192,23007,1,0,0:0:0:0:
256,192,23475,1,8,0:0:0:0:
256,192,23944,1,8,0:0:0:0:
256,192,24257,1,0,0:0:0:0:
256,192,24569,1,8,0:0:0:0:
256,192,24725,1,0,0:0:0:0:
256,192,25194,5,0,0:0:0:0:
256,192,25507,1,8,0:0:0:0:
256,192,26757,5,8,0:0:0:0:
256,192,27382,1,0,0:0:0:0:
256,192,27694,1,8,0:0:0:0:
256,192,28319,1,0,0:0:0:0:
256,192,28632,1,0,0:0:0:0:
256,192,28944,1,8,0:0:0:0:
256,192,29257,1,8,0:0:0:0:
256,192,29569,1,0,0:0:0:0:
256,192,29882,1,0,0:0:0:0:
256,192,30194,1,8,0:0:0:0:
256,192,30507,1,0,0:0:0:0:
256,192,31757,5,8,0:0:0:0:
256,192,32382,1,8,0:0:0:0:
256,192,33007,1,0,0:0:0:0:
256,192,33490,1,8,0:0:0:0:
256,192,33974,1,8,0:0:0:0:
256,192,34297,5,0,0:0:0:0:
256,192,34621,1,8,0:0:0:0:
256,192,34783,1,0,0:0:0:0:
256,192,35271,5,0,0:0:0:0:
256,192,35597,1,8,0:0:0:0:
256,192,36944,1,8,0:0:0:0:
256,192,37629,1,0,0:0:0:0:
256,192,37986,1,8,0:0:0:0:
256,192,38706,1,0,0:0:0:0:
256,192,39070,1,0,0:0:0:0:
256,192,39449,1,8,0:0:0:0:
256,192,39829,1,0,0:0:0:0:
256,192,40206,1,0,0:0:0:0:
256,192,40583,1,8,0:0:0:0:
256,192,40970,1,0,0:0:0:0:
256,192,41172,1,0,0:0:0:0:
256,192,41375,1,8,0:0:0:0:
