osu file format v14

[General]
AudioFilename: audio.mp3
AudioLeadIn: 0
PreviewTime: 7581
Countdown: 0
SampleSet: Normal
StackLeniency: 0.4
Mode: 0
LetterboxInBreaks: 0
WidescreenStoryboard: 0

[Editor]
DistanceSpacing: 0.8
BeatDivisor: 4
GridSize: 8
TimelineZoom: 3.199999

[Metadata]
Title:Tsuki made todoke, waga urami
TitleUnicode:月まで届け、我が怨み
Artist:UNDEAD CORPORATION
ArtistUnicode:UNDEAD CORPORATION
Creator:-Ran Yakumo-
Version:Burning Grudge
Source:東方Project
Tags:
BeatmapID:1206476
BeatmapSetID:569063

[Difficulty]
HPDrainRate:4.7
CircleSize:4
OverallDifficulty:10
ApproachRate:10
SliderMultiplier:2
SliderTickRate:1

[Events]
//Background and Video events
0,0,"awsd.jpg",0,0
//Break Periods
2,33380,35131
2,161381,163531
2,165381,166331
2,194081,199131
//Storyboard Layer 0 (Background)
//Storyboard Layer 1 (Fail)
//Storyboard Layer 2 (Pass)
//Storyboard Layer 3 (Foreground)
//Storyboard Sound Samples

[TimingPoints]
-19,200,4,1,0,100,1,0
11181,-83.3333333333333,4,1,0,100,0,1
13981,-100,4,1,0,100,0,1
17581,-90.9090909090909,4,1,0,100,0,1
18381,-83.3333333333333,4,1,0,100,0,1
19181,-76.9230769230769,4,1,0,100,0,1
20781,-83.3333333333333,4,1,0,100,0,0
33181,-111.111111111111,4,1,0,100,0,0
36381,400,4,1,0,100,1,0
45981,200,4,1,0,100,1,0
58781,-83.3333333333333,4,1,0,100,0,0
71581,-100,4,1,0,100,0,1
74181,-83.3333333333333,4,1,0,100,0,1
77981,-100,4,1,0,100,0,1
81181,-90.9090909090909,4,1,0,100,0,1
81981,-83.3333333333333,4,1,0,100,0,1
82781,-76.9230769230769,4,1,0,100,0,1
83581,-71.4285714285714,4,1,0,100,0,1
84381,-100,4,1,0,100,0,1
86981,-83.3333333333333,4,1,0,100,0,1
90781,-100,4,1,0,100,0,1
93981,-90.9090909090909,4,1,0,100,0,1
94781,-83.3333333333333,4,1,0,100,0,1
95581,-76.9230769230769,4,1,0,100,0,1
96381,-71.4285714285714,4,1,0,100,0,1
97181,400,4,1,0,100,1,0
109981,200,4,1,0,100,1,0
122781,-83.3333333333333,4,1,0,100,0,0
135581,-100,4,1,0,100,0,1
138181,-83.3333333333333,4,1,0,100,0,1
141981,-100,4,1,0,100,0,1
145181,-90.9090909090909,4,1,0,100,0,1
145981,-83.3333333333333,4,1,0,100,0,1
146781,-76.9230769230769,4,1,0,100,0,1
147581,-71.4285714285714,4,1,0,100,0,1
148381,-100,4,1,0,100,0,1
150981,-83.3333333333333,4,1,0,100,0,1
154781,-100,4,1,0,100,0,1
157981,-90.9090909090909,4,1,0,100,0,1
158781,-83.3333333333333,4,1,0,100,0,1
159581,-76.9230769230769,4,1,0,100,0,1
160381,-71.4285714285714,4,1,0,100,0,1
161181,-100,4,1,0,100,0,0
167981,-83.3333333333333,4,1,0,100,0,0
177981,-66.6666666666667,4,1,0,100,0,1
190781,-76.9230769230769,4,1,0,100,0,1
191581,-62.5,4,1,0,100,0,1
192381,-52.6315789473684,4,1,0,100,0,1
193781,-100,4,1,0,100,0,0
193981,800,4,1,0,100,1,0
200381,200,4,1,0,100,1,0
201981,400,4,1,0,100,1,0
205181,200,4,1,0,100,1,0
205181,-90.9090909090909,4,1,0,100,0,1
205981,-83.3333333333333,4,1,0,100,0,1
206781,-76.9230769230769,4,1,0,100,0,1
207581,-71.4285714285714,4,1,0,100,0,1
208381,-100,4,1,0,100,0,1
210981,-83.3333333333333,4,1,0,100,0,1
214781,-100,4,1,0,100,0,1
217981,-90.9090909090909,4,1,0,100,0,1
218781,-83.3333333333333,4,1,0,100,0,1
219581,-76.9230769230769,4,1,0,100,0,1
220381,-100,4,1,0,100,0,0

[Colours]
Combo1 : 255,255,255
Combo2 : 192,192,192
Combo3 : 242,0,0
Combo4 : 198,53,4

[HitObjects]
109,66,381,5,0,0:0:0:0:
382,45,781,1,0,0:0:0:0:
403,318,1181,1,0,0:0:0:0:
130,339,1581,1,0,0:0:0:0:
240,0,1981,5,0,0:0:0:0:
430,274,2381,1,0,0:0:0:0:
97,301,2781,1,0,0:0:0:0:
97,301,2881,1,0,0:0:0:0:
97,301,2981,1,0,0:0:0:0:
97,301,3081,1,0,0:0:0:0:
97,301,3181,5,0,0:0:0:0:
53,237,3281,1,0,0:0:0:0:
61,159,3381,1,0,0:0:0:0:
117,104,3481,1,0,0:0:0:0:
195,99,3581,1,0,0:0:0:0:
258,146,3681,1,0,0:0:0:0:
311,201,3781,1,0,0:0:0:0:
384,180,3881,1,0,0:0:0:0:
426,112,3981,6,0,P|425:72|389:20,1,100
214,220,4181,2,0,P|214:259|250:311,1,100
334,113,4381,2,0,B|283:104|283:104|220:106,1,100
355,316,4581,2,0,B|406:325|406:325|469:323,1,100
334,113,4781,5,0,0:0:0:0:
306,40,4881,1,0,0:0:0:0:
235,9,4981,1,0,0:0:0:0:
164,45,5081,1,0,0:0:0:0:
181,120,5181,1,0,0:0:0:0:
130,178,5281,1,0,0:0:0:0:
53,170,5381,1,0,0:0:0:0:
15,104,5481,1,0,0:0:0:0:
46,33,5581,1,0,0:0:0:0:
124,29,5681,1,0,0:0:0:0:
193,71,5781,1,0,0:0:0:0:
212,148,5881,1,0,0:0:0:0:
258,211,5981,1,0,0:0:0:0:
334,226,6081,1,0,0:0:0:0:
401,185,6181,1,0,0:0:0:0:
422,110,6281,1,0,0:0:0:0:
387,40,6381,6,0,B|340:25|340:25|279:24,1,100
105,82,6581,1,0,0:0:0:0:
85,116,6647,1,0,0:0:0:0:
80,156,6714,1,0,0:0:0:0:
88,195,6781,1,0,0:0:0:0:
110,228,6847,1,0,0:0:0:0:
142,251,6914,1,0,0:0:0:0:
180,262,6981,1,0,0:0:0:0:
220,258,7047,1,0,0:0:0:0:
256,241,7113,1,0,0:0:0:0:
294,234,7180,1,0,0:0:0:0:
331,249,7247,1,0,0:0:0:0:
353,281,7313,1,0,0:0:0:0:
354,320,7380,1,0,0:0:0:0:
333,354,7447,1,0,0:0:0:0:
298,370,7513,1,0,0:0:0:0:
259,365,7580,5,0,0:0:0:0:
406,17,7981,5,0,0:0:0:0:
106,17,8781,5,0,0:0:0:0:
48,289,9581,6,0,L|168:281,1,100
300,270,9781,5,0,0:0:0:0:
395,225,9881,1,0,0:0:0:0:
349,126,9981,1,0,0:0:0:0:
254,175,10081,1,0,0:0:0:0:
463,287,10181,6,0,B|478:232|478:232|467:166,1,100
392,8,10381,5,0,0:0:0:0:
349,126,10481,1,0,0:0:0:0:
488,106,10581,2,0,L|492:28,2,66.6666666666667
286,5,10781,2,0,B|294:54|294:54|262:60|262:60|286:79|286:79|252:100|252:100|277:139|277:139|248:148|248:148|264:169|264:169|254:236,1,300
200,346,11181,6,0,B|135:337|135:337|83:310,1,119.999996337891
226,250,11381,1,0,0:0:0:0:
226,250,11481,1,0,0:0:0:0:
99,215,11581,6,0,B|52:172|52:172|25:113,1,119.999996337891
180,158,11781,1,0,0:0:0:0:
180,158,11881,1,0,0:0:0:0:
312,38,11981,6,0,B|373:48|373:48|431:76,1,119.999996337891
286,134,12181,1,0,0:0:0:0:
286,134,12281,1,0,0:0:0:0:
413,169,12381,2,0,B|457:212|457:212|485:273,1,119.999996337891
332,226,12581,1,0,0:0:0:0:
332,226,12681,1,0,0:0:0:0:
205,346,12781,6,0,P|109:353|206:227,1,359.999989013672
248,241,13181,1,0,0:0:0:0:
297,272,13281,1,0,0:0:0:0:
354,261,13381,1,0,0:0:0:0:
389,213,13481,1,0,0:0:0:0:
388,153,13581,1,0,0:0:0:0:
355,84,13681,1,0,0:0:0:0:
401,24,13781,1,0,0:0:0:0:
475,39,13881,1,0,0:0:0:0:
496,112,13981,6,0,P|478:163|492:223,1,100
430,318,14181,2,0,P|395:277|336:259,1,100
266,122,14381,2,0,P|318:112|363:70,1,100
269,31,14581,5,0,0:0:0:0:
193,89,14681,1,0,0:0:0:0:
204,184,14781,1,0,0:0:0:0:
291,223,14881,1,0,0:0:0:0:
375,167,14981,2,0,B|398:221|398:221|403:274,1,100
274,349,15181,2,0,L|138:340,1,100
105,187,15381,2,0,P|152:180|241:196,1,100
316,45,15581,2,0,P|298:89|240:158,1,100
343,308,15781,2,0,P|313:270|282:185,1,100
472,47,15981,6,0,B|468:127|468:127|482:166|482:166|477:262,1,200
343,308,16281,1,0,0:0:0:0:
343,308,16381,1,0,0:0:0:0:
343,308,16481,1,0,0:0:0:0:
343,308,16581,2,0,B|285:293|285:293|239:270,1,100
169,76,16781,2,0,B|227:91|227:91|273:114,1,100
118,272,16981,1,0,0:0:0:0:
77,244,17081,1,0,0:0:0:0:
54,200,17181,1,0,0:0:0:0:
54,150,17281,1,0,0:0:0:0:
77,107,17381,1,0,0:0:0:0:
119,80,17481,1,0,0:0:0:0:
169,76,17581,6,0,B|227:91|227:91|279:117,1,110.000003356934
343,308,17781,2,0,B|285:293|285:293|233:267,1,110.000003356934
372,105,17981,2,0,B|357:163|357:163|331:215,1,110.000003356934
140,279,18181,2,0,B|155:221|155:221|181:169,1,110.000003356934
448,182,18381,6,0,B|395:218|395:218|335:232,1,119.999996337891
64,202,18581,2,0,B|117:166|117:166|177:152,1,119.999996337891
266,384,18781,2,0,B|230:331|230:331|216:271,1,119.999996337891
246,0,18981,2,0,B|282:53|282:53|296:113,1,119.999996337891
296,243,19181,6,0,L|200:256,1,86.6666626993817
116,254,19314,1,0,0:0:0:0:
76,252,19380,1,0,0:0:0:0:
40,234,19447,1,0,0:0:0:0:
15,204,19514,1,0,0:0:0:0:
4,166,19580,1,0,0:0:0:0:
9,126,19647,1,0,0:0:0:0:
30,93,19714,1,0,0:0:0:0:
62,70,19781,2,0,L|150:78,2,86.6666626993817
227,88,19981,5,0,0:0:0:0:
263,104,20047,1,0,0:0:0:0:
290,133,20114,1,0,0:0:0:0:
304,170,20181,1,0,0:0:0:0:
302,210,20247,1,0,0:0:0:0:
286,246,20314,1,0,0:0:0:0:
253,269,20381,2,0,L|283:350,1,86.6666626993817
371,368,20514,1,0,0:0:0:0:
410,369,20580,1,0,0:0:0:0:
445,349,20647,1,0,0:0:0:0:
471,322,20714,1,0,0:0:0:0:
478,283,20781,6,0,B|474:225|474:225|443:148,1,119.999996337891
386,114,20981,1,0,0:0:0:0:
308,92,21081,1,0,0:0:0:0:
248,147,21181,1,0,0:0:0:0:
262,226,21281,1,0,0:0:0:0:
247,309,21381,1,0,0:0:0:0:
171,335,21481,1,0,0:0:0:0:
107,286,21581,1,0,0:0:0:0:
112,202,21681,1,0,0:0:0:0:
157,136,21781,1,0,0:0:0:0:
118,67,21881,1,0,0:0:0:0:
38,73,21981,1,0,0:0:0:0:
9,147,22081,1,0,0:0:0:0:
46,221,22181,1,0,0:0:0:0:
121,254,22281,1,0,0:0:0:0:
200,232,22381,6,0,B|257:208|257:208|312:172,1,119.999996337891
500,234,22581,2,0,B|443:258|443:258|394:290,1,119.999996337891
185,82,22781,2,0,B|241:57|241:57|296:21,1,119.999996337891
484,83,22981,2,0,B|427:107|427:107|378:139,1,119.999996337891
279,240,23181,2,0,P|272:298|301:365,1,119.999996337891
170,196,23381,2,0,P|190:140|184:81,1,119.999996337891
113,27,23581,5,0,0:0:0:0:
40,66,23681,1,0,0:0:0:0:
0,139,23781,1,0,0:0:0:0:
5,222,23881,1,0,0:0:0:0:
53,289,23981,1,0,0:0:0:0:
130,320,24081,1,0,0:0:0:0:
211,305,24181,1,0,0:0:0:0:
272,249,24281,1,0,0:0:0:0:
314,176,24381,1,0,0:0:0:0:
285,96,24481,1,0,0:0:0:0:
211,59,24581,1,0,0:0:0:0:
128,76,24681,1,0,0:0:0:0:
79,141,24781,1,0,0:0:0:0:
79,223,24881,1,0,0:0:0:0:
130,288,24981,1,0,0:0:0:0:
211,305,25081,1,0,0:0:0:0:
292,301,25181,1,0,0:0:0:0:
343,237,25281,1,0,0:0:0:0:
329,157,25381,1,0,0:0:0:0:
260,114,25481,1,0,0:0:0:0:
182,138,25581,6,0,B|131:172|131:172|41:186,1,119.999996337891
0,282,25781,2,0,B|58:291|58:291|109:324,1,119.999996337891
228,375,25981,2,0,L|377:348,1,119.999996337891
448,288,26181,2,0,B|456:228|456:228|437:159,1,119.999996337891
338,54,26381,2,0,P|303:42|191:66,1,119.999996337891
69,195,26581,2,0,P|104:207|216:183,1,119.999996337891
243,139,26781,5,0,0:0:0:0:
318,172,26881,1,0,0:0:0:0:
350,247,26981,1,0,0:0:0:0:
324,324,27081,1,0,0:0:0:0:
251,363,27181,1,0,0:0:0:0:
172,343,27281,1,0,0:0:0:0:
127,274,27381,1,0,0:0:0:0:
108,194,27481,1,0,0:0:0:0:
138,115,27581,1,0,0:0:0:0:
147,37,27681,1,0,0:0:0:0:
75,8,27781,1,0,0:0:0:0:
28,71,27881,1,0,0:0:0:0:
76,139,27981,1,0,0:0:0:0:
140,190,28081,1,0,0:0:0:0:
222,187,28181,1,0,0:0:0:0:
282,132,28281,1,0,0:0:0:0:
361,110,28381,1,0,0:0:0:0:
436,144,28481,1,0,0:0:0:0:
471,219,28581,2,0,P|478:279|415:337,1,119.999996337891
261,360,28781,5,0,0:0:0:0:
222,187,28881,1,0,0:0:0:0:
261,360,28981,1,0,0:0:0:0:
222,187,29081,1,0,0:0:0:0:
155,293,29181,1,0,0:0:0:0:
327,254,29281,1,0,0:0:0:0:
155,293,29381,1,0,0:0:0:0:
327,254,29481,1,0,0:0:0:0:
155,293,29581,6,0,L|71:272,2,79.9999975585938
110,175,29781,2,0,L|26:154,2,79.9999975585938
182,41,29981,6,0,L|253:37,2,59.9999981689454
373,29,30181,1,0,0:0:0:0:
373,29,30231,1,0,0:0:0:0:
373,29,30281,1,0,0:0:0:0:
213,153,30381,2,0,L|284:149,2,59.9999981689454
404,141,30581,1,0,0:0:0:0:
404,141,30631,1,0,0:0:0:0:
404,141,30681,1,0,0:0:0:0:
246,251,30781,2,0,L|317:247,2,59.9999981689454
437,239,30981,1,0,0:0:0:0:
437,239,31031,1,0,0:0:0:0:
437,239,31081,1,0,0:0:0:0:
277,363,31181,2,0,L|348:359,2,59.9999981689454
468,351,31381,5,0,0:0:0:0:
468,351,31431,1,0,0:0:0:0:
468,351,31481,1,0,0:0:0:0:
305,247,31581,1,0,0:0:0:0:
305,247,31631,1,0,0:0:0:0:
305,247,31681,1,0,0:0:0:0:
468,165,31781,1,0,0:0:0:0:
468,165,31831,1,0,0:0:0:0:
468,165,31881,1,0,0:0:0:0:
312,69,31981,5,0,0:0:0:0:
278,47,32047,1,0,0:0:0:0:
238,43,32114,1,0,0:0:0:0:
202,57,32181,1,0,0:0:0:0:
176,87,32247,1,0,0:0:0:0:
166,125,32314,1,0,0:0:0:0:
175,164,32381,1,0,0:0:0:0:
202,193,32447,1,0,0:0:0:0:
216,231,32514,1,0,0:0:0:0:
215,271,32581,1,0,0:0:0:0:
199,307,32647,1,0,0:0:0:0:
171,335,32714,1,0,0:0:0:0:
135,351,32781,1,0,0:0:0:0:
95,353,32847,1,0,0:0:0:0:
58,339,32914,1,0,0:0:0:0:
28,313,32981,1,0,0:0:0:0:
10,278,33047,1,0,0:0:0:0:
6,238,33114,1,0,0:0:0:0:
17,200,33180,5,0,0:0:0:0:
111,49,35581,5,0,0:0:0:0:
111,49,35681,1,0,0:0:0:0:
111,49,35781,2,0,B|104:100|104:100|110:141,1,89.9999972534181
188,265,35981,1,0,0:0:0:0:
180,103,36081,1,0,0:0:0:0:
100,224,36181,1,0,0:0:0:0:
234,188,36281,1,0,0:0:0:0:
109,138,36381,6,0,P|55:154|56:313,1,200
369,161,37181,2,0,P|398:112|291:-4,1,200
226,305,37981,2,0,P|253:354|408:320,1,200
465,133,38781,5,0,0:0:0:0:
465,133,38881,1,0,0:0:0:0:
370,78,38981,1,0,0:0:0:0:
47,251,39181,5,0,0:0:0:0:
47,251,39281,1,0,0:0:0:0:
142,306,39381,1,0,0:0:0:0:
200,22,39581,6,0,B|194:108|194:108|219:148|219:148|212:243,1,200
443,176,40381,2,0,B|371:127|371:127|324:129|324:129|245:75,1,200
195,314,41181,2,0,B|272:276|272:276|294:234|294:234|380:193,1,200
37,128,41981,6,0,L|34:42,2,50
46,272,42381,5,0,0:0:0:0:
112,321,42481,1,0,0:0:0:0:
195,314,42581,1,0,0:0:0:0:
254,255,42681,1,0,0:0:0:0:
258,172,42781,6,0,P|276:128|374:198,1,200
408,331,43581,2,0,B|300:346|300:346|196:349,1,200
175,142,44381,2,0,P|206:70|341:34,1,200
469,337,45181,5,0,0:0:0:0:
469,337,45281,1,0,0:0:0:0:
300,351,45381,1,0,0:0:0:0:
43,47,45581,5,0,0:0:0:0:
43,47,45681,1,0,0:0:0:0:
212,33,45781,1,0,0:0:0:0:
300,351,45981,5,0,0:0:0:0:
244,371,46081,1,0,0:0:0:0:
185,362,46181,1,0,0:0:0:0:
138,326,46281,1,0,0:0:0:0:
114,271,46381,1,0,0:0:0:0:
120,212,46481,1,0,0:0:0:0:
153,163,46581,1,0,0:0:0:0:
206,136,46681,1,0,0:0:0:0:
265,138,46781,1,0,0:0:0:0:
316,168,46881,1,0,0:0:0:0:
346,219,46981,1,0,0:0:0:0:
381,267,47081,1,0,0:0:0:0:
438,281,47181,1,0,0:0:0:0:
490,255,47281,1,0,0:0:0:0:
512,201,47381,1,0,0:0:0:0:
497,145,47481,1,0,0:0:0:0:
414,71,47581,5,0,0:0:0:0:
356,54,47681,1,0,0:0:0:0:
298,65,47781,1,0,0:0:0:0:
250,100,47881,1,0,0:0:0:0:
223,153,47981,1,0,0:0:0:0:
222,213,48081,1,0,0:0:0:0:
248,266,48181,1,0,0:0:0:0:
238,324,48281,1,0,0:0:0:0:
200,370,48381,1,0,0:0:0:0:
144,390,48481,1,0,0:0:0:0:
86,381,48581,1,0,0:0:0:0:
40,343,48681,1,0,0:0:0:0:
19,287,48781,1,0,0:0:0:0:
29,229,48881,1,0,0:0:0:0:
67,183,48981,1,0,0:0:0:0:
123,163,49081,1,0,0:0:0:0:
222,213,49181,5,0,0:0:0:0:
278,234,49281,1,0,0:0:0:0:
336,223,49381,1,0,0:0:0:0:
380,183,49481,1,0,0:0:0:0:
396,127,49581,1,0,0:0:0:0:
381,69,49681,1,0,0:0:0:0:
338,29,49781,1,0,0:0:0:0:
280,17,49881,1,0,0:0:0:0:
224,37,49981,1,0,0:0:0:0:
176,72,50081,1,0,0:0:0:0:
145,123,50181,1,0,0:0:0:0:
138,182,50281,1,0,0:0:0:0:
154,240,50381,1,0,0:0:0:0:
191,286,50481,1,0,0:0:0:0:
244,314,50581,1,0,0:0:0:0:
303,319,50681,1,0,0:0:0:0:
434,291,50781,5,0,0:0:0:0:
467,241,50881,1,0,0:0:0:0:
468,182,50981,1,0,0:0:0:0:
438,131,51081,1,0,0:0:0:0:
385,105,51181,1,0,0:0:0:0:
326,110,51281,1,0,0:0:0:0:
280,147,51381,1,0,0:0:0:0:
235,186,51481,1,0,0:0:0:0:
177,201,51581,6,0,L|76:180,1,100
126,325,51781,2,0,L|223:345,1,100
370,374,51981,5,0,0:0:0:0:
430,232,52081,1,0,0:0:0:0:
370,374,52181,1,0,0:0:0:0:
430,232,52281,1,0,0:0:0:0:
370,374,52381,5,0,0:0:0:0:
314,354,52481,1,0,0:0:0:0:
273,310,52581,1,0,0:0:0:0:
257,253,52681,1,0,0:0:0:0:
270,195,52781,1,0,0:0:0:0:
308,149,52881,1,0,0:0:0:0:
362,126,52981,1,0,0:0:0:0:
414,101,53081,1,0,0:0:0:0:
425,44,53181,1,0,0:0:0:0:
385,1,53281,1,0,0:0:0:0:
328,8,53381,1,0,0:0:0:0:
287,51,53481,1,0,0:0:0:0:
258,103,53581,1,0,0:0:0:0:
208,133,53681,1,0,0:0:0:0:
148,134,53781,1,0,0:0:0:0:
97,104,53881,1,0,0:0:0:0:
15,197,53981,5,0,0:0:0:0:
2,254,54081,1,0,0:0:0:0:
19,311,54181,1,0,0:0:0:0:
62,352,54281,1,0,0:0:0:0:
120,366,54381,1,0,0:0:0:0:
177,350,54481,1,0,0:0:0:0:
231,326,54581,1,0,0:0:0:0:
264,277,54681,1,0,0:0:0:0:
265,218,54781,1,0,0:0:0:0:
235,167,54881,1,0,0:0:0:0:
205,116,54981,1,0,0:0:0:0:
215,58,55081,1,0,0:0:0:0:
260,20,55181,1,0,0:0:0:0:
319,20,55281,1,0,0:0:0:0:
364,58,55381,1,0,0:0:0:0:
374,116,55481,1,0,0:0:0:0:
336,251,55581,5,0,0:0:0:0:
323,308,55681,1,0,0:0:0:0:
354,357,55781,1,0,0:0:0:0:
411,372,55881,1,0,0:0:0:0:
461,343,55981,1,0,0:0:0:0:
477,286,56081,1,0,0:0:0:0:
450,235,56181,1,0,0:0:0:0:
403,199,56281,1,0,0:0:0:0:
345,187,56381,1,0,0:0:0:0:
287,202,56481,1,0,0:0:0:0:
242,240,56581,1,0,0:0:0:0:
218,295,56681,1,0,0:0:0:0:
169,328,56781,1,0,0:0:0:0:
110,333,56881,1,0,0:0:0:0:
56,308,56981,1,0,0:0:0:0:
22,260,57081,1,0,0:0:0:0:
16,201,57181,6,0,P|26:141|91:100,1,100
200,52,57381,1,0,0:0:0:0:
238,59,57447,1,0,0:0:0:0:
272,81,57514,1,0,0:0:0:0:
295,114,57580,1,0,0:0:0:0:
304,152,57647,1,0,0:0:0:0:
298,192,57714,1,0,0:0:0:0:
278,226,57780,1,0,0:0:0:0:
244,249,57847,1,0,0:0:0:0:
216,275,57913,1,0,0:0:0:0:
215,314,57981,6,0,B|269:334|269:334|330:338,1,100
445,324,58181,1,0,0:0:0:0:
447,284,58247,1,0,0:0:0:0:
450,244,58314,1,0,0:0:0:0:
452,204,58380,1,0,0:0:0:0:
455,164,58447,1,0,0:0:0:0:
455,164,58781,6,0,P|421:91|246:98,1,239.999992675781
56,219,59081,2,0,P|91:293|266:286,1,239.999992675781
214,0,59381,2,0,P|140:34|147:209,1,239.999992675781
298,384,59681,2,0,P|371:349|364:174,1,239.999992675781
187,103,59981,2,0,B|126:86|126:86|45:84,1,119.999996337891
325,281,60181,2,0,B|386:298|386:298|467:300,1,119.999996337891
494,50,60381,6,0,B|394:32|394:32|360:55|360:55|246:35,1,239.999992675781
18,334,60681,2,0,B|118:352|118:352|152:329|152:329|266:349,1,239.999992675781
112,32,60981,2,0,B|98:93|98:93|99:195,1,119.999996337891
401,349,61181,2,0,B|419:249|419:249|396:215|396:215|416:101,1,239.999992675781
47,239,61481,2,0,B|125:304|125:304|166:301|166:301|254:376,1,239.999992675781
310,0,61781,2,0,B|250:25|250:25|218:63|218:63|141:96,1,179.999994506836
157,88,61981,6,0,P|134:151|137:217,1,119.999996337891
354,295,62181,2,0,P|378:233|375:167,1,119.999996337891
152,290,62381,2,0,P|215:314|281:311,1,119.999996337891
359,93,62581,2,0,P|297:70|231:73,1,119.999996337891
54,95,62781,6,0,B|43:161|43:161|45:227,1,119.999996337891
458,289,62981,2,0,B|469:223|469:223|467:157,1,119.999996337891
153,372,63181,2,0,B|219:383|219:383|285:381,1,119.999996337891
359,12,63381,2,0,B|293:1|293:1|227:3,1,119.999996337891
467,169,63581,6,0,L|476:44,1,119.999996337891
45,215,63781,2,0,L|36:340,1,119.999996337891
215,15,63981,2,0,L|90:6,1,119.999996337891
297,369,64181,2,0,L|422:378,1,119.999996337891
162,93,64381,6,0,P|131:140|143:234,1,119.999996337891
350,291,64581,2,0,P|381:244|369:150,1,119.999996337891
166,232,64781,1,0,0:0:0:0:
157,270,64847,1,0,0:0:0:0:
165,309,64914,1,0,0:0:0:0:
186,342,64980,1,0,0:0:0:0:
219,366,65047,1,0,0:0:0:0:
257,374,65114,1,0,0:0:0:0:
297,369,65181,6,0,B|393:261|329:275|414:147,1,239.999992675781
215,15,65481,2,0,B|118:122|197:121|97:236,1,239.999992675781
504,127,65781,2,0,B|396:30|398:109|282:9,1,239.999992675781
8,257,66081,2,0,B|115:353|114:275|229:374,1,239.999992675781
114,28,66381,6,0,B|54:47|54:47|3:81,1,119.999996337891
200,226,66581,2,0,B|260:207|260:207|311:173,1,119.999996337891
434,47,66781,2,0,B|450:162|450:162|435:307,1,239.999992675781
71,121,67081,2,0,B|162:49|162:49|295:-9,1,239.999992675781
288,384,67381,2,0,B|230:359|230:359|157:308,1,119.999996337891
329,93,67581,2,0,P|376:144|256:249,1,239.999992675781
137,221,67881,2,0,P|157:154|308:206,1,239.999992675781
231,312,68181,2,0,P|211:254|239:169,1,119.999996337891
417,380,68381,6,0,B|251:335|324:413|169:379,1,239.999992675781
95,4,68681,2,0,B|261:49|188:-29|343:5,1,239.999992675781
68,353,68981,2,0,B|113:187|35:260|69:105,1,239.999992675781
444,31,69281,2,0,B|399:196|477:124|443:279,1,239.999992675781
237,315,69581,2,0,L|203:184,1,119.999996337891
275,69,69781,2,0,L|309:200,1,119.999996337891
56,226,69981,6,0,P|36:171|128:223,1,239.999992675781
427,300,70281,2,0,P|349:360|343:262,1,239.999992675781
326,1,70580,2,0,P|401:65|307:91,1,239.999992675781
275,69,70847,1,0,0:0:0:0:
238,54,70913,1,0,0:0:0:0:
198,57,70980,1,0,0:0:0:0:
164,76,71047,1,0,0:0:0:0:
141,109,71113,1,0,0:0:0:0:
135,148,71180,1,0,0:0:0:0:
135,148,71581,6,0,B|143:201|143:201|181:275,1,100
234,281,71781,1,0,0:0:0:0:
304,314,71881,1,0,0:0:0:0:
377,287,71981,1,0,0:0:0:0:
407,215,72081,1,0,0:0:0:0:
376,144,72181,1,0,0:0:0:0:
303,116,72281,1,0,0:0:0:0:
233,150,72381,2,0,P|190:135|152:74,1,100
231,231,72581,2,0,P|239:277|205:341,1,100
302,193,72781,2,0,P|338:163|427:269,1,200
131,348,73081,5,0,0:0:0:0:
131,348,73181,2,0,B|113:255|113:255|112:128,1,200
147,78,73481,1,0,0:0:0:0:
211,33,73581,1,0,0:0:0:0:
287,48,73681,1,0,0:0:0:0:
330,113,73781,1,0,0:0:0:0:
315,189,73881,1,0,0:0:0:0:
249,231,73981,1,0,0:0:0:0:
232,304,74081,1,0,0:0:0:0:
294,346,74181,6,0,B|349:351|349:351|420:339,1,119.999996337891
410,153,74381,2,0,B|414:99|414:99|403:28,1,119.999996337891
217,37,74581,2,0,B|163:33|163:33|90:43,1,119.999996337891
109,227,74781,2,0,B|104:281|104:281|132:316|166:323|166:323|206:332|235:322|268:278,1,239.999992675781
403,157,75081,1,0,0:0:0:0:
403,157,75181,2,0,B|408:103|408:103|380:68|346:61|346:61|306:52|277:62|244:106,1,239.999992675781
291,339,75481,1,0,0:0:0:0:
291,339,75581,2,0,B|345:344|345:344|380:316|387:282|387:282|396:242|386:213|342:180,1,239.999992675781
221,39,75881,1,0,0:0:0:0:
221,39,75981,2,0,B|167:34|167:34|132:62|125:96|125:96|116:136|126:165|170:198,1,239.999992675781
237,280,76281,5,0,0:0:0:0:
237,280,76381,1,0,0:0:0:0:
333,285,76481,1,0,0:0:0:0:
395,211,76581,1,0,0:0:0:0:
374,117,76681,1,0,0:0:0:0:
323,45,76781,2,0,B|274:38|274:38|178:51,1,119.999996337891
116,194,76981,2,0,B|165:201|165:201|261:188,1,119.999996337891
70,86,77181,5,0,0:0:0:0:
48,111,77247,1,0,0:0:0:0:
31,139,77314,1,0,0:0:0:0:
19,170,77381,1,0,0:0:0:0:
12,203,77447,1,0,0:0:0:0:
10,236,77514,1,0,0:0:0:0:
14,269,77581,2,0,L|68:333,2,79.9999975585938
137,310,77781,2,0,L|190:370,2,79.9999975585938
269,346,77981,6,0,B|316:326|316:326|365:284,1,100
392,224,78181,1,0,0:0:0:0:
411,148,78281,1,0,0:0:0:0:
371,81,78381,1,0,0:0:0:0:
295,63,78481,1,0,0:0:0:0:
229,104,78581,1,0,0:0:0:0:
210,188,78681,1,0,0:0:0:0:
264,252,78781,2,0,B|308:284|308:284|364:296,1,100
487,260,78981,2,0,L|499:133,1,100
387,38,79181,2,0,B|307:36|307:36|269:49|269:49|181:48,1,200
34,149,79481,5,0,0:0:0:0:
34,149,79581,2,0,B|20:277|75:214|35:366,1,200
116,369,79881,1,0,0:0:0:0:
194,365,79981,1,0,0:0:0:0:
249,310,80081,1,0,0:0:0:0:
253,232,80181,2,0,P|246:188|275:133,1,100
441,335,80381,2,0,L|312:349,1,100
166,288,80581,5,0,0:0:0:0:
117,225,80681,1,0,0:0:0:0:
109,147,80781,1,0,0:0:0:0:
144,76,80881,1,0,0:0:0:0:
212,35,80981,1,0,0:0:0:0:
291,36,81081,1,0,0:0:0:0:
349,91,81181,6,0,B|364:146|364:146|363:213,1,110.000003356934
166,288,81381,2,0,B|151:233|151:233|149:165,1,110.000003356934
357,285,81581,2,0,B|302:300|302:300|235:299,1,110.000003356934
155,99,81781,2,0,B|210:84|210:84|278:82,1,110.000003356934
446,251,81981,6,0,L|461:374,1,119.999996337891
66,133,82181,2,0,L|51:10,1,119.999996337891
209,370,82381,2,0,L|86:385,1,119.999996337891
303,14,82581,2,0,L|426:-1,1,119.999996337891
318,255,82781,5,0,0:0:0:0:
194,129,82881,1,0,0:0:0:0:
193,254,82981,1,0,0:0:0:0:
319,130,83081,1,0,0:0:0:0:
128,192,83181,1,0,0:0:0:0:
384,192,83281,1,0,0:0:0:0:
256,320,83381,1,0,0:0:0:0:
256,64,83481,1,0,0:0:0:0:
430,231,83581,5,0,0:0:0:0:
417,275,83647,1,0,0:0:0:0:
387,311,83714,1,0,0:0:0:0:
346,332,83781,1,0,0:0:0:0:
300,336,83847,1,0,0:0:0:0:
256,320,83914,1,0,0:0:0:0:
222,289,83981,1,0,0:0:0:0:
203,247,84047,1,0,0:0:0:0:
203,200,84114,1,0,0:0:0:0:
221,157,84181,1,0,0:0:0:0:
254,125,84247,1,0,0:0:0:0:
297,109,84314,1,0,0:0:0:0:
344,111,84381,6,0,P|378:195|296:189,1,200
412,48,84681,1,0,0:0:0:0:
467,104,84781,1,0,0:0:0:0:
481,181,84881,1,0,0:0:0:0:
448,253,84981,1,0,0:0:0:0:
381,294,85081,1,0,0:0:0:0:
302,290,85181,6,0,B|250:272|250:272|200:244,1,100
210,94,85381,2,0,B|262:112|262:112|312:140,1,100
95,206,85581,2,0,P|42:151|101:23,1,200
210,250,85881,1,0,0:0:0:0:
210,250,85981,2,0,P|181:309|45:276,1,200
113,120,86281,5,0,0:0:0:0:
160,57,86381,1,0,0:0:0:0:
233,25,86481,1,0,0:0:0:0:
312,34,86581,1,0,0:0:0:0:
376,80,86681,1,0,0:0:0:0:
409,152,86781,1,0,0:0:0:0:
403,230,86881,1,0,0:0:0:0:
359,296,86981,2,0,B|303:333|303:333|246:346,1,119.999996337891
113,229,87181,2,0,B|110:164|110:164|127:106,1,119.999996337891
294,50,87381,2,0,B|353:79|353:79|394:123,1,119.999996337891
251,344,87581,6,0,B|141:277|135:360|12:255,1,239.999992675781
261,40,87881,1,0,0:0:0:0:
261,40,87981,2,0,B|371:107|377:24|500:129,1,239.999992675781
113,229,88281,1,0,0:0:0:0:
113,229,88381,2,0,B|180:119|97:113|202:-10,1,239.999992675781
399,155,88681,1,0,0:0:0:0:
399,155,88781,2,0,B|332:265|415:271|310:394,1,239.999992675781
232,98,89081,5,0,0:0:0:0:
232,98,89181,2,0,P|293:44|455:46,1,239.999992675781
280,286,89481,1,0,0:0:0:0:
280,286,89581,2,0,B|230:323|230:323|139:357,1,119.999996337891
2,261,89781,2,0,B|52:224|52:224|143:190,1,119.999996337891
59,354,89981,5,0,0:0:0:0:
192,194,90081,1,0,0:0:0:0:
23,161,90181,1,0,0:0:0:0:
142,322,90281,5,0,0:0:0:0:
135,86,90381,1,0,0:0:0:0:
52,320,90481,1,0,0:0:0:0:
219,110,90581,1,0,0:0:0:0:
134,287,90681,1,0,0:0:0:0:
43,69,90781,6,0,P|95:13|214:30,1,200
271,78,91081,1,0,0:0:0:0:
319,140,91181,1,0,0:0:0:0:
322,218,91281,1,0,0:0:0:0:
278,284,91381,2,0,B|237:310|237:310|183:329,1,100
397,175,91581,2,0,B|438:149|438:149|492:130,1,100
237,190,91781,2,0,B|211:148|211:148|192:94,1,100
395,272,91981,2,0,B|420:313|420:313|439:367,1,100
188,327,92181,5,0,0:0:0:0:
188,327,92281,1,0,0:0:0:0:
188,327,92381,2,0,P|127:276|113:145,1,200
137,87,92681,1,0,0:0:0:0:
203,48,92781,1,0,0:0:0:0:
271,82,92881,1,0,0:0:0:0:
280,158,92981,2,0,P|274:209|307:282,1,100
414,351,93181,2,0,P|420:300|387:227,1,100
347,199,93381,5,0,0:0:0:0:
280,158,93481,1,0,0:0:0:0:
205,177,93581,1,0,0:0:0:0:
168,246,93681,1,0,0:0:0:0:
192,320,93781,1,0,0:0:0:0:
262,353,93881,1,0,0:0:0:0:
335,325,93981,6,0,B|365:273|365:273|383:217,1,110.000003356934
325,58,94181,2,0,B|295:110|295:110|277:166,1,110.000003356934
462,186,94381,2,0,B|410:156|410:156|354:138,1,110.000003356934
195,196,94581,2,0,B|247:226|247:226|303:244,1,110.000003356934
188,77,94781,6,0,B|124:91|124:91|68:117,1,119.999996337891
324,307,94981,2,0,B|388:293|388:293|444:267,1,119.999996337891
141,260,95181,2,0,B|155:324|155:324|181:380,1,119.999996337891
371,124,95381,2,0,B|357:60|357:60|331:4,1,119.999996337891
154,28,95581,6,0,L|124:105,3,64.9999970245363
203,154,95781,2,0,L|173:231,3,64.9999970245363
238,268,95981,1,0,0:0:0:0:
229,298,96031,1,0,0:0:0:0:
237,330,96081,1,0,0:0:0:0:
259,353,96131,1,0,0:0:0:0:
290,362,96181,1,0,0:0:0:0:
321,354,96231,1,0,0:0:0:0:
344,332,96281,1,0,0:0:0:0:
353,301,96331,1,0,0:0:0:0:
346,269,96381,6,0,P|324:198|446:247,1,279.999991455078
237,330,96681,1,0,0:0:0:0:
237,330,96731,1,0,0:0:0:0:
237,330,96781,2,0,B|159:331|159:331|81:313,1,139.999995727539
0,150,96981,2,0,B|78:149|78:149|156:167,1,139.999995727539
237,330,97181,6,0,P|285:340|310:214,1,200
274,53,97981,2,0,P|227:44|202:170,1,200
415,246,98581,5,0,0:0:0:0:
415,246,98681,1,0,0:0:0:0:
415,246,98781,2,0,L|424:133,1,100
401,60,99081,1,0,0:0:0:0:
401,60,99181,2,0,B|346:45|346:45|292:38,1,100
212,62,99481,1,0,0:0:0:0:
212,62,99581,2,0,L|209:134,2,50
300,322,99981,5,0,0:0:0:0:
232,351,100081,1,0,0:0:0:0:
158,341,100181,1,0,0:0:0:0:
101,295,100281,1,0,0:0:0:0:
75,225,100381,1,0,0:0:0:0:
75,225,100481,1,0,0:0:0:0:
75,225,100581,2,0,L|85:168,1,50
99,84,100781,5,0,0:0:0:0:
121,59,100847,1,0,0:0:0:0:
151,44,100914,1,0,0:0:0:0:
184,40,100981,1,0,0:0:0:0:
216,47,101047,1,0,0:0:0:0:
244,65,101114,1,0,0:0:0:0:
265,90,101181,1,0,0:0:0:0:
276,122,101247,1,0,0:0:0:0:
276,155,101314,1,0,0:0:0:0:
264,186,101381,5,0,0:0:0:0:
252,217,101447,1,0,0:0:0:0:
252,250,101514,1,0,0:0:0:0:
263,282,101581,1,0,0:0:0:0:
284,307,101647,1,0,0:0:0:0:
312,325,101714,1,0,0:0:0:0:
344,332,101781,1,0,0:0:0:0:
377,328,101847,1,0,0:0:0:0:
407,313,101914,1,0,0:0:0:0:
430,289,101981,6,0,L|441:226,2,33.3333333333333
371,209,102181,2,0,L|382:146,2,33.3333333333333
297,135,102381,2,0,L|308:72,2,33.3333333333333
238,55,102581,2,0,L|249:-8,2,33.3333333333333
99,57,102781,5,0,0:0:0:0:
83,155,102881,1,0,0:0:0:0:
68,254,102981,1,0,0:0:0:0:
413,327,103181,5,0,0:0:0:0:
428,228,103281,1,0,0:0:0:0:
443,129,103381,1,0,0:0:0:0:
134,318,103581,5,0,0:0:0:0:
149,347,103647,1,0,0:0:0:0:
176,366,103714,1,0,0:0:0:0:
209,371,103781,1,0,0:0:0:0:
240,361,103847,1,0,0:0:0:0:
264,339,103914,1,0,0:0:0:0:
276,308,103981,1,0,0:0:0:0:
267,276,104047,1,0,0:0:0:0:
262,243,104114,1,0,0:0:0:0:
261,210,104181,1,0,0:0:0:0:
265,177,104247,1,0,0:0:0:0:
273,144,104314,1,0,0:0:0:0:
286,113,104381,1,0,0:0:0:0:
299,83,104447,1,0,0:0:0:0:
294,50,104514,1,0,0:0:0:0:
274,25,104581,1,0,0:0:0:0:
243,13,104647,1,0,0:0:0:0:
211,17,104714,5,0,0:0:0:0:
191,45,104781,1,0,0:0:0:0:
179,76,104847,1,0,0:0:0:0:
168,107,104914,1,0,0:0:0:0:
156,138,104981,1,0,0:0:0:0:
116,169,105048,1,0,0:0:0:0:
105,201,105114,1,0,0:0:0:0:
93,232,105181,1,0,0:0:0:0:
85,264,105247,5,0,0:0:0:0:
84,280,105313,1,0,0:0:0:0:
87,296,105380,1,0,0:0:0:0:
94,312,105447,1,0,0:0:0:0:
104,325,105513,1,0,0:0:0:0:
117,336,105580,1,0,0:0:0:0:
131,344,105647,1,0,0:0:0:0:
147,348,105713,1,0,0:0:0:0:
164,349,105780,1,0,0:0:0:0:
180,346,105847,1,0,0:0:0:0:
196,340,105913,1,0,0:0:0:0:
210,330,105981,6,0,L|237:271,2,50
301,54,106381,1,0,0:0:0:0:
224,34,106481,1,0,0:0:0:0:
148,57,106581,1,0,0:0:0:0:
96,116,106681,1,0,0:0:0:0:
81,194,106781,6,0,B|86:252|86:252|116:316,1,100
169,336,107081,1,0,0:0:0:0:
169,336,107181,1,0,0:0:0:0:
400,298,107381,6,0,L|406:166,1,100
411,118,107681,1,0,0:0:0:0:
411,118,107781,1,0,0:0:0:0:
155,28,107981,6,0,L|152:100,1,50
53,152,108181,2,0,L|50:102,1,50
170,178,108381,2,0,L|153:369,1,150
209,277,108781,1,0,0:0:0:0:
103,48,108981,1,0,0:0:0:0:
411,118,109181,5,0,0:0:0:0:
411,38,109281,1,0,0:0:0:0:
480,78,109381,1,0,0:0:0:0:
101,266,109581,5,0,0:0:0:0:
32,306,109681,1,0,0:0:0:0:
101,346,109781,1,0,0:0:0:0:
333,350,109981,5,0,0:0:0:0:
382,355,110081,1,0,0:0:0:0:
427,335,110181,1,0,0:0:0:0:
455,295,110281,1,0,0:0:0:0:
459,245,110381,1,0,0:0:0:0:
437,201,110481,1,0,0:0:0:0:
396,174,110581,1,0,0:0:0:0:
347,172,110681,1,0,0:0:0:0:
303,195,110781,1,0,0:0:0:0:
274,235,110881,1,0,0:0:0:0:
227,250,110981,1,0,0:0:0:0:
180,237,111081,1,0,0:0:0:0:
149,198,111181,1,0,0:0:0:0:
146,149,111281,1,0,0:0:0:0:
171,107,111381,1,0,0:0:0:0:
216,87,111481,1,0,0:0:0:0:
229,175,111581,5,0,0:0:0:0:
185,197,111681,1,0,0:0:0:0:
135,196,111781,1,0,0:0:0:0:
93,171,111881,1,0,0:0:0:0:
68,128,111981,1,0,0:0:0:0:
67,79,112081,1,0,0:0:0:0:
90,35,112181,1,0,0:0:0:0:
132,8,112281,1,0,0:0:0:0:
181,5,112381,1,0,0:0:0:0:
226,27,112481,1,0,0:0:0:0:
275,37,112581,1,0,0:0:0:0:
325,32,112681,1,0,0:0:0:0:
371,14,112781,1,0,0:0:0:0:
420,17,112881,1,0,0:0:0:0:
457,49,112981,1,0,0:0:0:0:
468,97,113081,1,0,0:0:0:0:
396,226,113181,5,0,0:0:0:0:
348,239,113281,1,0,0:0:0:0:
298,234,113381,1,0,0:0:0:0:
255,210,113481,1,0,0:0:0:0:
223,171,113581,1,0,0:0:0:0:
201,127,113681,1,0,0:0:0:0:
162,96,113781,1,0,0:0:0:0:
114,83,113881,1,0,0:0:0:0:
66,92,113981,1,0,0:0:0:0:
25,120,114081,1,0,0:0:0:0:
0,162,114181,1,0,0:0:0:0:
0,211,114281,1,0,0:0:0:0:
8,259,114381,1,0,0:0:0:0:
41,296,114481,1,0,0:0:0:0:
86,316,114581,1,0,0:0:0:0:
136,315,114681,1,0,0:0:0:0:
243,228,114781,5,0,0:0:0:0:
277,192,114881,1,0,0:0:0:0:
325,182,114981,1,0,0:0:0:0:
371,199,115081,1,0,0:0:0:0:
399,239,115181,1,0,0:0:0:0:
401,289,115281,1,0,0:0:0:0:
375,331,115381,1,0,0:0:0:0:
331,351,115481,1,0,0:0:0:0:
282,344,115581,6,0,B|230:343|230:343|148:353,1,100
47,252,115781,2,0,B|99:253|99:253|187:238,1,100
274,181,115981,5,0,0:0:0:0:
276,85,116081,1,0,0:0:0:0:
195,33,116181,1,0,0:0:0:0:
109,73,116281,1,0,0:0:0:0:
98,169,116381,5,0,0:0:0:0:
101,218,116481,1,0,0:0:0:0:
121,264,116581,1,0,0:0:0:0:
156,300,116681,1,0,0:0:0:0:
201,321,116781,1,0,0:0:0:0:
250,326,116881,1,0,0:0:0:0:
298,314,116981,1,0,0:0:0:0:
339,285,117081,1,0,0:0:0:0:
368,245,117181,1,0,0:0:0:0:
370,196,117281,1,0,0:0:0:0:
400,157,117381,1,0,0:0:0:0:
447,143,117481,1,0,0:0:0:0:
494,160,117581,1,0,0:0:0:0:
512,201,117681,1,0,0:0:0:0:
512,250,117781,1,0,0:0:0:0:
490,289,117881,1,0,0:0:0:0:
385,355,117981,5,0,0:0:0:0:
335,351,118081,1,0,0:0:0:0:
285,348,118181,1,0,0:0:0:0:
235,344,118281,1,0,0:0:0:0:
185,341,118381,1,0,0:0:0:0:
139,321,118481,1,0,0:0:0:0:
104,286,118581,1,0,0:0:0:0:
81,242,118681,1,0,0:0:0:0:
79,192,118781,1,0,0:0:0:0:
98,146,118881,1,0,0:0:0:0:
135,113,118981,1,0,0:0:0:0:
182,97,119081,1,0,0:0:0:0:
231,103,119181,1,0,0:0:0:0:
274,128,119281,1,0,0:0:0:0:
302,169,119381,1,0,0:0:0:0:
310,218,119481,1,0,0:0:0:0:
246,316,119581,5,0,0:0:0:0:
208,347,119681,1,0,0:0:0:0:
159,352,119781,1,0,0:0:0:0:
116,328,119881,1,0,0:0:0:0:
94,284,119981,1,0,0:0:0:0:
100,236,120081,1,0,0:0:0:0:
133,199,120181,1,0,0:0:0:0:
181,188,120281,1,0,0:0:0:0:
227,206,120381,1,0,0:0:0:0:
272,223,120481,1,0,0:0:0:0:
320,212,120581,1,0,0:0:0:0:
353,176,120681,1,0,0:0:0:0:
360,127,120781,1,0,0:0:0:0:
338,83,120881,1,0,0:0:0:0:
295,59,120981,1,0,0:0:0:0:
246,64,121081,1,0,0:0:0:0:
138,169,121181,6,0,B|140:225|140:225|155:295,1,100
227,335,121381,1,0,0:0:0:0:
235,341,121431,1,0,0:0:0:0:
244,346,121481,1,0,0:0:0:0:
253,350,121531,1,0,0:0:0:0:
262,354,121581,1,0,0:0:0:0:
272,356,121631,1,0,0:0:0:0:
282,357,121681,1,0,0:0:0:0:
292,357,121731,1,0,0:0:0:0:
302,357,121781,1,0,0:0:0:0:
312,355,121831,1,0,0:0:0:0:
321,352,121881,1,0,0:0:0:0:
330,348,121931,1,0,0:0:0:0:
339,344,121981,1,0,0:0:0:0:
348,338,122031,1,0,0:0:0:0:
355,332,122081,1,0,0:0:0:0:
363,325,122131,1,0,0:0:0:0:
369,317,122181,1,0,0:0:0:0:
374,309,122231,1,0,0:0:0:0:
379,300,122281,1,0,0:0:0:0:
383,291,122331,1,0,0:0:0:0:
386,281,122381,1,0,0:0:0:0:
388,271,122431,1,0,0:0:0:0:
388,261,122481,1,0,0:0:0:0:
388,251,122531,1,0,0:0:0:0:
387,242,122581,1,0,0:0:0:0:
385,232,122631,1,0,0:0:0:0:
382,222,122681,1,0,0:0:0:0:
378,213,122731,1,0,0:0:0:0:
372,202,122781,6,0,P|328:150|388:3,1,239.999992675781
140,182,123081,2,0,P|184:234|124:381,1,239.999992675781
19,101,123381,2,0,L|288:78,1,239.999992675781
493,283,123681,2,0,L|224:306,1,239.999992675781
412,10,123981,2,0,B|420:88|420:88|418:138,1,119.999996337891
100,374,124181,2,0,B|92:296|92:296|94:246,1,119.999996337891
295,23,124381,6,0,P|339:102|238:52,1,239.999992675781
382,310,124681,2,0,P|292:308|386:246,1,239.999992675781
93,254,124981,2,0,P|129:206|204:188,1,119.999996337891
295,23,125181,2,0,P|258:70|75:86,1,239.999992675781
217,361,125481,2,0,P|253:313|437:298,1,239.999992675781
419,130,125781,2,0,P|382:177|307:195,1,119.999996337891
132,144,125981,6,0,L|131:14,1,119.999996337891
380,240,126181,2,0,L|381:370,1,119.999996337891
304,68,126381,2,0,L|434:67,1,119.999996337891
204,313,126581,2,0,L|74:314,1,119.999996337891
202,70,126781,2,0,L|293:-22,1,119.999996337891
309,313,126981,2,0,L|218:406,1,119.999996337891
377,138,127181,2,0,L|470:229,1,119.999996337891
134,245,127381,2,0,L|41:154,1,119.999996337891
352,21,127581,6,0,B|358:85|358:85|345:153,1,119.999996337891
160,363,127781,2,0,B|154:299|154:299|167:231,1,119.999996337891
427,288,127981,2,0,B|363:294|363:294|295:281,1,119.999996337891
85,96,128181,2,0,B|149:90|149:90|217:103,1,119.999996337891
444,138,128381,2,0,B|403:188|403:188|346:227,1,119.999996337891
67,245,128581,2,0,B|108:195|108:195|165:156,1,119.999996337891
383,338,128781,5,0,0:0:0:0:
343,339,128847,1,0,0:0:0:0:
303,340,128914,1,0,0:0:0:0:
263,341,128981,1,0,0:0:0:0:
223,342,129047,1,0,0:0:0:0:
183,344,129114,1,0,0:0:0:0:
143,345,129181,6,0,P|40:272|92:137,1,239.999992675781
368,38,129481,2,0,P|472:112|420:247,1,239.999992675781
98,89,129781,2,0,P|171:-14|306:37,1,239.999992675781
416,294,130081,2,0,P|342:397|207:345,1,239.999992675781
194,61,130381,2,0,B|257:68|257:68|320:95,1,119.999996337891
318,323,130581,2,0,B|255:316|255:316|192:289,1,119.999996337891
418,63,130781,6,0,B|468:233|381:144|426:310,1,239.999992675781
101,324,131081,2,0,B|51:154|138:243|93:77,1,239.999992675781
418,63,131381,2,0,B|443:121|443:121|451:189,1,119.999996337891
384,350,131581,2,0,B|214:400|303:313|137:358,1,239.999992675781
124,37,131881,2,0,B|294:-13|205:74|371:29,1,239.999992675781
384,350,132181,2,0,B|325:375|325:375|257:383,1,119.999996337891
82,315,132381,6,0,B|68:220|68:220|80:188|80:188|65:79,1,239.999992675781
430,69,132681,2,0,B|444:164|444:164|432:196|432:196|447:305,1,239.999992675781
133,18,132981,2,0,B|228:4|228:4|260:16|260:16|369:1,1,239.999992675781
379,366,133281,2,0,B|284:380|284:380|252:368|252:368|143:383,1,239.999992675781
345,105,133581,2,0,P|363:164|356:238,1,119.999996337891
167,279,133781,2,0,P|149:220|156:146,1,119.999996337891
461,29,133981,6,0,L|474:285,1,239.999992675781
2,130,134281,2,0,L|203:0,1,239.999992675781
284,384,134581,2,0,L|70:274,1,239.999992675781
53,267,134847,1,0,0:0:0:0:
47,243,134913,1,0,0:0:0:0:
49,219,134980,1,0,0:0:0:0:
59,197,135046,1,0,0:0:0:0:
74,179,135113,1,0,0:0:0:0:
94,166,135180,5,0,0:0:0:0:
94,166,135581,6,0,L|240:182,1,100
272,186,135781,1,0,0:0:0:0:
344,159,135881,1,0,0:0:0:0:
371,84,135981,1,0,0:0:0:0:
320,23,136081,1,0,0:0:0:0:
242,24,136181,1,0,0:0:0:0:
197,86,136281,1,0,0:0:0:0:
216,163,136381,6,0,B|226:218|226:218|222:282,1,100
49,197,136581,2,0,B|91:160|91:160|149:132,1,100
169,355,136781,2,0,P|118:338|160:224,1,200
307,305,137081,1,0,0:0:0:0:
307,305,137181,2,0,B|351:270|351:270|385:230,1,100
408,162,137381,5,0,0:0:0:0:
406,86,137481,1,0,0:0:0:0:
337,53,137581,1,0,0:0:0:0:
277,100,137681,1,0,0:0:0:0:
263,179,137781,1,0,0:0:0:0:
207,232,137881,1,0,0:0:0:0:
129,226,137981,1,0,0:0:0:0:
83,164,138081,1,0,0:0:0:0:
99,88,138181,6,0,B|135:43|135:43|192:4,1,119.999996337891
424,108,138381,2,0,B|445:161|445:161|450:230,1,119.999996337891
244,379,138581,2,0,B|187:371|187:371|125:341,1,119.999996337891
286,50,138781,6,0,B|348:122|348:122|374:179|339:265,1,239.999992675781
114,162,139081,1,0,0:0:0:0:
114,162,139181,2,0,B|186:100|186:100|243:74|329:108,1,239.999992675781
226,334,139481,1,0,0:0:0:0:
226,334,139581,2,0,B|164:262|164:262|138:205|172:118,1,239.999992675781
398,222,139881,1,0,0:0:0:0:
398,222,139981,2,0,B|326:284|326:284|269:310|182:275,1,239.999992675781
334,111,140281,5,0,0:0:0:0:
481,244,140381,1,0,0:0:0:0:
489,256,140431,1,0,0:0:0:0:
495,270,140481,1,0,0:0:0:0:
498,284,140531,1,0,0:0:0:0:
499,299,140581,1,0,0:0:0:0:
497,314,140631,1,0,0:0:0:0:
492,328,140681,1,0,0:0:0:0:
485,342,140731,1,0,0:0:0:0:
476,353,140781,1,0,0:0:0:0:
465,363,140831,1,0,0:0:0:0:
452,371,140881,1,0,0:0:0:0:
438,377,140931,1,0,0:0:0:0:
423,379,140981,1,0,0:0:0:0:
408,380,141031,1,0,0:0:0:0:
393,377,141081,1,0,0:0:0:0:
379,372,141131,1,0,0:0:0:0:
364,366,141181,6,0,B|334:315|334:315|319:249,1,119.999996337891
386,86,141381,1,0,0:0:0:0:
407,269,141481,1,0,0:0:0:0:
252,123,141581,1,0,0:0:0:0:
222,116,141647,1,0,0:0:0:0:
193,121,141714,1,0,0:0:0:0:
168,138,141780,1,0,0:0:0:0:
152,163,141847,1,0,0:0:0:0:
148,193,141914,1,0,0:0:0:0:
153,216,141981,6,0,B|190:254|190:254|241:285,1,100
309,295,142181,1,0,0:0:0:0:
386,284,142281,1,0,0:0:0:0:
435,224,142381,1,0,0:0:0:0:
429,146,142481,1,0,0:0:0:0:
372,93,142581,1,0,0:0:0:0:
294,94,142681,1,0,0:0:0:0:
230,156,142781,6,0,B|196:196|196:196|144:220,1,100
22,149,142981,2,0,B|56:109|56:109|108:85,1,100
285,244,143181,2,0,P|283:314|143:337,1,200
368,178,143481,1,0,0:0:0:0:
368,178,143581,2,0,L|391:292,1,100
346,86,143781,1,0,0:0:0:0:
280,44,143881,1,0,0:0:0:0:
204,61,143981,1,0,0:0:0:0:
164,128,144081,1,0,0:0:0:0:
173,208,144181,6,0,B|203:249|203:249|258:282,1,100
409,341,144381,2,0,P|439:300|451:226,1,100
459,172,144581,1,0,0:0:0:0:
437,100,144681,1,0,0:0:0:0:
357,97,144781,1,0,0:0:0:0:
308,161,144881,1,0,0:0:0:0:
249,209,144981,1,0,0:0:0:0:
177,184,145081,1,0,0:0:0:0:
162,109,145181,6,0,B|120:73|120:73|59:55,1,110.000003356934
67,326,145381,2,0,B|120:311|120:311|162:275,1,110.000003356934
350,109,145580,2,0,B|392:73|392:73|444:57,1,110.000003356934
444,326,145781,2,0,B|392:311|392:311|350:275,1,110.000003356934
186,29,145981,6,0,L|177:171,1,119.999996337891
333,148,146181,2,0,L|326:29,1,119.999996337891
86,276,146381,2,0,B|101:320|101:320|154:381,1,119.999996337891
362,375,146581,2,0,B|411:320|411:320|426:276,1,119.999996337891
94,100,146781,5,0,0:0:0:0:
302,133,146881,1,0,0:0:0:0:
213,249,146981,1,0,0:0:0:0:
246,41,147081,1,0,0:0:0:0:
304,260,147181,5,0,0:0:0:0:
96,227,147281,1,0,0:0:0:0:
185,111,147381,1,0,0:0:0:0:
152,319,147481,1,0,0:0:0:0:
356,206,147581,6,0,P|379:263|321:338,1,139.999995727539
166,87,147781,1,0,0:0:0:0:
166,87,147831,1,0,0:0:0:0:
166,87,147881,1,0,0:0:0:0:
388,60,147981,1,0,0:0:0:0:
276,156,148081,1,0,0:0:0:0:
276,156,148131,1,0,0:0:0:0:
276,156,148181,1,0,0:0:0:0:
207,2,148281,1,0,0:0:0:0:
207,2,148331,1,0,0:0:0:0:
207,2,148381,6,0,P|150:-1|78:137,1,200
74,183,148681,1,0,0:0:0:0:
112,253,148781,1,0,0:0:0:0:
183,283,148881,1,0,0:0:0:0:
261,265,148981,1,0,0:0:0:0:
340,265,149081,1,0,0:0:0:0:
387,329,149181,6,0,P|437:325|485:269,1,100
305,96,149381,2,0,P|283:141|307:210,1,100
497,150,149581,2,0,P|469:108|386:202,1,200
374,28,149881,1,0,0:0:0:0:
374,28,149981,2,0,B|261:15|261:15|159:15,1,200
107,57,150281,1,0,0:0:0:0:
54,115,150381,1,0,0:0:0:0:
42,193,150481,1,0,0:0:0:0:
75,265,150581,1,0,0:0:0:0:
142,307,150681,1,0,0:0:0:0:
221,305,150781,1,0,0:0:0:0:
286,260,150881,1,0,0:0:0:0:
330,195,150981,6,0,B|331:140|331:140|321:60,1,119.999996337891
216,254,151181,2,0,B|263:282|263:282|337:314,1,119.999996337891
221,126,151381,2,0,B|173:153|173:153|109:201,1,119.999996337891
439,262,151581,2,0,P|455:145|446:16,1,239.999992675781
73,122,151881,1,0,0:0:0:0:
73,122,151981,2,0,P|57:239|66:368,1,239.999992675781
326,9,152281,1,0,0:0:0:0:
326,9,152381,2,0,P|209:-7|80:2,1,239.999992675781
186,375,152681,1,0,0:0:0:0:
186,375,152781,2,0,P|303:391|432:382,1,239.999992675781
215,140,153081,5,0,0:0:0:0:
215,140,153181,2,0,B|159:167|159:167|108:214,1,119.999996337891
321,182,153381,2,0,B|326:120|326:120|310:52,1,119.999996337891
313,287,153581,2,0,B|369:260|369:260|420:213,1,119.999996337891
204,229,153781,2,0,B|199:290|199:290|214:358,1,119.999996337891
0,235,153981,5,0,0:0:0:0:
134,173,154081,1,0,0:0:0:0:
94,353,154181,1,0,0:0:0:0:
26,146,154281,1,0,0:0:0:0:
163,301,154381,5,0,0:0:0:0:
6,344,154481,1,0,0:0:0:0:
95,94,154581,1,0,0:0:0:0:
92,271,154681,1,0,0:0:0:0:
22,61,154781,6,0,P|99:20|168:126,1,200
162,168,155081,1,0,0:0:0:0:
167,245,155181,1,0,0:0:0:0:
228,292,155281,1,0,0:0:0:0:
309,281,155381,2,0,P|355:261|399:189,1,100
203,103,155581,2,0,P|156:122|112:194,1,100
345,139,155781,2,0,P|325:92|253:48,1,100
167,245,155981,2,0,P|186:291|346:337,1,200
462,308,156281,5,0,0:0:0:0:
462,308,156381,2,0,L|474:198,1,100
481,129,156581,1,0,0:0:0:0:
463,53,156681,1,0,0:0:0:0:
393,20,156781,1,0,0:0:0:0:
323,54,156881,1,0,0:0:0:0:
320,134,156981,2,0,B|301:179|301:179|265:238,1,100
110,237,157181,2,0,B|129:192|129:192|165:133,1,100
226,340,157381,5,0,0:0:0:0:
151,364,157481,1,0,0:0:0:0:
74,344,157581,1,0,0:0:0:0:
21,286,157681,1,0,0:0:0:0:
8,208,157781,1,0,0:0:0:0:
40,136,157881,1,0,0:0:0:0:
119,97,157981,6,0,B|173:118|173:118|228:151,1,110.000003356934
278,319,158181,2,0,B|224:298|224:298|169:265,1,110.000003356934
309,128,158381,2,0,B|288:182|288:182|255:237,1,110.000003356934
87,287,158581,2,0,B|108:233|108:233|141:178,1,110.000003356934
234,65,158781,2,0,B|300:54|300:54|369:61,1,119.999996337891
278,319,158981,2,0,B|212:330|212:330|143:323,1,119.999996337891
383,170,159181,2,0,B|394:236|394:236|387:305,1,119.999996337891
129,214,159381,2,0,B|118:148|118:148|125:79,1,119.999996337891
223,16,159581,5,0,0:0:0:0:
246,8,159631,1,0,0:0:0:0:
270,9,159681,1,0,0:0:0:0:
293,18,159731,1,0,0:0:0:0:
311,34,159781,1,0,0:0:0:0:
324,54,159831,1,0,0:0:0:0:
328,78,159881,1,0,0:0:0:0:
325,102,159931,1,0,0:0:0:0:
315,124,159981,1,0,0:0:0:0:
304,145,160031,1,0,0:0:0:0:
301,169,160081,1,0,0:0:0:0:
305,193,160131,1,0,0:0:0:0:
318,214,160181,1,0,0:0:0:0:
336,230,160231,1,0,0:0:0:0:
359,238,160281,1,0,0:0:0:0:
383,239,160331,1,0,0:0:0:0:
406,233,160381,6,0,P|439:307|291:320,1,279.999991455078
388,156,160681,1,0,0:0:0:0:
388,156,160731,1,0,0:0:0:0:
388,156,160781,1,0,0:0:0:0:
221,199,160881,1,0,0:0:0:0:
221,199,160931,1,0,0:0:0:0:
221,199,160981,2,0,B|145:186|145:186|72:153,1,139.999995727539
379,20,161181,5,0,0:0:0:0:
99,235,163981,6,0,B|87:169|87:169|99:86,2,133.333333333333
297,34,164381,2,0,B|360:57|360:57|426:109,2,133.333333333333
371,306,164781,2,0,B|320:349|320:349|242:380,2,133.333333333333
256,196,165181,1,0,0:0:0:0:
256,196,166781,5,0,0:0:0:0:
256,192,166831,12,0,167931,0:0:0:0:
53,92,167981,6,0,B|46:156|46:156|60:233,1,119.999996337891
109,291,168181,1,0,0:0:0:0:
197,321,168281,1,0,0:0:0:0:
280,279,168381,1,0,0:0:0:0:
308,190,168481,1,0,0:0:0:0:
310,97,168581,1,0,0:0:0:0:
386,48,168681,1,0,0:0:0:0:
470,87,168781,5,0,0:0:0:0:
483,178,168881,1,0,0:0:0:0:
413,238,168981,1,0,0:0:0:0:
321,260,169081,1,0,0:0:0:0:
236,219,169181,1,0,0:0:0:0:
196,134,169281,1,0,0:0:0:0:
153,53,169381,1,0,0:0:0:0:
61,48,169481,1,0,0:0:0:0:
9,124,169581,5,0,0:0:0:0:
39,215,169681,1,0,0:0:0:0:
120,265,169781,1,0,0:0:0:0:
213,256,169881,1,0,0:0:0:0:
272,183,169981,6,0,B|330:164|330:164|414:162,1,119.999996337891
460,338,170181,2,0,B|402:357|402:357|318:359,1,119.999996337891
147,175,170381,2,0,P|135:122|155:40,1,119.999996337891
295,294,170581,2,0,P|255:331|174:355,1,119.999996337891
38,343,170781,2,0,P|26:286|26:194,1,119.999996337891
80,40,170981,2,0,B|145:33|145:33|219:32,1,119.999996337891
290,66,171181,5,0,0:0:0:0:
258,156,171281,1,0,0:0:0:0:
169,194,171381,1,0,0:0:0:0:
77,200,171481,1,0,0:0:0:0:
32,280,171581,1,0,0:0:0:0:
76,362,171681,1,0,0:0:0:0:
168,369,171781,1,0,0:0:0:0:
258,335,171881,1,0,0:0:0:0:
270,239,171981,5,0,0:0:0:0:
255,147,172081,1,0,0:0:0:0:
258,54,172181,1,0,0:0:0:0:
332,0,172281,1,0,0:0:0:0:
422,19,172381,1,0,0:0:0:0:
463,102,172481,1,0,0:0:0:0:
424,187,172581,1,0,0:0:0:0:
331,166,172681,1,0,0:0:0:0:
236,179,172781,2,0,B|194:224|194:224|171:287,1,119.999996337891
319,361,172981,2,0,B|301:301|301:301|258:250,1,119.999996337891
119,167,173181,5,0,0:0:0:0:
48,353,173281,1,0,0:0:0:0:
18,168,173381,1,0,0:0:0:0:
140,331,173481,1,0,0:0:0:0:
15,255,173581,5,0,0:0:0:0:
111,89,173681,1,0,0:0:0:0:
140,251,173781,1,0,0:0:0:0:
19,79,173881,1,0,0:0:0:0:
222,215,173981,5,0,0:0:0:0:
251,215,174031,1,0,0:0:0:0:
281,216,174081,1,0,0:0:0:0:
311,217,174131,1,0,0:0:0:0:
341,218,174181,1,0,0:0:0:0:
341,218,174381,5,0,0:0:0:0:
345,211,174447,1,0,0:0:0:0:
349,204,174514,1,0,0:0:0:0:
353,197,174580,1,0,0:0:0:0:
356,190,174647,1,0,0:0:0:0:
359,182,174714,1,0,0:0:0:0:
361,175,174780,1,0,0:0:0:0:
363,167,174847,1,0,0:0:0:0:
364,159,174914,1,0,0:0:0:0:
365,151,174980,1,0,0:0:0:0:
365,143,175047,1,0,0:0:0:0:
364,135,175114,1,0,0:0:0:0:
363,127,175180,1,0,0:0:0:0:
362,119,175247,1,0,0:0:0:0:
359,111,175314,1,0,0:0:0:0:
357,104,175380,1,0,0:0:0:0:
354,97,175447,1,0,0:0:0:0:
350,89,175514,1,0,0:0:0:0:
346,83,175580,1,0,0:0:0:0:
341,76,175647,1,0,0:0:0:0:
336,70,175714,1,0,0:0:0:0:
331,64,175780,1,0,0:0:0:0:
325,59,175847,1,0,0:0:0:0:
319,54,175914,1,0,0:0:0:0:
312,49,175980,1,0,0:0:0:0:
305,45,176047,1,0,0:0:0:0:
298,41,176114,1,0,0:0:0:0:
291,38,176180,1,0,0:0:0:0:
283,35,176247,1,0,0:0:0:0:
276,33,176314,1,0,0:0:0:0:
268,32,176381,6,0,L|185:70,3,59.9999981689454
197,145,176581,2,0,L|114:183,3,59.9999981689454
220,235,176781,2,0,L|137:273,3,59.9999981689454
149,348,176981,2,0,L|66:386,3,59.9999981689454
257,371,177181,1,0,0:0:0:0:
276,374,177247,1,0,0:0:0:0:
296,373,177314,1,0,0:0:0:0:
316,368,177380,1,0,0:0:0:0:
334,360,177447,1,0,0:0:0:0:
349,348,177514,1,0,0:0:0:0:
363,333,177580,1,0,0:0:0:0:
372,315,177647,1,0,0:0:0:0:
379,296,177714,1,0,0:0:0:0:
381,276,177780,1,0,0:0:0:0:
379,257,177847,1,0,0:0:0:0:
374,237,177914,1,0,0:0:0:0:
364,220,177981,6,0,P|348:152|372:68,1,150.000005722046
148,164,178181,2,0,P|164:232|140:316,1,150.000005722046
283,84,178381,2,0,P|211:99|139:80,1,150.000005722046
228,299,178581,2,0,P|300:284|372:303,1,150.000005722046
342,106,178781,5,0,0:0:0:0:
261,277,178881,1,0,0:0:0:0:
452,346,178981,1,0,0:0:0:0:
229,266,179081,1,0,0:0:0:0:
425,137,179181,1,0,0:0:0:0:
199,252,179281,1,0,0:0:0:0:
438,233,179381,1,0,0:0:0:0:
169,240,179481,1,0,0:0:0:0:
414,29,179581,6,0,B|344:24|344:24|253:38,1,150.000005722046
155,140,179781,2,0,B|76:152|76:152|6:147,2,150.000005722046
257,270,180081,1,0,0:0:0:0:
257,270,180181,1,0,0:0:0:0:
257,270,180281,1,0,0:0:0:0:
257,270,180381,2,0,B|394:334,1,150.000005722046
454,215,180581,5,0,0:0:0:0:
265,42,180681,1,0,0:0:0:0:
350,214,180781,5,0,0:0:0:0:
414,29,180881,1,0,0:0:0:0:
249,172,180981,5,0,0:0:0:0:
446,108,181081,1,0,0:0:0:0:
182,12,181181,6,0,L|15:48,1,150.000005722046
85,284,181381,5,0,0:0:0:0:
155,133,181481,1,0,0:0:0:0:
23,176,181581,5,0,0:0:0:0:
257,270,181681,1,0,0:0:0:0:
116,56,181781,5,0,0:0:0:0:
175,333,181881,1,0,0:0:0:0:
274,75,181981,5,0,0:0:0:0:
242,113,182047,1,0,0:0:0:0:
230,161,182114,1,0,0:0:0:0:
239,210,182180,1,0,0:0:0:0:
268,250,182247,1,0,0:0:0:0:
311,274,182314,1,0,0:0:0:0:
362,273,182381,2,0,L|470:247,2,100.000003814697
371,172,182581,2,0,L|478:145,2,100.000003814697
386,73,182781,6,0,B|322:37|322:37|239:27,1,150.000005722046
54,150,182981,2,0,B|118:186|118:186|201:196,1,150.000005722046
511,217,183181,2,0,B|447:181|447:181|364:171,1,150.000005722046
179,294,183381,2,0,B|243:330|243:330|326:340,1,150.000005722046
289,116,183581,5,0,0:0:0:0:
280,257,183681,1,0,0:0:0:0:
321,168,183781,5,0,0:0:0:0:
180,159,183881,1,0,0:0:0:0:
223,268,183981,5,0,0:0:0:0:
232,127,184081,1,0,0:0:0:0:
191,216,184181,5,0,0:0:0:0:
332,225,184281,1,0,0:0:0:0:
155,68,184381,6,0,P|83:93|20:161,1,150.000005722046
357,316,184581,2,0,P|429:291|492:223,1,150.000005722046
109,258,184781,2,0,P|134:330|202:393,1,150.000005722046
403,126,184981,2,0,P|378:54|310:-9,1,150.000005722046
167,168,185181,5,0,0:0:0:0:
403,126,185281,1,0,0:0:0:0:
179,196,185381,5,0,0:0:0:0:
316,91,185481,1,0,0:0:0:0:
200,226,185581,5,0,0:0:0:0:
221,57,185681,1,0,0:0:0:0:
216,251,185781,5,0,0:0:0:0:
65,99,185881,1,0,0:0:0:0:
237,358,185981,5,0,0:0:0:0:
256,192,186381,5,0,0:0:0:0:
256,192,186431,1,0,0:0:0:0:
256,192,186481,1,0,0:0:0:0:
256,192,186531,1,0,0:0:0:0:
256,192,186581,1,0,0:0:0:0:
256,192,186631,1,0,0:0:0:0:
256,192,186681,1,0,0:0:0:0:
256,192,186731,1,0,0:0:0:0:
256,192,186781,6,0,L|380:300,1,150.000005722046
406,129,186981,2,0,L|282:21,1,150.000005722046
174,38,187131,1,0,0:0:0:0:
174,38,187181,2,0,B|101:67|101:67|34:138,1,150.000005722046
141,175,187381,2,0,B|129:252|129:252|157:346,1,150.000005722046
261,348,187531,1,0,0:0:0:0:
261,348,187581,6,0,B|345:356|345:356|431:351,1,150.000005722046
474,220,187731,1,0,0:0:0:0:
474,220,187781,2,0,B|390:212|390:212|304:217,1,150.000005722046
146,291,187981,2,0,P|74:269|57:155,1,150.000005722046
45,105,188131,1,0,0:0:0:0:
45,105,188181,2,0,B|112:57|112:57|214:25,1,150.000005722046
250,108,188331,1,0,0:0:0:0:
250,108,188381,6,0,B|332:114|332:114|430:155,1,150.000005722046
411,243,188531,1,0,0:0:0:0:
411,243,188581,2,0,B|469:300|469:300|519:395,1,150.000005722046
405,345,188731,1,0,0:0:0:0:
405,345,188781,2,0,L|251:311,1,150.000005722046
107,39,188981,2,0,L|261:73,1,150.000005722046
348,192,189181,5,0,0:0:0:0:
164,192,189281,1,0,0:0:0:0:
342,223,189381,1,0,0:0:0:0:
169,160,189481,1,0,0:0:0:0:
326,251,189581,1,0,0:0:0:0:
185,132,189681,1,0,0:0:0:0:
302,271,189781,1,0,0:0:0:0:
210,112,189881,1,0,0:0:0:0:
272,281,189981,2,0,P|212:300|94:304,1,150.000005722046
240,101,190181,2,0,P|300:82|418:78,1,150.000005722046
456,179,190381,5,0,0:0:0:0:
459,203,190447,1,0,0:0:0:0:
462,228,190514,1,0,0:0:0:0:
465,253,190580,1,0,0:0:0:0:
468,278,190647,1,0,0:0:0:0:
472,302,190714,1,0,0:0:0:0:
475,327,190780,5,0,0:0:0:0:
296,254,190881,1,0,0:0:0:0:
383,188,190981,1,0,0:0:0:0:
382,369,191081,1,0,0:0:0:0:
285,348,191181,2,0,L|132:308,1,129.999994049073
94,156,191381,1,0,0:0:0:0:
209,33,191481,1,0,0:0:0:0:
272,97,191581,2,0,B|296:174|296:174|295:264,1,160
99,311,191781,1,0,0:0:0:0:
36,247,191881,2,0,B|12:170|12:170|13:80,1,160
326,324,192081,2,0,B|255:352|255:352|161:362,2,160
469,213,192381,5,0,0:0:0:0:
289,132,192481,1,0,0:0:0:0:
469,213,192581,1,0,0:0:0:0:
289,132,192681,1,0,0:0:0:0:
469,213,192781,1,0,0:0:0:0:
289,132,192881,1,0,0:0:0:0:
469,213,192981,1,0,0:0:0:0:
289,132,193081,1,0,0:0:0:0:
379,271,193181,5,0,0:0:0:0:
389,162,193281,1,0,0:0:0:0:
243,280,193381,1,0,0:0:0:0:
308,347,193481,1,0,0:0:0:0:
289,132,193581,1,0,0:0:0:0:
197,168,193681,1,0,0:0:0:0:
407,369,193781,5,0,0:0:0:0:
377,20,193881,1,0,0:0:0:0:
256,192,199581,12,0,200331,0:0:0:0:
86,66,200381,6,0,L|98:188,1,100
105,309,200581,1,0,0:0:0:0:
105,309,200681,2,0,P|158:318|236:313,1,100
407,75,200881,1,0,0:0:0:0:
407,75,200981,2,0,P|354:66|276:71,1,100
426,318,201181,5,0,0:0:0:0:
424,301,201247,1,0,0:0:0:0:
422,284,201314,1,0,0:0:0:0:
421,268,201380,1,0,0:0:0:0:
419,251,201447,1,0,0:0:0:0:
417,235,201514,1,0,0:0:0:0:
416,218,201581,2,0,B|374:195|374:195|356:229|356:229|343:195|343:195|257:242|138:192,1,300
34,82,201981,5,0,0:0:0:0:
478,302,202781,1,0,0:0:0:0:
356,0,203581,1,0,0:0:0:0:
156,384,204381,1,0,0:0:0:0:
156,384,204481,1,0,0:0:0:0:
156,384,204581,1,0,0:0:0:0:
117,352,204681,1,0,0:0:0:0:
93,308,204781,1,0,0:0:0:0:
88,259,204881,1,0,0:0:0:0:
102,211,204981,1,0,0:0:0:0:
132,172,205081,1,0,0:0:0:0:
175,147,205181,6,0,B|236:131|236:131|309:120,1,110.000003356934
426,256,205381,2,0,B|365:272|365:272|292:283,1,110.000003356934
355,76,205581,2,0,B|371:136|371:136|382:209,1,110.000003356934
246,326,205781,2,0,B|230:266|230:266|219:193,1,110.000003356934
355,76,205981,6,0,B|420:78|420:78|493:91,1,119.999996337891
246,326,206181,2,0,B|181:324|181:324|108:311,1,119.999996337891
425,255,206381,2,0,B|423:320|423:320|410:393,1,119.999996337891
175,146,206581,2,0,B|177:81|177:81|190:8,1,119.999996337891
322,0,206781,5,0,0:0:0:0:
332,2,206831,1,0,0:0:0:0:
343,5,206881,1,0,0:0:0:0:
353,9,206931,1,0,0:0:0:0:
362,14,206981,1,0,0:0:0:0:
371,20,207031,1,0,0:0:0:0:
379,27,207081,1,0,0:0:0:0:
387,34,207131,1,0,0:0:0:0:
394,43,207181,1,0,0:0:0:0:
400,52,207231,1,0,0:0:0:0:
405,62,207281,1,0,0:0:0:0:
408,72,207331,1,0,0:0:0:0:
411,82,207381,1,0,0:0:0:0:
413,93,207431,1,0,0:0:0:0:
414,104,207481,1,0,0:0:0:0:
413,114,207531,1,0,0:0:0:0:
412,125,207581,1,0,0:0:0:0:
409,136,207631,1,0,0:0:0:0:
406,146,207681,1,0,0:0:0:0:
401,156,207731,1,0,0:0:0:0:
395,165,207781,1,0,0:0:0:0:
389,173,207831,1,0,0:0:0:0:
381,181,207881,1,0,0:0:0:0:
373,188,207931,1,0,0:0:0:0:
364,195,207981,6,0,B|293:219|293:219|211:223,1,139.999995727539
86,94,208181,1,0,0:0:0:0:
75,261,208281,1,0,0:0:0:0:
75,261,208331,1,0,0:0:0:0:
75,261,208381,6,0,B|96:304|96:304|152:362,1,100
207,368,208581,1,0,0:0:0:0:
284,373,208681,1,0,0:0:0:0:
341,320,208781,1,0,0:0:0:0:
341,243,208881,1,0,0:0:0:0:
283,190,208981,1,0,0:0:0:0:
206,197,209081,1,0,0:0:0:0:
146,250,209181,2,0,B|88:258|88:258|18:258,1,100
257,92,209381,2,0,B|279:38|279:38|300:2,1,100
341,243,209582,2,0,P|375:285|268:309,1,200
401,182,209881,5,0,0:0:0:0:
401,182,209981,2,0,B|436:224|436:224|457:287,1,100
212,288,210181,1,0,0:0:0:0:
144,249,210281,1,0,0:0:0:0:
131,173,210381,1,0,0:0:0:0:
182,114,210481,1,0,0:0:0:0:
262,122,210581,1,0,0:0:0:0:
341,126,210681,1,0,0:0:0:0:
378,55,210781,1,0,0:0:0:0:
319,0,210881,1,0,0:0:0:0:
239,8,210981,6,0,B|230:68|230:68|242:159,1,119.999996337891
423,269,211181,2,0,B|376:231|376:231|291:196,1,119.999996337891
105,298,211381,2,0,B|161:276|161:276|234:220,1,119.999996337891
48,37,211581,6,0,B|30:122|30:122|48:162|48:162|26:290,1,239.999992675781
422,18,211881,1,0,0:0:0:0:
422,18,211981,2,0,B|337:0|337:0|297:18|297:18|169:-4,1,239.999992675781
430,358,212281,1,0,0:0:0:0:
430,358,212381,2,0,B|448:273|448:273|430:233|430:233|452:105,1,239.999992675781
90,366,212681,1,0,0:0:0:0:
90,366,212781,2,0,B|175:384|175:384|215:366|215:366|343:388,1,239.999992675781
160,176,213081,5,0,0:0:0:0:
160,176,213181,2,0,B|153:240|153:240|165:321,1,119.999996337891
352,208,213381,2,0,B|359:144|359:144|347:63,1,119.999996337891
240,288,213581,2,0,B|304:295|304:295|385:283,1,119.999996337891
272,96,213781,2,0,B|208:89|208:89|126:101,1,119.999996337891
5,263,213981,5,0,0:0:0:0:
48,62,214081,1,0,0:0:0:0:
117,278,214181,1,0,0:0:0:0:
6,148,214281,1,0,0:0:0:0:
170,192,214381,5,0,0:0:0:0:
48,357,214481,1,0,0:0:0:0:
86,172,214581,1,0,0:0:0:0:
192,356,214681,1,0,0:0:0:0:
325,206,214781,6,0,P|330:268|219:255,1,200
382,145,215081,1,0,0:0:0:0:
421,213,215181,1,0,0:0:0:0:
416,292,215281,1,0,0:0:0:0:
368,354,215381,6,0,B|310:360|310:360|250:361,1,100
143,29,215581,2,0,B|202:24|202:24|262:23,1,100
93,304,215781,2,0,B|88:246|88:246|87:186,1,100
418,79,215981,2,0,B|428:161|428:161|421:193|421:193|441:286,1,200
291,334,216281,1,0,0:0:0:0:
291,334,216381,2,0,B|175:304|233:371|69:333,1,200
30,290,216681,1,0,0:0:0:0:
40,211,216781,1,0,0:0:0:0:
92,152,216881,1,0,0:0:0:0:
168,133,216981,5,0,0:0:0:0:
168,133,217081,1,0,0:0:0:0:
168,133,217181,2,0,P|212:203|98:231,1,200
70,46,217481,1,0,0:0:0:0:
149,44,217581,1,0,0:0:0:0:
229,42,217681,1,0,0:0:0:0:
309,40,217781,1,0,0:0:0:0:
389,38,217881,1,0,0:0:0:0:
469,36,217981,6,0,B|481:95|481:95|479:179,1,110.000003356934
332,296,218181,2,0,B|320:237|320:237|322:153,1,110.000003356934
509,231,218381,2,0,B|450:242|450:242|366:240,1,110.000003356934
297,107,218581,2,0,B|355:95|355:95|439:97,1,110.000003356934
332,296,218781,6,0,P|270:306|173:306,1,119.999996337891
59,114,218981,2,0,P|121:104|218:104,1,119.999996337891
104,341,219181,2,0,P|94:279|94:182,1,119.999996337891
286,68,219381,2,0,P|296:130|296:227,1,119.999996337891
264,304,219581,5,0,0:0:0:0:
273,326,219631,1,0,0:0:0:0:
288,345,219681,1,0,0:0:0:0:
306,361,219731,1,0,0:0:0:0:
328,373,219781,1,0,0:0:0:0:
351,379,219831,1,0,0:0:0:0:
375,379,219881,1,0,0:0:0:0:
399,374,219931,1,0,0:0:0:0:
421,364,219981,1,0,0:0:0:0:
441,349,220031,1,0,0:0:0:0:
456,331,220081,1,0,0:0:0:0:
467,309,220131,1,0,0:0:0:0:
473,285,220181,1,0,0:0:0:0:
473,261,220231,1,0,0:0:0:0:
467,237,220281,1,0,0:0:0:0:
457,215,220331,1,0,0:0:0:0:
442,196,220381,5,0,0:0:0:0:
69,187,220781,1,0,0:0:0:0:
251,378,221181,1,0,0:0:0:0:
260,5,221581,1,0,0:0:0:0:
84,321,221981,5,0,0:0:0:0:
127,20,222381,1,0,0:0:0:0:
428,63,222781,1,0,0:0:0:0:
385,364,223181,5,0,0:0:0:0:
385,364,223281,1,0,0:0:0:0:
385,364,223381,1,0,0:0:0:0:
385,364,223481,1,0,0:0:0:0:
385,364,223581,5,0,0:0:0:0:
308,376,223681,1,0,0:0:0:0:
247,327,223781,1,0,0:0:0:0:
240,250,223881,1,0,0:0:0:0:
292,192,223981,1,0,0:0:0:0:
318,119,224081,1,0,0:0:0:0:
286,48,224181,1,0,0:0:0:0:
213,20,224281,1,0,0:0:0:0:
142,51,224381,6,0,B|106:93|106:93|72:177,1,100
318,119,224581,2,0,B|354:77|354:77|387:-7,1,100
172,126,224781,5,0,0:0:0:0:
312,255,224881,1,0,0:0:0:0:
172,126,224981,1,0,0:0:0:0:
312,255,225081,1,0,0:0:0:0:
172,126,225181,5,0,0:0:0:0:
134,194,225281,1,0,0:0:0:0:
143,273,225381,1,0,0:0:0:0:
196,331,225481,1,0,0:0:0:0:
270,359,225581,1,0,0:0:0:0:
346,339,225681,1,0,0:0:0:0:
396,278,225781,1,0,0:0:0:0:
402,200,225881,1,0,0:0:0:0:
361,133,225981,1,0,0:0:0:0:
289,102,226081,1,0,0:0:0:0:
230,151,226181,1,0,0:0:0:0:
158,125,226281,1,0,0:0:0:0:
145,50,226381,5,0,0:0:0:0:
139,48,226431,1,0,0:0:0:0:
133,47,226481,1,0,0:0:0:0:
127,46,226531,1,0,0:0:0:0:
121,44,226581,1,0,0:0:0:0:
114,43,226631,1,0,0:0:0:0:
108,42,226681,1,0,0:0:0:0:
102,40,226731,1,0,0:0:0:0:
96,39,226781,6,0,L|73:126,2,66.6666666666667
141,171,226981,2,0,L|118:258,2,66.6666666666667
174,308,227181,1,0,0:0:0:0:
196,332,227247,1,0,0:0:0:0:
226,346,227314,1,0,0:0:0:0:
259,350,227380,1,0,0:0:0:0:
291,342,227447,1,0,0:0:0:0:
318,323,227514,1,0,0:0:0:0:
338,296,227581,6,0,B|345:250|345:250|337:173,2,100
173,87,227981,2,0,B|167:134|167:134|175:211,2,100
