osu file format v14

[General]
AudioFilename: audio.mp3
AudioLeadIn: 0
PreviewTime: 71483
Countdown: 0
SampleSet: Normal
StackLeniency: 0.7
Mode: 1
LetterboxInBreaks: 0
WidescreenStoryboard: 0

[Editor]
Bookmarks: 8283,27083,30283,33483,46283,59083,110283,123083,180683,191083,194183,195883,202283,208683,228483
DistanceSpacing: 1.6
BeatDivisor: 4
GridSize: 32
TimelineZoom: 3.299999

[Metadata]
Title:Tsuki Made Todoke, Waga Urami
TitleUnicode:月まで届け、我が怨み
Artist:UNDEAD CORPORATION
ArtistUnicode:UNDEAD CORPORATION
Creator:GoldenWolf
Version:tiko
Source:東方永夜抄 ~ Imperishable Night.
Tags:Reach for the Moon, My Grudge 不死の煙 Fujiwara no Mokou Theme 天外冬黄 Fuyuki Tenge ウェストヴィレッジ West Village パインツリー Pinetree 満月の夜に超旋律的重低爆音 M3-26 Metal ZUN woof
BeatmapID:1581769
BeatmapSetID:751301

[Difficulty]
HPDrainRate:6
CircleSize:2
OverallDifficulty:7
ApproachRate:10
SliderMultiplier:2.1
SliderTickRate:1

[Events]
//Background and Video events
0,0,"orz204.jpg",0,0
//Break Periods
//Storyboard Layer 0 (Background)
//Storyboard Layer 1 (Fail)
//Storyboard Layer 2 (Pass)
//Storyboard Layer 3 (Foreground)
//Storyboard Sound Samples

[TimingPoints]
283,400,4,1,0,80,1,0
19533,-100,4,1,0,80,0,0
19583,-99.502487562189,4,1,0,80,0,0
19633,-99.009900990099,4,1,0,80,0,0
19683,-98.5221674876847,4,1,0,80,0,0
19883,-96.1538461538461,4,1,0,80,0,0
19933,-95.2380952380952,4,1,0,80,0,0
19983,-94.3396226415094,4,1,0,80,0,0
20083,-92.5925925925926,4,1,0,80,0,0
20133,-91.743119266055,4,1,0,80,0,0
20183,-90.9090909090909,4,1,0,80,0,0
20233,-90.0900900900901,4,1,0,80,0,0
20283,-89.2857142857143,4,1,0,80,0,0
20383,-87.3362445414847,4,1,0,80,0,0
20483,-86.2068965517241,4,1,0,80,0,0
20583,-85.1063829787234,4,1,0,80,0,0
20683,-84.0336134453781,4,1,0,80,0,0
20749,-83.3333333333333,4,1,0,80,0,0
20816,-82.6446280991736,4,1,0,80,0,0
20883,-81.9672131147541,4,1,0,80,0,0
20949,-81.3008130081301,4,1,0,80,0,0
21016,-80.6451612903226,4,1,0,80,0,0
21083,-80,4,1,0,80,0,0
23883,400,4,1,0,80,1,0
23883,-80,4,1,0,80,0,0
35083,-100,4,1,0,80,0,0
71883,-100,4,1,0,80,0,1
97483,-100,4,1,0,80,0,0
135883,-100,4,1,0,80,0,1
161483,-100,4,1,0,80,0,0
167883,400,4,1,0,80,1,8
168283,400,4,1,0,80,1,0
177883,400,4,1,0,80,1,8
178283,400,4,1,0,80,1,1
178283,-80,4,1,0,80,0,1
194183,-80,4,1,0,80,0,0
195883,-133.333333333333,4,1,0,80,0,0
200683,-100,4,1,0,80,0,0
205483,-100,4,1,0,80,0,1
220683,400,4,1,0,80,1,0

[HitObjects]
256,192,283,5,12,0:0:0:0:
256,192,683,1,4,0:0:0:0:
256,192,1083,1,4,0:0:0:0:
256,192,1483,1,4,0:0:0:0:
256,192,1883,1,12,0:0:0:0:
256,192,2283,1,4,0:0:0:0:
256,192,2683,1,4,0:0:0:0:
256,192,3083,1,8,0:0:0:0:
256,192,3183,1,8,0:0:0:0:
256,192,3283,1,8,0:0:0:0:
256,192,3383,1,0,0:0:0:0:
256,192,3483,1,8,0:0:0:0:
256,192,3583,1,8,0:0:0:0:
256,192,3683,1,8,0:0:0:0:
256,192,3783,1,0,0:0:0:0:
256,192,3883,1,8,0:0:0:0:
256,192,3983,1,8,0:0:0:0:
256,192,4083,1,8,0:0:0:0:
256,192,4183,1,0,0:0:0:0:
256,192,4283,1,8,0:0:0:0:
256,192,4383,1,8,0:0:0:0:
256,192,4483,1,0,0:0:0:0:
256,192,4583,1,8,0:0:0:0:
256,192,4683,1,0,0:0:0:0:
256,192,4783,1,8,0:0:0:0:
256,192,4883,1,0,0:0:0:0:
256,192,4983,1,8,0:0:0:0:
256,192,5083,1,8,0:0:0:0:
256,192,5183,1,8,0:0:0:0:
256,192,5283,1,8,0:0:0:0:
256,192,5383,1,0,0:0:0:0:
256,192,5483,1,8,0:0:0:0:
256,192,5583,1,8,0:0:0:0:
256,192,5683,1,8,0:0:0:0:
256,192,5783,1,0,0:0:0:0:
256,192,5883,1,8,0:0:0:0:
256,192,5983,1,8,0:0:0:0:
256,192,6083,1,8,0:0:0:0:
256,192,6183,1,0,0:0:0:0:
256,192,6283,1,8,0:0:0:0:
256,192,6383,1,8,0:0:0:0:
256,192,6483,1,8,0:0:0:0:
256,192,6583,1,0,0:0:0:0:
256,192,6683,1,12,0:0:0:0:
256,192,6883,1,0,0:0:0:0:
256,192,6949,1,0,0:0:0:0:
256,192,7016,1,0,0:0:0:0:
256,192,7083,1,8,0:0:0:0:
256,192,7149,1,8,0:0:0:0:
256,192,7216,1,8,0:0:0:0:
256,192,7283,1,0,0:0:0:0:
256,192,7349,1,0,0:0:0:0:
256,192,7416,1,0,0:0:0:0:
256,192,7483,1,8,0:0:0:0:
256,192,7549,1,8,0:0:0:0:
256,192,7616,1,0,0:0:0:0:
256,192,7683,1,8,0:0:0:0:
256,192,7749,1,8,0:0:0:0:
256,192,7816,1,0,0:0:0:0:
256,192,7883,1,8,0:0:0:0:
256,192,8283,1,4,0:0:0:0:
256,192,9083,1,12,0:0:0:0:
256,192,9883,1,0,0:0:0:0:
256,192,9983,1,8,0:0:0:0:
256,192,10083,1,8,0:0:0:0:
256,192,10183,1,8,0:0:0:0:
256,192,10283,1,0,0:0:0:0:
256,192,10383,1,8,0:0:0:0:
256,192,10483,1,0,0:0:0:0:
256,192,10583,1,8,0:0:0:0:
256,192,10683,1,8,0:0:0:0:
256,192,10783,1,8,0:0:0:0:
256,192,10883,1,0,0:0:0:0:
256,192,10949,1,0,0:0:0:0:
256,192,11016,1,0,0:0:0:0:
256,192,11083,1,8,0:0:0:0:
256,192,11483,1,8,0:0:0:0:
256,192,11583,1,8,0:0:0:0:
256,192,11683,1,0,0:0:0:0:
256,192,11783,1,0,0:0:0:0:
256,192,11883,1,8,0:0:0:0:
256,192,11983,1,0,0:0:0:0:
256,192,12083,1,0,0:0:0:0:
256,192,12183,1,0,0:0:0:0:
256,192,12283,1,8,0:0:0:0:
256,192,12383,1,8,0:0:0:0:
256,192,12483,1,0,0:0:0:0:
256,192,12583,1,0,0:0:0:0:
256,192,12683,1,8,0:0:0:0:
256,192,12783,1,8,0:0:0:0:
256,192,12883,1,0,0:0:0:0:
256,192,12983,1,0,0:0:0:0:
256,192,13083,1,8,0:0:0:0:
256,192,13183,1,0,0:0:0:0:
256,192,13283,1,0,0:0:0:0:
256,192,13383,1,0,0:0:0:0:
256,192,13483,1,8,0:0:0:0:
256,192,13583,1,8,0:0:0:0:
256,192,13683,1,0,0:0:0:0:
256,192,13783,1,0,0:0:0:0:
256,192,13883,1,8,0:0:0:0:
256,192,13983,1,8,0:0:0:0:
256,192,14083,1,0,0:0:0:0:
256,192,14183,1,0,0:0:0:0:
256,192,14283,1,8,0:0:0:0:
256,192,14383,1,0,0:0:0:0:
256,192,14483,1,8,0:0:0:0:
256,192,14583,1,0,0:0:0:0:
256,192,14683,1,8,0:0:0:0:
256,192,14783,1,0,0:0:0:0:
256,192,14883,1,0,0:0:0:0:
256,192,14983,1,0,0:0:0:0:
256,192,15083,1,8,0:0:0:0:
256,192,15183,1,0,0:0:0:0:
256,192,15283,1,0,0:0:0:0:
256,192,15383,1,0,0:0:0:0:
256,192,15483,1,8,0:0:0:0:
256,192,15583,1,8,0:0:0:0:
256,192,15683,1,0,0:0:0:0:
256,192,15783,1,0,0:0:0:0:
256,192,15883,1,8,0:0:0:0:
256,192,15983,1,0,0:0:0:0:
256,192,16083,1,8,0:0:0:0:
256,192,16183,1,0,0:0:0:0:
256,192,16283,1,8,0:0:0:0:
256,192,16383,1,8,0:0:0:0:
256,192,16483,1,0,0:0:0:0:
256,192,16583,1,8,0:0:0:0:
256,192,16683,1,8,0:0:0:0:
256,192,16783,1,0,0:0:0:0:
256,192,16883,1,8,0:0:0:0:
256,192,16983,1,0,0:0:0:0:
256,192,17083,1,8,0:0:0:0:
256,192,17183,1,8,0:0:0:0:
256,192,17283,1,0,0:0:0:0:
256,192,17383,1,0,0:0:0:0:
256,192,17483,1,8,0:0:0:0:
256,192,17583,1,0,0:0:0:0:
256,192,17683,1,0,0:0:0:0:
256,192,17783,1,0,0:0:0:0:
256,192,17883,1,8,0:0:0:0:
256,192,17983,1,0,0:0:0:0:
256,192,18083,1,8,0:0:0:0:
256,192,18183,1,0,0:0:0:0:
256,192,18283,1,8,0:0:0:0:
256,192,18383,1,8,0:0:0:0:
256,192,18483,1,0,0:0:0:0:
256,192,18583,1,0,0:0:0:0:
256,192,18683,1,8,0:0:0:0:
256,192,18783,1,8,0:0:0:0:
256,192,18883,1,0,0:0:0:0:
256,192,18983,1,0,0:0:0:0:
256,192,19083,1,8,0:0:0:0:
256,192,19183,1,0,0:0:0:0:
256,192,19283,1,8,0:0:0:0:
256,192,19483,1,8,0:0:0:0:
256,192,19533,1,8,0:0:0:0:
256,192,19583,1,8,0:0:0:0:
256,192,19633,1,8,0:0:0:0:
256,192,19683,1,0,0:0:0:0:
256,192,19883,1,8,0:0:0:0:
256,192,19933,1,8,0:0:0:0:
256,192,19983,1,0,0:0:0:0:
256,192,20083,1,8,0:0:0:0:
256,192,20133,1,8,0:0:0:0:
256,192,20183,1,8,0:0:0:0:
256,192,20233,1,8,0:0:0:0:
256,192,20283,1,0,0:0:0:0:
256,192,20383,1,8,0:0:0:0:
256,192,20483,1,8,0:0:0:0:
256,192,20583,1,0,0:0:0:0:
256,192,20683,1,8,0:0:0:0:
256,192,20749,1,8,0:0:0:0:
256,192,20816,1,8,0:0:0:0:
256,192,20883,1,0,0:0:0:0:
256,192,20949,1,0,0:0:0:0:
256,192,21016,1,0,0:0:0:0:
256,192,21083,1,12,0:0:0:0:
256,192,21283,1,8,0:0:0:0:
256,192,21383,1,0,0:0:0:0:
256,192,21483,1,0,0:0:0:0:
256,192,21583,1,8,0:0:0:0:
256,192,21683,1,8,0:0:0:0:
256,192,21783,1,0,0:0:0:0:
256,192,21883,1,8,0:0:0:0:
256,192,21983,1,0,0:0:0:0:
256,192,22083,1,0,0:0:0:0:
256,192,22183,1,8,0:0:0:0:
256,192,22283,1,8,0:0:0:0:
256,192,22383,1,0,0:0:0:0:
256,192,22483,1,8,0:0:0:0:
256,192,22583,1,8,0:0:0:0:
256,192,22683,1,0,0:0:0:0:
256,192,22783,1,0,0:0:0:0:
256,192,22883,1,8,0:0:0:0:
256,192,22983,1,8,0:0:0:0:
256,192,23083,1,0,0:0:0:0:
256,192,23183,1,8,0:0:0:0:
256,192,23283,1,0,0:0:0:0:
256,192,23383,1,8,0:0:0:0:
256,192,23483,1,8,0:0:0:0:
256,192,23583,1,0,0:0:0:0:
256,192,23683,1,8,0:0:0:0:
256,192,23783,1,8,0:0:0:0:
256,192,23883,1,0,0:0:0:0:
256,192,23983,1,8,0:0:0:0:
256,192,24083,1,8,0:0:0:0:
256,192,24183,1,8,0:0:0:0:
256,192,24283,1,0,0:0:0:0:
256,192,24383,1,8,0:0:0:0:
256,192,24483,1,8,0:0:0:0:
256,192,24583,1,0,0:0:0:0:
256,192,24683,1,0,0:0:0:0:
256,192,24783,1,8,0:0:0:0:
256,192,24883,1,8,0:0:0:0:
256,192,24983,1,0,0:0:0:0:
256,192,25083,1,8,0:0:0:0:
256,192,25183,1,0,0:0:0:0:
256,192,25283,1,8,0:0:0:0:
256,192,25383,1,8,0:0:0:0:
256,192,25483,1,8,0:0:0:0:
256,192,25583,1,0,0:0:0:0:
256,192,25683,1,8,0:0:0:0:
256,192,25783,1,8,0:0:0:0:
256,192,25883,1,0,0:0:0:0:
256,192,25983,1,8,0:0:0:0:
256,192,26083,1,0,0:0:0:0:
256,192,26183,1,8,0:0:0:0:
256,192,26283,1,8,0:0:0:0:
256,192,26383,1,0,0:0:0:0:
256,192,26483,1,8,0:0:0:0:
256,192,26583,1,8,0:0:0:0:
256,192,26683,1,0,0:0:0:0:
256,192,26783,1,8,0:0:0:0:
256,192,26883,1,8,0:0:0:0:
256,192,26983,1,0,0:0:0:0:
256,192,27083,1,12,0:0:0:0:
256,192,27283,1,8,0:0:0:0:
256,192,27383,1,0,0:0:0:0:
256,192,27483,1,0,0:0:0:0:
256,192,27583,1,8,0:0:0:0:
256,192,27683,1,8,0:0:0:0:
256,192,27783,1,0,0:0:0:0:
256,192,27883,1,8,0:0:0:0:
256,192,27983,1,8,0:0:0:0:
256,192,28083,1,0,0:0:0:0:
256,192,28183,1,0,0:0:0:0:
256,192,28283,1,8,0:0:0:0:
256,192,28383,1,0,0:0:0:0:
256,192,28483,1,8,0:0:0:0:
256,192,28583,1,8,0:0:0:0:
256,192,28683,1,8,0:0:0:0:
256,192,28783,1,0,0:0:0:0:
256,192,28883,1,8,0:0:0:0:
256,192,28983,1,8,0:0:0:0:
256,192,29083,1,4,0:0:0:0:
256,192,29183,1,8,0:0:0:0:
256,192,29283,1,8,0:0:0:0:
256,192,29383,1,8,0:0:0:0:
256,192,29483,1,0,0:0:0:0:
256,192,29583,1,0,0:0:0:0:
256,192,29683,1,8,0:0:0:0:
256,192,29783,1,8,0:0:0:0:
256,192,29883,1,0,0:0:0:0:
256,192,29933,1,0,0:0:0:0:
256,192,29983,1,8,0:0:0:0:
256,192,30033,1,8,0:0:0:0:
256,192,30083,1,0,0:0:0:0:
256,192,30283,1,8,0:0:0:0:
256,192,30383,1,0,0:0:0:0:
256,192,30433,1,0,0:0:0:0:
256,192,30483,1,8,0:0:0:0:
256,192,30583,1,8,0:0:0:0:
256,192,30633,1,8,0:0:0:0:
256,192,30683,1,0,0:0:0:0:
256,192,30783,1,0,0:0:0:0:
256,192,30883,1,8,0:0:0:0:
256,192,30983,1,8,0:0:0:0:
256,192,31083,1,8,0:0:0:0:
256,192,31183,1,0,0:0:0:0:
256,192,31233,1,0,0:0:0:0:
256,192,31283,1,8,0:0:0:0:
256,192,31333,1,8,0:0:0:0:
256,192,31383,1,0,0:0:0:0:
256,192,31483,1,8,0:0:0:0:
256,192,31583,1,0,0:0:0:0:
256,192,31633,1,0,0:0:0:0:
256,192,31683,1,8,0:0:0:0:
256,192,31783,1,0,0:0:0:0:
256,192,31833,1,0,0:0:0:0:
256,192,31883,1,8,0:0:0:0:
256,192,31983,1,8,0:0:0:0:
256,192,32083,1,0,0:0:0:0:
256,192,32133,1,8,0:0:0:0:
256,192,32183,1,8,0:0:0:0:
256,192,32283,1,8,0:0:0:0:
256,192,32333,1,8,0:0:0:0:
256,192,32383,1,8,0:0:0:0:
256,192,32433,1,8,0:0:0:0:
256,192,32483,1,0,0:0:0:0:
256,192,32583,1,0,0:0:0:0:
256,192,32683,1,8,0:0:0:0:
256,192,32783,1,0,0:0:0:0:
256,192,32858,1,0,0:0:0:0:
256,192,32933,1,8,0:0:0:0:
256,192,33008,1,8,0:0:0:0:
256,192,33083,1,8,0:0:0:0:
256,192,33216,1,0,0:0:0:0:
256,192,33283,1,0,0:0:0:0:
256,192,33349,1,0,0:0:0:0:
256,192,33416,1,0,0:0:0:0:
256,192,33483,1,8,0:0:0:0:
256,192,35883,1,8,0:0:0:0:
256,192,35983,1,8,0:0:0:0:
256,192,36083,1,0,0:0:0:0:
256,192,36283,1,0,0:0:0:0:
256,192,36383,1,8,0:0:0:0:
256,192,36483,1,8,0:0:0:0:
256,192,36583,1,0,0:0:0:0:
256,192,36683,1,8,0:0:0:0:
256,192,37083,1,8,0:0:0:0:
256,192,37483,1,8,0:0:0:0:
256,192,37883,1,8,0:0:0:0:
256,192,38083,1,0,0:0:0:0:
256,192,38283,1,8,0:0:0:0:
256,192,38683,1,8,0:0:0:0:
256,192,39083,1,8,0:0:0:0:
256,192,39183,1,8,0:0:0:0:
256,192,39283,1,0,0:0:0:0:
256,192,39483,1,8,0:0:0:0:
256,192,39583,1,8,0:0:0:0:
256,192,39683,1,0,0:0:0:0:
256,192,39883,1,8,0:0:0:0:
256,192,40283,1,8,0:0:0:0:
256,192,40683,1,8,0:0:0:0:
256,192,41083,1,8,0:0:0:0:
256,192,41283,1,0,0:0:0:0:
256,192,41483,1,8,0:0:0:0:
256,192,41883,1,8,0:0:0:0:
256,192,42283,1,8,0:0:0:0:
256,192,42383,1,0,0:0:0:0:
256,192,42483,1,0,0:0:0:0:
256,192,42683,1,8,0:0:0:0:
256,192,42783,1,0,0:0:0:0:
256,192,42883,1,0,0:0:0:0:
256,192,43083,1,8,0:0:0:0:
256,192,43483,1,8,0:0:0:0:
256,192,43883,1,8,0:0:0:0:
256,192,44283,1,8,0:0:0:0:
256,192,44483,1,0,0:0:0:0:
256,192,44683,1,8,0:0:0:0:
256,192,45083,1,8,0:0:0:0:
256,192,45483,1,8,0:0:0:0:
256,192,45583,1,8,0:0:0:0:
256,192,45683,1,0,0:0:0:0:
256,192,45883,1,8,0:0:0:0:
256,192,45983,1,8,0:0:0:0:
256,192,46083,1,0,0:0:0:0:
256,192,46283,1,12,0:0:0:0:
256,192,46483,1,8,0:0:0:0:
256,192,46583,1,0,0:0:0:0:
256,192,46683,1,8,0:0:0:0:
256,192,46783,1,8,0:0:0:0:
256,192,46883,1,0,0:0:0:0:
256,192,46983,1,8,0:0:0:0:
256,192,47083,1,8,0:0:0:0:
256,192,47183,1,8,0:0:0:0:
256,192,47283,1,8,0:0:0:0:
256,192,47383,1,0,0:0:0:0:
256,192,47483,1,0,0:0:0:0:
256,192,47583,1,0,0:0:0:0:
256,192,47683,1,8,0:0:0:0:
256,192,47783,1,8,0:0:0:0:
256,192,47883,1,0,0:0:0:0:
256,192,47983,1,0,0:0:0:0:
256,192,48083,1,8,0:0:0:0:
256,192,48183,1,0,0:0:0:0:
256,192,48283,1,8,0:0:0:0:
256,192,48383,1,8,0:0:0:0:
256,192,48483,1,0,0:0:0:0:
256,192,48583,1,8,0:0:0:0:
256,192,48683,1,8,0:0:0:0:
256,192,48783,1,8,0:0:0:0:
256,192,48883,1,8,0:0:0:0:
256,192,48983,1,0,0:0:0:0:
256,192,49083,1,0,0:0:0:0:
256,192,49183,1,8,0:0:0:0:
256,192,49283,1,8,0:0:0:0:
256,192,49383,1,0,0:0:0:0:
256,192,49483,1,8,0:0:0:0:
256,192,49583,1,0,0:0:0:0:
256,192,49683,1,8,0:0:0:0:
256,192,49783,1,0,0:0:0:0:
256,192,49883,1,8,0:0:0:0:
256,192,49983,1,8,0:0:0:0:
256,192,50083,1,0,0:0:0:0:
256,192,50183,1,8,0:0:0:0:
256,192,50283,1,8,0:0:0:0:
256,192,50383,1,0,0:0:0:0:
256,192,50483,1,8,0:0:0:0:
256,192,50583,1,0,0:0:0:0:
256,192,50683,1,8,0:0:0:0:
256,192,50783,1,8,0:0:0:0:
256,192,50883,1,0,0:0:0:0:
256,192,50983,1,0,0:0:0:0:
256,192,51083,1,8,0:0:0:0:
256,192,51183,1,8,0:0:0:0:
256,192,51283,1,0,0:0:0:0:
256,192,51383,1,0,0:0:0:0:
256,192,51483,1,8,0:0:0:0:
256,192,51583,1,0,0:0:0:0:
256,192,51683,1,0,0:0:0:0:
256,192,51783,1,0,0:0:0:0:
256,192,51883,1,8,0:0:0:0:
256,192,51983,1,8,0:0:0:0:
256,192,52083,1,0,0:0:0:0:
256,192,52183,1,0,0:0:0:0:
256,192,52283,1,8,0:0:0:0:
256,192,52383,1,8,0:0:0:0:
256,192,52483,1,8,0:0:0:0:
256,192,52583,1,8,0:0:0:0:
256,192,52683,1,0,0:0:0:0:
256,192,52783,1,0,0:0:0:0:
256,192,52883,1,8,0:0:0:0:
256,192,52983,1,0,0:0:0:0:
256,192,53083,1,8,0:0:0:0:
256,192,53183,1,0,0:0:0:0:
256,192,53283,1,0,0:0:0:0:
256,192,53383,1,0,0:0:0:0:
256,192,53483,1,8,0:0:0:0:
256,192,53583,1,8,0:0:0:0:
256,192,53683,1,0,0:0:0:0:
256,192,53783,1,8,0:0:0:0:
256,192,53883,1,8,0:0:0:0:
256,192,53983,1,0,0:0:0:0:
256,192,54083,1,8,0:0:0:0:
256,192,54183,1,0,0:0:0:0:
256,192,54283,1,8,0:0:0:0:
256,192,54383,1,8,0:0:0:0:
256,192,54483,1,0,0:0:0:0:
256,192,54583,1,0,0:0:0:0:
256,192,54683,1,8,0:0:0:0:
256,192,54783,1,8,0:0:0:0:
256,192,54883,1,0,0:0:0:0:
256,192,54983,1,8,0:0:0:0:
256,192,55083,1,8,0:0:0:0:
256,192,55183,1,8,0:0:0:0:
256,192,55283,1,8,0:0:0:0:
256,192,55383,1,0,0:0:0:0:
256,192,55483,1,0,0:0:0:0:
256,192,55583,1,8,0:0:0:0:
256,192,55683,1,8,0:0:0:0:
256,192,55783,1,0,0:0:0:0:
256,192,55883,1,8,0:0:0:0:
256,192,55983,1,8,0:0:0:0:
256,192,56083,1,0,0:0:0:0:
256,192,56183,1,0,0:0:0:0:
256,192,56283,1,8,0:0:0:0:
256,192,56383,1,8,0:0:0:0:
256,192,56483,1,0,0:0:0:0:
256,192,56583,1,8,0:0:0:0:
256,192,56683,1,8,0:0:0:0:
256,192,56783,1,8,0:0:0:0:
256,192,56883,1,8,0:0:0:0:
256,192,56983,1,0,0:0:0:0:
256,192,57083,1,8,0:0:0:0:
256,192,57183,1,8,0:0:0:0:
256,192,57283,1,0,0:0:0:0:
256,192,57383,1,0,0:0:0:0:
256,192,57483,1,8,0:0:0:0:
256,192,57549,1,8,0:0:0:0:
256,192,57616,1,8,0:0:0:0:
256,192,57683,1,0,0:0:0:0:
256,192,57749,1,0,0:0:0:0:
256,192,57816,1,0,0:0:0:0:
256,192,57883,1,8,0:0:0:0:
256,192,57949,1,8,0:0:0:0:
256,192,58016,1,0,0:0:0:0:
256,192,58083,1,8,0:0:0:0:
256,192,58149,1,8,0:0:0:0:
256,192,58216,1,0,0:0:0:0:
256,192,58283,1,8,0:0:0:0:
256,192,58349,1,8,0:0:0:0:
256,192,58416,1,8,0:0:0:0:
256,192,58483,1,0,0:0:0:0:
256,192,58549,1,0,0:0:0:0:
256,192,58616,1,0,0:0:0:0:
256,192,58683,1,8,0:0:0:0:
256,192,59083,1,12,0:0:0:0:
256,192,59283,1,0,0:0:0:0:
256,192,59383,1,8,0:0:0:0:
256,192,59583,1,0,0:0:0:0:
256,192,59683,1,8,0:0:0:0:
256,192,59883,1,8,0:0:0:0:
256,192,59983,1,8,0:0:0:0:
256,192,60183,1,0,0:0:0:0:
256,192,60283,1,8,0:0:0:0:
256,192,60383,1,0,0:0:0:0:
256,192,60483,1,8,0:0:0:0:
256,192,60583,1,8,0:0:0:0:
256,192,60683,1,4,0:0:0:0:
256,192,60883,1,0,0:0:0:0:
256,192,60983,1,8,0:0:0:0:
256,192,61183,1,0,0:0:0:0:
256,192,61283,1,8,0:0:0:0:
256,192,61483,1,8,0:0:0:0:
256,192,61583,1,8,0:0:0:0:
256,192,61683,1,0,0:0:0:0:
256,192,61783,1,8,0:0:0:0:
256,192,61983,1,0,0:0:0:0:
256,192,62083,1,8,0:0:0:0:
256,192,62283,1,12,0:0:0:0:
256,192,62483,1,0,0:0:0:0:
256,192,62583,1,8,0:0:0:0:
256,192,62683,1,0,0:0:0:0:
256,192,62783,1,8,0:0:0:0:
256,192,62883,1,0,0:0:0:0:
256,192,62983,1,8,0:0:0:0:
256,192,63083,1,8,0:0:0:0:
256,192,63183,1,8,0:0:0:0:
256,192,63283,1,0,0:0:0:0:
256,192,63383,1,8,0:0:0:0:
256,192,63483,1,0,0:0:0:0:
256,192,63583,1,8,0:0:0:0:
256,192,63683,1,0,0:0:0:0:
256,192,63783,1,8,0:0:0:0:
256,192,63883,1,8,0:0:0:0:
256,192,63983,1,8,0:0:0:0:
256,192,64083,1,0,0:0:0:0:
256,192,64183,1,8,0:0:0:0:
256,192,64283,1,0,0:0:0:0:
256,192,64383,1,8,0:0:0:0:
256,192,64483,1,0,0:0:0:0:
256,192,64583,1,8,0:0:0:0:
256,192,64683,1,8,0:0:0:0:
256,192,64783,1,8,0:0:0:0:
256,192,64883,1,0,0:0:0:0:
256,192,64983,1,0,0:0:0:0:
256,192,65083,1,8,0:0:0:0:
256,192,65149,1,8,0:0:0:0:
256,192,65216,1,0,0:0:0:0:
256,192,65283,1,8,0:0:0:0:
256,192,65349,1,8,0:0:0:0:
256,192,65483,1,12,0:0:0:0:
256,192,65683,1,0,0:0:0:0:
256,192,65783,1,8,0:0:0:0:
256,192,65983,1,0,0:0:0:0:
256,192,66083,1,8,0:0:0:0:
256,192,66283,1,8,0:0:0:0:
256,192,66383,1,8,0:0:0:0:
256,192,66583,1,0,0:0:0:0:
256,192,66683,1,8,0:0:0:0:
256,192,66783,1,0,0:0:0:0:
256,192,66883,1,8,0:0:0:0:
256,192,66983,1,8,0:0:0:0:
256,192,67083,1,4,0:0:0:0:
256,192,67283,1,0,0:0:0:0:
256,192,67383,1,8,0:0:0:0:
256,192,67583,1,0,0:0:0:0:
256,192,67683,1,8,0:0:0:0:
256,192,67883,1,8,0:0:0:0:
256,192,67983,1,8,0:0:0:0:
256,192,68083,1,0,0:0:0:0:
256,192,68183,1,8,0:0:0:0:
256,192,68383,1,0,0:0:0:0:
256,192,68483,1,8,0:0:0:0:
256,192,68683,1,12,0:0:0:0:
256,192,68883,1,0,0:0:0:0:
256,192,68983,1,8,0:0:0:0:
256,192,69183,1,0,0:0:0:0:
256,192,69283,1,8,0:0:0:0:
256,192,69483,1,0,0:0:0:0:
256,192,69583,1,8,0:0:0:0:
256,192,69683,1,8,0:0:0:0:
256,192,69783,1,8,0:0:0:0:
256,192,69883,1,4,0:0:0:0:
256,192,70083,1,4,0:0:0:0:
256,192,70283,1,12,0:0:0:0:
256,192,70583,1,12,0:0:0:0:
256,192,70883,1,12,0:0:0:0:
256,192,71083,1,8,0:0:0:0:
256,192,71149,1,8,0:0:0:0:
256,192,71216,1,8,0:0:0:0:
256,192,71283,1,0,0:0:0:0:
256,192,71349,1,0,0:0:0:0:
256,192,71416,1,0,0:0:0:0:
256,192,71483,1,8,0:0:0:0:
256,192,71883,1,12,0:0:0:0:
256,192,72083,1,0,0:0:0:0:
256,192,72183,1,0,0:0:0:0:
256,192,72283,1,8,0:0:0:0:
256,192,72383,1,0,0:0:0:0:
256,192,72483,1,0,0:0:0:0:
256,192,72583,1,0,0:0:0:0:
256,192,72683,1,8,0:0:0:0:
256,192,72783,1,0,0:0:0:0:
256,192,72883,1,8,0:0:0:0:
256,192,72983,1,0,0:0:0:0:
256,192,73083,1,8,0:0:0:0:
256,192,73183,1,8,0:0:0:0:
256,192,73283,1,0,0:0:0:0:
256,192,73383,1,0,0:0:0:0:
256,192,73483,1,8,0:0:0:0:
256,192,73583,1,8,0:0:0:0:
256,192,73683,1,0,0:0:0:0:
256,192,73783,1,0,0:0:0:0:
256,192,73883,1,8,0:0:0:0:
256,192,73983,1,0,0:0:0:0:
256,192,74083,1,0,0:0:0:0:
256,192,74183,1,0,0:0:0:0:
256,192,74283,1,8,0:0:0:0:
256,192,74383,1,0,0:0:0:0:
256,192,74483,1,0,0:0:0:0:
256,192,74583,1,0,0:0:0:0:
256,192,74683,1,8,0:0:0:0:
256,192,74783,1,0,0:0:0:0:
256,192,74883,1,8,0:0:0:0:
256,192,74983,1,0,0:0:0:0:
256,192,75083,1,8,0:0:0:0:
256,192,75183,1,8,0:0:0:0:
256,192,75283,1,8,0:0:0:0:
256,192,75383,1,0,0:0:0:0:
256,192,75483,1,8,0:0:0:0:
256,192,75583,1,0,0:0:0:0:
256,192,75683,1,0,0:0:0:0:
256,192,75783,1,0,0:0:0:0:
256,192,75883,1,8,0:0:0:0:
256,192,75983,1,8,0:0:0:0:
256,192,76083,1,0,0:0:0:0:
256,192,76183,1,0,0:0:0:0:
256,192,76283,1,8,0:0:0:0:
256,192,76383,1,0,0:0:0:0:
256,192,76483,1,0,0:0:0:0:
256,192,76583,1,0,0:0:0:0:
256,192,76683,1,8,0:0:0:0:
256,192,76783,1,8,0:0:0:0:
256,192,76883,1,8,0:0:0:0:
256,192,76983,1,0,0:0:0:0:
256,192,77083,1,12,0:0:0:0:
256,192,77283,1,0,0:0:0:0:
256,192,77383,1,0,0:0:0:0:
256,192,77483,1,8,0:0:0:0:
256,192,77549,1,8,0:0:0:0:
256,192,77616,1,8,0:0:0:0:
256,192,77683,1,0,0:0:0:0:
256,192,77749,1,0,0:0:0:0:
256,192,77816,1,0,0:0:0:0:
256,192,77883,1,8,0:0:0:0:
256,192,77949,1,8,0:0:0:0:
256,192,78016,1,0,0:0:0:0:
256,192,78083,1,8,0:0:0:0:
256,192,78149,1,8,0:0:0:0:
256,192,78283,1,12,0:0:0:0:
256,192,78483,1,0,0:0:0:0:
256,192,78583,1,0,0:0:0:0:
256,192,78683,1,8,0:0:0:0:
256,192,78783,1,0,0:0:0:0:
256,192,78883,1,0,0:0:0:0:
256,192,78983,1,0,0:0:0:0:
256,192,79083,1,8,0:0:0:0:
256,192,79183,1,0,0:0:0:0:
256,192,79283,1,8,0:0:0:0:
256,192,79383,1,0,0:0:0:0:
256,192,79483,1,8,0:0:0:0:
256,192,79583,1,8,0:0:0:0:
256,192,79683,1,0,0:0:0:0:
256,192,79783,1,0,0:0:0:0:
256,192,79883,1,8,0:0:0:0:
256,192,79983,1,8,0:0:0:0:
256,192,80083,1,0,0:0:0:0:
256,192,80183,1,0,0:0:0:0:
256,192,80283,1,8,0:0:0:0:
256,192,80383,1,0,0:0:0:0:
256,192,80483,1,8,0:0:0:0:
256,192,80583,1,8,0:0:0:0:
256,192,80683,1,8,0:0:0:0:
256,192,80783,1,0,0:0:0:0:
256,192,80883,1,0,0:0:0:0:
256,192,80983,1,0,0:0:0:0:
256,192,81083,1,8,0:0:0:0:
256,192,81183,1,0,0:0:0:0:
256,192,81283,1,0,0:0:0:0:
256,192,81383,1,0,0:0:0:0:
256,192,81483,1,8,0:0:0:0:
256,192,81583,1,8,0:0:0:0:
256,192,81683,1,0,0:0:0:0:
256,192,81783,1,0,0:0:0:0:
256,192,81883,1,8,0:0:0:0:
256,192,81983,1,0,0:0:0:0:
256,192,82083,1,8,0:0:0:0:
256,192,82183,1,0,0:0:0:0:
256,192,82283,1,8,0:0:0:0:
256,192,82383,1,8,0:0:0:0:
256,192,82483,1,0,0:0:0:0:
256,192,82583,1,0,0:0:0:0:
256,192,82683,1,8,0:0:0:0:
256,192,82783,1,0,0:0:0:0:
256,192,82883,1,8,0:0:0:0:
256,192,82983,1,0,0:0:0:0:
256,192,83083,1,8,0:0:0:0:
256,192,83183,1,0,0:0:0:0:
256,192,83283,1,8,0:0:0:0:
256,192,83383,1,8,0:0:0:0:
256,192,83483,1,0,0:0:0:0:
256,192,83583,1,8,0:0:0:0:
256,192,83683,1,8,0:0:0:0:
256,192,83783,1,0,0:0:0:0:
256,192,83883,1,8,0:0:0:0:
256,192,84083,1,8,0:0:0:0:
256,192,84149,1,8,0:0:0:0:
256,192,84216,1,8,0:0:0:0:
256,192,84283,1,8,0:0:0:0:
256,192,84383,1,8,0:0:0:0:
256,192,84483,1,8,0:0:0:0:
256,192,84583,1,8,0:0:0:0:
256,192,84683,1,4,0:0:0:0:
256,192,84883,1,0,0:0:0:0:
256,192,84983,1,0,0:0:0:0:
256,192,85083,1,8,0:0:0:0:
256,192,85183,1,0,0:0:0:0:
256,192,85283,1,0,0:0:0:0:
256,192,85383,1,0,0:0:0:0:
256,192,85483,1,8,0:0:0:0:
256,192,85583,1,0,0:0:0:0:
256,192,85683,1,8,0:0:0:0:
256,192,85783,1,0,0:0:0:0:
256,192,85883,1,8,0:0:0:0:
256,192,85983,1,8,0:0:0:0:
256,192,86083,1,0,0:0:0:0:
256,192,86183,1,0,0:0:0:0:
256,192,86283,1,8,0:0:0:0:
256,192,86383,1,8,0:0:0:0:
256,192,86483,1,0,0:0:0:0:
256,192,86583,1,0,0:0:0:0:
256,192,86683,1,8,0:0:0:0:
256,192,86783,1,0,0:0:0:0:
256,192,86883,1,0,0:0:0:0:
256,192,86983,1,0,0:0:0:0:
256,192,87083,1,8,0:0:0:0:
256,192,87183,1,0,0:0:0:0:
256,192,87283,1,0,0:0:0:0:
256,192,87383,1,0,0:0:0:0:
256,192,87483,1,8,0:0:0:0:
256,192,87583,1,0,0:0:0:0:
256,192,87683,1,8,0:0:0:0:
256,192,87783,1,0,0:0:0:0:
256,192,87883,1,8,0:0:0:0:
256,192,87983,1,8,0:0:0:0:
256,192,88083,1,8,0:0:0:0:
256,192,88183,1,0,0:0:0:0:
256,192,88283,1,8,0:0:0:0:
256,192,88383,1,0,0:0:0:0:
256,192,88483,1,0,0:0:0:0:
256,192,88583,1,0,0:0:0:0:
256,192,88683,1,8,0:0:0:0:
256,192,88783,1,8,0:0:0:0:
256,192,88883,1,0,0:0:0:0:
256,192,88983,1,0,0:0:0:0:
256,192,89083,1,8,0:0:0:0:
256,192,89183,1,0,0:0:0:0:
256,192,89283,1,0,0:0:0:0:
256,192,89383,1,0,0:0:0:0:
256,192,89483,1,8,0:0:0:0:
256,192,89583,1,0,0:0:0:0:
256,192,89683,1,0,0:0:0:0:
256,192,89783,1,0,0:0:0:0:
256,192,89883,1,8,0:0:0:0:
256,192,89983,1,0,0:0:0:0:
256,192,90083,1,0,0:0:0:0:
256,192,90183,1,0,0:0:0:0:
256,192,90283,1,8,0:0:0:0:
256,192,90383,1,8,0:0:0:0:
256,192,90483,1,0,0:0:0:0:
256,192,90583,1,0,0:0:0:0:
256,192,90683,1,8,0:0:0:0:
256,192,90783,1,0,0:0:0:0:
256,192,90883,1,8,0:0:0:0:
256,192,90983,1,0,0:0:0:0:
256,192,91083,1,12,0:0:0:0:
256,192,91283,1,0,0:0:0:0:
256,192,91383,1,0,0:0:0:0:
256,192,91483,1,8,0:0:0:0:
256,192,91583,1,0,0:0:0:0:
256,192,91683,1,0,0:0:0:0:
256,192,91783,1,0,0:0:0:0:
256,192,91883,1,8,0:0:0:0:
256,192,91983,1,0,0:0:0:0:
256,192,92083,1,8,0:0:0:0:
256,192,92183,1,0,0:0:0:0:
256,192,92283,1,8,0:0:0:0:
256,192,92383,1,8,0:0:0:0:
256,192,92483,1,0,0:0:0:0:
256,192,92583,1,0,0:0:0:0:
256,192,92683,1,8,0:0:0:0:
256,192,92783,1,8,0:0:0:0:
256,192,92883,1,0,0:0:0:0:
256,192,92983,1,0,0:0:0:0:
256,192,93083,1,8,0:0:0:0:
256,192,93183,1,0,0:0:0:0:
256,192,93283,1,8,0:0:0:0:
256,192,93383,1,8,0:0:0:0:
256,192,93483,1,8,0:0:0:0:
256,192,93583,1,0,0:0:0:0:
256,192,93683,1,0,0:0:0:0:
256,192,93783,1,0,0:0:0:0:
256,192,93883,1,8,0:0:0:0:
256,192,93983,1,0,0:0:0:0:
256,192,94083,1,0,0:0:0:0:
256,192,94183,1,0,0:0:0:0:
256,192,94283,1,8,0:0:0:0:
256,192,94383,1,8,0:0:0:0:
256,192,94483,1,0,0:0:0:0:
256,192,94583,1,0,0:0:0:0:
256,192,94683,1,8,0:0:0:0:
256,192,94783,1,0,0:0:0:0:
256,192,94883,1,8,0:0:0:0:
256,192,94983,1,0,0:0:0:0:
256,192,95083,1,8,0:0:0:0:
256,192,95183,1,8,0:0:0:0:
256,192,95283,1,0,0:0:0:0:
256,192,95383,1,0,0:0:0:0:
256,192,95483,1,8,0:0:0:0:
256,192,95583,1,0,0:0:0:0:
256,192,95683,1,8,0:0:0:0:
256,192,95883,1,8,0:0:0:0:
256,192,95933,1,8,0:0:0:0:
256,192,95983,1,8,0:0:0:0:
256,192,96033,1,8,0:0:0:0:
256,192,96083,1,0,0:0:0:0:
256,192,96183,1,8,0:0:0:0:
256,192,96283,1,8,0:0:0:0:
256,192,96483,1,8,0:0:0:0:
256,192,96533,1,8,0:0:0:0:
256,192,96583,1,8,0:0:0:0:
256,192,96633,1,8,0:0:0:0:
256,192,96683,1,0,0:0:0:0:
256,192,96783,1,8,0:0:0:0:
256,192,96883,1,8,0:0:0:0:
256,192,96983,1,0,0:0:0:0:
256,192,97033,1,0,0:0:0:0:
256,192,97083,1,8,0:0:0:0:
256,192,97183,1,0,0:0:0:0:
256,192,97233,1,0,0:0:0:0:
256,192,97283,1,8,0:0:0:0:
256,192,97483,1,12,0:0:0:0:
256,192,97883,1,8,0:0:0:0:
256,192,98083,1,0,0:0:0:0:
256,192,98283,1,8,0:0:0:0:
256,192,98383,1,0,0:0:0:0:
256,192,98483,1,8,0:0:0:0:
256,192,98583,1,0,0:0:0:0:
256,192,98683,1,8,0:0:0:0:
256,192,98949,1,0,0:0:0:0:
256,192,99016,1,0,0:0:0:0:
256,192,99083,1,8,0:0:0:0:
256,192,99349,1,8,0:0:0:0:
256,192,99416,1,0,0:0:0:0:
256,192,99483,1,8,0:0:0:0:
256,192,99749,1,0,0:0:0:0:
256,192,99816,1,0,0:0:0:0:
256,192,99883,1,8,0:0:0:0:
256,192,99983,1,8,0:0:0:0:
256,192,100083,1,0,0:0:0:0:
256,192,100283,1,8,0:0:0:0:
256,192,100383,1,8,0:0:0:0:
256,192,100483,1,0,0:0:0:0:
256,192,100583,1,8,0:0:0:0:
256,192,100683,1,8,0:0:0:0:
256,192,100783,1,8,0:0:0:0:
256,192,100883,1,0,0:0:0:0:
256,192,100983,1,8,0:0:0:0:
256,192,101083,1,8,0:0:0:0:
256,192,101183,1,0,0:0:0:0:
256,192,101283,1,8,0:0:0:0:
256,192,101349,1,8,0:0:0:0:
256,192,101416,1,0,0:0:0:0:
256,192,101483,1,8,0:0:0:0:
256,192,101549,1,8,0:0:0:0:
256,192,101616,1,8,0:0:0:0:
256,192,101683,1,0,0:0:0:0:
256,192,101783,1,0,0:0:0:0:
256,192,101883,1,8,0:0:0:0:
256,192,101983,1,8,0:0:0:0:
256,192,102083,1,0,0:0:0:0:
256,192,102183,1,0,0:0:0:0:
256,192,102283,1,8,0:0:0:0:
256,192,102349,1,8,0:0:0:0:
256,192,102416,1,8,0:0:0:0:
256,192,102483,1,0,0:0:0:0:
256,192,102549,1,0,0:0:0:0:
256,192,102616,1,0,0:0:0:0:
256,192,102683,1,8,0:0:0:0:
256,192,102749,1,8,0:0:0:0:
256,192,102816,1,0,0:0:0:0:
256,192,102883,1,8,0:0:0:0:
256,192,102949,1,8,0:0:0:0:
256,192,103016,1,0,0:0:0:0:
256,192,103083,1,8,0:0:0:0:
256,192,103183,1,8,0:0:0:0:
256,192,103283,1,0,0:0:0:0:
256,192,103483,1,8,0:0:0:0:
256,192,103583,1,8,0:0:0:0:
256,192,103683,1,0,0:0:0:0:
256,192,103883,1,8,0:0:0:0:
256,192,103983,1,8,0:0:0:0:
256,192,104083,1,8,0:0:0:0:
256,192,104183,1,0,0:0:0:0:
256,192,104283,1,8,0:0:0:0:
256,192,104349,1,8,0:0:0:0:
256,192,104416,1,8,0:0:0:0:
256,192,104483,1,0,0:0:0:0:
256,192,104583,1,8,0:0:0:0:
256,192,104683,1,8,0:0:0:0:
256,192,104783,1,0,0:0:0:0:
256,192,104883,1,8,0:0:0:0:
256,192,104983,1,0,0:0:0:0:
256,192,105083,1,8,0:0:0:0:
256,192,105149,1,8,0:0:0:0:
256,192,105216,1,0,0:0:0:0:
256,192,105283,1,8,0:0:0:0:
256,192,105349,1,8,0:0:0:0:
256,192,105416,1,0,0:0:0:0:
256,192,105483,1,8,0:0:0:0:
256,192,105549,1,0,0:0:0:0:
256,192,105616,1,0,0:0:0:0:
256,192,105683,1,8,0:0:0:0:
256,192,105749,1,0,0:0:0:0:
256,192,105816,1,0,0:0:0:0:
256,192,105883,1,8,0:0:0:0:
256,192,105983,1,8,0:0:0:0:
256,192,106083,1,0,0:0:0:0:
256,192,106283,1,8,0:0:0:0:
256,192,106333,1,0,0:0:0:0:
256,192,106383,1,0,0:0:0:0:
256,192,106433,1,8,0:0:0:0:
256,192,106483,1,0,0:0:0:0:
256,192,106683,1,8,0:0:0:0:
256,192,106783,1,8,0:0:0:0:
256,192,106883,1,0,0:0:0:0:
256,192,107083,1,8,0:0:0:0:
256,192,107349,1,0,0:0:0:0:
256,192,107483,1,8,0:0:0:0:
256,192,107749,1,8,0:0:0:0:
256,192,107883,1,8,0:0:0:0:
256,192,108149,1,0,0:0:0:0:
256,192,108283,1,8,0:0:0:0:
256,192,108549,1,8,0:0:0:0:
256,192,108683,1,0,0:0:0:0:
256,192,108816,1,8,0:0:0:0:
256,192,108949,1,8,0:0:0:0:
256,192,109083,1,0,0:0:0:0:
256,192,109483,1,8,0:0:0:0:
256,192,109583,1,8,0:0:0:0:
256,192,109683,1,0,0:0:0:0:
256,192,109883,1,8,0:0:0:0:
256,192,109983,1,8,0:0:0:0:
256,192,110083,1,0,0:0:0:0:
256,192,110283,1,12,0:0:0:0:
256,192,110483,1,8,0:0:0:0:
256,192,110583,1,0,0:0:0:0:
256,192,110683,1,8,0:0:0:0:
256,192,110783,1,8,0:0:0:0:
256,192,110883,1,0,0:0:0:0:
256,192,110983,1,8,0:0:0:0:
256,192,111083,1,8,0:0:0:0:
256,192,111183,1,8,0:0:0:0:
256,192,111283,1,8,0:0:0:0:
256,192,111383,1,0,0:0:0:0:
256,192,111483,1,0,0:0:0:0:
256,192,111583,1,0,0:0:0:0:
256,192,111683,1,8,0:0:0:0:
256,192,111783,1,8,0:0:0:0:
256,192,111883,1,0,0:0:0:0:
256,192,111983,1,0,0:0:0:0:
256,192,112083,1,8,0:0:0:0:
256,192,112183,1,0,0:0:0:0:
256,192,112283,1,8,0:0:0:0:
256,192,112383,1,8,0:0:0:0:
256,192,112483,1,0,0:0:0:0:
256,192,112583,1,8,0:0:0:0:
256,192,112683,1,8,0:0:0:0:
256,192,112783,1,8,0:0:0:0:
256,192,112883,1,8,0:0:0:0:
256,192,112983,1,0,0:0:0:0:
256,192,113083,1,0,0:0:0:0:
256,192,113183,1,8,0:0:0:0:
256,192,113283,1,8,0:0:0:0:
256,192,113383,1,0,0:0:0:0:
256,192,113483,1,8,0:0:0:0:
256,192,113583,1,0,0:0:0:0:
256,192,113683,1,8,0:0:0:0:
256,192,113783,1,0,0:0:0:0:
256,192,113883,1,8,0:0:0:0:
256,192,113983,1,8,0:0:0:0:
256,192,114083,1,0,0:0:0:0:
256,192,114183,1,8,0:0:0:0:
256,192,114283,1,8,0:0:0:0:
256,192,114383,1,0,0:0:0:0:
256,192,114483,1,8,0:0:0:0:
256,192,114583,1,0,0:0:0:0:
256,192,114683,1,8,0:0:0:0:
256,192,114783,1,8,0:0:0:0:
256,192,114883,1,0,0:0:0:0:
256,192,114983,1,0,0:0:0:0:
256,192,115083,1,8,0:0:0:0:
256,192,115183,1,8,0:0:0:0:
256,192,115283,1,0,0:0:0:0:
256,192,115383,1,0,0:0:0:0:
256,192,115483,1,8,0:0:0:0:
256,192,115583,1,0,0:0:0:0:
256,192,115683,1,0,0:0:0:0:
256,192,115783,1,0,0:0:0:0:
256,192,115883,1,8,0:0:0:0:
256,192,115983,1,8,0:0:0:0:
256,192,116083,1,0,0:0:0:0:
256,192,116183,1,0,0:0:0:0:
256,192,116283,1,8,0:0:0:0:
256,192,116383,1,8,0:0:0:0:
256,192,116483,1,8,0:0:0:0:
256,192,116583,1,8,0:0:0:0:
256,192,116683,1,0,0:0:0:0:
256,192,116783,1,0,0:0:0:0:
256,192,116883,1,8,0:0:0:0:
256,192,116983,1,0,0:0:0:0:
256,192,117083,1,8,0:0:0:0:
256,192,117183,1,0,0:0:0:0:
256,192,117283,1,0,0:0:0:0:
256,192,117383,1,0,0:0:0:0:
256,192,117483,1,8,0:0:0:0:
256,192,117583,1,8,0:0:0:0:
256,192,117683,1,0,0:0:0:0:
256,192,117783,1,8,0:0:0:0:
256,192,117883,1,8,0:0:0:0:
256,192,117983,1,0,0:0:0:0:
256,192,118083,1,8,0:0:0:0:
256,192,118183,1,0,0:0:0:0:
256,192,118283,1,8,0:0:0:0:
256,192,118383,1,8,0:0:0:0:
256,192,118483,1,0,0:0:0:0:
256,192,118583,1,0,0:0:0:0:
256,192,118683,1,8,0:0:0:0:
256,192,118783,1,8,0:0:0:0:
256,192,118883,1,0,0:0:0:0:
256,192,118983,1,8,0:0:0:0:
256,192,119083,1,8,0:0:0:0:
256,192,119183,1,8,0:0:0:0:
256,192,119283,1,8,0:0:0:0:
256,192,119383,1,0,0:0:0:0:
256,192,119483,1,0,0:0:0:0:
256,192,119583,1,8,0:0:0:0:
256,192,119683,1,8,0:0:0:0:
256,192,119783,1,0,0:0:0:0:
256,192,119883,1,8,0:0:0:0:
256,192,119983,1,8,0:0:0:0:
256,192,120083,1,0,0:0:0:0:
256,192,120183,1,0,0:0:0:0:
256,192,120283,1,8,0:0:0:0:
256,192,120383,1,8,0:0:0:0:
256,192,120483,1,0,0:0:0:0:
256,192,120583,1,8,0:0:0:0:
256,192,120683,1,8,0:0:0:0:
256,192,120783,1,8,0:0:0:0:
256,192,120883,1,8,0:0:0:0:
256,192,120983,1,0,0:0:0:0:
256,192,121083,1,8,0:0:0:0:
256,192,121183,1,8,0:0:0:0:
256,192,121283,1,0,0:0:0:0:
256,192,121383,1,0,0:0:0:0:
256,192,121483,1,8,0:0:0:0:
256,192,121549,1,8,0:0:0:0:
256,192,121616,1,0,0:0:0:0:
256,192,121683,1,8,0:0:0:0:
256,192,121749,1,8,0:0:0:0:
256,192,121816,1,0,0:0:0:0:
256,192,121883,1,8,0:0:0:0:
256,192,121949,1,8,0:0:0:0:
256,192,122016,1,8,0:0:0:0:
256,192,122083,1,0,0:0:0:0:
256,192,122149,1,0,0:0:0:0:
256,192,122216,1,0,0:0:0:0:
256,192,122283,1,8,0:0:0:0:
256,192,122349,1,8,0:0:0:0:
256,192,122416,1,8,0:0:0:0:
256,192,122483,1,0,0:0:0:0:
256,192,122549,1,0,0:0:0:0:
256,192,122616,1,0,0:0:0:0:
256,192,122683,1,8,0:0:0:0:
256,192,122749,1,0,0:0:0:0:
256,192,122816,1,0,0:0:0:0:
256,192,122883,1,0,0:0:0:0:
256,192,122949,1,0,0:0:0:0:
256,192,123016,1,0,0:0:0:0:
256,192,123083,1,12,0:0:0:0:
256,192,123283,1,0,0:0:0:0:
256,192,123383,1,8,0:0:0:0:
256,192,123583,1,0,0:0:0:0:
256,192,123683,1,8,0:0:0:0:
256,192,123883,1,8,0:0:0:0:
256,192,123983,1,8,0:0:0:0:
256,192,124183,1,0,0:0:0:0:
256,192,124283,1,8,0:0:0:0:
256,192,124383,1,0,0:0:0:0:
256,192,124483,1,8,0:0:0:0:
256,192,124583,1,8,0:0:0:0:
256,192,124683,1,4,0:0:0:0:
256,192,124883,1,0,0:0:0:0:
256,192,124983,1,8,0:0:0:0:
256,192,125183,1,0,0:0:0:0:
256,192,125283,1,8,0:0:0:0:
256,192,125483,1,8,0:0:0:0:
256,192,125583,1,8,0:0:0:0:
256,192,125683,1,0,0:0:0:0:
256,192,125783,1,8,0:0:0:0:
256,192,125983,1,0,0:0:0:0:
256,192,126083,1,8,0:0:0:0:
256,192,126283,1,12,0:0:0:0:
256,192,126483,1,0,0:0:0:0:
256,192,126583,1,8,0:0:0:0:
256,192,126683,1,0,0:0:0:0:
256,192,126783,1,8,0:0:0:0:
256,192,126883,1,0,0:0:0:0:
256,192,126983,1,8,0:0:0:0:
256,192,127083,1,8,0:0:0:0:
256,192,127183,1,8,0:0:0:0:
256,192,127283,1,0,0:0:0:0:
256,192,127383,1,8,0:0:0:0:
256,192,127483,1,0,0:0:0:0:
256,192,127583,1,8,0:0:0:0:
256,192,127683,1,0,0:0:0:0:
256,192,127783,1,8,0:0:0:0:
256,192,127883,1,8,0:0:0:0:
256,192,127983,1,8,0:0:0:0:
256,192,128083,1,0,0:0:0:0:
256,192,128183,1,8,0:0:0:0:
256,192,128283,1,0,0:0:0:0:
256,192,128383,1,8,0:0:0:0:
256,192,128483,1,0,0:0:0:0:
256,192,128583,1,8,0:0:0:0:
256,192,128683,1,8,0:0:0:0:
256,192,128783,1,8,0:0:0:0:
256,192,128883,1,0,0:0:0:0:
256,192,128983,1,8,0:0:0:0:
256,192,129083,1,0,0:0:0:0:
256,192,129149,1,0,0:0:0:0:
256,192,129216,1,0,0:0:0:0:
256,192,129283,1,8,0:0:0:0:
256,192,129349,1,8,0:0:0:0:
256,192,129416,1,8,0:0:0:0:
256,192,129483,1,4,0:0:0:0:
256,192,129683,1,0,0:0:0:0:
256,192,129783,1,8,0:0:0:0:
256,192,129983,1,0,0:0:0:0:
256,192,130083,1,8,0:0:0:0:
256,192,130283,1,8,0:0:0:0:
256,192,130383,1,8,0:0:0:0:
256,192,130583,1,0,0:0:0:0:
256,192,130683,1,8,0:0:0:0:
256,192,130783,1,0,0:0:0:0:
256,192,130883,1,8,0:0:0:0:
256,192,130983,1,8,0:0:0:0:
256,192,131083,1,4,0:0:0:0:
256,192,131283,1,0,0:0:0:0:
256,192,131383,1,8,0:0:0:0:
256,192,131583,1,0,0:0:0:0:
256,192,131683,1,8,0:0:0:0:
256,192,131883,1,8,0:0:0:0:
256,192,131983,1,8,0:0:0:0:
256,192,132083,1,0,0:0:0:0:
256,192,132183,1,8,0:0:0:0:
256,192,132383,1,0,0:0:0:0:
256,192,132483,1,8,0:0:0:0:
256,192,132683,1,12,0:0:0:0:
256,192,132883,1,0,0:0:0:0:
256,192,132983,1,8,0:0:0:0:
256,192,133183,1,0,0:0:0:0:
256,192,133283,1,8,0:0:0:0:
256,192,133483,1,0,0:0:0:0:
256,192,133583,1,8,0:0:0:0:
256,192,133683,1,8,0:0:0:0:
256,192,133783,1,8,0:0:0:0:
256,192,133883,1,4,0:0:0:0:
256,192,134083,1,4,0:0:0:0:
256,192,134283,1,12,0:0:0:0:
256,192,134583,1,12,0:0:0:0:
256,192,134883,1,12,0:0:0:0:
256,192,135083,1,8,0:0:0:0:
256,192,135149,1,8,0:0:0:0:
256,192,135216,1,8,0:0:0:0:
256,192,135283,1,0,0:0:0:0:
256,192,135349,1,0,0:0:0:0:
256,192,135416,1,0,0:0:0:0:
256,192,135483,1,8,0:0:0:0:
256,192,135883,1,12,0:0:0:0:
256,192,136083,1,0,0:0:0:0:
256,192,136183,1,0,0:0:0:0:
256,192,136283,1,8,0:0:0:0:
256,192,136383,1,0,0:0:0:0:
256,192,136483,1,0,0:0:0:0:
256,192,136583,1,0,0:0:0:0:
256,192,136683,1,8,0:0:0:0:
256,192,136783,1,0,0:0:0:0:
256,192,136883,1,8,0:0:0:0:
256,192,136983,1,0,0:0:0:0:
256,192,137083,1,8,0:0:0:0:
256,192,137183,1,8,0:0:0:0:
256,192,137283,1,0,0:0:0:0:
256,192,137383,1,0,0:0:0:0:
256,192,137483,1,8,0:0:0:0:
256,192,137583,1,8,0:0:0:0:
256,192,137683,1,0,0:0:0:0:
256,192,137783,1,0,0:0:0:0:
256,192,137883,1,8,0:0:0:0:
256,192,137983,1,0,0:0:0:0:
256,192,138083,1,0,0:0:0:0:
256,192,138183,1,0,0:0:0:0:
256,192,138283,1,8,0:0:0:0:
256,192,138383,1,0,0:0:0:0:
256,192,138483,1,0,0:0:0:0:
256,192,138583,1,0,0:0:0:0:
256,192,138683,1,8,0:0:0:0:
256,192,138783,1,0,0:0:0:0:
256,192,138883,1,8,0:0:0:0:
256,192,138983,1,0,0:0:0:0:
256,192,139083,1,8,0:0:0:0:
256,192,139183,1,8,0:0:0:0:
256,192,139283,1,8,0:0:0:0:
256,192,139383,1,0,0:0:0:0:
256,192,139483,1,8,0:0:0:0:
256,192,139583,1,0,0:0:0:0:
256,192,139683,1,0,0:0:0:0:
256,192,139783,1,0,0:0:0:0:
256,192,139883,1,8,0:0:0:0:
256,192,139983,1,8,0:0:0:0:
256,192,140083,1,0,0:0:0:0:
256,192,140183,1,0,0:0:0:0:
256,192,140283,1,8,0:0:0:0:
256,192,140383,1,0,0:0:0:0:
256,192,140483,1,0,0:0:0:0:
256,192,140583,1,0,0:0:0:0:
256,192,140683,1,8,0:0:0:0:
256,192,140733,1,8,0:0:0:0:
256,192,140783,1,0,0:0:0:0:
256,192,140883,1,8,0:0:0:0:
256,192,140933,1,8,0:0:0:0:
256,192,140983,1,0,0:0:0:0:
256,192,141083,1,8,0:0:0:0:
256,192,141183,1,0,0:0:0:0:
256,192,141233,1,0,0:0:0:0:
256,192,141283,1,8,0:0:0:0:
256,192,141383,1,0,0:0:0:0:
256,192,141433,1,0,0:0:0:0:
256,192,141483,1,8,0:0:0:0:
256,192,141683,1,8,0:0:0:0:
256,192,141783,1,8,0:0:0:0:
256,192,141883,1,8,0:0:0:0:
256,192,141949,1,0,0:0:0:0:
256,192,142016,1,0,0:0:0:0:
256,192,142083,1,8,0:0:0:0:
256,192,142149,1,0,0:0:0:0:
256,192,142216,1,0,0:0:0:0:
256,192,142283,1,12,0:0:0:0:
256,192,142483,1,0,0:0:0:0:
256,192,142583,1,0,0:0:0:0:
256,192,142683,1,8,0:0:0:0:
256,192,142783,1,0,0:0:0:0:
256,192,142883,1,0,0:0:0:0:
256,192,142983,1,0,0:0:0:0:
256,192,143083,1,8,0:0:0:0:
256,192,143183,1,0,0:0:0:0:
256,192,143283,1,8,0:0:0:0:
256,192,143383,1,0,0:0:0:0:
256,192,143483,1,8,0:0:0:0:
256,192,143583,1,8,0:0:0:0:
256,192,143683,1,0,0:0:0:0:
256,192,143783,1,0,0:0:0:0:
256,192,143883,1,8,0:0:0:0:
256,192,143983,1,8,0:0:0:0:
256,192,144083,1,0,0:0:0:0:
256,192,144183,1,0,0:0:0:0:
256,192,144283,1,8,0:0:0:0:
256,192,144383,1,0,0:0:0:0:
256,192,144483,1,8,0:0:0:0:
256,192,144583,1,8,0:0:0:0:
256,192,144683,1,8,0:0:0:0:
256,192,144783,1,0,0:0:0:0:
256,192,144883,1,0,0:0:0:0:
256,192,144983,1,0,0:0:0:0:
256,192,145083,1,8,0:0:0:0:
256,192,145183,1,0,0:0:0:0:
256,192,145283,1,0,0:0:0:0:
256,192,145383,1,0,0:0:0:0:
256,192,145483,1,8,0:0:0:0:
256,192,145583,1,8,0:0:0:0:
256,192,145683,1,0,0:0:0:0:
256,192,145783,1,0,0:0:0:0:
256,192,145883,1,8,0:0:0:0:
256,192,145983,1,0,0:0:0:0:
256,192,146083,1,8,0:0:0:0:
256,192,146183,1,0,0:0:0:0:
256,192,146283,1,8,0:0:0:0:
256,192,146383,1,8,0:0:0:0:
256,192,146483,1,0,0:0:0:0:
256,192,146583,1,0,0:0:0:0:
256,192,146683,1,8,0:0:0:0:
256,192,146783,1,0,0:0:0:0:
256,192,146883,1,8,0:0:0:0:
256,192,146983,1,0,0:0:0:0:
256,192,147083,1,8,0:0:0:0:
256,192,147183,1,0,0:0:0:0:
256,192,147283,1,8,0:0:0:0:
256,192,147383,1,8,0:0:0:0:
256,192,147483,1,0,0:0:0:0:
256,192,147583,1,8,0:0:0:0:
256,192,147683,1,8,0:0:0:0:
256,192,147783,1,0,0:0:0:0:
256,192,147883,1,8,0:0:0:0:
256,192,148083,1,8,0:0:0:0:
256,192,148149,1,8,0:0:0:0:
256,192,148216,1,8,0:0:0:0:
256,192,148283,1,8,0:0:0:0:
256,192,148383,1,8,0:0:0:0:
256,192,148483,1,8,0:0:0:0:
256,192,148583,1,8,0:0:0:0:
256,192,148683,1,4,0:0:0:0:
256,192,148883,1,0,0:0:0:0:
256,192,148983,1,0,0:0:0:0:
256,192,149083,1,8,0:0:0:0:
256,192,149183,1,0,0:0:0:0:
256,192,149283,1,0,0:0:0:0:
256,192,149383,1,0,0:0:0:0:
256,192,149483,1,8,0:0:0:0:
256,192,149583,1,0,0:0:0:0:
256,192,149683,1,8,0:0:0:0:
256,192,149783,1,0,0:0:0:0:
256,192,149883,1,8,0:0:0:0:
256,192,149983,1,8,0:0:0:0:
256,192,150083,1,0,0:0:0:0:
256,192,150183,1,0,0:0:0:0:
256,192,150283,1,8,0:0:0:0:
256,192,150383,1,8,0:0:0:0:
256,192,150483,1,0,0:0:0:0:
256,192,150583,1,0,0:0:0:0:
256,192,150683,1,8,0:0:0:0:
256,192,150783,1,0,0:0:0:0:
256,192,150883,1,0,0:0:0:0:
256,192,150983,1,0,0:0:0:0:
256,192,151083,1,8,0:0:0:0:
256,192,151183,1,0,0:0:0:0:
256,192,151283,1,0,0:0:0:0:
256,192,151383,1,0,0:0:0:0:
256,192,151483,1,8,0:0:0:0:
256,192,151583,1,0,0:0:0:0:
256,192,151683,1,8,0:0:0:0:
256,192,151783,1,0,0:0:0:0:
256,192,151883,1,8,0:0:0:0:
256,192,151983,1,8,0:0:0:0:
256,192,152083,1,8,0:0:0:0:
256,192,152183,1,0,0:0:0:0:
256,192,152283,1,8,0:0:0:0:
256,192,152383,1,0,0:0:0:0:
256,192,152483,1,0,0:0:0:0:
256,192,152583,1,0,0:0:0:0:
256,192,152683,1,8,0:0:0:0:
256,192,152783,1,8,0:0:0:0:
256,192,152883,1,0,0:0:0:0:
256,192,152983,1,0,0:0:0:0:
256,192,153083,1,8,0:0:0:0:
256,192,153183,1,0,0:0:0:0:
256,192,153283,1,0,0:0:0:0:
256,192,153383,1,0,0:0:0:0:
256,192,153483,1,8,0:0:0:0:
256,192,153583,1,0,0:0:0:0:
256,192,153683,1,0,0:0:0:0:
256,192,153783,1,0,0:0:0:0:
256,192,153883,1,8,0:0:0:0:
256,192,153983,1,0,0:0:0:0:
256,192,154083,1,0,0:0:0:0:
256,192,154183,1,0,0:0:0:0:
256,192,154283,1,8,0:0:0:0:
256,192,154383,1,8,0:0:0:0:
256,192,154483,1,0,0:0:0:0:
256,192,154583,1,0,0:0:0:0:
256,192,154683,1,8,0:0:0:0:
256,192,154783,1,8,0:0:0:0:
256,192,154883,1,8,0:0:0:0:
256,192,154983,1,0,0:0:0:0:
256,192,155083,1,12,0:0:0:0:
256,192,155283,1,0,0:0:0:0:
256,192,155383,1,0,0:0:0:0:
256,192,155483,1,8,0:0:0:0:
256,192,155583,1,0,0:0:0:0:
256,192,155683,1,0,0:0:0:0:
256,192,155783,1,0,0:0:0:0:
256,192,155883,1,8,0:0:0:0:
256,192,155983,1,0,0:0:0:0:
256,192,156083,1,8,0:0:0:0:
256,192,156183,1,0,0:0:0:0:
256,192,156283,1,8,0:0:0:0:
256,192,156383,1,8,0:0:0:0:
256,192,156483,1,0,0:0:0:0:
256,192,156583,1,0,0:0:0:0:
256,192,156683,1,8,0:0:0:0:
256,192,156783,1,8,0:0:0:0:
256,192,156883,1,0,0:0:0:0:
256,192,156983,1,0,0:0:0:0:
256,192,157083,1,8,0:0:0:0:
256,192,157183,1,0,0:0:0:0:
256,192,157283,1,8,0:0:0:0:
256,192,157383,1,8,0:0:0:0:
256,192,157483,1,8,0:0:0:0:
256,192,157583,1,0,0:0:0:0:
256,192,157683,1,0,0:0:0:0:
256,192,157783,1,0,0:0:0:0:
256,192,157883,1,8,0:0:0:0:
256,192,157983,1,0,0:0:0:0:
256,192,158083,1,0,0:0:0:0:
256,192,158183,1,0,0:0:0:0:
256,192,158283,1,8,0:0:0:0:
256,192,158383,1,8,0:0:0:0:
256,192,158483,1,0,0:0:0:0:
256,192,158583,1,0,0:0:0:0:
256,192,158683,1,8,0:0:0:0:
256,192,158783,1,0,0:0:0:0:
256,192,158883,1,8,0:0:0:0:
256,192,158983,1,0,0:0:0:0:
256,192,159083,1,8,0:0:0:0:
256,192,159183,1,8,0:0:0:0:
256,192,159283,1,0,0:0:0:0:
256,192,159383,1,0,0:0:0:0:
256,192,159483,1,8,0:0:0:0:
256,192,159583,1,0,0:0:0:0:
256,192,159683,1,8,0:0:0:0:
256,192,159883,1,8,0:0:0:0:
256,192,159933,1,8,0:0:0:0:
256,192,159983,1,8,0:0:0:0:
256,192,160033,1,8,0:0:0:0:
256,192,160083,1,0,0:0:0:0:
256,192,160183,1,8,0:0:0:0:
256,192,160283,1,0,0:0:0:0:
256,192,160333,1,0,0:0:0:0:
256,192,160383,1,0,0:0:0:0:
256,192,160483,1,8,0:0:0:0:
256,192,160533,1,8,0:0:0:0:
256,192,160583,1,8,0:0:0:0:
256,192,160633,1,8,0:0:0:0:
256,192,160683,1,0,0:0:0:0:
256,192,160783,1,8,0:0:0:0:
256,192,160983,1,0,0:0:0:0:
256,192,161033,1,0,0:0:0:0:
256,192,161083,1,8,0:0:0:0:
256,192,161183,1,0,0:0:0:0:
256,192,161233,1,0,0:0:0:0:
256,192,161283,1,8,0:0:0:0:
256,192,161483,1,12,0:0:0:0:
256,192,164283,1,8,0:0:0:0:
256,192,164416,1,0,0:0:0:0:
256,192,164549,1,0,0:0:0:0:
256,192,164683,1,8,0:0:0:0:
256,192,164816,1,8,0:0:0:0:
256,192,164949,1,0,0:0:0:0:
256,192,165083,1,0,0:0:0:0:
256,192,165216,1,0,0:0:0:0:
256,192,165349,1,0,0:0:0:0:
256,192,165483,1,12,0:0:0:0:
256,192,167083,1,4,0:0:0:0:
256,192,168283,1,12,0:0:0:0:
256,192,168483,1,0,0:0:0:0:
256,192,168583,1,8,0:0:0:0:
256,192,168683,1,0,0:0:0:0:
256,192,168783,1,8,0:0:0:0:
256,192,168883,1,0,0:0:0:0:
256,192,168983,1,8,0:0:0:0:
256,192,169083,1,8,0:0:0:0:
256,192,169183,1,8,0:0:0:0:
256,192,169283,1,0,0:0:0:0:
256,192,169383,1,8,0:0:0:0:
256,192,169483,1,0,0:0:0:0:
256,192,169583,1,8,0:0:0:0:
256,192,169683,1,8,0:0:0:0:
256,192,169783,1,8,0:0:0:0:
256,192,169883,1,8,0:0:0:0:
256,192,169983,1,0,0:0:0:0:
256,192,170083,1,8,0:0:0:0:
256,192,170183,1,8,0:0:0:0:
256,192,170283,1,0,0:0:0:0:
256,192,170383,1,8,0:0:0:0:
256,192,170483,1,0,0:0:0:0:
256,192,170583,1,8,0:0:0:0:
256,192,170683,1,8,0:0:0:0:
256,192,170783,1,0,0:0:0:0:
256,192,170883,1,8,0:0:0:0:
256,192,170983,1,8,0:0:0:0:
256,192,171083,1,8,0:0:0:0:
256,192,171183,1,0,0:0:0:0:
256,192,171283,1,8,0:0:0:0:
256,192,171383,1,0,0:0:0:0:
256,192,171483,1,12,0:0:0:0:
256,192,171683,1,0,0:0:0:0:
256,192,171783,1,8,0:0:0:0:
256,192,171883,1,0,0:0:0:0:
256,192,171983,1,8,0:0:0:0:
256,192,172083,1,0,0:0:0:0:
256,192,172183,1,8,0:0:0:0:
256,192,172283,1,8,0:0:0:0:
256,192,172383,1,8,0:0:0:0:
256,192,172483,1,0,0:0:0:0:
256,192,172583,1,8,0:0:0:0:
256,192,172683,1,0,0:0:0:0:
256,192,172783,1,8,0:0:0:0:
256,192,172883,1,8,0:0:0:0:
256,192,172983,1,8,0:0:0:0:
256,192,173083,1,0,0:0:0:0:
256,192,173183,1,8,0:0:0:0:
256,192,173283,1,0,0:0:0:0:
256,192,173383,1,0,0:0:0:0:
256,192,173483,1,8,0:0:0:0:
256,192,173583,1,8,0:0:0:0:
256,192,173683,1,0,0:0:0:0:
256,192,173783,1,8,0:0:0:0:
256,192,173883,1,8,0:0:0:0:
256,192,173983,1,8,0:0:0:0:
256,192,174083,1,0,0:0:0:0:
256,192,174183,1,8,0:0:0:0:
256,192,174283,1,8,0:0:0:0:
256,192,174349,1,8,0:0:0:0:
256,192,174416,1,8,0:0:0:0:
256,192,174483,1,0,0:0:0:0:
256,192,174549,1,0,0:0:0:0:
256,192,174616,1,0,0:0:0:0:
256,192,174683,1,8,0:0:0:0:
256,192,174749,1,0,0:0:0:0:
256,192,174816,1,0,0:0:0:0:
256,192,174883,1,8,0:0:0:0:
256,192,174949,1,8,0:0:0:0:
256,192,175016,1,0,0:0:0:0:
256,192,175083,1,8,0:0:0:0:
256,192,175149,1,0,0:0:0:0:
256,192,175216,1,0,0:0:0:0:
256,192,175283,1,8,0:0:0:0:
256,192,175349,1,0,0:0:0:0:
256,192,175416,1,0,0:0:0:0:
256,192,175483,1,8,0:0:0:0:
256,192,175549,1,0,0:0:0:0:
256,192,175616,1,0,0:0:0:0:
256,192,175683,1,8,0:0:0:0:
256,192,175749,1,8,0:0:0:0:
256,192,175816,1,8,0:0:0:0:
256,192,175883,1,0,0:0:0:0:
256,192,175949,1,0,0:0:0:0:
256,192,176016,1,0,0:0:0:0:
256,192,176083,1,8,0:0:0:0:
256,192,176149,1,0,0:0:0:0:
256,192,176216,1,0,0:0:0:0:
256,192,176283,1,8,0:0:0:0:
256,192,176349,1,0,0:0:0:0:
256,192,176416,1,0,0:0:0:0:
256,192,176483,1,8,0:0:0:0:
256,192,176549,1,8,0:0:0:0:
256,192,176616,1,0,0:0:0:0:
256,192,176683,1,8,0:0:0:0:
256,192,176749,1,8,0:0:0:0:
256,192,176816,1,0,0:0:0:0:
256,192,176883,1,0,0:0:0:0:
256,192,176949,1,8,0:0:0:0:
256,192,177016,1,0,0:0:0:0:
256,192,177083,1,8,0:0:0:0:
256,192,177149,1,8,0:0:0:0:
256,192,177216,1,0,0:0:0:0:
256,192,177283,1,0,0:0:0:0:
256,192,177349,1,8,0:0:0:0:
256,192,177416,1,8,0:0:0:0:
256,192,177483,1,8,0:0:0:0:
256,192,177549,1,8,0:0:0:0:
256,192,177616,1,0,0:0:0:0:
256,192,177683,1,0,0:0:0:0:
256,192,177749,1,0,0:0:0:0:
256,192,177816,1,0,0:0:0:0:
256,192,177883,1,8,0:0:0:0:
256,192,177949,1,8,0:0:0:0:
256,192,178016,1,8,0:0:0:0:
256,192,178083,1,0,0:0:0:0:
256,192,178283,1,12,0:0:0:0:
256,192,178483,1,8,0:0:0:0:
256,192,178583,1,8,0:0:0:0:
256,192,178683,1,0,0:0:0:0:
256,192,178783,1,8,0:0:0:0:
256,192,178883,1,0,0:0:0:0:
256,192,178983,1,8,0:0:0:0:
256,192,179083,1,8,0:0:0:0:
256,192,179183,1,0,0:0:0:0:
256,192,179283,1,8,0:0:0:0:
256,192,179383,1,8,0:0:0:0:
256,192,179483,1,0,0:0:0:0:
256,192,179583,1,8,0:0:0:0:
256,192,179683,1,0,0:0:0:0:
256,192,179783,1,8,0:0:0:0:
256,192,179883,1,0,0:0:0:0:
256,192,179983,1,8,0:0:0:0:
256,192,180083,1,8,0:0:0:0:
256,192,180183,1,8,0:0:0:0:
256,192,180283,1,0,0:0:0:0:
256,192,180383,1,8,0:0:0:0:
256,192,180483,1,8,0:0:0:0:
256,192,180583,1,8,0:0:0:0:
256,192,180683,1,0,0:0:0:0:
256,192,180783,1,8,0:0:0:0:
256,192,180883,1,0,0:0:0:0:
256,192,180983,1,8,0:0:0:0:
256,192,181083,1,8,0:0:0:0:
256,192,181183,1,8,0:0:0:0:
256,192,181283,1,0,0:0:0:0:
256,192,181383,1,8,0:0:0:0:
256,192,181483,1,8,0:0:0:0:
256,192,181583,1,8,0:0:0:0:
256,192,181683,1,8,0:0:0:0:
256,192,181783,1,0,0:0:0:0:
256,192,181883,1,8,0:0:0:0:
256,192,181983,1,8,0:0:0:0:
256,192,182083,1,8,0:0:0:0:
256,192,182183,1,0,0:0:0:0:
256,192,182283,1,8,0:0:0:0:
256,192,182349,1,8,0:0:0:0:
256,192,182416,1,8,0:0:0:0:
256,192,182483,1,0,0:0:0:0:
256,192,182549,1,8,0:0:0:0:
256,192,182616,1,8,0:0:0:0:
256,192,182683,1,8,0:0:0:0:
256,192,182749,1,0,0:0:0:0:
256,192,182816,1,0,0:0:0:0:
256,192,182883,1,0,0:0:0:0:
256,192,182949,1,0,0:0:0:0:
256,192,183016,1,0,0:0:0:0:
256,192,183083,1,8,0:0:0:0:
256,192,183183,1,8,0:0:0:0:
256,192,183283,1,0,0:0:0:0:
256,192,183383,1,8,0:0:0:0:
256,192,183483,1,0,0:0:0:0:
256,192,183583,1,8,0:0:0:0:
256,192,183683,1,0,0:0:0:0:
256,192,183783,1,8,0:0:0:0:
256,192,183883,1,8,0:0:0:0:
256,192,183983,1,0,0:0:0:0:
256,192,184083,1,8,0:0:0:0:
256,192,184183,1,8,0:0:0:0:
256,192,184283,1,8,0:0:0:0:
256,192,184383,1,0,0:0:0:0:
256,192,184483,1,8,0:0:0:0:
256,192,184583,1,0,0:0:0:0:
256,192,184683,1,12,0:0:0:0:
256,192,184883,1,8,0:0:0:0:
256,192,184983,1,8,0:0:0:0:
256,192,185083,1,0,0:0:0:0:
256,192,185183,1,8,0:0:0:0:
256,192,185283,1,0,0:0:0:0:
256,192,185383,1,8,0:0:0:0:
256,192,185483,1,8,0:0:0:0:
256,192,185583,1,0,0:0:0:0:
256,192,185683,1,8,0:0:0:0:
256,192,185783,1,8,0:0:0:0:
256,192,185883,1,0,0:0:0:0:
256,192,185983,1,8,0:0:0:0:
256,192,186083,1,0,0:0:0:0:
256,192,186183,1,8,0:0:0:0:
256,192,186283,1,4,0:0:0:0:
256,192,186683,1,8,0:0:0:0:
256,192,186749,1,8,0:0:0:0:
256,192,186816,1,8,0:0:0:0:
256,192,186883,1,0,0:0:0:0:
256,192,186949,1,8,0:0:0:0:
256,192,187016,1,8,0:0:0:0:
256,192,187083,1,8,0:0:0:0:
256,192,187183,1,0,0:0:0:0:
256,192,187233,1,0,0:0:0:0:
256,192,187283,1,8,0:0:0:0:
256,192,187383,1,0,0:0:0:0:
256,192,187433,1,0,0:0:0:0:
256,192,187483,1,8,0:0:0:0:
256,192,187583,1,0,0:0:0:0:
256,192,187683,1,8,0:0:0:0:
256,192,187783,1,0,0:0:0:0:
256,192,187883,1,8,0:0:0:0:
256,192,187983,1,0,0:0:0:0:
256,192,188033,1,0,0:0:0:0:
256,192,188083,1,8,0:0:0:0:
256,192,188183,1,0,0:0:0:0:
256,192,188233,1,0,0:0:0:0:
256,192,188283,1,8,0:0:0:0:
256,192,188383,1,0,0:0:0:0:
256,192,188483,1,8,0:0:0:0:
256,192,188583,1,0,0:0:0:0:
256,192,188683,1,8,0:0:0:0:
256,192,188783,1,0,0:0:0:0:
256,192,188833,1,0,0:0:0:0:
256,192,188883,1,8,0:0:0:0:
256,192,188983,1,0,0:0:0:0:
256,192,189033,1,0,0:0:0:0:
256,192,189083,1,8,0:0:0:0:
256,192,189133,1,8,0:0:0:0:
256,192,189183,1,0,0:0:0:0:
256,192,189283,1,8,0:0:0:0:
256,192,189383,1,0,0:0:0:0:
256,192,189483,1,8,0:0:0:0:
256,192,189583,1,0,0:0:0:0:
256,192,189683,1,8,0:0:0:0:
256,192,189783,1,8,0:0:0:0:
256,192,189883,1,0,0:0:0:0:
256,192,189983,1,8,0:0:0:0:
256,192,190083,1,8,0:0:0:0:
256,192,190183,1,0,0:0:0:0:
256,192,190283,1,12,0:0:0:0:
256,192,190483,1,12,0:0:0:0:
256,192,190683,1,0,0:0:0:0:
256,192,190749,1,0,0:0:0:0:
256,192,190816,1,0,0:0:0:0:
256,192,190883,1,8,0:0:0:0:
256,192,190949,1,8,0:0:0:0:
256,192,191016,1,8,0:0:0:0:
256,192,191083,1,4,0:0:0:0:
256,192,191283,1,0,0:0:0:0:
256,192,191383,1,0,0:0:0:0:
256,192,191483,1,8,0:0:0:0:
256,192,191583,1,0,0:0:0:0:
256,192,191683,1,0,0:0:0:0:
256,192,191783,1,8,0:0:0:0:
256,192,191883,1,8,0:0:0:0:
256,192,191983,1,0,0:0:0:0:
256,192,192083,1,8,0:0:0:0:
256,192,192183,1,0,0:0:0:0:
256,192,192283,1,8,0:0:0:0:
256,192,192383,1,8,0:0:0:0:
256,192,192483,1,0,0:0:0:0:
256,192,192583,1,0,0:0:0:0:
256,192,192683,1,8,0:0:0:0:
256,192,192783,1,8,0:0:0:0:
256,192,192883,1,0,0:0:0:0:
256,192,192983,1,8,0:0:0:0:
256,192,193083,1,8,0:0:0:0:
256,192,193183,1,8,0:0:0:0:
256,192,193283,1,8,0:0:0:0:
256,192,193383,1,0,0:0:0:0:
256,192,193483,1,8,0:0:0:0:
256,192,193583,1,8,0:0:0:0:
256,192,193683,1,0,0:0:0:0:
256,192,193783,1,8,0:0:0:0:
256,192,193883,1,0,0:0:0:0:
256,192,193983,1,0,0:0:0:0:
256,192,194083,1,8,0:0:0:0:
256,192,194183,1,8,0:0:0:0:
256,192,195883,1,8,0:0:0:0:
256,192,196683,1,0,0:0:0:0:
256,192,197483,1,8,0:0:0:0:
256,192,199083,1,8,0:0:0:0:
256,192,199883,1,0,0:0:0:0:
256,192,200683,1,4,0:0:0:0:
256,192,200883,1,8,0:0:0:0:
256,192,200983,1,0,0:0:0:0:
256,192,201183,1,8,0:0:0:0:
256,192,201283,1,0,0:0:0:0:
256,192,201483,1,8,0:0:0:0:
256,192,201549,1,8,0:0:0:0:
256,192,201616,1,0,0:0:0:0:
256,192,201683,1,8,0:0:0:0:
256,192,201749,1,8,0:0:0:0:
256,192,201816,1,0,0:0:0:0:
256,192,201883,1,8,0:0:0:0:
256,192,201949,1,0,0:0:0:0:
256,192,202016,1,0,0:0:0:0:
256,192,202083,1,0,0:0:0:0:
256,192,202149,1,0,0:0:0:0:
256,192,202216,1,0,0:0:0:0:
256,192,202283,1,12,0:0:0:0:
256,192,203083,1,4,0:0:0:0:
256,192,203883,1,12,0:0:0:0:
256,192,204683,1,8,0:0:0:0:
256,192,204783,1,8,0:0:0:0:
256,192,204883,1,0,0:0:0:0:
256,192,204983,1,8,0:0:0:0:
256,192,205083,1,0,0:0:0:0:
256,192,205183,1,8,0:0:0:0:
256,192,205283,1,8,0:0:0:0:
256,192,205383,1,0,0:0:0:0:
256,192,205483,1,12,0:0:0:0:
256,192,205683,1,0,0:0:0:0:
256,192,205783,1,0,0:0:0:0:
256,192,205883,1,8,0:0:0:0:
256,192,205983,1,0,0:0:0:0:
256,192,206083,1,8,0:0:0:0:
256,192,206183,1,0,0:0:0:0:
256,192,206283,1,8,0:0:0:0:
256,192,206383,1,8,0:0:0:0:
256,192,206483,1,0,0:0:0:0:
256,192,206583,1,0,0:0:0:0:
256,192,206683,1,8,0:0:0:0:
256,192,206783,1,0,0:0:0:0:
256,192,206883,1,8,0:0:0:0:
256,192,207083,1,8,0:0:0:0:
256,192,207133,1,8,0:0:0:0:
256,192,207183,1,0,0:0:0:0:
256,192,207283,1,8,0:0:0:0:
256,192,207333,1,8,0:0:0:0:
256,192,207383,1,0,0:0:0:0:
256,192,207483,1,0,0:0:0:0:
256,192,207533,1,0,0:0:0:0:
256,192,207583,1,8,0:0:0:0:
256,192,207633,1,8,0:0:0:0:
256,192,207683,1,0,0:0:0:0:
256,192,207783,1,0,0:0:0:0:
256,192,207833,1,0,0:0:0:0:
256,192,207883,1,0,0:0:0:0:
256,192,207933,1,0,0:0:0:0:
256,192,207983,1,8,0:0:0:0:
256,192,208083,1,8,0:0:0:0:
256,192,208183,1,0,0:0:0:0:
256,192,208283,1,8,0:0:0:0:
256,192,208483,1,8,0:0:0:0:
256,192,208683,1,4,0:0:0:0:
256,192,208883,1,0,0:0:0:0:
256,192,208983,1,0,0:0:0:0:
256,192,209083,1,8,0:0:0:0:
256,192,209183,1,0,0:0:0:0:
256,192,209283,1,0,0:0:0:0:
256,192,209383,1,0,0:0:0:0:
256,192,209483,1,8,0:0:0:0:
256,192,209583,1,0,0:0:0:0:
256,192,209683,1,8,0:0:0:0:
256,192,209783,1,0,0:0:0:0:
256,192,209883,1,8,0:0:0:0:
256,192,209983,1,8,0:0:0:0:
256,192,210083,1,0,0:0:0:0:
256,192,210183,1,0,0:0:0:0:
256,192,210283,1,8,0:0:0:0:
256,192,210383,1,8,0:0:0:0:
256,192,210483,1,0,0:0:0:0:
256,192,210583,1,0,0:0:0:0:
256,192,210683,1,8,0:0:0:0:
256,192,210783,1,0,0:0:0:0:
256,192,210883,1,0,0:0:0:0:
256,192,210983,1,0,0:0:0:0:
256,192,211083,1,8,0:0:0:0:
256,192,211183,1,0,0:0:0:0:
256,192,211283,1,0,0:0:0:0:
256,192,211383,1,0,0:0:0:0:
256,192,211483,1,8,0:0:0:0:
256,192,211583,1,0,0:0:0:0:
256,192,211683,1,8,0:0:0:0:
256,192,211783,1,0,0:0:0:0:
256,192,211883,1,8,0:0:0:0:
256,192,211983,1,8,0:0:0:0:
256,192,212083,1,8,0:0:0:0:
256,192,212183,1,0,0:0:0:0:
256,192,212283,1,8,0:0:0:0:
256,192,212383,1,0,0:0:0:0:
256,192,212483,1,0,0:0:0:0:
256,192,212583,1,0,0:0:0:0:
256,192,212683,1,8,0:0:0:0:
256,192,212783,1,8,0:0:0:0:
256,192,212883,1,0,0:0:0:0:
256,192,212983,1,0,0:0:0:0:
256,192,213083,1,8,0:0:0:0:
256,192,213183,1,0,0:0:0:0:
256,192,213283,1,0,0:0:0:0:
256,192,213383,1,0,0:0:0:0:
256,192,213483,1,8,0:0:0:0:
256,192,213583,1,0,0:0:0:0:
256,192,213683,1,0,0:0:0:0:
256,192,213783,1,0,0:0:0:0:
256,192,213883,1,8,0:0:0:0:
256,192,213983,1,0,0:0:0:0:
256,192,214083,1,0,0:0:0:0:
256,192,214183,1,0,0:0:0:0:
256,192,214283,1,8,0:0:0:0:
256,192,214383,1,8,0:0:0:0:
256,192,214483,1,0,0:0:0:0:
256,192,214583,1,0,0:0:0:0:
256,192,214683,1,8,0:0:0:0:
256,192,214783,1,8,0:0:0:0:
256,192,214883,1,8,0:0:0:0:
256,192,214983,1,0,0:0:0:0:
256,192,215083,1,12,0:0:0:0:
256,192,215283,1,0,0:0:0:0:
256,192,215383,1,0,0:0:0:0:
256,192,215483,1,8,0:0:0:0:
256,192,215583,1,0,0:0:0:0:
256,192,215683,1,0,0:0:0:0:
256,192,215783,1,0,0:0:0:0:
256,192,215883,1,8,0:0:0:0:
256,192,215983,1,0,0:0:0:0:
256,192,216083,1,8,0:0:0:0:
256,192,216183,1,0,0:0:0:0:
256,192,216283,1,8,0:0:0:0:
256,192,216383,1,8,0:0:0:0:
256,192,216483,1,0,0:0:0:0:
256,192,216583,1,0,0:0:0:0:
256,192,216683,1,8,0:0:0:0:
256,192,216783,1,8,0:0:0:0:
256,192,216883,1,0,0:0:0:0:
256,192,216983,1,0,0:0:0:0:
256,192,217083,1,8,0:0:0:0:
256,192,217183,1,0,0:0:0:0:
256,192,217283,1,8,0:0:0:0:
256,192,217383,1,8,0:0:0:0:
256,192,217483,1,8,0:0:0:0:
256,192,217583,1,0,0:0:0:0:
256,192,217683,1,0,0:0:0:0:
256,192,217783,1,0,0:0:0:0:
256,192,217883,1,8,0:0:0:0:
256,192,217983,1,0,0:0:0:0:
256,192,218083,1,0,0:0:0:0:
256,192,218183,1,0,0:0:0:0:
256,192,218283,1,8,0:0:0:0:
256,192,218383,1,8,0:0:0:0:
256,192,218483,1,0,0:0:0:0:
256,192,218583,1,0,0:0:0:0:
256,192,218683,1,8,0:0:0:0:
256,192,218783,1,0,0:0:0:0:
256,192,218883,1,8,0:0:0:0:
256,192,218983,1,0,0:0:0:0:
256,192,219083,1,8,0:0:0:0:
256,192,219183,1,8,0:0:0:0:
256,192,219283,1,0,0:0:0:0:
256,192,219383,1,0,0:0:0:0:
256,192,219483,1,8,0:0:0:0:
256,192,219583,1,0,0:0:0:0:
256,192,219683,1,8,0:0:0:0:
256,192,219883,1,8,0:0:0:0:
256,192,219933,1,8,0:0:0:0:
256,192,219983,1,8,0:0:0:0:
256,192,220033,1,8,0:0:0:0:
256,192,220083,1,0,0:0:0:0:
256,192,220183,1,8,0:0:0:0:
256,192,220283,1,8,0:0:0:0:
256,192,220383,1,0,0:0:0:0:
256,192,220483,1,8,0:0:0:0:
256,192,220533,1,8,0:0:0:0:
256,192,220583,1,8,0:0:0:0:
256,192,220633,1,8,0:0:0:0:
256,192,220683,1,4,0:0:0:0:
256,192,221083,1,4,0:0:0:0:
256,192,221483,1,4,0:0:0:0:
256,192,221883,1,4,0:0:0:0:
256,192,222283,1,12,0:0:0:0:
256,192,222683,1,4,0:0:0:0:
256,192,223083,1,4,0:0:0:0:
256,192,223483,1,8,0:0:0:0:
256,192,223583,1,8,0:0:0:0:
256,192,223683,1,8,0:0:0:0:
256,192,223783,1,0,0:0:0:0:
256,192,223883,1,8,0:0:0:0:
256,192,223983,1,8,0:0:0:0:
256,192,224083,1,8,0:0:0:0:
256,192,224183,1,0,0:0:0:0:
256,192,224283,1,8,0:0:0:0:
256,192,224383,1,8,0:0:0:0:
256,192,224483,1,8,0:0:0:0:
256,192,224583,1,0,0:0:0:0:
256,192,224683,1,8,0:0:0:0:
256,192,224783,1,8,0:0:0:0:
256,192,224883,1,0,0:0:0:0:
256,192,224983,1,8,0:0:0:0:
256,192,225083,1,0,0:0:0:0:
256,192,225183,1,8,0:0:0:0:
256,192,225283,1,0,0:0:0:0:
256,192,225383,1,8,0:0:0:0:
256,192,225483,1,8,0:0:0:0:
256,192,225583,1,8,0:0:0:0:
256,192,225683,1,8,0:0:0:0:
256,192,225783,1,0,0:0:0:0:
256,192,225883,1,8,0:0:0:0:
256,192,225983,1,8,0:0:0:0:
256,192,226083,1,8,0:0:0:0:
256,192,226183,1,0,0:0:0:0:
256,192,226283,1,8,0:0:0:0:
256,192,226383,1,8,0:0:0:0:
256,192,226483,1,8,0:0:0:0:
256,192,226583,1,0,0:0:0:0:
256,192,226683,1,8,0:0:0:0:
256,192,226749,1,8,0:0:0:0:
256,192,226816,1,0,0:0:0:0:
256,192,226883,1,0,0:0:0:0:
256,192,226949,1,0,0:0:0:0:
256,192,227016,1,0,0:0:0:0:
256,192,227083,1,8,0:0:0:0:
256,192,227149,1,8,0:0:0:0:
256,192,227216,1,0,0:0:0:0:
256,192,227283,1,0,0:0:0:0:
256,192,227349,1,0,0:0:0:0:
256,192,227416,1,0,0:0:0:0:
256,192,227483,1,8,0:0:0:0:
256,192,227549,1,8,0:0:0:0:
256,192,227616,1,0,0:0:0:0:
256,192,227683,1,0,0:0:0:0:
256,192,227749,1,0,0:0:0:0:
256,192,227816,1,0,0:0:0:0:
256,192,227883,1,8,0:0:0:0:
256,192,227983,1,8,0:0:0:0:
256,192,228083,1,4,0:0:0:0:
256,192,228283,1,8,0:0:0:0:
256,192,228383,1,8,0:0:0:0:
256,192,228483,1,4,0:0:0:0:
