osu file format v14

[General]
AudioFilename: audio.mp3
AudioLeadIn: 0
PreviewTime: 68110
Countdown: 0
SampleSet: None
StackLeniency: 0.2
Mode: 1
LetterboxInBreaks: 0
WidescreenStoryboard: 1

[Editor]
Bookmarks: 16110,20110,28110,36110,60110,68110,86110,106110,114110,132110,136110,160110,168110,184110,196110
DistanceSpacing: 1
BeatDivisor: 4
GridSize: 32
TimelineZoom: 3.699999

[Metadata]
Title:Too Sweet
TitleUnicode:Too Sweet
Artist:UNDEAD CORPORATION
ArtistUnicode:UNDEAD CORPORATION
Creator:Jaye
Version:Lite Oni
Source:
Tags:Ex-Series
BeatmapID:1696634
BeatmapSetID:807565

[Difficulty]
HPDrainRate:6
CircleSize:2
OverallDifficulty:5
ApproachRate:10
SliderMultiplier:1.4
SliderTickRate:1

[Events]
//Background and Video events
0,0,"15. [Katie] evening-wallpaper.jpg",0,0
//Break Periods
//Storyboard Layer 0 (Background)
//Storyboard Layer 1 (Fail)
//Storyboard Layer 2 (Pass)
//Storyboard Layer 3 (Foreground)
//Storyboard Sound Samples

[TimingPoints]
110,250,4,1,0,100,1,0
68110,-100,4,1,0,100,0,1
86110,-100,4,1,0,100,0,0
114110,-100,4,1,0,100,0,1
132110,-100,4,1,0,100,0,0
168110,-100,4,1,0,100,0,1
196110,-100,4,1,0,100,0,0

[HitObjects]
256,192,110,5,12,0:0:0:0:
256,192,360,1,12,0:0:0:0:
256,192,3860,1,0,0:0:0:0:
256,192,4110,1,12,0:0:0:0:
256,192,4360,1,12,0:0:0:0:
256,192,6110,1,8,0:0:0:0:
256,192,6610,1,8,0:0:0:0:
256,192,7110,1,8,0:0:0:0:
256,192,7172,1,8,0:0:0:0:
256,192,7235,1,8,0:0:0:0:
256,192,7360,1,0,0:0:0:0:
256,192,7485,1,0,0:0:0:0:
256,192,7610,1,0,0:0:0:0:
256,192,8110,1,8,0:0:0:0:
256,192,8235,1,0,0:0:0:0:
256,192,8360,1,8,0:0:0:0:
256,192,8485,1,8,0:0:0:0:
256,192,8610,1,0,0:0:0:0:
256,192,8672,1,0,0:0:0:0:
256,192,8735,1,0,0:0:0:0:
256,192,8985,1,8,0:0:0:0:
256,192,9110,1,0,0:0:0:0:
256,192,9360,1,8,0:0:0:0:
256,192,9485,1,0,0:0:0:0:
256,192,9610,1,8,0:0:0:0:
256,192,9672,1,8,0:0:0:0:
256,192,9735,1,8,0:0:0:0:
256,192,9985,1,8,0:0:0:0:
256,192,10110,1,0,0:0:0:0:
256,192,10360,1,0,0:0:0:0:
256,192,10485,1,0,0:0:0:0:
256,192,10610,1,8,0:0:0:0:
256,192,10860,1,0,0:0:0:0:
256,192,10985,1,0,0:0:0:0:
256,192,11110,1,8,0:0:0:0:
256,192,11360,1,0,0:0:0:0:
256,192,11485,1,0,0:0:0:0:
256,192,11735,1,0,0:0:0:0:
256,192,11860,1,8,0:0:0:0:
256,192,12360,1,0,0:0:0:0:
256,192,12485,1,0,0:0:0:0:
256,192,12610,1,8,0:0:0:0:
256,192,12860,1,8,0:0:0:0:
256,192,12985,1,0,0:0:0:0:
256,192,13047,1,0,0:0:0:0:
256,192,13110,1,0,0:0:0:0:
256,192,13235,1,0,0:0:0:0:
256,192,13360,1,0,0:0:0:0:
256,192,13485,1,8,0:0:0:0:
256,192,13860,1,0,0:0:0:0:
256,192,14110,1,0,0:0:0:0:
256,192,14172,1,0,0:0:0:0:
256,192,14235,1,0,0:0:0:0:
256,192,14360,1,8,0:0:0:0:
256,192,14485,1,0,0:0:0:0:
256,192,14547,1,0,0:0:0:0:
256,192,14610,1,0,0:0:0:0:
256,192,14735,1,8,0:0:0:0:
256,192,14860,1,0,0:0:0:0:
256,192,15110,1,0,0:0:0:0:
256,192,15235,1,8,0:0:0:0:
256,192,15360,1,0,0:0:0:0:
256,192,15485,1,8,0:0:0:0:
256,192,15860,1,8,0:0:0:0:
256,192,16110,1,0,0:0:0:0:
256,192,16610,1,8,0:0:0:0:
256,192,17110,1,8,0:0:0:0:
256,192,17172,1,8,0:0:0:0:
256,192,17235,1,8,0:0:0:0:
256,192,17360,1,0,0:0:0:0:
256,192,17485,1,8,0:0:0:0:
256,192,17547,1,8,0:0:0:0:
256,192,17610,1,8,0:0:0:0:
256,192,17735,1,8,0:0:0:0:
256,192,17860,1,0,0:0:0:0:
256,192,18110,1,0,0:0:0:0:
256,192,18360,1,8,0:0:0:0:
256,192,18485,1,8,0:0:0:0:
256,192,18735,1,0,0:0:0:0:
256,192,18860,1,8,0:0:0:0:
256,192,19235,1,0,0:0:0:0:
256,192,19360,1,8,0:0:0:0:
256,192,19485,1,8,0:0:0:0:
256,192,19610,1,0,0:0:0:0:
256,192,19735,1,8,0:0:0:0:
256,192,19860,1,0,0:0:0:0:
256,192,19985,1,8,0:0:0:0:
256,192,20110,1,0,0:0:0:0:
256,192,20360,1,0,0:0:0:0:
256,192,21110,1,0,0:0:0:0:
256,192,21360,1,0,0:0:0:0:
256,192,22110,1,0,0:0:0:0:
256,192,22360,1,0,0:0:0:0:
256,192,22860,1,8,0:0:0:0:
256,192,22985,1,0,0:0:0:0:
256,192,23110,1,0,0:0:0:0:
256,192,23360,1,0,0:0:0:0:
256,192,23610,1,8,0:0:0:0:
256,192,23860,1,0,0:0:0:0:
256,192,24110,1,0,0:0:0:0:
256,192,24360,1,0,0:0:0:0:
256,192,25110,1,0,0:0:0:0:
256,192,25360,1,0,0:0:0:0:
256,192,26110,1,0,0:0:0:0:
256,192,26360,1,0,0:0:0:0:
256,192,26610,1,8,0:0:0:0:
256,192,26735,1,0,0:0:0:0:
256,192,26860,1,8,0:0:0:0:
256,192,27110,1,8,0:0:0:0:
256,192,27172,1,8,0:0:0:0:
256,192,27235,1,8,0:0:0:0:
256,192,27360,1,0,0:0:0:0:
256,192,27485,1,8,0:0:0:0:
256,192,27610,1,0,0:0:0:0:
256,192,27735,1,8,0:0:0:0:
256,192,27860,1,0,0:0:0:0:
256,192,28110,1,0,0:0:0:0:
256,192,28235,1,0,0:0:0:0:
256,192,28360,1,0,0:0:0:0:
256,192,28485,1,0,0:0:0:0:
256,192,28610,1,8,0:0:0:0:
256,192,28860,1,8,0:0:0:0:
256,192,29110,1,0,0:0:0:0:
256,192,29235,1,0,0:0:0:0:
256,192,29360,1,0,0:0:0:0:
256,192,29485,1,8,0:0:0:0:
256,192,29610,1,0,0:0:0:0:
256,192,29860,1,8,0:0:0:0:
256,192,30110,1,0,0:0:0:0:
256,192,30235,1,0,0:0:0:0:
256,192,30360,1,0,0:0:0:0:
256,192,30485,1,0,0:0:0:0:
256,192,30610,1,8,0:0:0:0:
256,192,30860,1,0,0:0:0:0:
256,192,31110,1,0,0:0:0:0:
256,192,31235,1,8,0:0:0:0:
256,192,31360,1,0,0:0:0:0:
256,192,31485,1,0,0:0:0:0:
256,192,31610,1,8,0:0:0:0:
256,192,31735,1,8,0:0:0:0:
256,192,31860,1,0,0:0:0:0:
256,192,32110,1,0,0:0:0:0:
256,192,32235,1,8,0:0:0:0:
256,192,32360,1,0,0:0:0:0:
256,192,32485,1,8,0:0:0:0:
256,192,32610,1,8,0:0:0:0:
256,192,32860,1,8,0:0:0:0:
256,192,33110,1,0,0:0:0:0:
256,192,33235,1,8,0:0:0:0:
256,192,33360,1,0,0:0:0:0:
256,192,33485,1,8,0:0:0:0:
256,192,33610,1,8,0:0:0:0:
256,192,33860,1,8,0:0:0:0:
256,192,34110,1,0,0:0:0:0:
256,192,34235,1,0,0:0:0:0:
256,192,34360,1,8,0:0:0:0:
256,192,34485,1,0,0:0:0:0:
256,192,34610,1,8,0:0:0:0:
256,192,34860,1,8,0:0:0:0:
256,192,35110,1,8,0:0:0:0:
256,192,35360,1,0,0:0:0:0:
256,192,35485,1,0,0:0:0:0:
256,192,35547,1,0,0:0:0:0:
256,192,35610,1,0,0:0:0:0:
256,192,35860,1,8,0:0:0:0:
256,192,36110,1,0,0:0:0:0:
256,192,36172,1,0,0:0:0:0:
256,192,36235,1,0,0:0:0:0:
256,192,36360,1,0,0:0:0:0:
256,192,36485,1,8,0:0:0:0:
256,192,36610,1,0,0:0:0:0:
256,192,36860,1,0,0:0:0:0:
256,192,37110,1,0,0:0:0:0:
256,192,37172,1,0,0:0:0:0:
256,192,37235,1,0,0:0:0:0:
256,192,37360,1,0,0:0:0:0:
256,192,37485,1,8,0:0:0:0:
256,192,37610,1,0,0:0:0:0:
256,192,37860,1,8,0:0:0:0:
256,192,38110,1,0,0:0:0:0:
256,192,38172,1,0,0:0:0:0:
256,192,38235,1,0,0:0:0:0:
256,192,38360,1,0,0:0:0:0:
256,192,38485,1,0,0:0:0:0:
256,192,38610,1,8,0:0:0:0:
256,192,38860,1,8,0:0:0:0:
256,192,39110,1,8,0:0:0:0:
256,192,39172,1,8,0:0:0:0:
256,192,39235,1,8,0:0:0:0:
256,192,39360,1,0,0:0:0:0:
256,192,39485,1,8,0:0:0:0:
256,192,39610,1,0,0:0:0:0:
256,192,39672,1,0,0:0:0:0:
256,192,39735,1,0,0:0:0:0:
256,192,39860,1,0,0:0:0:0:
256,192,40110,1,0,0:0:0:0:
256,192,40172,1,0,0:0:0:0:
256,192,40235,1,0,0:0:0:0:
256,192,40360,1,0,0:0:0:0:
256,192,40485,1,8,0:0:0:0:
256,192,40610,1,0,0:0:0:0:
256,192,40860,1,0,0:0:0:0:
256,192,41110,1,0,0:0:0:0:
256,192,41172,1,0,0:0:0:0:
256,192,41235,1,0,0:0:0:0:
256,192,41360,1,0,0:0:0:0:
256,192,41485,1,0,0:0:0:0:
256,192,41610,1,8,0:0:0:0:
256,192,41860,1,8,0:0:0:0:
256,192,42110,1,0,0:0:0:0:
256,192,42172,1,0,0:0:0:0:
256,192,42235,1,0,0:0:0:0:
256,192,42360,1,8,0:0:0:0:
256,192,42485,1,0,0:0:0:0:
256,192,42610,1,8,0:0:0:0:
256,192,42860,1,0,0:0:0:0:
256,192,43110,1,8,0:0:0:0:
256,192,43360,1,8,0:0:0:0:
256,192,43610,1,8,0:0:0:0:
256,192,43860,1,0,0:0:0:0:
256,192,44110,1,0,0:0:0:0:
256,192,44235,1,8,0:0:0:0:
256,192,44297,1,8,0:0:0:0:
256,192,44360,1,8,0:0:0:0:
256,192,44485,1,0,0:0:0:0:
256,192,44610,1,8,0:0:0:0:
256,192,44860,1,0,0:0:0:0:
256,192,45110,1,8,0:0:0:0:
256,192,45235,1,0,0:0:0:0:
256,192,45297,1,0,0:0:0:0:
256,192,45360,1,0,0:0:0:0:
256,192,45485,1,0,0:0:0:0:
256,192,45610,1,0,0:0:0:0:
256,192,45860,1,8,0:0:0:0:
256,192,46110,1,0,0:0:0:0:
256,192,46235,1,8,0:0:0:0:
256,192,46297,1,8,0:0:0:0:
256,192,46360,1,8,0:0:0:0:
256,192,46485,1,8,0:0:0:0:
256,192,46610,1,0,0:0:0:0:
256,192,46860,1,0,0:0:0:0:
256,192,47110,1,8,0:0:0:0:
256,192,47172,1,8,0:0:0:0:
256,192,47235,1,8,0:0:0:0:
256,192,47297,1,8,0:0:0:0:
256,192,47360,1,8,0:0:0:0:
256,192,47610,1,0,0:0:0:0:
256,192,47672,1,0,0:0:0:0:
256,192,47735,1,0,0:0:0:0:
256,192,47797,1,0,0:0:0:0:
256,192,47860,1,0,0:0:0:0:
256,192,48110,1,0,0:0:0:0:
256,192,48235,1,0,0:0:0:0:
256,192,48360,1,0,0:0:0:0:
256,192,48485,1,8,0:0:0:0:
256,192,48610,1,0,0:0:0:0:
256,192,48672,1,0,0:0:0:0:
256,192,48735,1,0,0:0:0:0:
256,192,48860,1,0,0:0:0:0:
256,192,49110,1,0,0:0:0:0:
256,192,49235,1,8,0:0:0:0:
256,192,49360,1,0,0:0:0:0:
256,192,49485,1,8,0:0:0:0:
256,192,49610,1,0,0:0:0:0:
256,192,49672,1,0,0:0:0:0:
256,192,49735,1,0,0:0:0:0:
256,192,49860,1,8,0:0:0:0:
256,192,50110,1,8,0:0:0:0:
256,192,50235,1,0,0:0:0:0:
256,192,50360,1,8,0:0:0:0:
256,192,50485,1,0,0:0:0:0:
256,192,50610,1,0,0:0:0:0:
256,192,50672,1,0,0:0:0:0:
256,192,50735,1,0,0:0:0:0:
256,192,50860,1,8,0:0:0:0:
256,192,51110,1,8,0:0:0:0:
256,192,51172,1,8,0:0:0:0:
256,192,51235,1,8,0:0:0:0:
256,192,51360,1,0,0:0:0:0:
256,192,51485,1,8,0:0:0:0:
256,192,51610,1,0,0:0:0:0:
256,192,51672,1,0,0:0:0:0:
256,192,51735,1,0,0:0:0:0:
256,192,51860,1,0,0:0:0:0:
256,192,52110,1,8,0:0:0:0:
256,192,52235,1,0,0:0:0:0:
256,192,52360,1,0,0:0:0:0:
256,192,52485,1,8,0:0:0:0:
256,192,52610,1,0,0:0:0:0:
256,192,52672,1,0,0:0:0:0:
256,192,52735,1,0,0:0:0:0:
256,192,52860,1,8,0:0:0:0:
256,192,53110,1,0,0:0:0:0:
256,192,53235,1,0,0:0:0:0:
256,192,53360,1,0,0:0:0:0:
256,192,53485,1,8,0:0:0:0:
256,192,53610,1,0,0:0:0:0:
256,192,53672,1,0,0:0:0:0:
256,192,53735,1,0,0:0:0:0:
256,192,53860,1,8,0:0:0:0:
256,192,54110,1,0,0:0:0:0:
256,192,54235,1,8,0:0:0:0:
256,192,54360,1,0,0:0:0:0:
256,192,54485,1,8,0:0:0:0:
256,192,54610,1,0,0:0:0:0:
256,192,54672,1,0,0:0:0:0:
256,192,54735,1,0,0:0:0:0:
256,192,54860,1,8,0:0:0:0:
256,192,55110,1,8,0:0:0:0:
256,192,55360,1,0,0:0:0:0:
256,192,55422,1,0,0:0:0:0:
256,192,55485,1,0,0:0:0:0:
256,192,55547,1,0,0:0:0:0:
256,192,55610,1,0,0:0:0:0:
256,192,55860,1,0,0:0:0:0:
256,192,56110,1,0,0:0:0:0:
256,192,56235,1,8,0:0:0:0:
256,192,56297,1,8,0:0:0:0:
256,192,56360,1,8,0:0:0:0:
256,192,56485,1,0,0:0:0:0:
256,192,56610,1,8,0:0:0:0:
256,192,56860,1,0,0:0:0:0:
256,192,57110,1,8,0:0:0:0:
256,192,57235,1,0,0:0:0:0:
256,192,57297,1,0,0:0:0:0:
256,192,57360,1,0,0:0:0:0:
256,192,57485,1,0,0:0:0:0:
256,192,57610,1,8,0:0:0:0:
256,192,57672,1,8,0:0:0:0:
256,192,57735,1,8,0:0:0:0:
256,192,57860,1,0,0:0:0:0:
256,192,58110,1,8,0:0:0:0:
256,192,58172,1,8,0:0:0:0:
256,192,58235,1,8,0:0:0:0:
256,192,58360,1,0,0:0:0:0:
256,192,58485,1,0,0:0:0:0:
256,192,58547,1,0,0:0:0:0:
256,192,58610,1,0,0:0:0:0:
256,192,58735,1,0,0:0:0:0:
256,192,58860,1,8,0:0:0:0:
256,192,59235,1,8,0:0:0:0:
256,192,59360,1,0,0:0:0:0:
256,192,59485,1,8,0:0:0:0:
256,192,59610,1,0,0:0:0:0:
256,192,59735,1,8,0:0:0:0:
256,192,59860,1,0,0:0:0:0:
256,192,59985,1,8,0:0:0:0:
256,192,60110,1,0,0:0:0:0:
256,192,60360,1,0,0:0:0:0:
256,192,61110,1,0,0:0:0:0:
256,192,61360,1,0,0:0:0:0:
256,192,62110,1,8,0:0:0:0:
256,192,62360,1,8,0:0:0:0:
256,192,63110,1,8,0:0:0:0:
256,192,63360,1,8,0:0:0:0:
256,192,63610,1,8,0:0:0:0:
256,192,63735,1,8,0:0:0:0:
256,192,63860,1,0,0:0:0:0:
256,192,64110,1,0,0:0:0:0:
256,192,64360,1,0,0:0:0:0:
256,192,65110,1,0,0:0:0:0:
256,192,65360,1,0,0:0:0:0:
256,192,66110,1,8,0:0:0:0:
256,192,66360,1,8,0:0:0:0:
256,192,67110,1,8,0:0:0:0:
256,192,67360,1,8,0:0:0:0:
256,192,67610,1,8,0:0:0:0:
256,192,67735,1,8,0:0:0:0:
256,192,67860,1,0,0:0:0:0:
256,192,68110,1,8,0:0:0:0:
256,192,68360,1,0,0:0:0:0:
256,192,68610,1,0,0:0:0:0:
256,192,69110,1,0,0:0:0:0:
256,192,69360,1,0,0:0:0:0:
256,192,69610,1,0,0:0:0:0:
256,192,70110,1,8,0:0:0:0:
256,192,70360,1,8,0:0:0:0:
256,192,70610,1,8,0:0:0:0:
256,192,71110,1,8,0:0:0:0:
256,192,71360,1,8,0:0:0:0:
256,192,71610,1,0,0:0:0:0:
256,192,72110,1,8,0:0:0:0:
256,192,72360,1,0,0:0:0:0:
256,192,72610,1,0,0:0:0:0:
256,192,73110,1,0,0:0:0:0:
256,192,73360,1,0,0:0:0:0:
256,192,73610,1,0,0:0:0:0:
256,192,74110,1,8,0:0:0:0:
256,192,74360,1,8,0:0:0:0:
256,192,74610,1,8,0:0:0:0:
256,192,75110,1,8,0:0:0:0:
256,192,75360,1,8,0:0:0:0:
256,192,75610,1,0,0:0:0:0:
256,192,76110,1,0,0:0:0:0:
256,192,76360,1,0,0:0:0:0:
256,192,76485,1,8,0:0:0:0:
256,192,76547,1,8,0:0:0:0:
256,192,76610,1,8,0:0:0:0:
256,192,77110,1,8,0:0:0:0:
256,192,77360,1,0,0:0:0:0:
256,192,77485,1,8,0:0:0:0:
256,192,77610,1,0,0:0:0:0:
256,192,77672,1,0,0:0:0:0:
256,192,77735,1,0,0:0:0:0:
256,192,78110,1,8,0:0:0:0:
256,192,78360,1,8,0:0:0:0:
256,192,78610,1,8,0:0:0:0:
256,192,78735,1,0,0:0:0:0:
256,192,78860,1,8,0:0:0:0:
256,192,79110,1,8,0:0:0:0:
256,192,79360,1,0,0:0:0:0:
256,192,79485,1,8,0:0:0:0:
256,192,79735,1,0,0:0:0:0:
256,192,79860,1,8,0:0:0:0:
256,192,80360,1,8,0:0:0:0:
256,192,80485,1,0,0:0:0:0:
256,192,80547,1,0,0:0:0:0:
256,192,80610,1,0,0:0:0:0:
256,192,80860,1,0,0:0:0:0:
256,192,80985,1,8,0:0:0:0:
256,192,81047,1,8,0:0:0:0:
256,192,81110,1,8,0:0:0:0:
256,192,81360,1,0,0:0:0:0:
256,192,81485,1,8,0:0:0:0:
256,192,81735,1,8,0:0:0:0:
256,192,81860,1,0,0:0:0:0:
256,192,82110,1,8,0:0:0:0:
256,192,82172,1,8,0:0:0:0:
256,192,82235,1,8,0:0:0:0:
256,192,82360,1,0,0:0:0:0:
256,192,82485,1,0,0:0:0:0:
256,192,82547,1,0,0:0:0:0:
256,192,82610,1,0,0:0:0:0:
256,192,82735,1,8,0:0:0:0:
256,192,82860,1,8,0:0:0:0:
256,192,83110,1,8,0:0:0:0:
256,192,83360,1,0,0:0:0:0:
256,192,83485,1,8,0:0:0:0:
256,192,83735,1,8,0:0:0:0:
256,192,83860,1,8,0:0:0:0:
256,192,84110,1,0,0:0:0:0:
256,192,84172,1,0,0:0:0:0:
256,192,84235,1,0,0:0:0:0:
256,192,84360,1,8,0:0:0:0:
256,192,84610,1,8,0:0:0:0:
256,192,84672,1,8,0:0:0:0:
256,192,84735,1,8,0:0:0:0:
256,192,84860,1,0,0:0:0:0:
256,192,84985,1,0,0:0:0:0:
256,192,85110,1,8,0:0:0:0:
256,192,85610,1,8,0:0:0:0:
256,192,86110,1,0,0:0:0:0:
256,192,86172,1,0,0:0:0:0:
256,192,86235,1,0,0:0:0:0:
256,192,86360,1,0,0:0:0:0:
256,192,86485,1,8,0:0:0:0:
256,192,86610,1,0,0:0:0:0:
256,192,86860,1,0,0:0:0:0:
256,192,87110,1,0,0:0:0:0:
256,192,87172,1,0,0:0:0:0:
256,192,87235,1,0,0:0:0:0:
256,192,87360,1,0,0:0:0:0:
256,192,87485,1,8,0:0:0:0:
256,192,87610,1,0,0:0:0:0:
256,192,87860,1,8,0:0:0:0:
256,192,88110,1,0,0:0:0:0:
256,192,88172,1,0,0:0:0:0:
256,192,88235,1,0,0:0:0:0:
256,192,88360,1,0,0:0:0:0:
256,192,88485,1,0,0:0:0:0:
256,192,88610,1,8,0:0:0:0:
256,192,88860,1,8,0:0:0:0:
256,192,89110,1,8,0:0:0:0:
256,192,89172,1,8,0:0:0:0:
256,192,89235,1,8,0:0:0:0:
256,192,89360,1,0,0:0:0:0:
256,192,89485,1,8,0:0:0:0:
256,192,89610,1,0,0:0:0:0:
256,192,89672,1,0,0:0:0:0:
256,192,89735,1,0,0:0:0:0:
256,192,89860,1,0,0:0:0:0:
256,192,90110,1,0,0:0:0:0:
256,192,90172,1,0,0:0:0:0:
256,192,90235,1,0,0:0:0:0:
256,192,90360,1,0,0:0:0:0:
256,192,90485,1,8,0:0:0:0:
256,192,90610,1,0,0:0:0:0:
256,192,90860,1,0,0:0:0:0:
256,192,91110,1,0,0:0:0:0:
256,192,91172,1,0,0:0:0:0:
256,192,91235,1,0,0:0:0:0:
256,192,91360,1,0,0:0:0:0:
256,192,91485,1,0,0:0:0:0:
256,192,91610,1,8,0:0:0:0:
256,192,91860,1,8,0:0:0:0:
256,192,92110,1,0,0:0:0:0:
256,192,92172,1,0,0:0:0:0:
256,192,92235,1,0,0:0:0:0:
256,192,92360,1,8,0:0:0:0:
256,192,92485,1,0,0:0:0:0:
256,192,92610,1,8,0:0:0:0:
256,192,92860,1,8,0:0:0:0:
256,192,93110,1,0,0:0:0:0:
256,192,93360,1,0,0:0:0:0:
256,192,93422,1,0,0:0:0:0:
256,192,93485,1,0,0:0:0:0:
256,192,93610,1,8,0:0:0:0:
256,192,93860,1,0,0:0:0:0:
256,192,94110,1,0,0:0:0:0:
256,192,94172,1,0,0:0:0:0:
256,192,94235,1,0,0:0:0:0:
256,192,94360,1,0,0:0:0:0:
256,192,94485,1,8,0:0:0:0:
256,192,94610,1,0,0:0:0:0:
256,192,94860,1,0,0:0:0:0:
256,192,95110,1,0,0:0:0:0:
256,192,95172,1,0,0:0:0:0:
256,192,95235,1,0,0:0:0:0:
256,192,95360,1,0,0:0:0:0:
256,192,95485,1,8,0:0:0:0:
256,192,95610,1,0,0:0:0:0:
256,192,95860,1,8,0:0:0:0:
256,192,96110,1,0,0:0:0:0:
256,192,96172,1,0,0:0:0:0:
256,192,96235,1,0,0:0:0:0:
256,192,96360,1,0,0:0:0:0:
256,192,96485,1,0,0:0:0:0:
256,192,96610,1,8,0:0:0:0:
256,192,96860,1,8,0:0:0:0:
256,192,97110,1,8,0:0:0:0:
256,192,97172,1,8,0:0:0:0:
256,192,97235,1,8,0:0:0:0:
256,192,97360,1,0,0:0:0:0:
256,192,97485,1,8,0:0:0:0:
256,192,97610,1,0,0:0:0:0:
256,192,97672,1,0,0:0:0:0:
256,192,97735,1,0,0:0:0:0:
256,192,97860,1,0,0:0:0:0:
256,192,98110,1,0,0:0:0:0:
256,192,98172,1,0,0:0:0:0:
256,192,98235,1,0,0:0:0:0:
256,192,98360,1,0,0:0:0:0:
256,192,98485,1,8,0:0:0:0:
256,192,98610,1,0,0:0:0:0:
256,192,98860,1,0,0:0:0:0:
256,192,99110,1,0,0:0:0:0:
256,192,99172,1,0,0:0:0:0:
256,192,99235,1,0,0:0:0:0:
256,192,99360,1,0,0:0:0:0:
256,192,99485,1,0,0:0:0:0:
256,192,99610,1,8,0:0:0:0:
256,192,99860,1,8,0:0:0:0:
256,192,100110,1,0,0:0:0:0:
256,192,100172,1,0,0:0:0:0:
256,192,100235,1,0,0:0:0:0:
256,192,100360,1,8,0:0:0:0:
256,192,100485,1,0,0:0:0:0:
256,192,100610,1,8,0:0:0:0:
256,192,100860,1,8,0:0:0:0:
256,192,101110,1,8,0:0:0:0:
256,192,101360,1,8,0:0:0:0:
256,192,101610,1,8,0:0:0:0:
256,192,101860,1,0,0:0:0:0:
256,192,102110,1,0,0:0:0:0:
256,192,102235,1,8,0:0:0:0:
256,192,102297,1,8,0:0:0:0:
256,192,102360,1,8,0:0:0:0:
256,192,102485,1,0,0:0:0:0:
256,192,102610,1,8,0:0:0:0:
256,192,102860,1,0,0:0:0:0:
256,192,103110,1,8,0:0:0:0:
256,192,103235,1,0,0:0:0:0:
256,192,103297,1,0,0:0:0:0:
256,192,103360,1,0,0:0:0:0:
256,192,103485,1,0,0:0:0:0:
256,192,103610,1,8,0:0:0:0:
256,192,103672,1,8,0:0:0:0:
256,192,103735,1,8,0:0:0:0:
256,192,103860,1,0,0:0:0:0:
256,192,104110,1,8,0:0:0:0:
256,192,104172,1,8,0:0:0:0:
256,192,104235,1,8,0:0:0:0:
256,192,104360,1,0,0:0:0:0:
256,192,104485,1,0,0:0:0:0:
256,192,104547,1,0,0:0:0:0:
256,192,104610,1,0,0:0:0:0:
256,192,104735,1,0,0:0:0:0:
256,192,104860,1,8,0:0:0:0:
256,192,105235,1,8,0:0:0:0:
256,192,105360,1,0,0:0:0:0:
256,192,105485,1,8,0:0:0:0:
256,192,105610,1,0,0:0:0:0:
256,192,105735,1,8,0:0:0:0:
256,192,105860,1,0,0:0:0:0:
256,192,105985,1,8,0:0:0:0:
256,192,106110,1,0,0:0:0:0:
256,192,106360,1,0,0:0:0:0:
256,192,107110,1,0,0:0:0:0:
256,192,107360,1,0,0:0:0:0:
256,192,108110,1,8,0:0:0:0:
256,192,108360,1,8,0:0:0:0:
256,192,109110,1,8,0:0:0:0:
256,192,109360,1,8,0:0:0:0:
256,192,109610,1,8,0:0:0:0:
256,192,109735,1,8,0:0:0:0:
256,192,109860,1,0,0:0:0:0:
256,192,110110,1,0,0:0:0:0:
256,192,110360,1,0,0:0:0:0:
256,192,111110,1,0,0:0:0:0:
256,192,111360,1,0,0:0:0:0:
256,192,112110,1,8,0:0:0:0:
256,192,112360,1,8,0:0:0:0:
256,192,113110,1,8,0:0:0:0:
256,192,113360,1,8,0:0:0:0:
256,192,113610,1,8,0:0:0:0:
256,192,113735,1,8,0:0:0:0:
256,192,113860,1,0,0:0:0:0:
256,192,114110,1,8,0:0:0:0:
256,192,114360,1,0,0:0:0:0:
256,192,114610,1,0,0:0:0:0:
256,192,115110,1,0,0:0:0:0:
256,192,115360,1,0,0:0:0:0:
256,192,115610,1,0,0:0:0:0:
256,192,116110,1,8,0:0:0:0:
256,192,116360,1,8,0:0:0:0:
256,192,116610,1,8,0:0:0:0:
256,192,117110,1,8,0:0:0:0:
256,192,117360,1,8,0:0:0:0:
256,192,117610,1,0,0:0:0:0:
256,192,118110,1,8,0:0:0:0:
256,192,118360,1,0,0:0:0:0:
256,192,118610,1,0,0:0:0:0:
256,192,119110,1,0,0:0:0:0:
256,192,119360,1,0,0:0:0:0:
256,192,119610,1,0,0:0:0:0:
256,192,120110,1,8,0:0:0:0:
256,192,120360,1,8,0:0:0:0:
256,192,120610,1,8,0:0:0:0:
256,192,121110,1,8,0:0:0:0:
256,192,121360,1,8,0:0:0:0:
256,192,121610,1,0,0:0:0:0:
256,192,122110,1,0,0:0:0:0:
256,192,122360,1,0,0:0:0:0:
256,192,122485,1,8,0:0:0:0:
256,192,122547,1,8,0:0:0:0:
256,192,122610,1,8,0:0:0:0:
256,192,123110,1,8,0:0:0:0:
256,192,123360,1,0,0:0:0:0:
256,192,123485,1,8,0:0:0:0:
256,192,123610,1,0,0:0:0:0:
256,192,123672,1,0,0:0:0:0:
256,192,123735,1,0,0:0:0:0:
256,192,124110,1,8,0:0:0:0:
256,192,124360,1,8,0:0:0:0:
256,192,124610,1,8,0:0:0:0:
256,192,124735,1,0,0:0:0:0:
256,192,124860,1,8,0:0:0:0:
256,192,125110,1,8,0:0:0:0:
256,192,125360,1,0,0:0:0:0:
256,192,125485,1,8,0:0:0:0:
256,192,125735,1,0,0:0:0:0:
256,192,125860,1,8,0:0:0:0:
256,192,126360,1,8,0:0:0:0:
256,192,126485,1,0,0:0:0:0:
256,192,126547,1,0,0:0:0:0:
256,192,126610,1,0,0:0:0:0:
256,192,126860,1,0,0:0:0:0:
256,192,126985,1,8,0:0:0:0:
256,192,127047,1,8,0:0:0:0:
256,192,127110,1,8,0:0:0:0:
256,192,127360,1,0,0:0:0:0:
256,192,127485,1,8,0:0:0:0:
256,192,127735,1,8,0:0:0:0:
256,192,127860,1,0,0:0:0:0:
256,192,128110,1,8,0:0:0:0:
256,192,128172,1,8,0:0:0:0:
256,192,128235,1,8,0:0:0:0:
256,192,128360,1,0,0:0:0:0:
256,192,128485,1,0,0:0:0:0:
256,192,128547,1,0,0:0:0:0:
256,192,128610,1,0,0:0:0:0:
256,192,128735,1,8,0:0:0:0:
256,192,128860,1,8,0:0:0:0:
256,192,129110,1,8,0:0:0:0:
256,192,129360,1,0,0:0:0:0:
256,192,129485,1,8,0:0:0:0:
256,192,129735,1,8,0:0:0:0:
256,192,129860,1,8,0:0:0:0:
256,192,130110,1,0,0:0:0:0:
256,192,130172,1,0,0:0:0:0:
256,192,130235,1,0,0:0:0:0:
256,192,130360,1,8,0:0:0:0:
256,192,130610,1,8,0:0:0:0:
256,192,130672,1,8,0:0:0:0:
256,192,130735,1,8,0:0:0:0:
256,192,130860,1,0,0:0:0:0:
256,192,130985,1,0,0:0:0:0:
256,192,131110,1,8,0:0:0:0:
256,192,131610,1,8,0:0:0:0:
256,192,132110,1,0,0:0:0:0:
256,192,132360,1,8,0:0:0:0:
256,192,132610,1,0,0:0:0:0:
256,192,132735,1,0,0:0:0:0:
256,192,132860,1,8,0:0:0:0:
256,192,133110,1,0,0:0:0:0:
256,192,133360,1,8,0:0:0:0:
256,192,133485,1,0,0:0:0:0:
256,192,133547,1,0,0:0:0:0:
256,192,133610,1,0,0:0:0:0:
256,192,133735,1,8,0:0:0:0:
256,192,133860,1,0,0:0:0:0:
256,192,134110,1,8,0:0:0:0:
256,192,134235,1,0,0:0:0:0:
256,192,134360,1,8,0:0:0:0:
256,192,134422,1,8,0:0:0:0:
256,192,134485,1,8,0:0:0:0:
256,192,134610,1,8,0:0:0:0:
256,192,134735,1,0,0:0:0:0:
256,192,134797,1,0,0:0:0:0:
256,192,134860,1,0,0:0:0:0:
256,192,135110,1,8,0:0:0:0:
256,192,135360,1,0,0:0:0:0:
256,192,135610,1,8,0:0:0:0:
256,192,135860,1,0,0:0:0:0:
256,192,136110,1,0,0:0:0:0:
256,192,136360,1,0,0:0:0:0:
256,192,137110,1,0,0:0:0:0:
256,192,137360,1,0,0:0:0:0:
256,192,138110,1,0,0:0:0:0:
256,192,138360,1,0,0:0:0:0:
256,192,139110,1,0,0:0:0:0:
256,192,139172,1,0,0:0:0:0:
256,192,139235,1,0,0:0:0:0:
256,192,139360,1,0,0:0:0:0:
256,192,139485,1,0,0:0:0:0:
256,192,139735,1,0,0:0:0:0:
256,192,139860,1,0,0:0:0:0:
256,192,139922,1,0,0:0:0:0:
256,192,139985,1,0,0:0:0:0:
256,192,140110,1,0,0:0:0:0:
256,192,140360,1,0,0:0:0:0:
256,192,141110,1,0,0:0:0:0:
256,192,141360,1,0,0:0:0:0:
256,192,142110,1,0,0:0:0:0:
256,192,142360,1,0,0:0:0:0:
256,192,143110,1,0,0:0:0:0:
256,192,143172,1,0,0:0:0:0:
256,192,143235,1,0,0:0:0:0:
256,192,143360,1,0,0:0:0:0:
256,192,143485,1,0,0:0:0:0:
256,192,143547,1,0,0:0:0:0:
256,192,143610,1,0,0:0:0:0:
256,192,143735,1,0,0:0:0:0:
256,192,143860,1,0,0:0:0:0:
256,192,144110,1,0,0:0:0:0:
256,192,144235,1,0,0:0:0:0:
256,192,144360,1,0,0:0:0:0:
256,192,144485,1,0,0:0:0:0:
256,192,144610,1,8,0:0:0:0:
256,192,144860,1,8,0:0:0:0:
256,192,145110,1,0,0:0:0:0:
256,192,145235,1,0,0:0:0:0:
256,192,145360,1,0,0:0:0:0:
256,192,145485,1,8,0:0:0:0:
256,192,145610,1,0,0:0:0:0:
256,192,145860,1,8,0:0:0:0:
256,192,146110,1,0,0:0:0:0:
256,192,146235,1,0,0:0:0:0:
256,192,146360,1,0,0:0:0:0:
256,192,146485,1,0,0:0:0:0:
256,192,146610,1,8,0:0:0:0:
256,192,146860,1,0,0:0:0:0:
256,192,147110,1,8,0:0:0:0:
256,192,147235,1,0,0:0:0:0:
256,192,147298,1,0,0:0:0:0:
256,192,147360,1,0,0:0:0:0:
256,192,147485,1,0,0:0:0:0:
256,192,147610,1,8,0:0:0:0:
256,192,147672,1,8,0:0:0:0:
256,192,147735,1,8,0:0:0:0:
256,192,147860,1,0,0:0:0:0:
256,192,148110,1,0,0:0:0:0:
256,192,148235,1,8,0:0:0:0:
256,192,148360,1,0,0:0:0:0:
256,192,148485,1,8,0:0:0:0:
256,192,148610,1,8,0:0:0:0:
256,192,148860,1,8,0:0:0:0:
256,192,149110,1,0,0:0:0:0:
256,192,149235,1,8,0:0:0:0:
256,192,149360,1,0,0:0:0:0:
256,192,149485,1,8,0:0:0:0:
256,192,149610,1,8,0:0:0:0:
256,192,149860,1,8,0:0:0:0:
256,192,150110,1,0,0:0:0:0:
256,192,150235,1,0,0:0:0:0:
256,192,150360,1,8,0:0:0:0:
256,192,150485,1,0,0:0:0:0:
256,192,150610,1,8,0:0:0:0:
256,192,150860,1,8,0:0:0:0:
256,192,151110,1,8,0:0:0:0:
256,192,151360,1,8,0:0:0:0:
256,192,151485,1,0,0:0:0:0:
256,192,151610,1,0,0:0:0:0:
256,192,152110,1,0,0:0:0:0:
256,192,152235,1,8,0:0:0:0:
256,192,152297,1,8,0:0:0:0:
256,192,152360,1,8,0:0:0:0:
256,192,152485,1,0,0:0:0:0:
256,192,152610,1,8,0:0:0:0:
256,192,152860,1,0,0:0:0:0:
256,192,153110,1,8,0:0:0:0:
256,192,153235,1,0,0:0:0:0:
256,192,153297,1,0,0:0:0:0:
256,192,153360,1,0,0:0:0:0:
256,192,153485,1,0,0:0:0:0:
256,192,153610,1,0,0:0:0:0:
256,192,153860,1,8,0:0:0:0:
256,192,154110,1,0,0:0:0:0:
256,192,154235,1,8,0:0:0:0:
256,192,154297,1,8,0:0:0:0:
256,192,154360,1,8,0:0:0:0:
256,192,154485,1,8,0:0:0:0:
256,192,154610,1,0,0:0:0:0:
256,192,154860,1,0,0:0:0:0:
256,192,155110,1,8,0:0:0:0:
256,192,155172,1,8,0:0:0:0:
256,192,155235,1,8,0:0:0:0:
256,192,155297,1,8,0:0:0:0:
256,192,155360,1,8,0:0:0:0:
256,192,155485,1,8,0:0:0:0:
256,192,155610,1,0,0:0:0:0:
256,192,155672,1,0,0:0:0:0:
256,192,155735,1,0,0:0:0:0:
256,192,155797,1,0,0:0:0:0:
256,192,155860,1,0,0:0:0:0:
256,192,156110,1,0,0:0:0:0:
256,192,156235,1,8,0:0:0:0:
256,192,156297,1,8,0:0:0:0:
256,192,156360,1,8,0:0:0:0:
256,192,156485,1,0,0:0:0:0:
256,192,156610,1,8,0:0:0:0:
256,192,156860,1,0,0:0:0:0:
256,192,157110,1,8,0:0:0:0:
256,192,157235,1,0,0:0:0:0:
256,192,157297,1,0,0:0:0:0:
256,192,157360,1,0,0:0:0:0:
256,192,157485,1,0,0:0:0:0:
256,192,157610,1,8,0:0:0:0:
256,192,157672,1,8,0:0:0:0:
256,192,157735,1,8,0:0:0:0:
256,192,157860,1,0,0:0:0:0:
256,192,158110,1,8,0:0:0:0:
256,192,158172,1,8,0:0:0:0:
256,192,158235,1,8,0:0:0:0:
256,192,158360,1,0,0:0:0:0:
256,192,158485,1,0,0:0:0:0:
256,192,158547,1,0,0:0:0:0:
256,192,158610,1,0,0:0:0:0:
256,192,158735,1,0,0:0:0:0:
256,192,158860,1,8,0:0:0:0:
256,192,159235,1,8,0:0:0:0:
256,192,159360,1,0,0:0:0:0:
256,192,159485,1,8,0:0:0:0:
256,192,159610,1,0,0:0:0:0:
256,192,159735,1,8,0:0:0:0:
256,192,159860,1,0,0:0:0:0:
256,192,159985,1,8,0:0:0:0:
256,192,160110,1,0,0:0:0:0:
256,192,160360,1,0,0:0:0:0:
256,192,163860,1,0,0:0:0:0:
256,192,164110,1,12,0:0:0:0:
256,192,164610,1,8,0:0:0:0:
256,192,165110,1,8,0:0:0:0:
256,192,165360,1,8,0:0:0:0:
256,192,165610,1,8,0:0:0:0:
256,192,165860,1,0,0:0:0:0:
256,192,166110,1,8,0:0:0:0:
256,192,166172,1,8,0:0:0:0:
256,192,166235,1,8,0:0:0:0:
256,192,166360,1,0,0:0:0:0:
256,192,166485,1,0,0:0:0:0:
256,192,166547,1,0,0:0:0:0:
256,192,166610,1,0,0:0:0:0:
256,192,166735,1,0,0:0:0:0:
256,192,166860,1,8,0:0:0:0:
256,192,167110,1,4,0:0:0:0:
256,192,168110,1,8,0:0:0:0:
256,192,168360,1,0,0:0:0:0:
256,192,168610,1,0,0:0:0:0:
256,192,169110,1,0,0:0:0:0:
256,192,169360,1,0,0:0:0:0:
256,192,169610,1,0,0:0:0:0:
256,192,170110,1,8,0:0:0:0:
256,192,170360,1,8,0:0:0:0:
256,192,170610,1,8,0:0:0:0:
256,192,171110,1,8,0:0:0:0:
256,192,171360,1,8,0:0:0:0:
256,192,171610,1,0,0:0:0:0:
256,192,172110,1,8,0:0:0:0:
256,192,172360,1,0,0:0:0:0:
256,192,172610,1,0,0:0:0:0:
256,192,173110,1,0,0:0:0:0:
256,192,173360,1,0,0:0:0:0:
256,192,173610,1,0,0:0:0:0:
256,192,174110,1,8,0:0:0:0:
256,192,174360,1,8,0:0:0:0:
256,192,174610,1,8,0:0:0:0:
256,192,175110,1,8,0:0:0:0:
256,192,175360,1,8,0:0:0:0:
256,192,175610,1,0,0:0:0:0:
256,192,176110,1,0,0:0:0:0:
256,192,176360,1,0,0:0:0:0:
256,192,176485,1,8,0:0:0:0:
256,192,176547,1,8,0:0:0:0:
256,192,176610,1,8,0:0:0:0:
256,192,177110,1,8,0:0:0:0:
256,192,177360,1,0,0:0:0:0:
256,192,177485,1,8,0:0:0:0:
256,192,177610,1,0,0:0:0:0:
256,192,177672,1,0,0:0:0:0:
256,192,177735,1,0,0:0:0:0:
256,192,178110,1,8,0:0:0:0:
256,192,178360,1,8,0:0:0:0:
256,192,178610,1,8,0:0:0:0:
256,192,178735,1,0,0:0:0:0:
256,192,178860,1,8,0:0:0:0:
256,192,179110,1,8,0:0:0:0:
256,192,179360,1,0,0:0:0:0:
256,192,179485,1,8,0:0:0:0:
256,192,179735,1,0,0:0:0:0:
256,192,179860,1,8,0:0:0:0:
256,192,180360,1,8,0:0:0:0:
256,192,180485,1,0,0:0:0:0:
256,192,180547,1,0,0:0:0:0:
256,192,180610,1,0,0:0:0:0:
256,192,180860,1,0,0:0:0:0:
256,192,180985,1,8,0:0:0:0:
256,192,181047,1,8,0:0:0:0:
256,192,181110,1,8,0:0:0:0:
256,192,181360,1,0,0:0:0:0:
256,192,181485,1,8,0:0:0:0:
256,192,181735,1,8,0:0:0:0:
256,192,181860,1,0,0:0:0:0:
256,192,182110,1,8,0:0:0:0:
256,192,182172,1,8,0:0:0:0:
256,192,182235,1,8,0:0:0:0:
256,192,182360,1,0,0:0:0:0:
256,192,182485,1,0,0:0:0:0:
256,192,182547,1,0,0:0:0:0:
256,192,182610,1,0,0:0:0:0:
256,192,182735,1,8,0:0:0:0:
256,192,182860,1,8,0:0:0:0:
256,192,183110,1,8,0:0:0:0:
256,192,183360,1,0,0:0:0:0:
256,192,183485,1,8,0:0:0:0:
256,192,183735,1,8,0:0:0:0:
256,192,183860,1,8,0:0:0:0:
256,192,184110,1,8,0:0:0:0:
256,192,184235,1,0,0:0:0:0:
256,192,184360,1,0,0:0:0:0:
256,192,184485,1,8,0:0:0:0:
256,192,184610,1,8,0:0:0:0:
256,192,184860,1,8,0:0:0:0:
256,192,184985,1,0,0:0:0:0:
256,192,185360,1,0,0:0:0:0:
256,192,185485,1,8,0:0:0:0:
256,192,185610,1,0,0:0:0:0:
256,192,185860,1,0,0:0:0:0:
256,192,185985,1,8,0:0:0:0:
256,192,186110,1,8,0:0:0:0:
256,192,186360,1,0,0:0:0:0:
256,192,186610,1,8,0:0:0:0:
256,192,186860,1,0,0:0:0:0:
256,192,187110,1,8,0:0:0:0:
256,192,187360,1,0,0:0:0:0:
256,192,187485,1,8,0:0:0:0:
256,192,187735,1,0,0:0:0:0:
256,192,187860,1,8,0:0:0:0:
256,192,188110,1,0,0:0:0:0:
256,192,188360,1,0,0:0:0:0:
256,192,188485,1,8,0:0:0:0:
256,192,188610,1,8,0:0:0:0:
256,192,188860,1,8,0:0:0:0:
256,192,188985,1,8,0:0:0:0:
256,192,189360,1,0,0:0:0:0:
256,192,189485,1,0,0:0:0:0:
256,192,189610,1,8,0:0:0:0:
256,192,189860,1,0,0:0:0:0:
256,192,189985,1,8,0:0:0:0:
256,192,190360,1,8,0:0:0:0:
256,192,190485,1,0,0:0:0:0:
256,192,190610,1,8,0:0:0:0:
256,192,190860,1,0,0:0:0:0:
256,192,191110,1,8,0:0:0:0:
256,192,191235,1,0,0:0:0:0:
256,192,191297,1,0,0:0:0:0:
256,192,191360,1,0,0:0:0:0:
256,192,191485,1,0,0:0:0:0:
256,192,191610,1,8,0:0:0:0:
256,192,191735,1,0,0:0:0:0:
256,192,191860,1,8,0:0:0:0:
256,192,192360,1,0,0:0:0:0:
256,192,192610,1,8,0:0:0:0:
256,192,193110,1,0,0:0:0:0:
256,192,193235,1,8,0:0:0:0:
256,192,193360,1,0,0:0:0:0:
256,192,193485,1,8,0:0:0:0:
256,192,193610,1,0,0:0:0:0:
256,192,193672,1,0,0:0:0:0:
256,192,193735,1,0,0:0:0:0:
256,192,193860,1,0,0:0:0:0:
256,192,194110,1,8,0:0:0:0:
256,192,194172,1,8,0:0:0:0:
256,192,194235,1,8,0:0:0:0:
256,192,194360,1,0,0:0:0:0:
256,192,194485,1,0,0:0:0:0:
256,192,194547,1,0,0:0:0:0:
256,192,194610,1,0,0:0:0:0:
256,192,194735,1,0,0:0:0:0:
256,192,194860,1,8,0:0:0:0:
256,192,195235,1,8,0:0:0:0:
256,192,195360,1,0,0:0:0:0:
256,192,195485,1,8,0:0:0:0:
256,192,195610,1,0,0:0:0:0:
256,192,195735,1,8,0:0:0:0:
256,192,195860,1,0,0:0:0:0:
256,192,195922,1,0,0:0:0:0:
256,192,195985,1,0,0:0:0:0:
256,192,196110,1,0,0:0:0:0:
256,192,196360,1,0,0:0:0:0:
256,192,197110,1,0,0:0:0:0:
256,192,197360,1,0,0:0:0:0:
256,192,198110,1,0,0:0:0:0:
256,192,198360,1,0,0:0:0:0:
256,192,198860,1,8,0:0:0:0:
256,192,198985,1,0,0:0:0:0:
256,192,199110,1,0,0:0:0:0:
256,192,199360,1,0,0:0:0:0:
256,192,199610,1,8,0:0:0:0:
256,192,199860,1,0,0:0:0:0:
256,192,200110,1,0,0:0:0:0:
256,192,200360,1,0,0:0:0:0:
256,192,201110,1,0,0:0:0:0:
256,192,201360,1,0,0:0:0:0:
256,192,202110,1,0,0:0:0:0:
256,192,202360,1,8,0:0:0:0:
256,192,202610,1,8,0:0:0:0:
256,192,202735,1,0,0:0:0:0:
256,192,202860,1,8,0:0:0:0:
256,192,203110,1,0,0:0:0:0:
256,192,203360,1,0,0:0:0:0:
256,192,203485,1,0,0:0:0:0:
256,192,203547,1,0,0:0:0:0:
256,192,203610,1,0,0:0:0:0:
256,192,203860,1,0,0:0:0:0:
