osu file format v14

[General]
AudioFilename: UNDEAD CORPORATION Too Sweet.mp3
AudioLeadIn: 0
PreviewTime: 86125
Countdown: 0
SampleSet: None
StackLeniency: 0.7
Mode: 0
LetterboxInBreaks: 1
WidescreenStoryboard: 0

[Editor]
DistanceSpacing: 1.5
BeatDivisor: 4
GridSize: 4
TimelineZoom: 1.4

[Metadata]
Title:Too Sweet
TitleUnicode:Too Sweet
Artist:UNDEAD CORPORATION
ArtistUnicode:UNDEAD CORPORATION
Creator:BAldoTridentE
Version:Lovely
Source:
Tags:
BeatmapID:1113845
BeatmapSetID:524813

[Difficulty]
HPDrainRate:6
CircleSize:4
OverallDifficulty:9
ApproachRate:10
SliderMultiplier:1.8
SliderTickRate:1

[Events]
//Background and Video events
0,0,"too sweet.jpg",0,0
//Break Periods
2,60575,67675
//Storyboard Layer 0 (Background)
//Storyboard Layer 1 (Fail)
//Storyboard Layer 2 (Pass)
//Storyboard Layer 3 (Foreground)
//Storyboard Sound Samples

[TimingPoints]
125,250,4,1,0,100,1,0
68125,-100,4,1,0,100,0,1
86125,-100,4,1,0,100,0,0

[HitObjects]
360,60,7125,5,0,0:0:0:0:
316,60,7187,1,0,0:0:0:0:
276,80,7250,1,0,0:0:0:0:
192,116,7375,6,0,L|196:168,1,45
272,208,7500,2,0,L|252:260,1,45
184,304,7625,5,0,0:0:0:0:
144,320,7687,1,0,0:0:0:0:
100,308,7750,1,0,0:0:0:0:
68,276,7812,1,0,0:0:0:0:
64,232,7875,1,0,0:0:0:0:
88,196,7937,1,0,0:0:0:0:
132,180,8000,1,0,0:0:0:0:
160,148,8062,1,0,0:0:0:0:
172,104,8125,6,0,P|252:100|276:124,1,90
216,232,8375,2,0,P|280:244|320:216,1,90
424,176,8625,1,0,0:0:0:0:
332,76,8750,1,0,0:0:0:0:
288,204,8875,1,0,0:0:0:0:
384,276,9000,6,0,B|344:320|344:320|304:324,1,90
180,304,9250,1,0,0:0:0:0:
180,304,9375,1,0,0:0:0:0:
48,288,9500,6,0,B|96:244|96:244|100:200,1,90
116,84,9750,2,0,B|94:84|94:84|50:136,1,90
176,180,10000,1,0,0:0:0:0:
252,68,10125,1,0,0:0:0:0:
332,176,10250,1,0,0:0:0:0:
264,292,10375,6,0,B|328:324|328:324|364:312,1,90
440,220,10625,1,0,0:0:0:0:
432,84,10750,2,0,L|336:100,1,90
256,200,11000,1,0,0:0:0:0:
180,88,11125,1,0,0:0:0:0:
108,204,11250,6,0,B|84:280|84:280|100:312,1,90
220,324,11500,2,0,B|240:252|240:252|224:212,1,90
364,284,11750,1,0,0:0:0:0:
324,156,11875,6,0,L|228:128,1,90
144,32,12125,2,0,L|248:64,1,90
116,132,12375,1,0,0:0:0:0:
40,244,12500,1,0,0:0:0:0:
220,228,12625,6,0,L|260:132,1,90
380,92,12875,2,0,L|336:204,1,90
276,288,13125,1,0,0:0:0:0:
144,316,13250,1,0,0:0:0:0:
88,192,13375,1,0,0:0:0:0:
176,88,13500,6,0,B|208:120|208:120|256:120,1,90
352,24,13750,1,0,0:0:0:0:
328,156,13875,2,0,P|324:208|352:248,1,90
472,204,14125,2,0,P|492:260|480:300,1,90
396,304,14312,5,0,0:0:0:0:
360,336,14375,1,0,0:0:0:0:
316,344,14437,1,0,0:0:0:0:
272,340,14500,1,0,0:0:0:0:
236,316,14562,1,0,0:0:0:0:
212,276,14625,2,0,L|196:216,3,45
228,196,14875,5,0,0:0:0:0:
268,176,14937,1,0,0:0:0:0:
272,132,15000,1,0,0:0:0:0:
236,104,15062,1,0,0:0:0:0:
192,100,15125,1,0,0:0:0:0:
148,112,15187,1,0,0:0:0:0:
116,144,15250,1,0,0:0:0:0:
104,188,15312,5,0,0:0:0:0:
80,148,15375,1,0,0:0:0:0:
68,104,15437,1,0,0:0:0:0:
80,60,15500,1,0,0:0:0:0:
108,24,15562,1,0,0:0:0:0:
152,12,15625,1,0,0:0:0:0:
224,68,15687,6,0,L|272:64,1,45
344,12,15875,2,0,L|392:48,1,45
396,80,16000,1,0,0:0:0:0:
408,124,16062,1,0,0:0:0:0:
396,168,16125,1,0,0:0:0:0:
144,120,17125,5,0,0:0:0:0:
144,120,17188,1,0,0:0:0:0:
144,120,17250,1,0,0:0:0:0:
216,176,17375,1,0,0:0:0:0:
136,220,17500,1,0,0:0:0:0:
136,220,17562,1,0,0:0:0:0:
136,220,17625,1,0,0:0:0:0:
116,308,17750,6,0,B|176:320|176:320|208:312,1,90
312,232,18000,1,0,0:0:0:0:
428,164,18125,5,0,0:0:0:0:
412,120,18187,1,0,0:0:0:0:
396,76,18250,1,0,0:0:0:0:
260,192,18500,1,0,0:0:0:0:
232,160,18562,1,0,0:0:0:0:
204,124,18625,1,0,0:0:0:0:
48,36,18875,5,0,0:0:0:0:
84,64,18937,1,0,0:0:0:0:
100,108,19000,1,0,0:0:0:0:
84,152,19062,1,0,0:0:0:0:
48,180,19125,2,0,L|60:248,1,45
124,232,19250,2,0,P|144:288|168:300,1,90
216,348,19437,5,0,0:0:0:0:
256,328,19500,1,0,0:0:0:0:
300,320,19562,1,0,0:0:0:0:
344,332,19625,1,0,0:0:0:0:
388,340,19687,1,0,0:0:0:0:
424,316,19750,1,0,0:0:0:0:
444,276,19812,1,0,0:0:0:0:
444,232,19875,1,0,0:0:0:0:
424,192,19937,1,0,0:0:0:0:
380,176,20000,1,0,0:0:0:0:
336,184,20062,1,0,0:0:0:0:
296,208,20125,1,0,0:0:0:0:
84,56,22875,1,0,0:0:0:0:
84,56,22937,1,0,0:0:0:0:
84,56,23000,1,0,0:0:0:0:
84,56,23062,1,0,0:0:0:0:
84,56,23125,6,0,P|120:100|132:184,1,135
120,196,23375,2,0,P|128:264|192:320,1,135
192,296,23625,2,0,P|264:272|360:308,1,180
404,300,23937,1,0,0:0:0:0:
440,272,24000,1,0,0:0:0:0:
452,228,24062,1,0,0:0:0:0:
440,184,24125,1,0,0:0:0:0:
312,60,24375,1,0,0:0:0:0:
136,92,24625,6,0,L|48:252,1,180
212,172,25125,1,0,0:0:0:0:
212,172,25250,1,0,0:0:0:0:
212,172,25375,1,0,0:0:0:0:
212,172,25500,1,0,0:0:0:0:
296,144,25625,2,0,L|208:320,1,180
396,280,26125,5,0,0:0:0:0:
360,252,26187,1,0,0:0:0:0:
356,208,26250,1,0,0:0:0:0:
384,172,26312,1,0,0:0:0:0:
424,148,26375,1,0,0:0:0:0:
456,116,26437,1,0,0:0:0:0:
464,72,26500,1,0,0:0:0:0:
440,32,26562,1,0,0:0:0:0:
400,16,26625,1,0,0:0:0:0:
356,24,26687,1,0,0:0:0:0:
316,44,26750,6,0,L|272:80,1,45
256,160,26875,2,0,L|196:144,1,45
164,100,27000,1,0,0:0:0:0:
120,96,27062,1,0,0:0:0:0:
80,116,27125,6,0,L|72:172,1,45
140,176,27250,2,0,L|108:220,1,45
172,244,27375,2,0,L|128:276,1,45
180,320,27500,2,0,L|112:340,1,45
252,316,27625,2,0,L|280:360,1,45
292,264,27750,2,0,L|352:304,1,45
320,200,27875,2,0,L|372:216,1,45
328,132,28000,2,0,L|396:128,1,45
296,80,28125,6,0,P|236:64|176:80,1,90
80,196,28375,2,0,P|160:208|196:204,1,90
328,296,28625,2,0,P|356:240|368:200,1,90
208,128,28875,1,0,0:0:0:0:
208,128,29000,1,0,0:0:0:0:
124,288,29125,6,0,B|104:256|108:212|108:212|152:208,1,90
292,168,29375,2,0,B|308:196|312:236|312:236|288:252,1,90
408,100,29625,2,0,P|340:56|296:52,1,90
152,44,29875,1,0,0:0:0:0:
152,44,30000,1,0,0:0:0:0:
52,196,30125,6,0,L|148:232,1,90
248,84,30375,2,0,L|312:156,1,90
412,300,30625,1,0,0:0:0:0:
412,300,30750,1,0,0:0:0:0:
232,324,30875,2,0,B|240:296|240:296|232:264|232:264|244:232,1,90
360,172,31125,5,0,0:0:0:0:
372,128,31187,1,0,0:0:0:0:
364,84,31250,1,0,0:0:0:0:
332,52,31312,1,0,0:0:0:0:
288,52,31375,1,0,0:0:0:0:
248,68,31437,1,0,0:0:0:0:
208,88,31500,1,0,0:0:0:0:
164,96,31562,1,0,0:0:0:0:
120,92,31625,2,0,L|56:84|56:84,4,45
164,168,31937,5,0,0:0:0:0:
120,168,32000,1,0,0:0:0:0:
80,184,32062,1,0,0:0:0:0:
52,220,32125,1,0,0:0:0:0:
44,264,32187,1,0,0:0:0:0:
60,304,32250,1,0,0:0:0:0:
96,332,32312,1,0,0:0:0:0:
140,340,32375,1,0,0:0:0:0:
184,324,32437,1,0,0:0:0:0:
212,288,32500,1,0,0:0:0:0:
224,244,32562,1,0,0:0:0:0:
256,212,32625,6,0,L|356:196,1,90
404,76,32875,2,0,L|292:92,1,90
184,60,33125,1,0,0:0:0:0:
184,60,33250,1,0,0:0:0:0:
160,192,33375,2,0,P|184:232|228:252,1,90
352,208,33625,2,0,P|320:160|272:144,1,90
284,280,33875,1,0,0:0:0:0:
284,280,34000,1,0,0:0:0:0:
148,280,34125,5,0,0:0:0:0:
32,208,34250,1,0,0:0:0:0:
100,92,34375,1,0,0:0:0:0:
220,156,34500,1,0,0:0:0:0:
288,40,34625,5,0,0:0:0:0:
300,84,34687,1,0,0:0:0:0:
328,120,34750,1,0,0:0:0:0:
368,140,34812,1,0,0:0:0:0:
412,152,34875,2,0,B|464:164|464:164|492:300,1,180
320,348,35375,5,0,0:0:0:0:
320,348,35437,1,0,0:0:0:0:
320,348,35500,1,0,0:0:0:0:
320,348,35562,1,0,0:0:0:0:
320,348,35625,1,0,0:0:0:0:
140,344,35875,1,0,0:0:0:0:
312,136,36125,6,0,P|304:76|320:24,1,90
200,136,36375,2,0,P|140:144|88:124,1,90
200,248,36625,2,0,P|208:291|202:336,1,90
308,248,36875,2,0,P|351:239|395:247,1,90
288,332,37125,6,0,L|184:304,1,90
64,192,37375,2,0,L|180:228,1,90
332,196,37625,2,0,L|224:168,1,90
104,60,37875,2,0,L|228:100,1,90
364,40,38125,1,0,0:0:0:0:
364,40,38250,1,0,0:0:0:0:
224,152,38375,6,0,P|276:116|320:112,1,90
268,288,38625,1,0,0:0:0:0:
268,288,38750,1,0,0:0:0:0:
92,320,38875,2,0,P|48:244|48:212,1,90
96,116,39125,5,0,0:0:0:0:
116,76,39187,1,0,0:0:0:0:
156,56,39250,1,0,0:0:0:0:
200,52,39312,1,0,0:0:0:0:
244,64,39375,1,0,0:0:0:0:
272,96,39437,1,0,0:0:0:0:
284,140,39500,2,0,P|280:184|312:240,1,90
332,256,39687,1,0,0:0:0:0:
376,256,39750,1,0,0:0:0:0:
404,220,39812,1,0,0:0:0:0:
396,176,39875,6,0,L|380:128|380:128,3,45
344,108,40125,1,0,0:0:0:0:
300,96,40187,1,0,0:0:0:0:
256,108,40250,1,0,0:0:0:0:
216,132,40312,1,0,0:0:0:0:
188,168,40375,1,0,0:0:0:0:
176,212,40437,1,0,0:0:0:0:
180,256,40500,6,0,P|248:276|296:260,1,90
416,176,40750,2,0,P|328:168|308:176,1,90
200,52,41000,2,0,P|200:112|188:152,1,90
64,180,41250,1,0,0:0:0:0:
64,180,41375,1,0,0:0:0:0:
164,328,41500,6,0,B|200:336|240:328|240:328|240:308,1,90
240,180,41750,2,0,B|200:172|164:184|164:184|159:196,1,90
264,284,42000,1,0,0:0:0:0:
372,204,42125,5,0,0:0:0:0:
376,160,42187,1,0,0:0:0:0:
368,116,42250,1,0,0:0:0:0:
336,84,42312,1,0,0:0:0:0:
296,60,42375,2,0,P|252:48|220:48,3,45
216,76,42625,1,0,0:0:0:0:
192,112,42687,1,0,0:0:0:0:
148,128,42750,1,0,0:0:0:0:
104,128,42812,1,0,0:0:0:0:
64,108,42875,6,0,P|40:160|108:264,1,180
256,344,43375,1,0,0:0:0:0:
408,192,43625,1,0,0:0:0:0:
104,192,43875,1,0,0:0:0:0:
180,28,44125,5,0,0:0:0:0:
168,72,44187,1,0,0:0:0:0:
172,116,44250,1,0,0:0:0:0:
200,152,44312,1,0,0:0:0:0:
244,168,44375,1,0,0:0:0:0:
288,156,44437,1,0,0:0:0:0:
332,112,44500,6,0,L|388:120,1,45
360,208,44625,2,0,L|412:244,1,45
328,292,44750,2,0,L|320:352,1,45
232,348,44875,5,0,0:0:0:0:
188,348,44937,1,0,0:0:0:0:
148,328,45000,1,0,0:0:0:0:
124,292,45062,1,0,0:0:0:0:
128,248,45125,1,0,0:0:0:0:
160,216,45187,1,0,0:0:0:0:
204,208,45250,6,0,L|268:216,4,45
248,128,45625,2,0,L|304:144,1,45
308,228,45750,2,0,L|380:200,1,45
388,188,45875,5,0,0:0:0:0:
416,152,45937,1,0,0:0:0:0:
420,108,46000,1,0,0:0:0:0:
404,68,46062,1,0,0:0:0:0:
368,40,46125,1,0,0:0:0:0:
324,32,46187,1,0,0:0:0:0:
280,40,46250,1,0,0:0:0:0:
244,64,46312,1,0,0:0:0:0:
176,60,46375,6,0,P|160:108|160:144,1,45
92,112,46500,2,0,P|112:156|132:168,1,45
52,192,46625,2,0,P|96:224|112:232,1,45
64,284,46750,2,0,P|112:296|144:292,1,45
152,304,46875,5,0,0:0:0:0:
196,304,46937,1,0,0:0:0:0:
240,288,47000,1,0,0:0:0:0:
268,252,47062,1,0,0:0:0:0:
280,208,47125,1,0,0:0:0:0:
276,164,47187,1,0,0:0:0:0:
248,128,47250,1,0,0:0:0:0:
292,128,47312,1,0,0:0:0:0:
336,124,47375,1,0,0:0:0:0:
376,104,47437,1,0,0:0:0:0:
420,96,47500,1,0,0:0:0:0:
460,116,47562,1,0,0:0:0:0:
476,160,47625,1,0,0:0:0:0:
472,204,47687,1,0,0:0:0:0:
440,236,47750,1,0,0:0:0:0:
396,236,47812,1,0,0:0:0:0:
352,228,47875,2,0,P|276:216|168:236,1,180
72,144,48250,1,0,0:0:0:0:
152,36,48375,6,0,P|224:40|280:24,1,90
204,168,48625,2,0,P|276:164|312:176,1,90
212,276,48875,1,0,0:0:0:0:
307,180,49000,1,0,0:0:0:0:
402,84,49125,2,0,L|452:32,2,45
384,264,49375,1,0,0:0:0:0:
272,340,49500,1,0,0:0:0:0:
140,312,49625,2,0,L|84:288,2,45
104,136,49875,1,0,0:0:0:0:
104,136,50000,1,0,0:0:0:0:
268,60,50125,2,0,P|312:104|352:124,1,90
212,176,50375,2,0,P|272:212|304:248,1,90
420,204,50625,1,0,0:0:0:0:
420,204,50750,1,0,0:0:0:0:
356,324,50875,1,0,0:0:0:0:
356,324,51000,1,0,0:0:0:0:
228,288,51125,2,0,P|156:248|140:232,1,90
128,112,51375,1,0,0:0:0:0:
128,112,51500,1,0,0:0:0:0:
260,88,51625,2,0,P|316:124|348:168,1,90
364,272,51875,1,0,0:0:0:0:
364,272,52000,1,0,0:0:0:0:
252,196,52125,2,0,P|196:208|144:200,1,90
212,80,52375,2,0,P|148:44|124:12,1,90
312,76,52625,2,0,P|352:56|388:20,1,90
308,188,52875,2,0,P|368:188|416:172,1,90
276,316,53125,2,0,P|192:328|168:320,1,90
64,196,53375,2,0,P|64:144|80:100,1,90
208,128,53625,2,0,P|204:192|192:224,1,90
324,260,53875,2,0,B|372:236|372:236|392:196,1,90
424,72,54125,1,0,0:0:0:0:
424,72,54250,1,0,0:0:0:0:
312,148,54375,2,0,B|300:100|300:100|268:72,1,90
136,44,54625,1,0,0:0:0:0:
92,60,54687,1,0,0:0:0:0:
68,96,54750,1,0,0:0:0:0:
80,140,54812,1,0,0:0:0:0:
120,164,54875,1,0,0:0:0:0:
164,156,54937,1,0,0:0:0:0:
208,156,55000,1,0,0:0:0:0:
244,180,55062,1,0,0:0:0:0:
244,224,55125,1,0,0:0:0:0:
76,292,55375,1,0,0:0:0:0:
76,292,55437,1,0,0:0:0:0:
76,292,55500,1,0,0:0:0:0:
76,292,55562,1,0,0:0:0:0:
300,316,55875,1,0,0:0:0:0:
444,208,56125,2,0,P|376:160|356:108,1,135
344,72,56375,1,0,0:0:0:0:
300,48,56437,1,0,0:0:0:0:
248,20,56500,2,0,L|204:40,1,45
220,104,56625,2,0,L|160:100,1,45
132,96,56750,1,0,0:0:0:0:
68,112,56812,1,0,0:0:0:0:
52,156,56875,1,0,0:0:0:0:
52,200,56937,1,0,0:0:0:0:
72,240,57000,1,0,0:0:0:0:
112,260,57062,1,0,0:0:0:0:
156,256,57125,1,0,0:0:0:0:
196,240,57187,1,0,0:0:0:0:
232,212,57250,1,0,0:0:0:0:
260,176,57312,1,0,0:0:0:0:
296,148,57375,1,0,0:0:0:0:
340,148,57437,1,0,0:0:0:0:
380,168,57500,1,0,0:0:0:0:
400,208,57562,1,0,0:0:0:0:
368,240,57625,2,0,B|388:268|388:268|356:256|356:256|372:288|372:288|340:276|340:276|356:304,1,135
300,296,57875,2,0,P|232:300|152:212,1,180
224,60,58375,1,0,0:0:0:0:
224,60,58500,1,0,0:0:0:0:
76,288,58750,1,0,0:0:0:0:
76,288,58875,1,0,0:0:0:0:
296,148,59125,2,0,P|244:168|192:176,1,90
76,156,59375,1,0,0:0:0:0:
156,264,59500,2,0,B|232:272|232:272|264:312,1,90
368,236,59750,2,0,B|300:232|300:232|260:192,1,90
392,136,60000,1,0,0:0:0:0:
284,56,60125,2,0,P|256:104|192:112,1,90
272,288,60375,1,0,0:0:0:0:
124,88,68125,6,0,P|128:164|152:208,1,90
244,316,68375,2,0,P|240:228|228:192,1,90
400,148,68625,2,0,B|424:100|424:100|464:88,2,90
244,56,69000,1,0,0:0:0:0:
244,56,69125,1,0,0:0:0:0:
128,196,69250,2,0,P|84:240|72:272,1,90
244,208,69500,2,0,P|280:172|304:120,1,90
128,84,69750,2,0,P|192:92|232:80,1,90
392,48,70000,1,0,0:0:0:0:
344,220,70125,2,0,P|344:296|360:320,2,90
336,40,70500,1,0,0:0:0:0:
256,200,70625,1,0,0:0:0:0:
173,39,70750,1,0,0:0:0:0:
112,208,70875,2,0,L|176:284,1,90
248,236,71125,2,0,L|288:340,1,90
356,272,71375,2,0,P|364:216|340:156,1,90
256,88,71625,1,0,0:0:0:0:
256,88,71750,1,0,0:0:0:0:
128,132,71875,2,0,P|172:168|188:204,1,90
104,304,72125,2,0,P|160:328|192:324,1,90
316,280,72375,2,0,P|356:240|368:196,1,90
200,140,72625,1,0,0:0:0:0:
200,140,72750,1,0,0:0:0:0:
212,276,72875,2,0,B|180:240|180:240|132:228,1,90
60,120,73125,2,0,L|144:60,1,90
268,68,73375,2,0,L|348:124,1,90
400,244,73625,1,0,0:0:0:0:
400,244,73750,1,0,0:0:0:0:
276,292,73875,2,0,P|260:236|232:208,1,90
104,220,74125,2,0,P|112:152|128:132,1,90
240,64,74375,1,0,0:0:0:0:
288,192,74500,1,0,0:0:0:0:
208,300,74625,2,0,L|152:220,1,90
24,248,74875,2,0,L|80:336,1,90
56,100,75125,1,0,0:0:0:0:
136,312,75250,1,0,0:0:0:0:
184,92,75375,1,0,0:0:0:0:
24,248,75500,1,0,0:0:0:0:
248,240,75625,2,0,P|304:212|332:192,1,90
428,284,75875,2,0,P|464:236|472:192,1,90
376,112,76125,2,0,B|312:68|252:132|176:52,1,180
80,136,76500,1,0,0:0:0:0:
200,196,76625,2,0,L|288:236,1,90
56,240,76875,2,0,L|160:288,1,90
304,348,77125,2,0,B|392:348|392:348|428:268|380:232,1,180
224,240,77625,2,0,L|72:180,1,90
116,72,77875,2,0,L|268:136,1,90
304,20,78125,2,0,B|368:64|404:120|404:120|372:208,1,180
172,316,78625,1,0,0:0:0:0:
128,188,78750,1,0,0:0:0:0:
236,272,78875,1,0,0:0:0:0:
100,268,79000,1,0,0:0:0:0:
212,192,79125,2,0,L|288:104,1,90
400,84,79375,1,0,0:0:0:0:
400,84,79500,1,0,0:0:0:0:
452,208,79625,2,0,L|404:368,1,90
304,236,79875,2,0,L|164:320,1,90
96,316,80125,2,0,B|88:264|116:184|116:184|172:168,1,180
272,96,80500,1,0,0:0:0:0:
400,140,80625,2,0,L|372:272,1,90
256,280,80875,2,0,L|288:144,1,90
156,132,81125,2,0,B|140:68|140:68|104:48,2,90
88,248,81500,1,0,0:0:0:0:
192,336,81625,1,0,0:0:0:0:
268,224,81750,1,0,0:0:0:0:
316,100,81875,2,0,L|408:48,1,90
400,192,82125,1,0,0:0:0:0:
356,320,82250,1,0,0:0:0:0:
228,280,82375,1,0,0:0:0:0:
264,148,82500,1,0,0:0:0:0:
132,176,82625,2,0,P|96:112|48:88,1,90
36,228,82875,2,0,P|68:288|124:308,1,90
216,324,83125,2,0,L|348:340,1,90
404,244,83375,1,0,0:0:0:0:
464,364,83500,1,0,0:0:0:0:
340,308,83625,1,0,0:0:0:0:
276,188,83750,1,0,0:0:0:0:
364,84,83875,2,0,L|428:8,1,90
244,48,84125,1,0,0:0:0:0:
200,52,84187,1,0,0:0:0:0:
156,64,84250,1,0,0:0:0:0:
116,88,84312,1,0,0:0:0:0:
88,124,84375,2,0,L|52:196,1,45
96,200,84500,2,0,L|104:272,1,45
148,240,84625,2,0,L|176:296,1,45
208,260,84750,2,0,L|264:296,1,45
280,344,84875,1,0,0:0:0:0:
324,336,84937,1,0,0:0:0:0:
364,316,85000,1,0,0:0:0:0:
396,284,85062,1,0,0:0:0:0:
416,248,85125,1,0,0:0:0:0:
424,204,85187,1,0,0:0:0:0:
420,160,85250,1,0,0:0:0:0:
408,116,85312,1,0,0:0:0:0:
380,80,85375,2,0,L|320:28,1,45
316,84,85500,2,0,L|248:80,1,45
280,128,85625,2,0,L|200:160,1,45
236,188,85750,2,0,B|192:256|136:284|136:284|92:236,1,180
284,308,86125,2,0,P|340:284|372:256,1,90
364,128,86375,2,0,P|321:143|285:169,1,90
200,276,86625,1,0,0:0:0:0:
200,276,86687,1,0,0:0:0:0:
200,276,86750,1,0,0:0:0:0:
80,216,86875,2,0,L|24:120,1,90
154,198,87125,2,0,L|210:294,1,90
224,144,87375,1,0,0:0:0:0:
148,32,87500,1,0,0:0:0:0:
284,28,87625,1,0,0:0:0:0:
284,28,87687,1,0,0:0:0:0:
284,28,87750,1,0,0:0:0:0:
376,128,87875,2,0,B|420:148|448:172|448:172|456:208,1,90
328,236,88125,2,0,B|284:216|256:192|256:192|254:186,1,90
228,56,88375,2,0,P|164:76|140:116,1,90
92,216,88625,1,0,0:0:0:0:
92,216,88687,1,0,0:0:0:0:
92,216,88750,1,0,0:0:0:0:
176,320,88875,2,0,P|212:280|220:240,1,90
332,320,89125,1,0,0:0:0:0:
376,316,89187,1,0,0:0:0:0:
420,300,89250,1,0,0:0:0:0:
456,276,89312,1,0,0:0:0:0:
416,256,89375,1,0,0:0:0:0:
384,224,89437,1,0,0:0:0:0:
364,184,89500,1,0,0:0:0:0:
352,140,89562,1,0,0:0:0:0:
348,96,89625,2,0,L|356:36,1,45
312,68,89750,2,0,L|272:8,1,45
252,60,89875,2,0,L|184:32,1,45
208,88,90000,2,0,L|140:96,1,45
160,140,90125,2,0,L|56:208,1,90
88,324,90375,2,0,L|184:260,1,90
288,220,90625,1,0,0:0:0:0:
288,220,90687,1,0,0:0:0:0:
288,220,90750,1,0,0:0:0:0:
424,212,90875,2,0,P|400:152|376:120,1,90
256,96,91125,1,0,0:0:0:0:
124,80,91250,1,0,0:0:0:0:
196,196,91375,1,0,0:0:0:0:
328,216,91500,1,0,0:0:0:0:
216,292,91625,2,0,P|152:352|128:368,1,90
120,220,91875,2,0,P|164:172|220:140,1,90
332,56,92125,1,0,0:0:0:0:
348,100,92187,1,0,0:0:0:0:
372,136,92250,1,0,0:0:0:0:
404,168,92312,1,0,0:0:0:0:
444,192,92375,1,0,0:0:0:0:
400,183,92437,1,0,0:0:0:0:
357,197,92500,1,0,0:0:0:0:
326,228,92562,1,0,0:0:0:0:
313,271,92625,1,0,0:0:0:0:
321,315,92687,1,0,0:0:0:0:
349,349,92750,1,0,0:0:0:0:
390,367,92812,1,0,0:0:0:0:
434,364,92875,1,0,0:0:0:0:
472,340,92937,1,0,0:0:0:0:
494,302,93000,1,0,0:0:0:0:
496,257,93062,1,0,0:0:0:0:
477,217,93125,1,0,0:0:0:0:
332,112,93375,1,0,0:0:0:0:
296,136,93437,1,0,0:0:0:0:
260,164,93500,1,0,0:0:0:0:
224,188,93562,1,0,0:0:0:0:
188,216,93625,1,0,0:0:0:0:
44,328,93875,1,0,0:0:0:0:
84,60,94125,2,0,P|128:160|128:176,1,90
260,144,94375,2,0,P|312:184|344:196,1,90
228,280,94625,1,0,0:0:0:0:
116,356,94750,1,0,0:0:0:0:
152,228,94875,1,0,0:0:0:0:
260,144,95000,1,0,0:0:0:0:
332,260,95125,1,0,0:0:0:0:
360,296,95187,1,0,0:0:0:0:
388,332,95250,1,0,0:0:0:0:
412,200,95375,2,0,P|440:144|480:104,1,90
324,104,95625,2,0,P|332:32|344:0,1,90
228,96,95875,2,0,P|244:176|272:208,1,90
116,208,96125,1,0,0:0:0:0:
128,252,96187,1,0,0:0:0:0:
160,284,96250,1,0,0:0:0:0:
284,336,96375,1,0,0:0:0:0:
340,212,96500,1,0,0:0:0:0:
216,164,96625,1,0,0:0:0:0:
160,284,96750,1,0,0:0:0:0:
296,272,96875,2,0,L|424:256,1,90
448,140,97125,1,0,0:0:0:0:
409,162,97187,1,0,0:0:0:0:
365,173,97250,1,0,0:0:0:0:
324,158,97312,1,0,0:0:0:0:
288,131,97375,1,0,0:0:0:0:
250,106,97437,1,0,0:0:0:0:
208,91,97500,1,0,0:0:0:0:
163,92,97562,1,0,0:0:0:0:
122,108,97625,1,0,0:0:0:0:
89,139,97687,1,0,0:0:0:0:
69,179,97750,1,0,0:0:0:0:
66,224,97812,1,0,0:0:0:0:
79,266,97875,1,0,0:0:0:0:
108,301,97937,1,0,0:0:0:0:
148,321,98000,1,0,0:0:0:0:
193,324,98062,1,0,0:0:0:0:
236,312,98125,2,0,P|312:280|344:276,1,90
340,144,98375,2,0,P|388:156|440:200,1,90
480,300,98625,1,0,0:0:0:0:
480,300,98687,1,0,0:0:0:0:
480,300,98750,1,0,0:0:0:0:
352,256,98875,2,0,L|236:216,1,90
132,236,99125,1,0,0:0:0:0:
104,104,99250,1,0,0:0:0:0:
236,136,99375,1,0,0:0:0:0:
208,316,99500,1,0,0:0:0:0:
68,204,99625,1,0,0:0:0:0:
68,204,99687,1,0,0:0:0:0:
68,204,99750,1,0,0:0:0:0:
236,136,99875,2,0,L|356:84,1,90
372,224,100125,2,0,L|420:256,1,45
360,296,100250,2,0,L|372:344,1,45
304,340,100375,2,0,L|292:384,1,45
232,348,100500,2,0,L|204:384,1,45
164,328,100625,2,0,L|96:356,1,45
112,280,100750,2,0,L|40:280,1,45
76,212,100875,2,0,L|24:200,1,45
64,144,100937,2,0,L|4:104,1,45
84,84,101062,2,0,L|48:32,1,45
124,32,101375,1,0,0:0:0:0:
460,164,101625,1,0,0:0:0:0:
160,364,101875,1,0,0:0:0:0:
348,56,102125,1,0,0:0:0:0:
304,72,102187,1,0,0:0:0:0:
260,76,102250,1,0,0:0:0:0:
216,60,102312,1,0,0:0:0:0:
172,48,102375,1,0,0:0:0:0:
128,44,102437,1,0,0:0:0:0:
84,60,102500,1,0,0:0:0:0:
52,92,102562,1,0,0:0:0:0:
40,136,102625,1,0,0:0:0:0:
40,180,102687,1,0,0:0:0:0:
60,220,102750,1,0,0:0:0:0:
100,240,102812,1,0,0:0:0:0:
144,256,102875,2,0,L|196:300,1,45
224,236,103000,2,0,L|280:256,1,45
288,188,103125,2,0,L|352:168,1,45
300,112,103250,2,0,L|344:68,1,45
240,88,103375,1,0,0:0:0:0:
204,112,103437,1,0,0:0:0:0:
172,144,103500,1,0,0:0:0:0:
148,180,103562,1,0,0:0:0:0:
136,224,103625,2,0,B|156:252|108:260|156:296|100:292|144:332,1,90
128,311,103875,1,0,0:0:0:0:
308,340,104125,1,0,0:0:0:0:
308,340,104187,1,0,0:0:0:0:
308,340,104250,1,0,0:0:0:0:
212,188,104375,1,0,0:0:0:0:
388,232,104500,1,0,0:0:0:0:
388,232,104562,1,0,0:0:0:0:
388,232,104625,1,0,0:0:0:0:
212,188,104750,1,0,0:0:0:0:
372,108,104875,1,0,0:0:0:0:
372,108,104937,1,0,0:0:0:0:
372,108,105000,1,0,0:0:0:0:
212,188,105125,1,0,0:0:0:0:
144,356,105250,1,0,0:0:0:0:
320,328,105375,2,0,B|360:324|400:312|400:312|408:268,1,90
324,192,105625,2,0,B|284:196|244:208|244:208|242:216,1,90
100,328,105875,1,0,0:0:0:0:
40,208,106000,1,0,0:0:0:0:
176,204,106125,1,0,0:0:0:0:
296,264,106250,2,0,L|400:320,1,90
