osu file format v14

[General]
AudioFilename: audio.mp3
AudioLeadIn: 0
PreviewTime: 36513
Countdown: 0
SampleSet: Soft
StackLeniency: 1
Mode: 0
LetterboxInBreaks: 0
WidescreenStoryboard: 0

[Editor]
Bookmarks: 15727,22584,36298,43156,50013,65441,79156,92870,106584,110013,125441,139156,152870,166584,180298,195727,209441,223156,230013
DistanceSpacing: 1
BeatDivisor: 3
GridSize: 16
TimelineZoom: 1.9

[Metadata]
Title:Tokoyo Omohikane no Kami
TitleUnicode:常世想兼神
Artist:UNDEAD CORPORATION
ArtistUnicode:UNDEAD CORPORATION
Creator:Mirash
Version:Extra
Source:東方永夜抄 ~ Imperishable Night.
Tags:zelq trynna osu! featured artist fa mappers' guild touhou ランコ ranko 千年幻想郷 ~ History of the Moon Eirin Yagokoro 八意 永琳 TOHO complete box ONI metal Japanese video game
BeatmapID:2246356
BeatmapSetID:1067418

[Difficulty]
HPDrainRate:6
CircleSize:4
OverallDifficulty:8.5
ApproachRate:9.2
SliderMultiplier:1.3
SliderTickRate:1

[Events]
//Background and Video events
0,0,"toohoo2.jpg",0,0
//Break Periods
2,180498,186157
//Storyboard Layer 0 (Background)
//Storyboard Layer 1 (Fail)
//Storyboard Layer 2 (Pass)
//Storyboard Layer 3 (Foreground)
//Storyboard Layer 4 (Overlay)
//Storyboard Sound Samples

[TimingPoints]
299,214.285714285714,4,2,1,50,1,0
1584,-200,4,2,1,60,0,0
2013,-83.3333333333333,4,2,1,70,0,0
15727,-83.3333333333333,4,2,1,60,0,0
22584,-100,4,2,1,50,0,0
36298,-83.3333333333333,4,2,1,60,0,0
37584,-83.3333333333333,4,2,1,60,0,0
50013,-83.3333333333333,4,2,1,50,0,0
50870,-100,4,2,1,50,0,0
52370,-100,4,2,1,50,0,0
65013,-200,4,2,1,50,0,0
65441,-83.3333333333333,4,2,1,70,0,0
92870,-83.3333333333333,4,2,1,50,0,0
99298,-100,4,2,1,50,0,0
99727,-83.3333333333333,4,2,1,60,0,0
106584,-83.3333333333333,4,2,1,50,0,0
108513,-83.3333333333333,4,2,1,55,0,0
108727,-83.3333333333333,4,2,1,60,0,0
109691,-133.333333333333,4,2,1,60,0,0
110013,-100,4,2,1,50,0,0
123727,-83.3333333333333,4,2,1,60,0,0
125013,-200,4,2,1,60,0,0
125441,-83.3333333333333,4,2,1,70,0,0
137441,-71.4285714285714,4,2,1,70,0,0
138513,-83.3333333333333,4,2,1,70,0,0
145156,-71.4285714285714,4,2,1,70,0,0
145584,-83.3333333333333,4,2,1,70,0,0
152870,-83.3333333333333,4,2,1,60,0,0
153727,-133.333333333333,4,2,1,60,0,0
166584,-100,4,2,1,60,0,0
187156,-133.333333333333,4,2,1,50,0,0
194227,-133.333333333333,4,2,1,55,0,0
194441,-133.333333333333,4,2,1,60,0,0
194656,-133.333333333333,4,2,1,65,0,0
194870,-133.333333333333,4,2,1,70,0,0
195298,-133.333333333333,4,2,1,50,0,0
195727,-83.3333333333333,4,2,1,70,0,0
202156,-71.4285714285714,4,2,1,70,0,0
202584,-83.3333333333333,4,2,1,70,0,0
209013,-71.4285714285714,4,2,1,70,0,0
209441,-83.3333333333333,4,2,1,70,0,0
215441,-71.4285714285714,4,2,1,70,0,0
215656,-83.3333333333333,4,2,1,70,0,0
218870,-71.4285714285714,4,2,1,70,0,0
219084,-83.3333333333333,4,2,1,70,0,0
230013,-83.3333333333333,4,2,1,40,0,0
233013,-83.3333333333333,4,2,1,50,0,0
233441,-133.333333333333,4,2,1,60,0,0
233870,-83.3333333333333,4,2,1,70,0,0
236656,-83.3333333333333,4,2,1,65,0,0
236870,-370.37037037037,4,2,1,60,0,0
240084,-83.3333333333333,4,2,1,60,0,0
240138,-83.3333333333333,4,2,1,65,0,0
240191,-83.3333333333333,4,2,1,70,0,0
240298,-83.3333333333333,4,2,1,80,0,0

[Colours]
Combo1 : 137,61,65
Combo2 : 80,80,135
Combo3 : 113,81,130
Combo4 : 132,139,179

[HitObjects]
334,163,299,6,0,L|350:92,2,65,4|0|0,1:0|3:0|3:0,0:0:0:0:
261,173,620,1,0,3:0:0:0:
281,213,727,5,2,3:0:0:0:
256,220,834,1,0,3:0:0:0:
231,227,941,1,0,3:0:0:0:
206,235,1048,1,0,3:0:0:0:
165,300,1156,1,2,3:0:0:0:
190,307,1263,1,0,3:0:0:0:
215,314,1370,1,2,3:0:0:0:
240,322,1477,1,2,3:0:0:0:
306,283,1584,6,0,L|287:389,1,97.5,2|0,3:3|2:0,0:0:0:0:
391,320,2013,6,0,P|345:260|390:84,1,233.999992858887,4|4,1:0|1:3,0:0:0:0:
426,65,2441,2,0,L|457:166,1,77.999997619629,8|0,1:0|0:0,0:0:0:0:
418,212,2656,1,4,1:3:0:0:
488,244,2763,1,8,1:0:0:0:
436,302,2870,2,0,L|405:403,1,77.999997619629,4|8,1:3|1:0,0:0:0:0:
338,355,3084,5,4,1:3:0:0:
338,355,3191,1,2,0:0:0:0:
260,362,3298,1,8,1:0:0:0:
260,362,3406,1,0,0:0:0:0:
182,368,3513,1,4,1:3:0:0:
182,368,3620,1,0,1:0:0:0:
113,331,3727,6,0,P|122:259|125:88,1,233.999992858887,4|4,1:3|1:3,0:0:0:0:
125,19,4156,2,0,P|164:31|204:39,1,77.999997619629,8|2,1:0|0:0,0:0:0:0:
233,108,4370,1,4,1:3:0:0:
307,86,4477,1,8,1:0:0:0:
338,14,4584,1,4,1:3:0:0:
277,63,4691,1,8,1:0:0:0:
288,140,4798,1,4,1:3:0:0:
337,200,4906,1,2,1:2:0:0:
390,143,5013,5,10,1:1:0:0:
390,143,5120,1,4,1:3:0:0:
459,178,5227,1,2,0:1:0:0:
459,178,5334,1,2,1:1:0:0:
490,106,5441,6,0,L|224:135,1,233.999992858887,4|4,1:3|1:3,0:0:0:0:
217,198,5870,2,0,B|181:179|181:179|122:206,1,77.999997619629,8|2,1:0|0:0,0:0:0:0:
69,199,6084,1,4,1:3:0:0:
102,128,6191,1,8,1:0:0:0:
25,114,6298,1,4,1:3:0:0:
47,38,6406,1,8,1:0:0:0:
117,4,6513,6,0,L|204:33,1,77.999997619629,2|2,1:2|1:2,0:0:0:0:
233,94,6727,1,8,1:0:0:0:
309,77,6834,1,0,1:0:0:0:
385,60,6941,1,4,1:3:0:0:
460,42,7048,1,8,1:0:0:0:
393,0,7156,6,0,L|306:29,1,77.999997619629,4|4,1:0|1:3,0:0:0:0:
300,164,7370,2,0,L|373:139,1,77.999997619629,4|0,1:3|0:0,0:0:0:0:
241,68,7584,5,8,1:0:0:0:
165,49,7691,2,0,L|187:229,1,155.999995239258,4|8,1:3|1:0,0:0:0:0:
293,258,8013,2,0,B|300:297|300:297|264:350,1,77.999997619629,4|8,1:3|1:0,0:0:0:0:
74,234,8227,2,0,B|67:195|67:195|103:142,1,77.999997619629,4|2,1:3|1:2,0:0:0:0:
196,278,8441,5,4,1:3:0:0:
212,354,8548,1,8,1:0:0:0:
136,375,8656,1,4,1:3:0:0:
119,298,8763,1,8,1:0:0:0:
176,245,8870,6,0,B|326:249|235:324|419:336,1,233.999992858887,4|4,1:0|1:3,0:0:0:0:
452,371,9298,2,0,P|485:326|446:224,1,155.999995239258,8|4,1:0|1:3,0:0:0:0:
382,225,9620,2,0,P|364:173|367:131,1,77.999997619629,8|4,1:0|1:3,0:0:0:0:
406,85,9834,1,8,1:0:0:0:
483,81,9941,2,0,P|479:119|464:155,1,77.999997619629,2|2,1:2|0:0,0:0:0:0:
323,83,10156,5,12,1:0:0:0:
323,83,10263,1,4,1:3:0:0:
255,121,10370,1,0,1:0:0:0:
255,121,10477,1,8,1:0:0:0:
206,59,10584,6,0,P|216:167|225:309,1,233.999992858887,4|4,1:3|1:3,0:0:0:0:
166,345,11013,2,0,P|128:324|92:200,1,155.999995239258,8|4,1:0|1:3,0:0:0:0:
32,168,11334,1,8,1:0:0:0:
43,90,11441,2,0,L|123:112,1,77.999997619629,4|8,1:3|1:0,0:0:0:0:
181,64,11656,1,2,1:2:0:0:
181,64,11763,1,2,0:0:0:0:
231,123,11870,1,12,1:0:0:0:
231,123,11977,1,4,1:3:0:0:
283,65,12084,1,0,1:0:0:0:
283,65,12191,1,8,1:0:0:0:
232,5,12298,6,0,P|222:113|213:255,1,233.999992858887,4|4,1:0|1:3,0:0:0:0:
253,306,12727,2,0,P|313:295|352:205,1,155.999995239258,8|4,1:0|1:3,0:0:0:0:
329,141,13048,1,8,1:0:0:0:
390,91,13156,1,4,1:3:0:0:
390,91,13209,1,0,1:0:0:0:
390,91,13263,1,8,1:0:0:0:
390,91,13316,1,0,1:0:0:0:
390,91,13370,2,0,L|439:123,3,38.9999988098145,4|0|4|0,1:3|1:0|1:3|1:0,0:0:0:0:
455,93,13584,6,0,L|437:187,1,77.999997619629,4|4,1:0|1:3,0:0:0:0:
426,240,13798,2,0,L|444:334,1,77.999997619629,8|0,1:0|1:0,0:0:0:0:
384,372,14013,5,4,1:0:0:0:
309,349,14120,1,8,1:3:0:0:
234,326,14227,1,0,1:0:0:0:
159,304,14334,1,0,1:3:0:0:
113,240,14441,5,8,1:0:0:0:
159,225,14548,1,8,1:3:0:0:
205,211,14655,1,0,1:0:0:0:
251,198,14762,1,0,1:3:0:0:
308,144,14870,5,8,1:0:0:0:
326,199,14977,1,8,3:0:0:0:
342,254,15084,1,2,3:0:0:0:
358,309,15191,1,8,3:0:0:0:
431,334,15298,5,2,3:0:0:0:
439,306,15405,1,8,3:0:0:0:
447,278,15512,1,4,3:0:0:0:
456,251,15619,1,2,3:0:0:0:
506,190,15727,5,4,3:0:0:0:
394,81,15941,1,0,3:0:0:0:
285,193,16156,1,2,3:0:0:0:
397,302,16370,1,2,3:0:0:0:
395,219,16584,5,2,3:0:0:0:
423,191,16691,1,0,3:0:0:0:
395,163,16798,1,2,3:0:0:0:
367,191,16906,1,0,3:0:0:0:
321,266,17013,5,2,3:0:0:0:
255,124,17227,1,8,3:0:0:0:
259,85,17334,1,2,3:0:0:0:
263,46,17441,1,4,3:1:0:0:
186,173,17656,1,0,3:0:0:0:
241,316,17870,1,2,3:0:0:0:
317,177,18084,1,2,3:0:0:0:
216,103,18298,5,2,3:0:0:0:
225,141,18406,1,0,3:0:0:0:
234,178,18513,1,2,3:0:0:0:
243,215,18620,1,8,3:0:0:0:
203,280,18727,6,0,L|228:368,1,77.999997619629,2|8,3:0|3:0,0:0:0:0:
152,375,18941,1,8,3:0:0:0:
115,360,19048,1,2,3:0:0:0:
78,345,19156,1,4,3:1:0:0:
17,201,19370,1,0,3:0:0:0:
161,140,19584,1,2,3:0:0:0:
222,284,19798,1,0,3:0:0:0:
45,209,20013,5,2,3:0:0:0:
54,171,20120,1,0,3:0:0:0:
63,133,20227,1,2,3:0:0:0:
72,95,20334,1,0,3:0:0:0:
41,29,20441,5,2,3:0:0:0:
197,7,20656,1,8,3:0:0:0:
234,17,20763,1,2,3:0:0:0:
268,29,20870,1,4,3:1:0:0:
347,162,21084,1,2,3:0:0:0:
342,19,21298,1,4,3:2:0:0:
271,151,21513,1,2,3:0:0:0:
434,105,21727,5,2,1:0:0:0:
443,142,21834,1,0,1:0:0:0:
452,179,21941,1,4,1:3:0:0:
461,216,22048,1,2,1:0:0:0:
405,268,22156,1,8,1:3:0:0:
397,306,22263,1,2,1:1:0:0:
389,344,22370,2,0,L|311:309,1,77.999997619629,8|0,1:3|1:0,0:0:0:0:
291,266,22584,6,0,L|127:288,1,130,6|2,1:0|1:1,0:0:0:0:
163,284,22906,1,2,0:1:0:0:
163,284,23013,1,8,1:0:0:0:
163,284,23334,1,0,1:0:0:0:
163,284,23441,2,0,L|155:141,1,130,0|0,0:0|1:0,0:0:0:0:
112,44,23870,1,8,1:0:0:0:
236,75,24084,5,2,1:0:0:0:
236,75,24191,1,0,1:0:0:0:
236,75,24298,2,0,B|294:84|294:84|341:13,1,130,2|2,1:0|1:0,0:0:0:0:
445,75,24727,2,0,L|479:209,1,130,8|0,1:0|0:0,0:0:0:0:
340,268,25048,2,0,L|371:141,1,130,8|0,1:0|0:0,0:0:0:0:
295,151,25370,1,0,1:0:0:0:
266,302,25584,1,8,1:0:0:0:
417,331,25798,1,0,1:0:0:0:
417,331,25906,1,0,1:0:0:0:
417,331,26013,6,0,B|433:300|433:300|423:263,1,65,2|0,1:0|1:0,0:0:0:0:
247,230,26227,2,0,B|231:261|231:261|241:298,1,65,2|0,1:0|0:0,0:0:0:0:
337,377,26441,6,0,L|320:170,1,195,10|0,1:0|1:0,0:0:0:0:
315,108,26870,2,0,L|167:142,2,130,0|0|8,0:0|1:0|1:0,0:0:0:0:
392,27,27513,5,2,1:0:0:0:
392,27,27620,1,0,1:0:0:0:
392,27,27727,2,0,L|463:46,1,65,2|0,1:0|0:0,0:0:0:0:
237,47,27941,2,0,L|302:31,1,65,2|0,1:0|0:0,0:0:0:0:
165,8,28156,1,8,1:0:0:0:
77,42,28370,1,0,0:0:0:0:
71,23,28477,1,8,1:0:0:0:
136,143,28691,1,0,0:0:0:0:
142,124,28798,1,8,1:0:0:0:
4,183,29013,5,8,1:0:0:0:
95,323,29227,1,4,1:0:0:0:
162,265,29441,5,2,1:0:0:0:
162,265,29548,1,0,1:0:0:0:
162,265,29656,1,2,1:0:0:0:
162,265,29763,1,0,1:0:0:0:
162,265,29870,2,0,L|143:120,1,130,8|0,1:0|0:0,0:0:0:0:
191,76,30191,2,0,P|249:88|293:173,1,130,0|0,1:0|0:0,0:0:0:0:
357,180,30513,2,0,L|341:262,1,65,0|0,1:0|0:0,0:0:0:0:
374,316,30727,1,8,1:0:0:0:
492,201,30941,5,2,1:0:0:0:
492,201,31048,1,0,1:0:0:0:
492,201,31156,2,0,B|456:149|456:149|473:65,2,130,2|2|8,1:0|1:0|1:0,0:0:0:0:
316,365,31906,1,8,1:0:0:0:
161,185,32227,2,0,L|174:105,1,65,0|0,1:0|0:0,0:0:0:0:
159,46,32441,2,0,P|226:53|313:49,1,130,8|2,1:0|0:3,0:0:0:0:
357,70,32763,5,2,0:3:0:0:
348,102,32870,1,2,1:0:0:0:
342,133,32977,1,0,1:0:0:0:
336,164,33084,1,2,1:0:0:0:
330,195,33191,1,0,1:0:0:0:
334,236,33298,2,0,P|257:213|178:209,1,130,8|0,1:0|0:0,0:0:0:0:
208,209,33620,1,0,1:0:0:0:
208,209,33727,6,0,P|190:271|186:351,1,130,0|0,0:0|1:0,0:0:0:0:
35,222,34156,2,0,P|30:157|12:94,1,130,8|2,1:0|1:0,0:0:0:0:
12,94,34477,1,0,1:0:0:0:
64,39,34584,2,0,L|122:83,1,65,2|0,1:0|0:0,0:0:0:0:
135,152,34798,2,0,L|284:121,1,130,2|8,1:0|1:0,0:0:0:0:
389,13,35227,1,0,0:0:0:0:
389,13,35334,1,8,1:0:0:0:
486,161,35548,1,0,0:0:0:0:
486,161,35655,1,0,1:0:0:0:
261,373,35870,5,12,0:1:0:0:
261,373,36298,6,0,P|261:293|265:204,1,155.999995239258,2|0,1:0|1:0,0:0:0:0:
266,138,36620,1,4,1:3:0:0:
195,105,36727,2,0,P|155:138|139:177,1,77.999997619629,8|0,1:0|0:0,0:0:0:0:
138,276,36941,2,0,P|178:243|194:204,1,77.999997619629,0|4,1:0|1:3,0:0:0:0:
85,210,37156,5,0,1:0:0:0:
38,147,37263,1,2,1:2:0:0:
47,69,37370,1,2,1:2:0:0:
108,21,37477,1,4,1:3:0:0:
180,50,37584,2,0,P|213:74|344:94,1,155.999995239258,8|6,1:0|3:0,0:0:0:0:
391,56,37906,1,2,3:0:0:0:
459,93,38013,6,0,P|482:145|484:188,1,77.999997619629,4|0,1:0|0:0,0:0:0:0:
368,192,38227,2,0,P|410:211|447:239,1,77.999997619629,8|4,1:3|1:3,0:0:0:0:
372,320,38441,2,0,P|426:311|461:309,1,77.999997619629,8|0,1:0|0:0,0:0:0:0:
291,156,38656,5,4,1:3:0:0:
236,207,38763,2,0,L|266:366,1,155.999995239258,8|8,1:0|1:3,0:0:0:0:
175,384,39084,2,0,P|121:375|86:373,1,77.999997619629,4|0,1:3|0:0,0:0:0:0:
39,313,39298,2,0,P|77:288|97:169,1,155.999995239258,8|2,1:0|1:0,0:0:0:0:
36,147,39620,1,4,3:0:0:0:
74,31,39727,6,0,P|129:66|150:90,1,77.999997619629,2|8,1:0|3:0,0:0:0:0:
211,105,39941,2,0,P|180:163|171:189,1,77.999997619629,8|4,1:3|1:3,0:0:0:0:
195,250,40156,2,0,P|265:236|316:160,1,155.999995239258,8|0,1:0|1:3,0:0:0:0:
290,96,40477,1,4,1:3:0:0:
330,29,40584,6,0,L|396:82,1,77.999997619629,4|0,1:3|0:0,0:0:0:0:
459,113,40798,2,0,L|393:166,1,77.999997619629,4|4,1:3|1:3,0:0:0:0:
330,201,41013,2,0,L|368:375,1,155.999995239258,8|4,1:0|1:3,0:0:0:0:
434,369,41334,1,0,1:3:0:0:
423,291,41441,5,12,1:3:0:0:
346,276,41548,1,2,1:2:0:0:
269,257,41656,1,8,1:3:0:0:
192,240,41763,1,4,1:3:0:0:
132,290,41870,6,0,L|165:137,1,155.999995239258,8|4,1:0|1:3,0:0:0:0:
165,137,42298,5,12,1:0:0:0:
146,61,42406,1,4,1:3:0:0:
68,56,42513,2,0,L|43:153,1,77.999997619629,2|2,1:2|1:2,0:0:0:0:
244,100,42727,5,8,1:0:0:0:
263,23,42835,1,2,1:2:0:0:
341,18,42942,2,0,L|366:115,1,77.999997619629,8|8,1:0|1:0,0:0:0:0:
157,229,43156,6,2,B|295:193|227:312|386:286,1,233.999992858887,6|0,1:0|1:0,1:1:0:0:
460,336,43584,2,0,P|475:268|432:191,1,155.999995239258,8|0,1:0|1:0,0:0:0:0:
352,132,43906,2,0,L|341:218,1,77.999997619629,8|0,1:0|1:0,0:0:0:0:
429,120,44120,1,8,1:0:0:0:
463,40,44227,2,0,P|367:48|275:62,1,155.999995239258,2|8,1:2|1:0,0:0:0:0:
262,119,44548,1,0,0:0:0:0:
194,79,44656,1,0,1:0:0:0:
242,17,44763,1,8,1:0:0:0:
262,119,44870,6,2,P|248:179|226:361,1,233.999992858887,6|0,1:0|1:0,1:1:0:0:
127,373,45298,2,0,P|79:358|39:250,1,155.999995239258,8|0,1:0|1:0,0:0:0:0:
133,220,45620,2,0,L|113:138,1,77.999997619629,8|2,1:0|1:0,0:0:0:0:
96,68,45834,1,8,1:0:0:0:
138,2,45941,1,2,1:2:0:0:
215,4,46048,1,2,1:2:0:0:
269,60,46156,2,0,L|250:135,1,77.999997619629,6|0,1:0|0:0,0:0:0:0:
428,200,46370,2,0,L|409:124,1,77.999997619629,0|0,1:0|1:0,0:0:0:0:
249,308,46584,6,2,P|289:231|382:227,1,155.999995239258,6|0,1:0|0:0,1:1:0:0:
428,200,46906,1,0,1:0:0:0:
487,250,47013,2,0,P|469:318|375:383,1,155.999995239258,8|0,1:0|1:0,0:0:0:0:
339,333,47334,1,8,1:0:0:0:
271,372,47441,1,0,1:0:0:0:
210,323,47548,1,8,1:0:0:0:
134,346,47656,6,0,L|154:173,1,155.999995239258,2|6,1:2|1:0,0:0:0:0:
211,140,47977,1,8,1:3:0:0:
157,83,48084,1,4,1:3:0:0:
207,24,48191,1,8,1:0:0:0:
230,98,48298,6,0,B|253:132|253:132|245:183,1,77.999997619629,6|4,1:0|1:3,0:0:0:0:
94,38,48513,2,0,B|71:72|71:72|76:108,1,77.999997619629,8|4,1:0|1:3,0:0:0:0:
265,242,48727,6,0,B|242:276|242:276|250:327,1,77.999997619629,8|8,1:0|1:3,0:0:0:0:
45,181,48941,2,0,B|68:215|68:215|60:266,1,77.999997619629,8|4,1:3|1:3,0:0:0:0:
155,368,49156,5,14,1:0:0:0:
154,360,49209,1,0,1:0:0:0:
153,352,49263,1,4,1:3:0:0:
152,344,49316,1,0,1:0:0:0:
151,336,49370,2,0,L|165:298,3,38.9999988098145,4|0|0|0,1:3|0:0|1:0|0:0,0:0:0:0:
144,284,49584,6,0,L|171:205,1,77.999997619629,12|4,1:0|1:3,0:0:0:0:
146,136,49798,2,0,L|173:57,1,77.999997619629,0|0,1:0|1:3,0:0:0:0:
236,18,50013,5,4,1:0:0:0:
358,111,50227,1,0,3:0:0:0:
336,267,50441,1,2,3:0:0:0:
214,174,50655,1,0,3:0:0:0:
286,107,50870,6,0,L|258:261,1,130,4|0,1:2|3:0,0:0:0:0:
262,234,51191,1,0,0:0:0:0:
262,234,51298,1,2,3:0:0:0:
262,234,51406,1,0,0:0:0:0:
262,234,51513,1,2,3:0:0:0:
467,253,51727,6,0,L|391:269,2,65,2|0|2,3:0|0:0|3:0,0:0:0:0:
355,356,52156,1,0,3:0:0:0:
279,335,52263,1,2,3:0:0:0:
203,314,52370,1,2,3:0:0:0:
203,314,52477,1,0,3:0:0:0:
142,358,52584,6,0,L|158:218,1,130,4|0,1:0|1:0,1:1:0:0:
157,193,52870,1,0,1:0:0:0:
122,190,52941,1,0,1:0:0:0:
87,190,53013,2,0,L|103:50,1,130,8|2,1:0|3:0,0:0:0:0:
173,22,53334,5,2,3:0:0:0:
220,86,53441,1,4,3:1:0:0:
292,58,53548,1,2,3:0:0:0:
331,120,53656,2,0,P|368:125|430:209,1,130,2|0,3:0|3:0,3:3:0:0:
418,265,53977,1,2,3:0:0:0:
448,334,54084,2,0,P|490:303|501:276,1,65,0|2,3:0|3:0,0:0:0:0:
358,217,54298,6,0,L|203:259,1,130,4|0,1:2|3:0,3:3:0:0:
212,322,54620,1,2,3:0:0:0:
142,293,54727,2,0,L|125:380,1,65,2|0,3:0|3:0,3:3:0:0:
59,326,54941,5,2,3:0:0:0:
76,255,55048,1,0,3:0:0:0:
94,183,55156,1,2,3:0:0:0:
28,70,55370,1,2,3:0:0:0:
146,16,55584,1,2,3:0:0:0:
214,42,55691,1,2,3:0:0:0:
285,71,55798,1,2,3:0:0:0:
285,71,55906,1,0,0:0:0:0:
346,17,56013,6,0,L|330:158,1,130,0|0,1:0|1:0,0:0:0:0:
317,177,56298,1,0,1:0:0:0:
351,182,56370,1,0,1:0:0:0:
384,189,56441,2,0,L|368:330,1,130,8|2,1:0|3:0,0:0:0:0:
293,344,56763,1,2,3:0:0:0:
184,333,56870,6,0,P|209:275|278:260,2,130,4|0|2,1:0|3:0|3:0,0:0:0:0:
107,348,57406,1,0,0:0:0:0:
111,269,57513,1,0,3:0:0:0:
162,210,57620,1,2,3:0:0:0:
110,146,57727,6,0,L|124:82,1,65,4|0,1:2|0:0,0:0:0:0:
206,84,57941,2,0,L|243:31,1,65,0|0,3:0|0:0,0:0:0:0:
410,60,58156,2,0,L|271:108,1,130,2|2,3:0|3:0,0:0:0:0:
242,163,58477,1,2,3:0:0:0:
306,212,58584,6,0,L|331:281,1,65,2|0,3:0|0:0,0:0:0:0:
399,310,58798,1,2,3:0:0:0:
483,137,59013,1,0,3:0:0:0:
423,93,59120,1,2,3:0:0:0:
378,151,59227,1,2,3:0:0:0:
378,151,59334,1,0,3:0:0:0:
466,218,59441,6,0,L|431:356,1,130,4|0,1:0|1:0,1:1:0:0:
427,378,59727,1,0,1:0:0:0:
393,372,59798,1,0,1:0:0:0:
358,368,59870,2,0,L|326:241,1,130,8|2,1:0|3:0,0:0:0:0:
336,166,60191,5,2,3:0:0:0:
264,185,60298,1,4,1:0:0:0:
246,257,60406,1,2,3:0:0:0:
185,206,60513,2,0,P|194:160|201:60,1,130,2|2,3:0|3:0,3:3:0:0:
143,29,60834,1,2,3:0:0:0:
86,79,60941,1,0,3:0:0:0:
86,79,61048,1,2,3:0:0:0:
20,30,61156,6,0,P|63:78|60:167,1,130,4|2,1:2|3:0,3:3:0:0:
26,201,61477,1,2,3:0:0:0:
20,278,61584,2,0,P|93:285|131:241,1,130,0|2,3:0|3:0,0:0:0:0:
152,172,61906,1,2,3:0:0:0:
225,202,62013,5,4,1:0:0:0:
389,151,62227,1,2,3:0:0:0:
251,53,62441,1,2,3:2:0:0:
251,53,62548,1,2,3:0:0:0:
251,53,62656,1,2,3:0:0:0:
287,182,62870,5,2,3:0:0:0:
123,233,63084,1,2,3:0:0:0:
261,331,63298,1,2,3:2:0:0:
261,331,63405,1,2,3:0:0:0:
261,331,63513,1,2,3:0:0:0:
261,331,63620,1,2,3:0:0:0:
239,242,63727,5,4,1:0:0:0:
239,242,63941,1,8,1:0:0:0:
292,190,64048,1,0,1:0:0:0:
318,261,64156,1,4,1:2:0:0:
403,236,64263,5,8,1:0:0:0:
456,283,64370,1,8,1:0:0:0:
453,354,64477,1,0,1:0:0:0:
337,384,64584,5,8,1:0:0:0:
368,116,64798,5,8,1:0:0:0:
104,78,65013,6,0,P|136:113|149:137,1,65,8|0,1:0|0:0,0:0:0:0:
158,275,65441,6,0,P|251:248|283:113,1,233.999992858887,4|0,1:0|1:0,0:0:0:0:
342,71,65870,2,0,P|392:89|433:125,1,77.999997619629,8|0,1:0|0:0,0:0:0:0:
459,265,66084,2,0,P|409:247|368:211,1,77.999997619629,0|0,1:0|1:0,0:0:0:0:
215,49,66298,6,0,L|45:89,1,155.999995239258,8|0,1:0|1:0,0:0:0:0:
28,61,66584,1,0,1:0:0:0:
28,102,66656,1,0,1:0:0:0:
28,143,66727,2,0,L|60:232,1,77.999997619629,8|0,1:0|0:0,0:0:0:0:
256,211,66941,2,0,L|229:137,1,77.999997619629,0|0,1:0|0:0,0:0:0:0:
100,349,67156,6,0,P|122:271|275:254,1,233.999992858887,8|0,1:0|0:0,0:0:0:0:
330,213,67584,1,8,1:0:0:0:
351,287,67691,1,2,1:0:0:0:
423,259,67798,1,2,0:1:0:0:
455,330,67906,1,4,1:2:0:0:
384,362,68013,6,0,P|391:266|409:177,1,155.999995239258,10|0,1:0|1:0,0:0:0:0:
382,170,68298,1,2,1:0:0:0:
389,128,68370,1,0,1:0:0:0:
402,88,68441,2,0,P|327:99|296:103,1,77.999997619629,10|0,1:0|1:0,0:0:0:0:
217,43,68656,2,0,P|142:54|111:58,1,77.999997619629,4|0,0:2|1:0,0:0:0:0:
60,13,68870,6,0,P|73:91|92:259,1,233.999992858887,12|0,1:0|0:0,0:0:0:0:
168,239,69298,1,8,1:0:0:0:
238,274,69406,1,0,1:0:0:0:
296,222,69513,1,0,0:0:0:0:
296,222,69620,1,0,1:0:0:0:
366,189,69727,6,0,P|305:182|255:80,1,155.999995239258,8|0,1:0|1:0,0:0:0:0:
246,67,70013,1,0,1:0:0:0:
286,72,70084,1,0,1:0:0:0:
327,76,70156,2,0,P|334:45|330:-3,1,77.999997619629,8|0,1:0|1:0,0:0:0:0:
171,53,70370,2,0,P|167:91|174:129,1,77.999997619629,0|0,0:0|1:0,0:0:0:0:
117,292,70584,6,0,P|170:259|283:254,1,155.999995239258,10|0,1:0|1:0,0:0:0:0:
287,215,70870,1,0,1:0:0:0:
326,227,70941,1,0,1:0:0:0:
365,239,71013,1,10,1:0:0:0:
407,304,71120,1,0,1:0:0:0:
476,267,71227,1,2,1:0:0:0:
433,201,71334,1,4,1:2:0:0:
321,308,71441,2,0,P|268:304|168:275,1,155.999995239258,6|0,1:0|1:0,0:0:0:0:
300,116,71870,5,8,1:0:0:0:
300,116,71923,1,0,1:0:0:0:
300,116,71977,1,0,1:0:0:0:
300,116,72031,1,0,1:0:0:0:
300,116,72084,1,4,1:2:0:0:
300,116,72138,1,0,1:0:0:0:
300,116,72191,1,0,1:0:0:0:
300,116,72245,1,0,1:0:0:0:
300,116,72298,2,0,P|233:123|153:266,1,233.999992858887,4|0,1:0|1:0,0:0:0:0:
212,366,72727,2,0,P|252:316|247:276,1,77.999997619629,8|0,1:0|1:0,0:0:0:0:
37,244,72941,2,0,L|61:321,1,77.999997619629,0|0,1:0|1:0,0:0:0:0:
27,230,73156,6,0,L|52:66,1,155.999995239258,8|0,1:0|1:0,0:0:0:0:
44,34,73441,1,0,1:0:0:0:
85,42,73513,1,0,1:0:0:0:
125,51,73584,2,0,B|162:61|162:61|196:39,1,77.999997619629,8|0,1:0|1:0,0:0:0:0:
163,235,73798,2,0,B|153:197|153:197|117:179,1,77.999997619629,0|0,1:0|1:0,0:0:0:0:
302,87,74013,6,2,B|243:146|243:146|276:231,1,155.999995239258,14|0,1:0|1:0,1:1:0:0:
369,201,74334,1,0,0:0:0:0:
356,291,74441,2,0,L|346:387,1,77.999997619629,14|0,1:0|1:0,0:0:0:0:
494,309,74656,2,0,L|485:231,1,77.999997619629,2|0,0:1|1:0,0:0:0:0:
264,288,74870,6,2,B|174:283|208:347|104:337,1,155.999995239258,14|0,1:0|1:0,1:1:0:0:
82,330,75156,1,0,1:0:0:0:
41,320,75227,1,0,1:0:0:0:
1,307,75298,2,0,P|13:250|21:199,1,77.999997619629,10|0,1:0|1:0,0:0:0:0:
92,151,75513,2,0,P|80:94|72:43,1,77.999997619629,2|0,1:0|1:0,0:0:0:0:
143,239,75727,6,0,P|146:165|201:0,1,233.999992858887,14|0,1:0|1:0,0:0:0:0:
271,24,76156,1,8,1:0:0:0:
306,93,76263,1,0,0:0:0:0:
275,165,76370,2,0,P|283:209|289:256,1,77.999997619629,0|4,1:0|1:2,0:0:0:0:
431,279,76584,6,0,P|410:231|398:121,1,155.999995239258,12|0,1:0|1:0,0:0:0:0:
376,92,76870,1,0,1:0:0:0:
385,51,76941,1,0,1:0:0:0:
393,9,77013,2,0,P|436:17|471:43,1,77.999997619629,8|0,1:0|1:0,0:0:0:0:
346,191,77227,2,0,P|303:183|268:157,1,77.999997619629,4|0,0:2|1:0,0:0:0:0:
122,70,77441,6,0,L|107:159,1,77.999997619629,12|0,1:0|0:0,0:0:0:0:
242,331,77656,6,0,L|257:242,1,77.999997619629,12|0,1:0|0:0,0:0:0:0:
456,160,77870,5,8,1:0:0:0:
390,121,77977,1,8,1:0:0:0:
350,187,78084,1,0,1:0:0:0:
350,187,78191,1,8,1:0:0:0:
423,239,78298,5,0,1:0:0:0:
501,230,78406,1,0,1:0:0:0:
299,115,78620,5,8,1:0:0:0:
221,124,78728,1,0,1:0:0:0:
441,5,78941,5,8,1:0:0:0:
197,199,79156,6,0,P|137:180|118:18,1,233.999992858887,4|4,1:0|1:3,0:0:0:0:
185,17,79584,2,0,P|234:59|242:83,1,77.999997619629,8|0,1:0|0:0,0:0:0:0:
268,141,79798,1,4,1:3:0:0:
345,130,79906,1,8,1:0:0:0:
387,64,80013,1,4,1:3:0:0:
333,7,80120,1,8,1:0:0:0:
311,81,80227,1,4,1:3:0:0:
358,142,80334,1,2,0:0:0:0:
395,210,80441,1,8,1:0:0:0:
380,286,80548,1,0,0:0:0:0:
315,330,80656,1,4,1:3:0:0:
240,306,80763,1,0,1:0:0:0:
212,231,80870,6,0,P|185:183|17:216,1,233.999992858887,4|4,1:3|1:3,0:0:0:0:
27,273,81298,2,0,P|86:268|116:241,1,77.999997619629,8|2,1:0|0:0,0:0:0:0:
155,313,81513,1,4,1:3:0:0:
191,376,81620,2,0,L|184:283,2,77.999997619629,8|4|8,1:0|1:3|1:0,0:0:0:0:
261,279,81941,5,4,1:3:0:0:
272,202,82048,1,2,1:2:0:0:
284,124,82156,2,0,L|371:162,1,77.999997619629,10|4,1:1|1:3,0:0:0:0:
154,90,82370,2,0,L|225:58,1,77.999997619629,2|8,0:1|1:3,0:0:0:0:
115,250,82584,6,0,P|115:176|107:3,1,233.999992858887,4|4,1:3|1:3,0:0:0:0:
32,37,83013,2,0,P|38:109|39:136,1,77.999997619629,8|2,1:0|0:0,0:0:0:0:
34,192,83227,1,4,1:3:0:0:
39,269,83334,1,8,1:0:0:0:
44,346,83441,2,0,P|101:336|135:332,1,77.999997619629,4|8,1:3|1:0,0:0:0:0:
248,261,83656,2,0,P|209:266|171:273,1,77.999997619629,2|2,1:2|1:2,0:0:0:0:
114,227,83870,5,8,1:0:0:0:
114,227,83977,1,0,1:0:0:0:
114,227,84084,1,4,1:3:0:0:
114,227,84191,1,8,1:0:0:0:
133,141,84298,6,0,P|160:168|198:190,1,77.999997619629,4|4,1:0|1:3,0:0:0:0:
114,54,84513,2,0,P|87:81|49:103,1,77.999997619629,4|0,1:3|0:0,0:0:0:0:
186,85,84727,1,8,1:0:0:0:
179,5,84834,2,0,L|351:27,1,155.999995239258,4|8,1:3|1:0,0:0:0:0:
375,91,85156,6,0,B|404:63|404:63|473:64,1,77.999997619629,4|8,1:3|1:0,0:0:0:0:
331,209,85370,2,0,B|302:181|302:181|233:182,1,77.999997619629,4|2,1:3|1:2,0:0:0:0:
461,186,85584,1,4,1:3:0:0:
480,261,85691,1,8,1:0:0:0:
402,266,85798,1,4,1:3:0:0:
420,342,85906,1,8,1:0:0:0:
308,362,86013,6,0,B|320:293|320:293|288:205|288:205|310:127,1,233.999992858887,4|4,1:0|1:3,0:0:0:0:
265,71,86441,2,0,P|202:80|151:170,1,155.999995239258,8|4,1:0|1:3,0:0:0:0:
115,221,86763,2,0,P|73:184|63:132,1,77.999997619629,8|4,1:0|1:3,0:0:0:0:
96,93,86977,1,8,1:0:0:0:
39,39,87084,2,0,L|2:129,1,77.999997619629,2|2,1:2|0:0,0:0:0:0:
23,279,87298,5,12,1:0:0:0:
93,244,87406,1,4,1:3:0:0:
149,297,87513,1,0,1:0:0:0:
80,334,87620,1,8,1:0:0:0:
23,279,87727,6,0,P|39:227|211:185,1,233.999992858887,4|4,1:3|1:3,0:0:0:0:
222,249,88156,2,0,P|283:244|359:175,1,155.999995239258,8|4,1:0|1:3,0:0:0:0:
364,112,88477,2,0,P|420:98|461:96,1,77.999997619629,8|4,1:0|1:3,0:0:0:0:
490,155,88691,1,8,1:0:0:0:
495,232,88798,2,0,P|439:218|398:216,1,77.999997619629,2|2,1:2|0:0,0:0:0:0:
351,298,89013,5,12,1:0:0:0:
273,286,89120,1,4,1:3:0:0:
195,274,89227,1,0,1:0:0:0:
117,263,89334,1,8,1:0:0:0:
99,186,89441,6,0,P|140:157|98:-3,1,233.999992858887,4|4,1:0|1:3,0:0:0:0:
51,55,89870,2,0,P|57:146|58:225,1,155.999995239258,8|4,1:0|1:3,0:0:0:0:
105,272,90191,1,8,1:0:0:0:
61,336,90298,5,4,1:3:0:0:
61,336,90352,1,0,1:0:0:0:
61,336,90406,1,8,1:0:0:0:
61,336,90459,1,0,1:0:0:0:
61,336,90513,2,0,L|11:361,3,38.9999988098145,4|0|4|0,1:3|0:0|1:3|0:0,0:0:0:0:
95,350,90727,6,0,B|133:339|133:339|187:369,1,77.999997619629,4|4,1:0|1:3,0:0:0:0:
233,227,90941,2,0,L|238:315,1,77.999997619629,8|0,1:0|1:0,0:0:0:0:
62,252,91156,5,4,1:0:0:0:
81,176,91263,1,8,1:3:0:0:
99,100,91370,1,0,1:0:0:0:
118,24,91477,1,0,1:3:0:0:
185,68,91584,5,8,1:0:0:0:
197,113,91691,1,8,1:3:0:0:
207,158,91798,1,0,1:0:0:0:
218,203,91905,1,0,1:3:0:0:
284,258,92013,5,8,1:0:0:0:
296,200,92120,1,8,3:0:0:0:
312,143,92227,1,2,3:0:0:0:
326,86,92334,1,8,3:0:0:0:
408,115,92441,5,2,3:0:0:0:
416,144,92548,1,8,3:0:0:0:
423,174,92655,1,4,3:0:0:0:
430,204,92762,1,2,3:0:0:0:
498,249,92870,5,6,1:0:0:0:
498,249,93084,1,2,1:0:0:0:
498,249,94370,1,2,1:0:0:0:
467,242,94477,1,0,1:0:0:0:
436,235,94584,1,2,1:0:0:0:
361,216,94798,1,2,1:0:0:0:
361,216,96298,1,2,1:0:0:0:
330,222,96406,1,0,1:0:0:0:
299,229,96513,1,2,1:0:0:0:
268,236,96620,1,2,1:0:0:0:
237,243,96727,1,2,1:0:0:0:
237,243,97799,1,2,1:0:0:0:
207,233,97906,1,0,1:0:0:0:
177,223,98013,1,2,1:0:0:0:
147,213,98120,1,2,1:0:0:0:
119,228,98227,1,0,1:0:0:0:
92,243,98334,1,2,1:0:0:0:
65,258,98441,1,2,1:0:0:0:
10,202,98870,5,8,1:0:0:0:
68,157,98977,1,0,1:0:0:0:
68,157,99031,1,0,1:0:0:0:
68,157,99084,1,0,1:0:0:0:
115,219,99191,1,0,1:0:0:0:
201,234,99298,6,0,B|106:260|106:260|83:364,1,195,8|0,1:0|2:0,0:0:0:0:
239,317,99727,6,0,P|282:281|286:164,1,155.999995239258,4|0,1:0|1:0,0:0:0:0:
241,131,100048,1,4,1:3:0:0:
287,67,100156,2,0,P|335:98|351:138,1,77.999997619629,8|0,1:0|0:0,0:0:0:0:
430,165,100370,2,0,P|382:196|366:236,1,77.999997619629,0|4,1:0|1:3,0:0:0:0:
484,265,100584,6,0,P|501:202|503:87,1,155.999995239258,0|2,1:0|1:2,0:0:0:0:
436,74,100906,1,4,1:3:0:0:
475,6,101013,2,0,P|414:36|385:40,1,77.999997619629,8|0,1:0|0:0,0:0:0:0:
335,87,101227,2,0,P|297:75|264:55,1,77.999997619629,6|2,3:0|3:0,0:0:0:0:
199,12,101441,6,0,P|139:44|82:119,1,155.999995239258,4|8,1:0|1:3,0:0:0:0:
15,149,101763,1,4,1:3:0:0:
65,208,101870,2,0,L|72:288,1,77.999997619629,8|0,1:0|0:0,0:0:0:0:
146,307,102084,1,4,1:3:0:0:
215,341,102191,2,0,L|221:263,1,77.999997619629,8|0,1:0|0:0,0:0:0:0:
293,231,102406,1,8,1:3:0:0:
367,207,102513,2,0,L|360:129,1,77.999997619629,4|0,1:3|0:0,0:0:0:0:
420,79,102727,6,0,P|361:85|281:148,1,155.999995239258,8|2,1:0|1:0,0:0:0:0:
230,197,103048,1,4,3:0:0:0:
165,152,103156,1,2,1:0:0:0:
165,74,103263,1,8,3:0:0:0:
226,25,103370,1,8,1:3:0:0:
298,52,103477,1,4,1:3:0:0:
300,129,103584,6,0,L|285:216,1,77.999997619629,8|0,1:0|0:0,0:0:0:0:
237,268,103798,2,0,L|250:344,1,77.999997619629,0|4,1:3|1:3,0:0:0:0:
320,379,104013,5,4,1:3:0:0:
390,346,104120,1,0,0:0:0:0:
421,274,104227,1,4,1:3:0:0:
406,197,104334,1,4,1:3:0:0:
341,153,104441,1,8,1:0:0:0:
264,169,104548,1,0,0:0:0:0:
193,203,104656,1,4,1:3:0:0:
115,210,104763,1,0,1:3:0:0:
49,168,104870,6,0,B|35:129|35:129|57:70,1,77.999997619629,12|2,1:3|1:2,0:0:0:0:
244,22,105084,2,0,B|256:56|256:56|242:95,1,77.999997619629,8|4,1:3|1:3,0:0:0:0:
152,313,105298,2,0,L|161:140,1,155.999995239258,8|4,1:0|1:3,0:0:0:0:
133,12,105727,5,12,1:0:0:0:
165,86,105834,1,0,0:0:0:0:
242,95,105941,2,0,L|236:188,1,77.999997619629,2|2,1:2|1:2,0:0:0:0:
291,296,106156,5,8,1:0:0:0:
320,224,106263,1,2,1:2:0:0:
393,197,106370,1,6,1:3:0:0:
393,197,106477,1,0,0:0:0:0:
496,189,106584,5,6,1:0:0:0:
496,189,106798,1,0,1:0:0:0:
496,189,107013,1,4,1:2:0:0:
496,189,107227,1,0,1:0:0:0:
449,126,107441,5,12,1:0:0:0:
410,131,107548,1,0,1:0:0:0:
371,138,107656,1,8,1:3:0:0:
332,144,107763,1,4,1:3:0:0:
261,98,107870,5,4,1:0:0:0:
208,0,108084,1,2,1:3:0:0:
245,10,108191,1,2,1:3:0:0:
282,21,108298,1,4,1:0:0:0:
176,177,108513,1,8,1:0:0:0:
20,71,108727,1,12,1:0:0:0:
114,17,108941,5,2,1:3:0:0:
169,73,109048,1,2,1:3:0:0:
89,97,109156,5,6,1:0:0:0:
78,158,109263,1,0,1:0:0:0:
68,219,109370,1,2,1:0:0:0:
58,280,109477,1,10,1:0:0:0:
167,351,109584,5,8,1:0:0:0:
160,312,109691,1,0,1:0:0:0:
153,273,109798,1,2,1:3:0:0:
210,181,110013,5,4,1:0:0:0:
350,267,110227,1,0,3:0:0:0:
474,156,110441,1,2,3:0:0:0:
322,65,110656,1,0,3:0:0:0:
386,171,110870,6,0,L|367:308,1,130,4|0,1:2|3:0,0:0:0:0:
261,373,111298,1,2,3:0:0:0:
162,287,111513,1,2,3:0:0:0:
181,218,111620,1,2,3:0:0:0:
201,149,111727,2,0,L|183:20,1,130,2|2,3:0|3:0,0:0:0:0:
13,178,112156,5,0,3:0:0:0:
13,178,112263,1,2,3:0:0:0:
13,178,112370,1,2,3:0:0:0:
66,307,112584,2,0,L|196:274,1,130,4|0,1:0|1:0,1:1:0:0:
222,291,112870,1,0,1:0:0:0:
225,256,112941,1,0,1:0:0:0:
231,221,113013,2,0,L|357:252,1,130,8|2,1:0|3:0,0:0:0:0:
422,217,113334,5,2,3:0:0:0:
440,291,113441,1,4,3:1:0:0:
499,243,113548,1,2,3:0:0:0:
512,315,113656,2,0,P|495:190|490:166,1,130,2|0,3:0|3:0,3:3:0:0:
444,128,113977,5,2,3:0:0:0:
444,128,114084,1,0,3:0:0:0:
444,128,114191,1,2,3:0:0:0:
444,128,114298,2,0,P|392:125|297:110,2,130,4|0|2,1:2|3:0|3:0,0:0:0:0:
441,52,114834,1,0,3:0:0:0:
369,44,114941,2,0,P|322:38|285:30,1,65,2|2,3:0|3:0,0:0:0:0:
239,77,115156,2,0,P|240:165|233:233,1,130,2|2,3:0|3:0,0:0:0:0:
324,319,115584,2,0,P|352:301|388:288,2,65,2|2|2,3:0|3:0|3:0,0:0:0:0:
180,354,116013,6,0,P|134:332|51:307,1,130,0|0,1:0|1:0,0:0:0:0:
25,316,116298,1,0,1:0:0:0:
33,282,116370,1,0,1:0:0:0:
43,249,116441,2,0,P|57:181|60:160,1,65,8|0,1:0|3:0,0:0:0:0:
47,111,116656,5,2,3:0:0:0:
119,147,116763,1,2,3:0:0:0:
117,73,116870,1,4,1:0:0:0:
188,102,116977,1,0,0:0:0:0:
244,40,117084,6,0,B|296:75|296:75|377:35,1,130,0|2,3:0|3:0,0:0:0:0:
491,202,117513,1,0,3:0:0:0:
336,297,117727,2,0,L|348:221,2,65,4|0|0,1:2|0:0|3:0,0:0:0:0:
208,168,118156,2,0,B|161:183|161:183|149:291,1,130,2|2,3:0|3:0,0:0:0:0:
84,297,118477,1,2,3:0:0:0:
137,353,118584,2,0,L|226:338,1,65,2|0,3:0|0:0,0:0:0:0:
244,282,118798,2,0,L|376:308,1,130,2|0,3:0|3:0,0:0:0:0:
421,365,119120,1,2,3:0:0:0:
483,316,119227,1,2,3:0:0:0:
469,240,119334,1,0,3:0:0:0:
382,227,119441,6,0,L|406:80,1,130,4|0,1:0|1:0,1:1:0:0:
422,59,119727,1,0,1:0:0:0:
379,51,119798,1,0,1:0:0:0:
335,43,119870,2,0,L|247:73,1,65,8|0,1:0|3:0,0:0:0:0:
235,131,120084,5,2,3:0:0:0:
167,107,120191,1,2,3:0:0:0:
99,83,120298,1,4,1:0:0:0:
47,133,120406,1,2,3:0:0:0:
112,160,120513,2,0,L|126:313,1,130,2|2,3:0|3:0,3:3:0:0:
194,296,120834,1,0,0:0:0:0:
177,365,120941,2,0,L|103:381,1,65,0|2,3:0|3:0,0:0:0:0:
254,334,121156,6,0,L|242:204,1,130,4|2,1:2|3:0,3:3:0:0:
333,89,121584,1,0,3:0:0:0:
459,197,121798,1,2,3:0:0:0:
364,312,122013,5,4,1:0:0:0:
364,312,122227,1,2,3:0:0:0:
251,223,122441,5,2,3:2:0:0:
256,190,122548,1,2,3:0:0:0:
261,157,122656,1,2,3:0:0:0:
268,125,122763,1,0,0:0:0:0:
214,66,122870,5,2,3:0:0:0:
214,66,123084,1,2,3:0:0:0:
86,148,123298,5,2,3:2:0:0:
81,181,123405,1,2,3:0:0:0:
76,214,123513,1,2,3:0:0:0:
69,246,123620,1,2,3:0:0:0:
123,305,123727,5,4,1:0:0:0:
389,305,123941,5,8,1:0:0:0:
256,210,124156,5,4,1:2:0:0:
241,137,124263,1,8,1:0:0:0:
295,88,124370,1,8,1:0:0:0:
280,15,124477,1,0,1:0:0:0:
194,17,124584,5,2,3:0:0:0:
194,17,124727,1,2,3:0:0:0:
194,17,124870,1,2,3:0:0:0:
194,17,125013,2,0,L|182:100,1,65,0|0,3:0|0:0,0:0:0:0:
236,277,125441,6,0,P|239:216|393:143,1,233.999992858887,4|0,1:0|1:0,0:0:0:0:
479,172,125870,2,0,P|442:229|432:275,1,77.999997619629,8|0,1:0|0:0,0:0:0:0:
303,317,126084,2,0,P|334:355|350:388,1,77.999997619629,0|0,1:0|1:0,0:0:0:0:
380,280,126298,6,0,P|386:217|397:119,1,155.999995239258,8|0,1:0|1:0,0:0:0:0:
420,90,126584,1,0,1:0:0:0:
380,74,126656,1,0,1:0:0:0:
341,59,126727,2,0,P|255:76|233:76,1,77.999997619629,8|0,1:0|0:0,0:0:0:0:
151,154,126941,2,0,P|112:148|75:137,1,77.999997619629,0|0,1:0|0:0,0:0:0:0:
190,63,127156,6,0,P|176:122|161:311,1,233.999992858887,8|0,1:0|0:0,0:0:0:0:
222,341,127584,1,8,1:0:0:0:
291,305,127691,1,2,1:0:0:0:
353,350,127798,1,2,0:1:0:0:
353,350,127906,1,4,1:2:0:0:
439,328,128013,6,0,P|395:308|356:207,1,155.999995239258,10|0,1:0|1:0,0:0:0:0:
314,204,128298,1,2,1:0:0:0:
326,164,128370,1,0,1:0:0:0:
338,124,128441,2,0,P|376:136|430:158,1,77.999997619629,10|0,1:0|1:0,0:0:0:0:
266,103,128656,2,0,P|278:65|300:11,1,77.999997619629,4|0,0:2|1:0,0:0:0:0:
188,93,128870,6,0,P|204:166|222:344,1,233.999992858887,12|0,1:0|0:0,0:0:0:0:
153,362,129298,1,8,1:0:0:0:
105,299,129406,1,0,1:0:0:0:
40,342,129513,2,0,P|24:280|15:253,1,77.999997619629,0|0,0:0|1:0,0:0:0:0:
6,190,129727,6,0,P|39:145|68:31,1,155.999995239258,8|0,1:0|1:0,0:0:0:0:
62,8,130013,1,0,1:0:0:0:
102,17,130084,1,0,1:0:0:0:
142,29,130156,2,0,P|192:29|235:23,1,77.999997619629,8|0,1:0|1:0,0:0:0:0:
320,101,130370,2,0,P|270:101|227:95,1,77.999997619629,0|0,0:0|1:0,0:0:0:0:
132,195,130584,6,0,P|203:192|310:176,1,155.999995239258,10|0,1:0|1:0,0:0:0:0:
328,175,130870,1,0,1:0:0:0:
322,215,130941,1,0,1:0:0:0:
316,256,131013,2,0,P|330:313|341:357,2,77.999997619629,10|0|0,1:0|1:0|0:0,0:0:0:0:
246,287,131334,1,4,1:2:0:0:
231,364,131441,5,14,1:0:0:0:
313,341,131548,1,8,1:0:0:0:
396,318,131656,1,2,1:0:0:0:
434,332,131727,1,0,1:0:0:0:
472,346,131798,1,0,1:0:0:0:
512,357,131870,2,0,B|482:313|482:313|515:196,1,155.999995239258,8|4,1:0|1:2,0:0:0:0:
455,154,132191,5,0,1:0:0:0:
455,154,132245,1,0,1:0:0:0:
455,154,132298,2,0,B|316:122|374:241|226:212,1,233.999992858887,4|0,1:0|1:0,0:0:0:0:
203,155,132727,1,8,1:0:0:0:
133,145,132834,1,0,1:0:0:0:
85,196,132941,1,0,1:0:0:0:
86,266,133048,1,0,1:0:0:0:
131,320,133156,6,0,P|170:311|229:207,1,155.999995239258,8|0,1:0|1:0,0:0:0:0:
212,181,133441,1,0,1:0:0:0:
206,139,133513,1,0,1:0:0:0:
200,98,133584,2,0,P|234:84|310:85,1,77.999997619629,8|0,1:0|1:0,0:0:0:0:
378,236,133798,2,0,P|344:250|268:249,1,77.999997619629,0|0,1:0|1:0,0:0:0:0:
380,106,134013,6,2,P|453:148|479:237,1,155.999995239258,14|0,1:0|1:0,1:1:0:0:
444,281,134334,1,0,0:0:0:0:
444,358,134441,2,0,P|495:347|514:319,1,77.999997619629,14|0,1:0|1:0,0:0:0:0:
371,226,134656,2,0,L|362:318,1,77.999997619629,2|0,0:1|1:0,0:0:0:0:
198,194,134870,6,2,P|215:127|323:85,1,155.999995239258,14|0,1:0|1:0,1:1:0:0:
311,37,135156,1,0,1:0:0:0:
360,50,135227,1,0,1:0:0:0:
409,63,135298,1,10,1:0:0:0:
477,29,135406,1,0,1:0:0:0:
495,105,135513,1,2,1:0:0:0:
428,146,135620,5,0,1:0:0:0:
428,146,135673,1,0,1:0:0:0:
428,146,135727,2,0,P|405:193|371:396,1,233.999992858887,14|0,1:0|1:0,0:0:0:0:
292,357,136156,1,8,1:0:0:0:
215,344,136263,1,0,1:0:0:0:
138,332,136370,1,0,1:0:0:0:
60,320,136477,1,4,1:2:0:0:
18,253,136584,6,0,P|44:197|146:173,1,155.999995239258,12|0,1:0|1:0,0:0:0:0:
170,176,136870,1,0,1:0:0:0:
173,134,136941,1,0,1:0:0:0:
177,92,137013,2,0,P|170:54|165:7,1,77.999997619629,8|0,1:0|1:0,0:0:0:0:
276,177,137227,2,0,P|271:215|264:254,1,77.999997619629,4|0,1:2|1:0,0:0:0:0:
421,147,137441,6,0,P|397:93|270:60,1,181.999994445801,12|4,1:0|1:0,0:0:0:0:
90,237,137763,6,0,P|114:291|241:324,1,181.999994445801,8|0,1:0|1:0,0:0:0:0:
477,304,138084,6,0,P|433:290|407:246,1,90.9999972229005,8|0,1:0|1:0,0:0:0:0:
257,180,138298,5,8,1:0:0:0:
257,180,138352,1,0,1:0:0:0:
257,180,138406,1,0,1:0:0:0:
257,180,138459,1,0,1:0:0:0:
257,180,138513,2,0,L|262:281,1,77.999997619629,8|0,1:0|1:0,0:0:0:0:
154,311,138727,6,0,P|147:268|175:225,1,77.999997619629,4|0,1:0|0:0,0:0:0:0:
344,311,138941,2,0,P|351:354|323:397,1,77.999997619629,4|0,1:0|0:0,0:0:0:0:
103,119,139156,6,0,P|162:138|345:161,1,233.999992858887,4|0,1:0|1:0,0:0:0:0:
436,94,139584,2,0,P|465:133|480:177,1,77.999997619629,8|0,1:0|0:0,0:0:0:0:
403,313,139798,2,0,P|408:263|421:217,1,77.999997619629,0|0,1:0|1:0,0:0:0:0:
324,367,140013,6,0,P|319:301|244:260,1,155.999995239258,8|0,1:0|1:0,0:0:0:0:
221,226,140298,1,0,1:0:0:0:
182,241,140370,1,0,1:0:0:0:
146,262,140441,2,0,P|90:250|50:236,1,77.999997619629,8|0,1:0|0:0,0:0:0:0:
12,161,140656,2,0,P|68:149|108:135,1,77.999997619629,0|0,1:0|0:0,0:0:0:0:
172,0,140870,6,0,P|154:90|137:252,1,233.999992858887,8|0,1:0|0:0,0:0:0:0:
203,273,141298,1,8,1:0:0:0:
164,341,141406,1,2,1:0:0:0:
86,338,141513,2,0,L|66:244,1,77.999997619629,2|4,0:1|1:2,0:0:0:0:
244,347,141727,6,0,L|394:303,1,155.999995239258,10|0,1:0|1:0,0:0:0:0:
440,326,142013,1,2,1:0:0:0:
448,275,142084,1,0,1:0:0:0:
454,222,142156,2,0,L|434:128,1,77.999997619629,10|0,1:0|1:0,0:0:0:0:
360,155,142370,1,4,0:2:0:0:
376,78,142477,1,0,1:0:0:0:
453,69,142584,6,0,P|398:81|196:90,1,233.999992858887,12|0,1:0|0:0,0:0:0:0:
108,22,143013,2,0,P|62:55|36:79,1,77.999997619629,8|0,1:0|1:0,0:0:0:0:
162,234,143227,2,0,P|158:193|152:148,1,77.999997619629,0|0,1:0|1:0,0:0:0:0:
73,292,143441,6,0,P|143:277|254:265,1,155.999995239258,8|0,1:0|1:0,0:0:0:0:
247,229,143727,1,0,1:0:0:0:
286,241,143798,1,0,1:0:0:0:
326,253,143870,1,8,1:0:0:0:
386,302,143977,1,0,1:0:0:0:
462,286,144084,1,0,0:0:0:0:
476,209,144191,1,0,1:0:0:0:
468,131,144298,6,0,P|398:116|287:104,1,155.999995239258,10|0,1:0|1:0,0:0:0:0:
294,68,144584,1,0,1:0:0:0:
255,80,144655,1,0,1:0:0:0:
215,92,144727,2,0,L|232:179,1,77.999997619629,10|0,1:0|1:0,0:0:0:0:
181,233,144941,1,0,0:0:0:0:
181,233,145048,1,4,1:2:0:0:
102,209,145156,6,0,B|89:165|89:165|130:118,1,90.9999972229005,14|8,1:0|1:0,0:0:0:0:
260,243,145370,6,0,B|273:287|273:287|232:334,1,90.9999972229005,2|0,1:0|0:0,0:0:0:0:
76,351,145585,5,8,1:0:0:0:
76,351,145638,1,0,1:0:0:0:
76,351,145692,1,0,1:0:0:0:
76,351,145745,1,0,1:0:0:0:
76,351,145799,2,0,L|93:302,3,38.9999988098145,4|0|0|0,1:2|1:0|1:0|1:0,0:0:0:0:
58,312,146013,6,0,P|50:188|27:57,1,233.999992858887,4|0,1:0|1:0,0:0:0:0:
81,19,146441,1,8,1:0:0:0:
158,7,146548,1,0,1:0:0:0:
193,76,146656,1,0,0:0:0:0:
193,76,146763,1,0,1:0:0:0:
174,151,146870,6,0,P|230:147|276:44,1,155.999995239258,8|0,1:0|1:0,0:0:0:0:
288,35,147156,1,0,1:0:0:0:
327,46,147227,1,0,1:0:0:0:
367,54,147298,2,0,P|401:42|446:17,1,77.999997619629,8|0,1:0|1:0,0:0:0:0:
497,212,147513,2,0,P|457:225|426:245,1,77.999997619629,0|0,1:0|1:0,0:0:0:0:
330,131,147727,6,2,P|336:197|347:305,1,155.999995239258,14|0,1:0|1:0,1:1:0:0:
291,344,148048,1,0,0:0:0:0:
229,297,148156,2,0,P|183:282|146:272,1,77.999997619629,14|0,1:0|1:0,0:0:0:0:
211,101,148370,2,0,P|179:124|131:148,1,77.999997619629,2|0,0:1|1:0,0:0:0:0:
353,53,148584,6,2,P|346:125|333:232,1,155.999995239258,14|0,1:0|1:0,1:1:0:0:
328,243,148870,1,0,1:0:0:0:
321,278,148941,1,0,1:0:0:0:
315,314,149013,2,2,P|318:196|309:79,1,233.999992858887,14|0,1:0|1:0,1:1:0:0:
233,135,149441,6,0,B|210:169|210:169|231:227,1,77.999997619629,14|0,1:0|0:0,0:0:0:0:
433,261,149656,2,0,B|445:226|445:226|422:192,1,77.999997619629,0|0,1:0|1:0,0:0:0:0:
310,57,149870,1,8,1:0:0:0:
322,133,149977,1,0,1:0:0:0:
331,210,150084,1,0,1:0:0:0:
341,287,150191,1,4,1:2:0:0:
281,358,150298,6,0,B|239:326|239:326|114:362,1,155.999995239258,12|0,1:0|1:0,0:0:0:0:
105,377,150584,1,0,1:0:0:0:
95,336,150656,1,0,1:0:0:0:
85,295,150727,2,0,L|117:197,1,77.999997619629,8|0,1:0|1:0,0:0:0:0:
74,154,150941,1,4,1:2:0:0:
74,154,151048,1,0,1:0:0:0:
135,99,151156,6,0,L|225:141,1,77.999997619629,12|0,1:0|0:0,0:0:0:0:
264,188,151370,2,0,L|296:98,1,77.999997619629,4|8,1:0|1:0,0:0:0:0:
89,9,151584,2,0,L|27:164,1,155.999995239258,0|8,1:0|1:0,0:0:0:0:
78,235,151906,5,0,1:0:0:0:
174,233,152013,2,0,L|147:306,1,77.999997619629,4|0,1:3|2:0,0:0:0:0:
233,362,152227,1,8,1:3:0:0:
326,308,152334,2,0,L|299:234,1,77.999997619629,4|0,1:3|2:0,0:0:0:0:
357,152,152548,1,8,1:3:0:0:
460,187,152656,2,0,L|433:260,1,77.999997619629,4|0,1:3|2:0,0:0:0:0:
446,77,152870,5,4,1:0:0:0:
446,77,153727,2,0,B|411:61|411:61|324:125,1,146.250005578995,4|4,1:0|1:0,0:0:0:0:
324,124,154370,1,4,1:0:0:0:
324,124,155013,1,4,1:2:0:0:
95,94,155227,1,4,0:1:0:0:
90,178,155441,6,0,B|125:162|125:162|180:207,1,97.50000371933,4|0,1:0|0:0,0:0:0:0:
196,290,155763,2,0,B|161:274|161:274|106:319,1,97.50000371933,4|0,1:0|0:0,0:0:0:0:
36,361,156084,6,0,P|45:278|51:57,1,292.50001115799,4|4,1:0|1:2,0:0:0:0:
51,69,157156,5,8,1:0:0:0:
127,85,157263,1,8,1:0:0:0:
206,101,157370,1,0,1:0:0:0:
216,119,157477,2,0,L|195:179,2,48.750001859665,2|2|0,1:2|1:2|1:0,0:0:0:0:
283,75,157798,6,0,L|273:17,1,48.750001859665,4|0,1:0|0:0,0:0:0:0:
500,214,158013,5,8,1:3:0:0:
418,256,158334,5,8,1:0:0:0:
309,299,158656,6,0,L|258:325,1,48.750001859665,12|0,1:0|0:0,0:0:0:0:
149,371,158870,5,8,1:0:0:0:
151,359,158923,1,0,1:0:0:0:
153,346,158977,1,0,1:0:0:0:
155,333,159031,1,0,1:0:0:0:
158,321,159084,2,0,L|149:292,3,24.3750009298325,2|2|2|2,1:2|1:2|1:2|1:2,0:0:0:0:
192,236,159298,2,0,L|183:207,3,24.3750009298325,6|0|0|0,1:2|1:0|1:0|1:0,0:0:0:0:
206,138,159513,6,0,B|183:125|183:125|152:136,1,48.750001859665,4|0,1:0|0:0,1:1:0:0:
109,190,159727,6,0,P|126:113|139:35,1,146.250005578995,4|0,1:0|0:0,0:0:0:0:
204,17,160156,2,0,L|260:36,1,48.750001859665,4|0,1:2|0:0,0:0:0:0:
297,94,160370,2,0,L|353:113,1,48.750001859665,0|0,1:0|0:0,0:0:0:0:
417,64,160584,6,0,B|391:91|391:91|391:211,2,146.250005578995,12|4|4,1:0|1:0|1:0,0:0:0:0:
489,202,161441,1,2,0:2:0:0:
378,327,161656,1,2,0:2:0:0:
295,189,161870,1,0,1:0:0:0:
412,66,162084,1,0,1:0:0:0:
384,168,162298,6,0,P|342:143|246:114,1,146.250005578995,12|0,1:0|1:0,0:0:0:0:
187,162,162727,2,0,L|199:223,1,48.750001859665,0|0,0:0|0:0,0:0:0:0:
200,287,162941,2,0,P|129:268|65:233,1,146.250005578995,0|0,1:0|0:0,0:0:0:0:
52,161,163370,1,2,1:2:0:0:
52,161,163584,1,2,1:2:0:0:
57,137,163691,1,2,0:0:0:0:
62,113,163798,1,2,1:2:0:0:
67,88,163906,1,2,1:2:0:0:
41,15,164013,5,8,1:0:0:0:
255,124,164334,1,0,1:0:0:0:
469,15,164656,1,2,1:0:0:0:
358,71,164870,6,2,P|405:83|449:213,1,195.00000743866,2|4,1:0|0:0,1:1:0:0:
412,274,165406,1,0,1:0:0:0:
464,334,165513,2,0,L|455:283,1,48.750001859665,8|0,1:0|1:0,0:0:0:0:
307,358,165727,5,8,1:0:0:0:
324,284,165834,1,4,1:3:0:0:
339,212,165941,1,2,1:2:0:0:
275,163,166048,5,0,1:2:0:0:
271,174,166156,1,6,1:2:0:0:
268,185,166263,1,4,1:3:0:0:
265,196,166370,1,8,1:3:0:0:
197,226,166477,1,8,1:3:0:0:
141,175,166584,5,4,1:0:0:0:
83,58,166798,1,8,3:0:0:0:
134,69,166906,1,8,3:0:0:0:
184,80,167013,1,8,3:0:0:0:
30,161,167227,1,8,1:3:0:0:
139,290,167441,5,4,1:0:0:0:
175,172,167656,1,4,3:0:0:0:
86,225,167870,1,4,3:0:0:0:
270,313,168084,5,2,3:0:0:0:
261,261,168191,1,2,3:0:0:0:
252,209,168298,1,2,3:0:0:0:
252,209,168620,1,4,1:3:0:0:
252,209,168941,1,4,1:3:0:0:
348,111,169156,6,0,L|419:137,1,65,12|0,1:0|0:0,0:0:0:0:
435,206,169370,2,0,L|506:232,1,65,4|0,1:2|0:0,0:0:0:0:
483,119,169584,5,2,3:0:0:0:
484,92,169691,1,0,3:0:0:0:
486,66,169798,1,2,3:0:0:0:
488,39,169906,1,2,3:0:0:0:
412,4,170013,5,4,1:0:0:0:
321,96,170227,1,8,3:0:0:0:
270,81,170334,1,8,3:0:0:0:
219,67,170441,1,8,3:0:0:0:
134,165,170656,1,8,3:0:0:0:
249,224,170870,6,0,L|228:154,1,65,4|0,1:0|0:0,0:0:0:0:
222,296,171084,2,0,L|162:250,1,65,4|0,3:3|0:0,0:0:0:0:
249,373,171298,2,0,L|121:349,1,130,4|2,3:3|3:0,0:0:0:0:
85,283,171620,1,2,3:0:0:0:
35,341,171727,5,2,3:0:0:0:
2,142,172048,1,4,1:3:0:0:
201,109,172370,1,4,1:3:0:0:
504,197,172584,5,4,1:0:0:0:
504,197,172799,1,8,1:0:0:0:
436,174,172906,1,4,1:3:0:0:
369,148,173013,2,0,B|352:177|352:177|367:227,1,65,8|2,3:1|0:0,0:0:0:0:
143,236,173227,2,0,B|160:207|160:207|145:157,1,65,6|0,1:2|0:0,0:0:0:0:
256,15,173441,5,4,1:0:0:0:
288,141,173656,1,8,3:0:0:0:
272,190,173763,1,8,3:0:0:0:
257,239,173870,1,8,3:0:0:0:
304,359,174084,1,8,3:0:0:0:
380,253,174298,5,4,1:0:0:0:
419,355,174513,1,4,3:3:0:0:
276,263,174727,1,4,3:0:0:0:
365,126,174941,1,2,3:0:0:0:
365,126,175048,1,2,3:0:0:0:
365,126,175156,1,2,3:0:0:0:
175,64,175477,1,4,1:3:0:0:
113,254,175798,1,4,1:3:0:0:
188,216,176013,6,0,L|166:148,1,65,12|0,1:0|0:0,0:0:0:0:
99,122,176227,2,0,L|77:54,1,65,4|0,1:2|0:0,0:0:0:0:
175,78,176441,5,2,3:0:0:0:
206,87,176548,1,0,3:0:0:0:
236,95,176656,1,2,3:0:0:0:
267,104,176763,1,2,3:0:0:0:
315,173,176870,5,4,1:0:0:0:
421,89,177084,1,8,3:0:0:0:
373,68,177191,1,8,3:0:0:0:
325,47,177298,1,8,3:0:0:0:
433,214,177513,1,8,3:0:0:0:
309,324,177727,6,0,L|338:259,1,65,12|0,1:0|0:0,0:0:0:0:
279,217,177941,1,4,3:3:0:0:
215,264,178048,1,0,1:0:0:0:
215,264,178102,1,0,1:0:0:0:
215,264,178156,2,0,L|187:122,1,130,12|2,1:0|3:0,0:0:0:0:
233,75,178477,1,2,3:0:0:0:
93,8,178584,6,0,L|118:135,1,130,4|0,1:0|1:0,0:0:0:0:
72,197,178906,1,4,1:3:0:0:
94,342,179013,2,0,L|167:325,1,65,8|8,1:0|3:0,0:0:0:0:
211,276,179227,1,4,1:3:0:0:
446,368,179441,5,12,1:0:0:0:
428,298,179548,1,8,1:0:0:0:
410,228,179656,1,0,1:0:0:0:
410,228,179763,1,0,1:0:0:0:
491,191,179870,5,12,1:0:0:0:
489,200,179923,1,0,1:0:0:0:
487,209,179977,1,0,1:0:0:0:
485,218,180031,1,0,1:0:0:0:
483,227,180084,2,0,L|498:277,4,32.5,0|0|0|0|6,1:0|1:0|1:0|1:0|1:2,0:0:0:0:
426,146,186727,5,2,3:0:0:0:
426,146,186834,1,0,3:0:0:0:
426,146,186941,1,2,3:0:0:0:
426,146,187048,1,2,3:0:0:0:
376,201,187156,5,4,1:0:0:0:
376,201,187584,1,2,3:0:0:0:
352,195,187691,1,0,3:0:0:0:
327,191,187798,1,2,3:0:0:0:
273,137,188013,1,0,3:0:0:0:
248,141,188120,1,2,3:0:0:0:
224,147,188227,1,2,3:0:0:0:
194,215,188441,1,2,3:2:0:0:
121,191,188656,1,2,3:2:0:0:
29,121,188870,6,0,P|58:49|66:21,1,97.50000371933,2|2,3:0|3:0,0:0:0:0:
63,30,189298,1,2,3:0:0:0:
128,78,189513,1,2,3:0:0:0:
151,72,189620,1,2,3:0:0:0:
174,67,189727,1,0,3:0:0:0:
231,15,189941,1,2,3:2:0:0:
248,92,190156,1,0,3:0:0:0:
305,40,190370,1,2,3:2:0:0:
377,148,190584,5,2,3:0:0:0:
377,148,190906,1,2,3:0:0:0:
377,148,191013,2,0,P|372:220|368:252,1,97.50000371933,2|2,3:0|3:0,0:0:0:0:
305,279,191334,2,0,P|310:351|314:383,1,97.50000371933,2|0,3:0|3:0,0:0:0:0:
387,378,191656,1,2,3:0:0:0:
451,263,191870,1,2,3:0:0:0:
336,199,192084,1,2,3:0:0:0:
223,319,192298,5,2,3:0:0:0:
223,319,192513,1,2,3:0:0:0:
164,266,192727,1,2,3:0:0:0:
169,242,192834,1,0,3:0:0:0:
174,218,192941,1,2,3:0:0:0:
180,194,193048,1,2,3:0:0:0:
127,135,193156,5,2,3:0:0:0:
127,135,193370,1,2,3:0:0:0:
183,82,193584,1,2,3:0:0:0:
207,85,193691,1,0,3:0:0:0:
231,88,193798,1,2,3:0:0:0:
254,94,193906,1,2,3:0:0:0:
328,63,194013,5,8,3:0:0:0:
266,23,194120,1,8,3:0:0:0:
196,46,194227,1,4,3:0:0:0:
171,114,194334,1,4,3:0:0:0:
200,180,194441,1,8,1:3:0:0:
253,229,194548,1,8,1:3:0:0:
271,300,194656,1,4,1:3:0:0:
235,363,194763,1,4,1:3:0:0:
162,372,194870,6,0,P|163:332|156:175,1,195.00000743866,4|8,1:0|1:0,0:0:0:0:
156,177,195513,1,0,1:0:0:0:
301,97,195727,6,0,P|339:122|375:300,1,233.999992858887,4|0,1:0|1:0,0:0:0:0:
272,339,196156,2,0,P|272:275|282:246,1,77.999997619629,8|0,1:0|0:0,0:0:0:0:
119,239,196370,2,0,P|119:175|109:146,1,77.999997619629,0|0,1:0|1:0,0:0:0:0:
235,28,196584,6,0,P|216:119|207:189,1,155.999995239258,8|0,1:0|1:0,0:0:0:0:
193,220,196870,1,0,1:0:0:0:
198,261,196941,1,0,1:0:0:0:
203,302,197013,2,0,P|143:322|117:334,1,77.999997619629,8|0,1:0|0:0,0:0:0:0:
58,296,197227,1,0,1:0:0:0:
58,296,197334,1,0,0:0:0:0:
50,212,197441,6,0,P|76:179|86:-13,1,233.999992858887,8|0,1:0|0:0,0:0:0:0:
25,40,197870,1,8,1:0:0:0:
25,40,197977,2,0,P|5:116|13:144,1,77.999997619629,2|2,1:0|1:1,0:0:0:0:
132,229,198191,1,4,1:2:0:0:
186,173,198298,6,0,L|356:212,1,155.999995239258,10|0,1:0|1:0,0:0:0:0:
333,249,198584,1,2,1:0:0:0:
372,234,198656,1,0,1:0:0:0:
410,219,198727,2,0,L|393:128,1,77.999997619629,10|0,1:0|1:0,0:0:0:0:
334,49,198941,2,0,L|319:125,1,77.999997619629,4|0,0:2|1:0,0:0:0:0:
243,239,199156,6,0,P|250:282|410:344,1,233.999992858887,12|0,1:0|1:0,0:0:0:0:
496,276,199584,2,0,P|474:244|436:208,1,77.999997619629,8|0,1:0|1:0,0:0:0:0:
317,113,199798,2,0,P|325:174|338:207,1,77.999997619629,0|0,1:0|1:0,0:0:0:0:
467,30,200013,6,0,P|383:30|307:32,1,155.999995239258,8|0,1:0|1:0,0:0:0:0:
274,11,200298,1,0,1:0:0:0:
233,21,200370,1,0,1:0:0:0:
193,31,200441,1,8,1:0:0:0:
157,99,200548,1,0,1:0:0:0:
88,69,200656,1,0,1:0:0:0:
88,69,200763,1,0,1:0:0:0:
126,0,200870,6,0,P|123:57|112:162,1,155.999995239258,10|0,1:0|1:0,0:0:0:0:
140,187,201156,1,0,1:0:0:0:
135,228,201227,1,0,1:0:0:0:
128,268,201298,2,0,P|171:270|213:273,1,77.999997619629,10|0,1:0|1:0,0:0:0:0:
298,195,201513,2,0,P|255:197|213:200,1,77.999997619629,0|4,1:0|1:2,0:0:0:0:
265,368,201727,6,0,B|301:304|301:304|390:329,1,155.999995239258,14|2,1:0|1:0,0:0:0:0:
390,285,202013,1,0,1:0:0:0:
429,295,202084,1,0,1:0:0:0:
476,308,202156,1,8,1:0:0:0:
512,218,202263,2,0,L|465:231,2,45.4999986114502,0|0|4,1:0|1:0|1:2,0:0:0:0:
390,157,202477,5,0,1:0:0:0:
390,157,202531,1,0,1:0:0:0:
390,157,202584,2,0,P|378:90|211:19,1,233.999992858887,4|0,1:0|1:0,0:0:0:0:
135,38,203013,2,0,P|152:81|157:123,1,77.999997619629,8|0,1:0|1:0,0:0:0:0:
275,238,203227,2,0,P|281:199|296:163,1,77.999997619629,0|0,1:0|1:0,0:0:0:0:
193,201,203441,6,0,P|139:193|31:183,1,155.999995239258,8|0,1:0|1:0,0:0:0:0:
8,153,203727,1,0,1:0:0:0:
4,194,203798,1,0,1:0:0:0:
0,235,203870,2,0,P|14:293|19:332,1,77.999997619629,8|0,1:0|1:0,0:0:0:0:
167,369,204084,2,0,P|173:330|183:292,1,77.999997619629,0|0,1:0|1:0,0:0:0:0:
372,287,204298,6,2,P|366:233|319:117,1,155.999995239258,14|0,1:0|1:0,1:1:0:0:
363,55,204620,1,0,0:0:0:0:
450,73,204727,2,0,P|438:122|434:166,1,77.999997619629,14|0,1:0|1:0,0:0:0:0:
249,173,204941,2,0,P|243:134|233:96,1,77.999997619629,2|0,0:1|1:0,0:0:0:0:
215,347,205156,6,2,P|212:299|327:257,1,155.999995239258,14|0,1:0|1:0,1:1:0:0:
314,208,205441,1,0,1:0:0:0:
352,224,205513,1,0,1:0:0:0:
390,239,205584,1,10,1:0:0:0:
460,203,205691,1,0,1:0:0:0:
502,270,205798,1,2,1:0:0:0:
434,309,205906,1,0,1:0:0:0:
357,372,206013,6,0,P|359:321|357:117,1,233.999992858887,14|0,1:0|1:0,0:0:0:0:
439,33,206441,2,0,P|434:87|430:119,1,77.999997619629,8|0,1:0|1:0,0:0:0:0:
276,158,206656,2,0,P|271:119|268:80,1,77.999997619629,0|4,1:0|1:2,0:0:0:0:
456,23,206870,6,0,P|455:68|447:197,1,155.999995239258,12|0,1:0|1:0,0:0:0:0:
480,206,207156,1,0,1:0:0:0:
469,245,207227,1,0,1:0:0:0:
456,284,207298,2,0,B|416:276|416:276|384:315,1,77.999997619629,8|0,1:0|1:0,0:0:0:0:
245,341,207513,2,0,B|285:333|285:333|317:372,1,77.999997619629,4|0,1:2|1:0,0:0:0:0:
327,232,207727,5,12,1:0:0:0:
249,236,207834,1,0,1:0:0:0:
171,240,207941,1,4,1:0:0:0:
93,249,208048,1,8,1:0:0:0:
21,216,208156,6,0,P|15:144|22:92,1,77.999997619629,0|0,1:0|1:0,0:0:0:0:
15,138,208316,1,0,1:0:0:0:
15,138,208370,2,0,P|71:148|123:155,1,77.999997619629,8|0,1:0|1:0,0:0:0:0:
181,122,208584,2,0,L|169:65,2,38.9999988098145,8|0|0,1:0|0:0|1:0,0:0:0:0:
244,174,208798,1,8,1:0:0:0:
311,122,208906,5,0,1:0:0:0:
311,122,208959,1,0,1:0:0:0:
311,122,209013,2,0,B|341:158|341:158|326:218,1,90.9999972229005,12|0,1:0|1:0,0:0:0:0:
288,264,209227,2,0,L|237:257,2,45.4999986114502,12|0|0,1:0|2:0|1:0,0:0:0:0:
350,319,209441,6,0,P|406:291|440:107,1,233.999992858887,4|0,1:0|1:0,0:0:0:0:
389,28,209870,2,0,P|366:68|356:106,1,77.999997619629,8|0,1:0|0:0,0:0:0:0:
257,194,210084,2,0,P|191:177|154:150,1,77.999997619629,0|0,1:0|1:0,0:0:0:0:
66,96,210298,6,0,P|131:78|216:42,1,155.999995239258,8|0,1:0|1:0,0:0:0:0:
251,27,210584,1,0,1:0:0:0:
249,68,210656,1,0,1:0:0:0:
245,109,210727,2,0,P|251:185|254:207,1,77.999997619629,8|0,1:0|0:0,0:0:0:0:
311,230,210941,1,0,1:0:0:0:
291,301,211048,1,0,0:0:0:0:
316,373,211156,6,0,P|317:308|327:113,1,233.999992858887,8|0,1:0|0:0,0:0:0:0:
369,74,211584,1,8,1:0:0:0:
436,113,211691,1,2,1:0:0:0:
496,64,211798,1,2,0:1:0:0:
496,64,211906,1,4,1:2:0:0:
424,21,212013,6,0,P|366:35|257:51,1,155.999995239258,10|0,1:0|1:0,0:0:0:0:
257,88,212298,1,2,1:0:0:0:
215,87,212370,1,0,1:0:0:0:
173,86,212441,2,0,P|177:146|183:187,1,77.999997619629,10|0,1:0|1:0,0:0:0:0:
269,303,212656,2,0,P|273:264|275:225,1,77.999997619629,4|0,0:2|1:0,0:0:0:0:
171,275,212870,6,0,P|122:269|63:109,1,233.999992858887,12|0,1:0|0:0,0:0:0:0:
136,25,213298,2,0,P|178:53|197:86,1,77.999997619629,8|0,1:0|1:0,0:0:0:0:
234,218,213513,2,0,P|261:179|293:160,1,77.999997619629,0|0,1:0|1:0,0:0:0:0:
270,10,213727,6,0,P|294:57|394:101,1,155.999995239258,8|0,1:0|1:0,0:0:0:0:
419,79,214013,1,0,1:0:0:0:
450,105,214084,1,0,1:0:0:0:
481,132,214156,1,8,1:0:0:0:
509,202,214263,1,0,1:0:0:0:
432,203,214370,1,0,0:0:0:0:
460,273,214477,1,0,1:0:0:0:
441,353,214584,6,0,B|405:324|405:324|266:352,1,155.999995239258,10|0,1:0|1:0,0:0:0:0:
270,313,214870,1,0,1:0:0:0:
229,319,214941,1,0,1:0:0:0:
187,325,215013,1,10,1:0:0:0:
123,367,215120,1,0,1:0:0:0:
57,339,215227,1,0,0:0:0:0:
115,288,215334,1,4,1:2:0:0:
66,215,215441,6,0,B|39:175|39:175|70:101|70:101|41:38,1,181.999994445801,14|2,1:0|1:0,0:0:0:0:
73,19,215727,1,0,1:0:0:0:
113,28,215798,1,0,1:0:0:0:
153,38,215870,2,0,L|152:99,3,38.9999988098145,8|0|0|0,1:0|1:0|1:0|1:0,0:0:0:0:
216,150,216084,5,4,1:2:0:0:
216,150,216138,1,0,1:0:0:0:
216,150,216191,1,0,1:0:0:0:
216,150,216245,1,0,1:0:0:0:
216,150,216298,2,0,P|289:149|361:291,1,233.999992858887,4|0,1:0|1:0,0:0:0:0:
452,349,216727,2,0,P|443:294|441:260,1,77.999997619629,8|0,1:0|1:0,0:0:0:0:
274,298,216941,2,0,P|270:336|263:375,1,77.999997619629,0|0,1:0|1:0,0:0:0:0:
439,259,217156,6,0,P|446:200|446:81,1,155.999995239258,8|0,1:0|1:0,0:0:0:0:
460,64,217441,1,0,1:0:0:0:
418,66,217513,1,0,1:0:0:0:
376,68,217584,2,0,P|311:57|274:48,1,77.999997619629,8|0,1:0|1:0,0:0:0:0:
190,127,217798,2,0,P|151:134|113:140,1,77.999997619629,0|0,1:0|1:0,0:0:0:0:
217,45,218013,6,2,P|216:101|198:225,1,155.999995239258,14|0,1:0|1:0,1:1:0:0:
149,253,218334,1,0,0:0:0:0:
167,338,218441,2,0,P|200:312|237:301,1,77.999997619629,14|0,1:0|1:0,0:0:0:0:
58,230,218656,2,0,P|78:277|85:313,1,77.999997619629,2|0,0:1|1:0,0:0:0:0:
123,178,218870,6,2,P|97:122|56:-2,1,181.999994445801,14|0,1:0|1:0,1:1:0:0:
50,49,219156,1,0,1:0:0:0:
42,89,219227,1,0,1:0:0:0:
34,129,219298,1,10,1:0:0:0:
45,204,219406,1,0,1:0:0:0:
19,278,219513,1,2,1:0:0:0:
34,353,219620,1,0,1:0:0:0:
118,320,219727,6,0,B|174:292|174:292|263:348,1,155.999995239258,14|0,1:0|1:0,0:0:0:0:
321,311,220048,1,0,1:0:0:0:
381,362,220156,1,8,1:0:0:0:
446,315,220263,1,0,1:0:0:0:
429,242,220370,1,0,1:0:0:0:
351,236,220477,1,4,1:2:0:0:
321,311,220584,6,0,P|330:244|332:131,1,155.999995239258,12|0,1:0|1:0,0:0:0:0:
373,143,220870,1,0,1:0:0:0:
362,103,220941,1,0,1:0:0:0:
350,62,221013,1,8,1:0:0:0:
162,322,221227,1,8,1:0:0:0:
163,167,221441,5,12,1:0:0:0:
130,101,221548,1,8,1:3:0:0:
193,60,221656,1,4,1:3:0:0:
226,126,221763,1,0,1:0:0:0:
163,167,221870,5,8,1:0:0:0:
125,176,221977,1,8,1:3:0:0:
94,199,222084,1,4,1:3:0:0:
78,234,222191,1,0,1:0:0:0:
67,305,222298,5,8,1:3:0:0:
143,323,222406,1,4,1:3:0:0:
218,341,222513,1,8,1:3:0:0:
268,281,222620,1,4,1:3:0:0:
318,221,222727,1,8,1:0:0:0:
410,267,222834,5,8,1:3:0:0:
410,267,222888,1,0,0:0:0:0:
410,267,222941,2,0,L|393:314,3,38.9999988098145,4|0|4|0,1:3|0:0|1:3|1:0,0:0:0:0:
491,293,223156,6,0,B|457:237|457:237|478:133|478:133|421:60,1,233.999992858887,4|4,1:0|1:3,0:0:0:0:
355,140,223584,2,0,L|271:155,1,77.999997619629,8|0,1:0|0:0,0:0:0:0:
292,56,223798,2,0,L|368:42,1,77.999997619629,4|8,1:3|1:0,0:0:0:0:
220,93,224013,5,4,1:3:0:0:
166,149,224120,1,8,1:0:0:0:
126,81,224227,1,4,1:3:0:0:
79,143,224334,1,2,0:0:0:0:
111,41,224441,5,8,1:0:0:0:
111,41,224548,1,0,0:0:0:0:
202,64,224656,1,4,1:3:0:0:
202,64,224763,1,0,1:0:0:0:
298,93,224870,6,0,B|254:146|254:146|300:316,1,233.999992858887,4|4,1:3|1:3,0:0:0:0:
391,352,225298,2,0,B|406:314|406:314|382:271,1,77.999997619629,8|2,1:0|0:0,0:0:0:0:
216,253,225513,5,4,1:3:0:0:
216,253,225620,1,8,1:0:0:0:
155,301,225727,1,4,1:3:0:0:
155,301,225834,1,8,1:0:0:0:
86,262,225941,1,4,1:3:0:0:
86,262,226048,1,2,1:2:0:0:
146,194,226156,5,10,1:1:0:0:
185,261,226263,1,4,1:3:0:0:
253,223,226370,1,2,0:1:0:0:
292,290,226477,1,2,1:1:0:0:
215,356,226584,6,0,P|220:261|224:104,1,233.999992858887,4|4,1:3|1:3,0:0:0:0:
152,45,227013,2,0,P|112:65|84:105,1,77.999997619629,8|2,1:0|0:0,0:0:0:0:
63,261,227227,2,0,P|130:245|147:230,1,77.999997619629,4|8,1:3|1:0,0:0:0:0:
301,164,227441,5,4,1:3:0:0:
375,140,227548,1,8,1:0:0:0:
450,117,227656,1,2,1:2:0:0:
450,117,227763,1,2,1:2:0:0:
477,191,227870,5,8,1:0:0:0:
402,214,227978,1,0,1:0:0:0:
328,238,228085,1,4,1:3:0:0:
328,238,228191,1,8,1:0:0:0:
298,316,228298,6,0,B|263:304|263:304|246:257,1,77.999997619629,4|4,1:0|1:3,0:0:0:0:
105,193,228513,2,0,B|140:181|140:181|157:134,1,77.999997619629,4|0,1:3|0:0,0:0:0:0:
313,31,228727,1,8,1:0:0:0:
231,43,228834,2,0,B|259:86|259:86|231:220,1,155.999995239258,4|8,1:3|1:0,0:0:0:0:
150,290,229156,6,0,L|176:383,1,77.999997619629,4|8,1:3|1:0,0:0:0:0:
340,365,229370,2,0,L|362:290,1,77.999997619629,4|2,1:3|1:2,0:0:0:0:
267,189,229584,5,4,1:3:0:0:
236,122,229691,1,8,1:0:0:0:
301,84,229798,1,4,1:3:0:0:
255,20,229906,1,8,1:0:0:0:
261,5,230013,5,4,1:0:0:0:
261,5,230870,1,8,1:0:0:0:
251,379,231727,5,4,1:0:0:0:
251,379,231834,1,0,0:0:0:0:
251,379,232584,1,8,1:0:0:0:
461,249,233013,5,2,3:0:0:0:
447,212,233120,1,0,3:0:0:0:
470,180,233227,1,2,3:0:0:0:
456,143,233334,1,2,3:0:0:0:
489,76,233441,6,0,P|488:133|476:284,1,195.00000743866,4|8,1:0|1:0,0:0:0:0:
431,335,233977,2,0,P|391:312|361:296,1,77.999997619629,0|8,0:0|1:3,0:0:0:0:
345,222,234191,1,4,1:3:0:0:
279,264,234298,1,4,1:0:0:0:
206,233,234406,1,0,1:0:0:0:
192,156,234513,1,8,1:0:0:0:
241,95,234620,1,8,1:3:0:0:
317,110,234727,1,8,1:0:0:0:
388,79,234834,1,8,1:0:0:0:
311,61,234941,5,4,1:3:0:0:
311,138,235048,1,8,1:0:0:0:
364,195,235156,5,4,1:0:0:0:
357,233,235263,1,0,3:0:0:0:
350,271,235370,1,0,3:0:0:0:
343,309,235477,1,2,3:0:0:0:
270,346,235584,5,2,3:0:0:0:
264,323,235691,1,0,3:0:0:0:
258,300,235798,1,0,3:0:0:0:
252,277,235906,1,2,3:0:0:0:
172,291,236013,5,8,1:0:0:0:
170,298,236066,1,8,1:0:0:0:
168,305,236120,1,8,1:0:0:0:
166,312,236173,1,0,1:0:0:0:
163,319,236227,2,0,L|172:370,3,38.9999988098145,8|0|8|0,1:0|1:0|1:0|1:0,0:0:0:0:
115,384,236441,5,10,1:0:0:0:
115,384,236495,1,0,1:0:0:0:
115,384,236548,1,2,1:0:0:0:
115,384,236602,1,0,1:0:0:0:
115,384,236656,1,10,1:0:0:0:
115,384,236709,1,0,1:0:0:0:
115,384,236763,1,2,1:0:0:0:
115,384,236816,1,0,1:0:0:0:
115,384,236870,6,0,B|115:333|115:333|115:198|418:198|418:63|418:63|418:12,1,526.500012854004,4|2,1:0|3:0,0:0:0:0:
418,17,240156,1,2,3:0:0:0:
418,17,240227,1,2,3:0:0:0:
418,17,240298,1,6,3:0:0:0:
