osu file format v14

[General]
AudioFilename: audio.mp3
AudioLeadIn: 0
PreviewTime: 36513
Countdown: 0
SampleSet: Soft
StackLeniency: 0.4
Mode: 0
LetterboxInBreaks: 0
WidescreenStoryboard: 0

[Editor]
Bookmarks: 15727,22584,36298,43156,50013,65441,79156,92870,106584,110013,125441,139156,152870,166584,180298,195727,209441,223156,230013
DistanceSpacing: 1
BeatDivisor: 3
GridSize: 16
TimelineZoom: 1.9

[Metadata]
Title:Tokoyo Omohikane no Kami
TitleUnicode:常世想兼神
Artist:UNDEAD CORPORATION
ArtistUnicode:UNDEAD CORPORATION
Creator:Mirash
Version:Expert
Source:東方永夜抄 ~ Imperishable Night.
Tags:zelq trynna osu! featured artist fa mappers' guild touhou ランコ ranko 千年幻想郷 ~ History of the Moon Eirin Yagokoro 八意 永琳 TOHO complete box ONI metal Japanese video game
BeatmapID:2234808
BeatmapSetID:1067418

[Difficulty]
HPDrainRate:6
CircleSize:4
OverallDifficulty:9.5
ApproachRate:9.7
SliderMultiplier:1.4
SliderTickRate:1

[Events]
//Background and Video events
0,0,"toohoo2.jpg",0,0
//Break Periods
2,180498,186232
//Storyboard Layer 0 (Background)
//Storyboard Layer 1 (Fail)
//Storyboard Layer 2 (Pass)
//Storyboard Layer 3 (Foreground)
//Storyboard Layer 4 (Overlay)
//Storyboard Sound Samples

[TimingPoints]
299,214.285714285714,4,2,1,50,1,0
1584,-200,4,2,1,60,0,0
2013,-83.3333333333333,4,2,1,70,0,0
15727,-83.3333333333333,4,2,1,60,0,0
20870,-181.818181818182,4,2,1,60,0,0
22584,-100,4,2,1,50,0,0
36298,-100,4,2,1,60,0,0
37584,-83.3333333333333,4,2,1,60,0,0
50013,-83.3333333333333,4,2,1,50,0,0
52370,-100,4,2,1,50,0,0
65013,-200,4,2,1,50,0,0
65441,-83.3333333333333,4,2,1,70,0,0
92870,-83.3333333333333,4,2,1,50,0,0
99298,-200,4,2,1,50,0,0
99727,-83.3333333333333,4,2,1,60,0,0
106584,-83.3333333333333,4,2,1,50,0,0
108513,-83.3333333333333,4,2,1,55,0,0
108727,-83.3333333333333,4,2,1,60,0,0
109691,-133.333333333333,4,2,1,60,0,0
110013,-100,4,2,1,50,0,0
123727,-83.3333333333333,4,2,1,60,0,0
125013,-200,4,2,1,60,0,0
125441,-83.3333333333333,4,2,1,70,0,0
137441,-71.4285714285714,4,2,1,70,0,0
138513,-83.3333333333333,4,2,1,70,0,0
145156,-71.4285714285714,4,2,1,70,0,0
145584,-83.3333333333333,4,2,1,70,0,0
152870,-83.3333333333333,4,2,1,60,0,0
153727,-133.333333333333,4,2,1,60,0,0
187156,-133.333333333333,4,2,1,50,0,0
194227,-133.333333333333,4,2,1,55,0,0
194441,-133.333333333333,4,2,1,60,0,0
194656,-133.333333333333,4,2,1,65,0,0
194870,-133.333333333333,4,2,1,70,0,0
195298,-133.333333333333,4,2,1,50,0,0
195727,-83.3333333333333,4,2,1,70,0,0
202156,-71.4285714285714,4,2,1,70,0,0
202584,-83.3333333333333,4,2,1,70,0,0
209013,-71.4285714285714,4,2,1,70,0,0
209441,-83.3333333333333,4,2,1,70,0,0
215441,-71.4285714285714,4,2,1,70,0,0
215656,-83.3333333333333,4,2,1,70,0,0
218870,-71.4285714285714,4,2,1,70,0,0
219084,-83.3333333333333,4,2,1,70,0,0
230013,-83.3333333333333,4,2,1,40,0,0
233013,-83.3333333333333,4,2,1,50,0,0
233441,-133.333333333333,4,2,1,60,0,0
233870,-83.3333333333333,4,2,1,70,0,0
236656,-83.3333333333333,4,2,1,65,0,0
236870,-370.37037037037,4,2,1,60,0,0
240084,-83.3333333333333,4,2,1,60,0,0
240138,-83.3333333333333,4,2,1,65,0,0
240191,-83.3333333333333,4,2,1,70,0,0
240298,-83.3333333333333,4,2,1,80,0,0

[Colours]
Combo1 : 137,61,65
Combo2 : 80,80,135
Combo3 : 113,81,130
Combo4 : 132,139,179

[HitObjects]
392,85,299,5,4,1:0:0:0:
403,117,406,1,0,3:0:0:0:
414,149,513,1,0,3:0:0:0:
425,181,620,1,0,3:0:0:0:
316,174,727,5,2,3:0:0:0:
320,156,834,1,0,3:0:0:0:
324,139,941,1,0,3:0:0:0:
328,121,1048,1,0,3:0:0:0:
224,114,1156,5,2,3:0:0:0:
228,123,1263,1,0,3:0:0:0:
232,132,1370,1,2,3:0:0:0:
236,141,1477,1,2,3:0:0:0:
144,135,1584,6,0,L|29:118,1,105,2|0,3:3|2:0,0:0:0:0:
1,49,2013,6,0,P|52:81|57:198,1,167.999994873047,4|0,1:0|0:0,0:0:0:0:
41,253,2334,2,0,P|47:284|50:351,2,83.9999974365235,4|8|0,1:3|1:0|0:0,0:0:0:0:
118,271,2656,1,4,1:3:0:0:
138,342,2763,1,8,1:0:0:0:
150,269,2870,1,4,1:3:0:0:
202,213,2977,1,8,1:0:0:0:
277,225,3084,1,4,1:3:0:0:
314,297,3191,1,2,0:0:0:0:
220,285,3298,5,8,1:0:0:0:
246,212,3406,1,0,0:0:0:0:
230,284,3513,1,4,1:3:0:0:
256,211,3621,1,0,1:0:0:0:
155,211,3727,6,0,L|140:29,1,167.999994873047,4|2,1:3|0:0,0:0:0:0:
212,11,4048,1,4,1:3:0:0:
252,76,4156,2,0,B|291:87|291:87|342:55,1,83.9999974365235,8|2,1:0|0:0,0:0:0:0:
397,98,4370,1,4,1:3:0:0:
325,251,4477,5,8,1:0:0:0:
262,152,4584,1,4,1:3:0:0:
247,234,4691,1,8,1:0:0:0:
342,174,4798,1,4,1:3:0:0:
254,268,4906,5,2,1:2:0:0:
192,217,5013,1,10,1:1:0:0:
117,239,5120,1,4,1:3:0:0:
98,312,5227,1,2,0:1:0:0:
149,371,5334,1,2,1:1:0:0:
349,371,5441,6,0,L|364:189,1,167.999994873047,4|2,1:3|0:0,0:0:0:0:
371,127,5763,1,4,1:3:0:0:
443,148,5870,2,0,P|480:161|528:174,1,83.9999974365235,8|2,1:0|0:0,0:0:0:0:
438,225,6084,1,4,1:3:0:0:
305,162,6191,1,8,1:0:0:0:
421,73,6298,1,4,1:3:0:0:
386,155,6406,1,8,1:0:0:0:
282,134,6513,5,2,1:2:0:0:
325,48,6620,1,2,1:2:0:0:
191,41,6727,1,8,1:0:0:0:
204,118,6834,1,0,1:0:0:0:
100,102,6941,1,4,1:3:0:0:
108,68,7048,1,8,1:0:0:0:
20,79,7156,5,4,1:0:0:0:
77,196,7263,1,4,1:3:0:0:
6,155,7370,1,4,1:3:0:0:
141,158,7477,1,0,0:0:0:0:
58,15,7584,5,8,1:0:0:0:
20,79,7691,2,0,P|26:140|30:263,1,167.999994873047,4|8,1:3|1:0,0:0:0:0:
108,246,8013,5,4,1:3:0:0:
88,350,8120,1,8,1:0:0:0:
192,368,8227,1,4,1:3:0:0:
221,268,8334,1,2,1:2:0:0:
154,305,8441,5,4,1:3:0:0:
273,363,8548,1,8,1:0:0:0:
323,284,8656,1,4,1:3:0:0:
407,321,8763,1,8,1:0:0:0:
239,241,8870,6,0,P|251:168|246:40,1,167.999994873047,4|2,1:0|0:0,0:0:0:0:
250,0,9191,1,4,1:3:0:0:
261,74,9298,2,0,P|259:157|272:240,1,167.999994873047,8|4,1:0|1:3,0:0:0:0:
247,310,9620,1,8,1:0:0:0:
266,383,9727,1,4,1:3:0:0:
286,313,9834,1,8,1:0:0:0:
179,269,9941,2,0,L|161:357,1,83.9999974365235,2|2,1:2|0:0,0:0:0:0:
381,374,10156,5,12,1:0:0:0:
370,302,10263,1,4,1:3:0:0:
355,228,10370,1,0,1:0:0:0:
431,218,10477,1,8,1:0:0:0:
381,374,10584,6,0,P|336:368|291:356,1,83.9999974365235,4|0,1:3|0:0,0:0:0:0:
247,310,10798,2,0,P|206:320|164:325,1,83.9999974365235,2|4,0:0|1:3,0:0:0:0:
103,369,11013,2,0,P|56:361|19:255,1,167.999994873047,8|4,1:0|1:3,0:0:0:0:
32,188,11334,1,8,1:0:0:0:
89,241,11441,1,4,1:3:0:0:
105,171,11548,1,8,1:0:0:0:
286,218,11656,5,2,1:2:0:0:
215,210,11763,1,2,0:0:0:0:
177,271,11870,1,12,1:0:0:0:
194,345,11977,1,4,1:3:0:0:
194,345,12084,2,0,L|294:331,1,83.9999974365235,0|8,1:0|1:0,0:0:0:0:
494,242,12298,6,0,B|394:230|435:292|321:282,1,167.999994873047,4|2,1:0|0:0,0:0:0:0:
281,230,12620,1,4,1:3:0:0:
224,178,12727,2,0,P|153:178|81:255,1,167.999994873047,8|4,1:0|1:3,0:0:0:0:
116,340,13048,5,8,1:0:0:0:
8,361,13156,1,4,1:3:0:0:
9,352,13209,1,0,1:0:0:0:
11,344,13263,1,8,1:0:0:0:
13,336,13316,1,0,1:0:0:0:
15,328,13370,1,4,1:3:0:0:
18,320,13423,1,0,1:0:0:0:
20,312,13477,1,4,1:3:0:0:
22,303,13531,1,0,1:0:0:0:
24,294,13584,1,4,1:0:0:0:
0,225,13691,1,4,1:3:0:0:
53,171,13798,2,0,L|146:180,1,83.9999974365235,8|0,1:0|1:0,0:0:0:0:
203,122,14013,5,4,1:0:0:0:
242,134,14120,1,8,1:3:0:0:
282,146,14227,1,0,1:0:0:0:
321,158,14334,1,0,1:3:0:0:
465,74,14441,5,8,1:0:0:0:
440,81,14548,1,8,1:3:0:0:
416,88,14656,1,0,1:0:0:0:
391,95,14763,1,0,1:3:0:0:
278,32,14870,5,8,1:0:0:0:
293,35,14977,1,8,3:0:0:0:
366,12,15084,5,2,3:0:0:0:
406,170,15191,1,8,3:0:0:0:
248,210,15298,1,2,3:0:0:0:
208,52,15406,1,8,3:0:0:0:
332,93,15513,5,4,3:0:0:0:
290,151,15620,1,2,3:0:0:0:
394,249,15727,5,4,3:0:0:0:
394,249,15941,1,0,3:0:0:0:
394,249,16156,1,2,3:0:0:0:
394,249,16370,1,2,3:0:0:0:
394,249,16584,1,2,3:0:0:0:
321,227,16691,1,0,3:0:0:0:
260,272,16798,1,2,3:0:0:0:
263,348,16906,1,0,3:0:0:0:
330,381,17013,1,2,3:0:0:0:
330,381,17227,5,8,3:0:0:0:
190,358,17334,1,2,3:0:0:0:
50,335,17441,1,4,3:1:0:0:
50,335,17656,1,0,3:0:0:0:
50,335,17870,1,2,3:0:0:0:
50,335,18084,1,2,3:0:0:0:
50,335,18298,1,2,3:0:0:0:
88,269,18406,1,0,3:0:0:0:
104,195,18513,1,2,3:0:0:0:
107,119,18620,5,8,3:0:0:0:
33,212,18727,1,2,3:0:0:0:
156,243,18834,1,8,3:0:0:0:
228,148,18941,1,8,3:0:0:0:
214,132,19048,1,2,3:0:0:0:
296,190,19156,5,4,3:1:0:0:
296,190,19370,1,0,3:0:0:0:
296,190,19584,1,2,3:0:0:0:
296,190,19798,1,0,3:0:0:0:
296,190,20013,1,2,3:0:0:0:
366,162,20120,1,0,3:0:0:0:
436,188,20227,1,2,3:0:0:0:
457,260,20334,1,0,3:0:0:0:
423,327,20441,1,2,3:0:0:0:
423,327,20656,5,8,3:0:0:0:
395,187,20763,1,2,3:0:0:0:
367,47,20870,2,0,L|350:135,1,77.0000023498536,4|2,3:1|3:0,3:3:0:0:
222,248,21298,2,0,L|205:160,1,77.0000023498536,4|2,3:2|3:0,3:3:0:0:
275,134,21620,1,2,3:0:0:0:
299,268,21727,5,2,1:0:0:0:
254,327,21834,1,0,1:0:0:0:
181,317,21941,1,4,1:3:0:0:
138,258,22048,1,2,1:0:0:0:
68,250,22156,1,8,1:3:0:0:
32,313,22263,1,2,1:1:0:0:
54,350,22370,1,8,1:3:0:0:
84,362,22477,1,0,1:0:0:0:
222,248,22584,6,0,B|210:209|210:209|222:154|222:154|206:102,1,140,6|2,1:0|1:1,0:0:0:0:
186,42,22906,1,2,0:1:0:0:
196,119,23013,2,0,B|208:160|208:160|196:215|196:215|208:254,1,140,8|0,1:0|0:0,0:0:0:0:
241,322,23334,1,0,1:0:0:0:
241,322,23656,1,0,1:0:0:0:
305,286,23870,1,8,1:0:0:0:
372,252,24084,5,2,1:0:0:0:
297,251,24191,1,0,1:0:0:0:
218,254,24298,2,0,B|247:319|247:319|225:385,1,140,2|2,1:0|1:0,0:0:0:0:
156,354,24620,1,0,0:0:0:0:
79,376,24727,2,0,L|101:227,1,140,8|0,1:0|0:0,0:0:0:0:
45,186,25048,2,0,L|67:37,1,140,8|0,1:0|0:0,0:0:0:0:
139,22,25370,1,0,1:0:0:0:
139,22,25584,1,8,1:0:0:0:
139,22,25798,1,0,1:0:0:0:
166,90,25906,1,0,1:0:0:0:
232,56,26013,6,0,L|246:132,1,70,2|0,1:0|1:0,0:0:0:0:
281,192,26227,2,0,L|268:260,1,70,2|0,1:0|0:0,0:0:0:0:
301,331,26441,1,10,1:0:0:0:
301,331,26656,1,0,0:0:0:0:
350,272,26763,1,0,1:0:0:0:
406,323,26870,1,0,0:0:0:0:
488,192,27084,1,0,1:0:0:0:
357,110,27298,1,8,1:0:0:0:
354,184,27513,5,2,1:0:0:0:
421,149,27620,1,0,1:0:0:0:
357,110,27727,2,0,L|344:41,1,70,2|0,1:0|0:0,0:0:0:0:
177,10,27941,2,0,L|164:78,1,70,2|0,1:0|0:0,0:0:0:0:
102,128,28156,5,8,1:0:0:0:
189,370,28370,1,0,0:0:0:0:
261,342,28477,1,8,1:0:0:0:
431,283,28692,1,0,0:0:0:0:
403,211,28798,1,0,1:0:0:0:
344,41,29013,1,8,1:0:0:0:
498,193,29227,5,4,1:0:0:0:
246,234,29441,5,2,1:0:0:0:
263,160,29548,1,0,1:0:0:0:
253,232,29656,1,2,1:0:0:0:
270,158,29763,1,0,1:0:0:0:
163,179,29870,2,0,P|172:236|190:323,1,140,8|0,1:0|0:0,0:0:0:0:
145,376,30191,1,0,1:0:0:0:
145,376,30513,1,0,1:0:0:0:
76,353,30727,1,8,1:0:0:0:
6,326,30941,5,2,1:0:0:0:
77,297,31048,1,0,1:0:0:0:
152,274,31156,2,0,B|136:239|136:239|152:190,1,70,2|0,1:0|0:0,0:0:0:0:
218,194,31370,2,0,L|203:39,2,140,2|8|0,1:0|1:0|0:0,0:0:0:0:
281,236,31906,1,8,1:0:0:0:
281,236,32120,1,0,0:0:0:0:
337,185,32227,1,0,1:0:0:0:
405,222,32441,1,8,1:0:0:0:
480,196,32656,5,2,0:3:0:0:
386,176,32763,1,2,0:3:0:0:
247,227,32870,5,2,1:0:0:0:
279,241,32977,1,0,1:0:0:0:
248,135,33084,1,2,1:0:0:0:
171,210,33191,1,0,1:0:0:0:
311,174,33298,5,8,1:0:0:0:
311,174,33620,1,0,1:0:0:0:
329,103,33727,1,0,0:0:0:0:
497,135,33941,1,0,1:0:0:0:
467,264,34156,2,0,B|423:282|423:282|442:395,1,140,8|2,1:0|1:0,0:0:0:0:
512,368,34477,1,0,1:0:0:0:
351,300,34584,2,0,L|268:323,1,70,2|0,1:0|0:0,0:0:0:0:
224,366,34798,2,0,L|141:389,1,70,2|0,1:0|0:0,0:0:0:0:
88,356,35013,1,8,1:0:0:0:
88,356,35227,1,0,0:0:0:0:
120,289,35334,1,8,1:0:0:0:
225,233,35548,1,0,0:0:0:0:
189,170,35656,1,0,1:0:0:0:
136,29,35870,6,0,P|133:107|118:315,1,280,12|2,0:1|1:0,0:0:0:0:
150,373,36406,1,8,1:3:0:0:
169,303,36513,1,0,1:0:0:0:
62,357,36620,1,4,1:3:0:0:
242,328,36727,5,8,1:0:0:0:
265,253,36834,1,0,0:0:0:0:
252,325,36941,1,0,1:0:0:0:
275,250,37048,1,4,1:3:0:0:
336,306,37156,5,0,1:0:0:0:
327,191,37263,1,2,1:2:0:0:
211,208,37370,1,2,1:2:0:0:
159,265,37477,5,4,1:3:0:0:
135,197,37584,2,0,P|133:163|135:97,1,83.9999974365235,8|0,1:0|0:0,0:0:0:0:
190,66,37798,1,6,3:0:0:0:
159,0,37906,1,2,3:0:0:0:
273,102,38013,6,0,L|458:129,1,167.999994873047,4|8,1:0|1:3,0:0:0:0:
486,70,38334,1,4,1:3:0:0:
400,202,38441,6,0,L|314:222,1,83.9999974365235,8|0,1:0|0:0,0:0:0:0:
258,178,38656,1,4,1:3:0:0:
353,296,38763,6,0,L|439:316,1,83.9999974365235,8|0,1:0|0:0,0:0:0:0:
471,245,38977,1,8,1:3:0:0:
292,346,39084,6,0,L|128:384,1,167.999994873047,4|8,1:3|1:0,0:0:0:0:
57,355,39406,1,4,1:3:0:0:
135,194,39513,5,2,1:0:0:0:
196,246,39620,1,4,3:0:0:0:
227,122,39727,1,2,1:0:0:0:
257,197,39834,1,8,3:0:0:0:
137,95,39941,5,8,1:3:0:0:
66,84,40048,1,4,1:3:0:0:
12,134,40156,1,8,1:0:0:0:
12,206,40263,1,0,0:0:0:0:
23,139,40370,1,0,1:3:0:0:
23,211,40477,1,4,1:3:0:0:
108,247,40584,6,0,L|208:265,1,83.9999974365235,4|0,1:3|0:0,0:0:0:0:
274,217,40798,1,4,1:3:0:0:
303,313,40906,1,4,1:3:0:0:
469,169,41013,6,0,L|369:187,1,83.9999974365235,8|0,1:0|0:0,0:0:0:0:
270,234,41227,1,4,1:3:0:0:
299,138,41335,1,0,1:3:0:0:
349,241,41441,5,12,1:3:0:0:
386,310,41548,1,2,1:2:0:0:
274,259,41656,1,8,1:3:0:0:
311,328,41763,1,4,1:3:0:0:
137,167,41870,5,8,1:0:0:0:
100,236,41977,1,2,1:2:0:0:
212,185,42085,1,4,1:3:0:0:
175,254,42192,1,2,1:2:0:0:
386,66,42298,5,12,1:0:0:0:
429,147,42405,1,4,1:3:0:0:
297,87,42513,1,2,1:2:0:0:
341,168,42620,1,2,1:2:0:0:
171,88,42727,5,8,1:0:0:0:
167,80,42781,1,2,1:2:0:0:
163,72,42834,1,2,1:2:0:0:
159,64,42888,1,2,1:2:0:0:
155,56,42941,1,8,1:0:0:0:
204,3,43048,1,8,1:0:0:0:
263,51,43156,6,2,B|295:191|193:148|225:305,1,251.999992309571,6|0,1:0|1:0,1:1:0:0:
381,322,43584,2,0,P|430:346|525:289,1,167.999994873047,8|0,1:0|1:0,0:0:0:0:
395,201,43906,2,0,P|329:207|308:243,1,83.9999974365235,8|0,1:0|1:0,0:0:0:0:
207,374,44120,1,8,1:0:0:0:
110,377,44227,2,0,P|108:321|121:275,1,83.9999974365235,2|2,1:2|1:2,0:0:0:0:
164,127,44441,5,8,1:0:0:0:
210,207,44548,1,0,0:0:0:0:
27,234,44656,1,0,1:0:0:0:
44,143,44763,1,8,1:0:0:0:
134,283,44870,6,2,B|277:259|221:376|389:357,1,251.999992309571,6|0,1:0|1:0,1:1:0:0:
483,151,45298,2,0,P|426:164|392:272,1,167.999994873047,8|0,1:0|1:0,0:0:0:0:
486,372,45620,2,0,P|524:312|526:269,1,83.9999974365235,8|2,1:0|1:0,0:0:0:0:
498,227,45834,1,8,1:0:0:0:
221,155,45941,5,2,1:2:0:0:
272,211,46048,1,2,1:2:0:0:
330,166,46156,1,6,1:0:0:0:
317,153,46263,1,0,0:0:0:0:
289,81,46370,6,0,P|293:125|298:179,1,83.9999974365235,0|0,1:0|1:0,0:0:0:0:
206,372,46584,6,2,P|209:330|216:113,1,251.999992309571,6|0,1:0|1:0,1:1:0:0:
125,27,47013,2,0,P|80:65|91:195,1,167.999994873047,8|0,1:0|1:0,0:0:0:0:
293,269,47334,2,0,P|343:234|353:182,1,83.9999974365235,8|0,1:0|1:0,0:0:0:0:
281,56,47548,1,8,1:0:0:0:
364,11,47656,2,0,P|398:52|409:100,1,83.9999974365235,2|2,1:2|1:2,0:0:0:0:
504,171,47870,5,6,1:0:0:0:
437,280,47977,1,8,1:3:0:0:
394,155,48084,1,4,1:3:0:0:
479,55,48191,5,8,1:0:0:0:
479,55,48245,1,4,1:3:0:0:
479,55,48298,1,6,1:0:0:0:
460,125,48406,1,4,1:3:0:0:
450,199,48513,1,8,1:0:0:0:
445,275,48620,1,4,1:3:0:0:
107,159,48727,5,8,1:0:0:0:
118,201,48835,1,8,1:3:0:0:
123,246,48942,1,8,1:3:0:0:
127,292,49049,1,4,1:3:0:0:
332,370,49156,5,14,1:0:0:0:
335,357,49209,1,0,1:0:0:0:
338,344,49263,1,4,1:3:0:0:
341,332,49316,1,0,1:0:0:0:
344,319,49370,1,4,1:3:0:0:
322,252,49477,1,0,1:0:0:0:
237,96,49584,5,12,1:0:0:0:
244,71,49691,1,4,1:3:0:0:
251,46,49798,1,0,1:0:0:0:
257,21,49906,1,0,1:3:0:0:
164,192,50013,5,4,1:0:0:0:
164,192,50227,1,0,3:0:0:0:
164,192,50441,1,2,3:0:0:0:
164,192,50656,1,0,3:0:0:0:
234,221,50763,1,2,3:0:0:0:
293,172,50870,1,4,1:2:0:0:
293,172,51084,1,0,3:0:0:0:
293,172,51298,1,2,3:0:0:0:
293,172,51513,5,2,3:0:0:0:
176,132,51620,1,2,3:0:0:0:
59,92,51727,1,2,3:0:0:0:
59,92,51941,1,2,3:0:0:0:
123,49,52156,5,0,3:0:0:0:
126,122,52263,1,2,3:0:0:0:
130,196,52370,2,0,L|205:175,1,70,2|0,3:0|3:0,3:3:0:0:
282,129,52584,6,0,L|311:282,1,140,4|0,1:0|1:0,1:1:0:0:
344,295,52870,1,0,1:0:0:0:
303,311,52941,1,0,1:0:0:0:
262,328,53013,1,8,1:0:0:0:
203,282,53120,1,0,3:0:0:0:
152,338,53227,1,2,3:0:0:0:
211,384,53334,1,2,3:0:0:0:
94,286,53441,5,4,3:1:0:0:
78,361,53548,1,2,3:0:0:0:
64,288,53656,2,0,P|66:221|132:186,1,140,2|0,3:0|3:0,3:3:0:0:
154,115,53977,2,0,P|222:133|241:135,2,70,2|0|2,3:0|3:0|3:0,3:3:0:0:
342,167,54298,6,0,P|333:109|244:72,1,140,4|0,1:2|3:0,3:3:0:0:
208,19,54620,1,2,3:0:0:0:
131,16,54727,2,0,P|96:27|71:66,1,70,2|0,3:0|3:0,3:3:0:0:
172,258,54941,2,0,P|207:247|230:211,1,70,2|0,3:0|3:0,3:3:0:0:
64,176,55156,6,0,P|84:242|101:333,1,140,2|2,3:0|3:0,3:3:0:0:
169,332,55477,1,0,3:0:0:0:
236,290,55584,5,2,3:0:0:0:
331,322,55691,1,2,3:0:0:0:
426,354,55798,1,2,3:0:0:0:
426,354,56013,5,0,1:0:0:0:
270,377,56120,1,2,3:0:0:0:
319,210,56227,1,0,1:0:0:0:
328,254,56298,1,0,1:0:0:0:
337,299,56370,1,0,1:0:0:0:
346,343,56441,1,8,1:0:0:0:
407,272,56548,1,0,3:0:0:0:
252,259,56656,1,2,3:0:0:0:
316,132,56763,1,2,3:0:0:0:
464,154,56870,5,4,1:0:0:0:
464,154,57084,1,0,3:0:0:0:
464,154,57298,1,2,3:0:0:0:
464,154,57513,1,0,3:0:0:0:
444,82,57620,1,2,3:0:0:0:
377,46,57727,1,4,1:2:0:0:
377,46,57941,1,0,3:0:0:0:
377,46,58156,1,2,3:0:0:0:
377,46,58370,5,2,3:0:0:0:
359,168,58477,1,2,3:0:0:0:
341,290,58584,1,2,3:0:0:0:
341,290,58798,1,2,3:0:0:0:
359,218,59013,5,0,3:0:0:0:
288,237,59120,1,2,3:0:0:0:
217,256,59227,2,0,L|238:342,1,70,2|0,3:0|3:0,3:3:0:0:
120,319,59441,6,0,P|76:271|93:188,1,140,4|0,1:0|1:0,1:1:0:0:
87,157,59727,1,0,1:0:0:0:
130,168,59798,1,0,1:0:0:0:
173,179,59870,1,8,1:0:0:0:
242,139,59977,1,0,3:0:0:0:
176,101,60084,5,2,3:0:0:0:
147,251,60191,1,2,3:0:0:0:
297,280,60298,1,4,1:0:0:0:
326,130,60406,1,2,3:0:0:0:
271,186,60513,6,0,P|280:247|282:351,1,140,2|2,3:0|3:0,3:3:0:0:
343,373,60834,2,0,P|387:361|433:354,2,70,2|0|2,3:0|3:0|3:0,3:3:0:0:
512,263,61156,6,0,P|451:272|347:274,1,140,4|2,1:2|3:0,3:3:0:0:
299,272,61477,1,2,3:0:0:0:
225,268,61584,1,0,3:0:0:0:
152,270,61691,1,2,3:0:0:0:
78,273,61798,1,2,3:0:0:0:
4,276,61906,1,2,3:0:0:0:
63,219,62013,5,4,1:0:0:0:
119,273,62227,1,2,3:0:0:0:
181,225,62441,1,2,3:2:0:0:
181,225,62548,1,2,3:0:0:0:
181,225,62656,1,2,3:0:0:0:
254,301,62870,5,2,3:0:0:0:
313,253,63084,1,2,3:0:0:0:
389,302,63298,1,2,3:2:0:0:
389,302,63406,1,2,3:0:0:0:
389,302,63513,1,2,3:0:0:0:
389,302,63620,1,2,3:0:0:0:
508,228,63727,6,0,B|440:211|440:211|372:267,1,140,4|8,1:0|1:0,1:1:0:0:
257,333,64048,6,0,L|274:259,1,70,0|4,1:0|1:2,1:1:0:0:
223,74,64263,5,8,1:0:0:0:
170,132,64370,2,0,L|183:208,1,70,8|0,1:0|1:0,1:1:0:0:
72,311,64584,6,0,L|85:273,1,35,8|0,1:0|2:0,1:1:0:0:
0,174,64798,6,0,L|11:207,1,35,8|0,1:0|2:0,0:0:0:0:
117,20,65013,6,0,P|95:46|81:78,1,70,8|0,1:0|0:0,0:0:0:0:
189,288,65441,6,0,P|192:217|284:145,1,167.999994873047,4|0,1:0|1:0,0:0:0:0:
298,87,65763,1,0,1:0:0:0:
492,205,65870,2,0,P|413:197|318:190,1,167.999994873047,8|0,1:0|1:0,0:0:0:0:
281,258,66191,1,0,1:0:0:0:
334,354,66298,2,0,P|361:300|363:253,1,83.9999974365235,8|0,1:0|0:0,0:0:0:0:
211,367,66513,5,0,1:0:0:0:
167,355,66584,1,0,1:0:0:0:
123,343,66656,1,0,1:0:0:0:
79,331,66727,2,0,P|67:235|49:124,2,167.999994873047,8|0|8,1:0|1:0|1:0,0:0:0:0:
156,240,67263,1,2,1:0:0:0:
250,291,67370,1,0,1:0:0:0:
259,321,67584,5,8,1:0:0:0:
147,215,67691,1,2,1:0:0:0:
253,103,67798,1,2,0:1:0:0:
365,209,67906,1,4,1:2:0:0:
251,231,68013,6,0,P|263:135|281:24,1,167.999994873047,10|0,1:0|1:0,0:0:0:0:
266,20,68298,1,2,1:0:0:0:
310,29,68370,1,0,1:0:0:0:
353,38,68441,1,10,1:0:0:0:
387,108,68548,1,0,1:0:0:0:
458,72,68656,1,4,0:2:0:0:
424,2,68763,1,0,1:0:0:0:
346,176,68870,6,0,P|402:205|438:304,1,167.999994873047,12|0,1:0|1:0,0:0:0:0:
362,316,69191,1,0,0:0:0:0:
167,349,69298,2,0,P|230:340|268:330,1,83.9999974365235,8|0,1:0|1:0,0:0:0:0:
346,176,69513,2,0,P|283:167|245:157,1,83.9999974365235,0|0,0:0|1:0,0:0:0:0:
149,56,69727,6,0,P|164:149|168:235,1,167.999994873047,8|0,1:0|1:0,0:0:0:0:
184,264,70013,1,0,1:0:0:0:
139,268,70084,1,0,1:0:0:0:
94,272,70156,1,8,1:0:0:0:
30,226,70263,1,0,1:0:0:0:
93,178,70370,1,0,0:0:0:0:
158,221,70477,1,0,1:0:0:0:
191,375,70584,6,0,P|251:360|358:340,1,167.999994873047,10|0,1:0|1:0,0:0:0:0:
364,296,70870,1,0,1:0:0:0:
407,306,70941,1,0,1:0:0:0:
450,317,71013,2,0,P|452:266|456:224,2,83.9999974365235,10|0|2,1:0|1:0|1:0,0:0:0:0:
378,219,71334,1,4,1:2:0:0:
159,28,71441,6,0,P|162:81|158:212,1,167.999994873047,6|2,1:0|1:0,0:0:0:0:
124,224,71727,1,0,1:0:0:0:
136,266,71798,1,0,1:0:0:0:
148,309,71870,2,0,L|99:305,3,41.9999987182618,8|0|0|0,1:0|1:0|1:0|1:0,1:1:0:0:
48,352,72084,5,4,1:2:0:0:
52,339,72138,1,0,1:0:0:0:
55,327,72191,1,0,1:0:0:0:
59,315,72245,1,0,1:0:0:0:
62,302,72298,2,0,P|58:218|62:134,1,167.999994873047,4|0,1:0|1:0,0:0:0:0:
28,67,72620,5,0,1:0:0:0:
193,84,72727,1,8,1:0:0:0:
176,249,72834,1,0,1:0:0:0:
150,231,73048,5,0,1:0:0:0:
287,183,73156,1,8,1:0:0:0:
335,320,73263,1,0,1:0:0:0:
198,368,73370,5,0,1:0:0:0:
207,324,73441,1,0,1:0:0:0:
213,279,73513,1,0,1:0:0:0:
224,235,73584,1,8,1:0:0:0:
206,150,73691,1,0,1:0:0:0:
287,183,73798,1,0,1:0:0:0:
301,270,73906,1,0,1:0:0:0:
90,190,74013,6,2,P|127:168|151:50,1,167.999994873047,14|0,1:0|1:0,1:1:0:0:
247,11,74334,1,0,0:0:0:0:
355,197,74441,6,0,P|336:186|306:127,1,83.9999974365235,14|0,1:0|1:0,0:0:0:0:
177,282,74656,6,0,P|195:271|225:212,1,83.9999974365235,2|0,0:1|1:0,0:0:0:0:
512,384,74870,6,2,P|453:371|333:359,1,167.999994873047,14|0,1:0|1:0,1:1:0:0:
321,321,75156,1,0,1:0:0:0:
279,336,75227,1,0,1:0:0:0:
237,351,75298,1,10,1:0:0:0:
160,352,75406,1,0,1:0:0:0:
83,360,75513,1,2,1:0:0:0:
14,346,75620,1,0,1:0:0:0:
14,346,75673,1,0,1:0:0:0:
14,346,75727,6,0,B|114:321|77:393|200:356,1,167.999994873047,14|0,1:0|1:0,0:0:0:0:
233,314,76048,1,0,1:0:0:0:
294,266,76156,2,0,P|364:288|430:353,1,167.999994873047,8|0,1:0|1:0,0:0:0:0:
301,345,76477,5,4,1:2:0:0:
219,241,76584,2,0,L|236:139,1,83.9999974365235,12|0,1:0|0:0,0:0:0:0:
323,130,76798,5,0,1:0:0:0:
309,86,76870,1,0,1:0:0:0:
295,43,76941,1,0,1:0:0:0:
279,0,77013,1,8,1:0:0:0:
188,12,77120,1,0,1:0:0:0:
167,98,77227,1,4,0:2:0:0:
241,146,77334,1,0,1:0:0:0:
443,109,77441,6,0,L|466:208,1,83.9999974365235,12|0,1:0|0:0,0:0:0:0:
69,275,77656,6,0,L|46:176,1,83.9999974365235,12|0,1:0|0:0,0:0:0:0:
262,227,77870,5,8,1:0:0:0:
299,296,77977,1,8,1:0:0:0:
258,360,78084,1,0,1:0:0:0:
221,291,78191,1,8,1:0:0:0:
366,244,78298,5,0,1:0:0:0:
499,195,78406,1,0,1:0:0:0:
499,195,78620,5,8,1:0:0:0:
305,108,78727,1,0,1:0:0:0:
472,37,78941,5,8,1:0:0:0:
351,274,79156,6,0,P|294:267|182:263,1,167.999994873047,4|0,1:0|0:0,0:0:0:0:
138,202,79477,1,4,1:3:0:0:
90,258,79584,2,0,P|101:312|105:351,2,83.9999974365235,8|0|4,1:0|0:0|1:3,0:0:0:0:
60,190,79906,1,8,1:0:0:0:
153,120,80013,5,4,1:3:0:0:
210,169,80120,1,8,1:0:0:0:
164,114,80227,1,4,1:3:0:0:
221,163,80334,1,2,0:0:0:0:
193,27,80441,5,8,1:0:0:0:
117,13,80548,1,0,0:0:0:0:
62,70,80656,1,4,1:3:0:0:
79,82,80763,1,0,1:0:0:0:
132,205,80870,6,0,B|194:190|194:190|228:203|228:203|299:183,1,167.999994873047,4|2,1:3|0:0,0:0:0:0:
332,124,81191,1,4,1:3:0:0:
386,182,81298,2,0,L|380:268,1,83.9999974365235,8|2,1:0|0:0,0:0:0:0:
512,211,81513,1,4,1:3:0:0:
459,155,81620,1,8,1:0:0:0:
442,319,81727,1,4,1:3:0:0:
507,288,81834,1,8,1:0:0:0:
367,179,81941,5,4,1:3:0:0:
350,267,82048,1,2,1:2:0:0:
267,281,82156,1,10,1:1:0:0:
227,193,82263,1,4,1:3:0:0:
135,273,82370,1,2,0:1:0:0:
212,341,82477,1,8,1:3:0:0:
326,352,82584,6,0,P|388:341|500:333,1,167.999994873047,4|2,1:3|0:0,0:0:0:0:
483,255,82906,1,4,1:3:0:0:
406,259,83013,2,0,P|361:264|321:274,1,83.9999974365235,8|2,1:0|0:0,0:0:0:0:
212,341,83227,5,4,1:3:0:0:
251,271,83334,1,8,1:0:0:0:
175,265,83441,1,4,1:3:0:0:
288,343,83548,1,8,1:0:0:0:
292,204,83656,5,2,1:2:0:0:
175,265,83763,1,2,1:2:0:0:
288,343,83870,1,8,1:0:0:0:
251,271,83977,1,0,1:0:0:0:
148,337,84084,5,4,1:3:0:0:
186,187,84191,1,8,1:0:0:0:
336,225,84298,1,4,1:0:0:0:
251,271,84406,5,4,1:3:0:0:
289,121,84513,1,4,1:3:0:0:
439,159,84620,1,0,0:0:0:0:
420,232,84727,1,8,1:0:0:0:
283,46,84834,6,0,P|330:53|377:54,1,83.9999974365235,4|0,1:3|0:0,0:0:0:0:
438,18,85048,1,8,1:0:0:0:
265,197,85156,5,4,1:3:0:0:
407,299,85263,1,8,1:0:0:0:
509,157,85370,1,4,1:3:0:0:
367,55,85477,1,2,1:2:0:0:
192,292,85584,5,4,1:3:0:0:
125,151,85691,1,8,1:0:0:0:
116,297,85798,1,4,1:3:0:0:
207,142,85905,1,8,1:0:0:0:
40,201,86013,6,0,B|34:276|9:389,1,167.999994873047,4|2,1:0|0:0,0:0:0:0:
88,364,86334,1,4,1:3:0:0:
40,201,86441,2,0,B|20:110|14:35,1,167.999994873047,8|4,1:0|1:3,0:0:0:0:
90,41,86763,1,8,1:0:0:0:
124,187,86870,5,4,1:3:0:0:
216,210,86977,1,8,1:0:0:0:
284,163,87084,1,2,1:2:0:0:
376,186,87191,1,2,0:0:0:0:
290,245,87298,5,12,1:0:0:0:
206,130,87406,1,4,1:3:0:0:
343,113,87513,1,0,1:0:0:0:
427,228,87620,1,8,1:0:0:0:
221,297,87727,6,0,P|241:237|348:213,1,167.999994873047,4|2,1:3|0:0,0:0:0:0:
373,276,88048,1,4,1:3:0:0:
256,377,88156,2,0,P|191:366|150:364,1,83.9999974365235,8|0,1:0|0:0,0:0:0:0:
121,303,88370,1,4,1:3:0:0:
96,370,88477,1,8,1:0:0:0:
195,278,88584,5,4,1:3:0:0:
128,224,88691,1,8,1:0:0:0:
256,214,88798,1,2,1:2:0:0:
189,160,88905,1,2,0:0:0:0:
68,181,89013,5,12,1:0:0:0:
193,257,89120,1,4,1:3:0:0:
298,147,89227,1,0,1:0:0:0:
281,127,89334,1,8,1:0:0:0:
126,27,89441,6,0,P|138:109|147:212,1,167.999994873047,4|2,1:0|0:0,0:0:0:0:
215,227,89763,1,4,1:3:0:0:
418,157,89870,6,0,P|406:239|397:342,1,167.999994873047,8|4,1:0|1:3,0:0:0:0:
333,362,90191,1,8,1:0:0:0:
269,168,90298,5,4,1:3:0:0:
271,155,90352,1,0,1:0:0:0:
273,142,90406,1,8,1:0:0:0:
276,129,90459,1,0,1:0:0:0:
279,116,90513,1,4,1:3:0:0:
255,47,90620,1,4,1:3:0:0:
358,110,90727,5,4,1:0:0:0:
290,241,90834,1,4,1:3:0:0:
191,138,90941,2,0,P|186:93|178:51,1,83.9999974365235,8|0,1:0|1:0,0:0:0:0:
476,73,91156,5,4,1:0:0:0:
456,148,91263,1,8,1:3:0:0:
445,224,91370,1,0,1:0:0:0:
438,298,91477,1,0,1:3:0:0:
98,372,91584,5,8,1:0:0:0:
93,325,91691,1,8,1:3:0:0:
86,278,91798,1,0,1:0:0:0:
74,231,91905,1,0,1:3:0:0:
374,91,92013,5,8,1:0:0:0:
365,123,92120,1,8,3:0:0:0:
360,156,92227,1,2,3:0:0:0:
357,188,92334,1,8,3:0:0:0:
204,307,92441,5,2,3:0:0:0:
202,288,92548,1,8,3:0:0:0:
199,269,92655,1,4,3:0:0:0:
194,251,92762,1,2,3:0:0:0:
259,147,92870,5,6,1:0:0:0:
259,147,93084,1,2,1:0:0:0:
228,44,94370,5,2,1:0:0:0:
295,80,94477,1,0,1:0:0:0:
259,147,94584,1,2,1:0:0:0:
259,147,94798,1,2,1:0:0:0:
259,147,96298,5,2,1:0:0:0:
192,111,96406,1,0,1:0:0:0:
228,44,96513,1,2,1:0:0:0:
295,80,96620,1,2,1:0:0:0:
259,147,96727,1,2,1:0:0:0:
259,147,97798,5,2,1:0:0:0:
192,111,97906,1,0,1:0:0:0:
228,44,98013,1,2,1:0:0:0:
295,80,98120,1,2,1:0:0:0:
259,147,98227,1,0,1:0:0:0:
192,111,98334,1,2,1:0:0:0:
228,44,98870,5,8,1:0:0:0:
295,80,98977,1,0,1:0:0:0:
307,76,99031,1,0,1:0:0:0:
319,73,99084,1,0,1:0:0:0:
331,70,99138,1,0,1:0:0:0:
343,67,99191,1,0,1:0:0:0:
457,14,99298,6,0,P|443:74|440:117,1,105,8|0,1:0|2:0,0:0:0:0:
485,190,99727,6,0,B|386:174|428:241|327:225,1,167.999994873047,4|0,1:0|1:0,0:0:0:0:
278,169,100048,1,4,1:3:0:0:
255,237,100156,1,8,1:0:0:0:
254,166,100263,1,0,0:0:0:0:
177,225,100370,5,0,1:0:0:0:
200,294,100477,1,4,1:3:0:0:
278,306,100584,1,0,1:0:0:0:
255,237,100691,1,2,1:2:0:0:
118,288,100798,6,0,L|132:372,1,83.9999974365235,2|4,1:2|1:3,0:0:0:0:
57,381,101013,2,0,P|21:332|39:225,1,167.999994873047,8|6,1:0|3:0,0:0:0:0:
36,121,101334,1,2,3:0:0:0:
129,177,101441,2,0,L|115:261,1,83.9999974365235,4|0,1:0|0:0,0:0:0:0:
205,137,101656,2,0,L|139:82,1,83.9999974365235,8|4,1:3|1:3,0:0:0:0:
201,222,101870,2,0,L|280:192,1,83.9999974365235,8|0,1:0|0:0,0:0:0:0:
155,11,102084,5,4,1:3:0:0:
140,83,102191,2,0,P|129:168|111:262,1,167.999994873047,8|8,1:0|1:3,0:0:0:0:
182,384,102513,2,0,P|176:322|175:290,1,83.9999974365235,4|0,1:3|0:0,0:0:0:0:
300,198,102727,2,0,P|297:239|293:281,1,83.9999974365235,8|4,1:0|1:3,0:0:0:0:
268,352,102941,5,2,1:0:0:0:
220,240,103048,1,4,3:0:0:0:
319,124,103156,1,2,1:0:0:0:
367,236,103263,1,8,3:0:0:0:
194,315,103370,5,8,1:3:0:0:
293,281,103477,1,4,1:3:0:0:
220,240,103584,1,8,1:0:0:0:
268,352,103691,1,0,0:0:0:0:
286,196,103798,5,0,1:3:0:0:
143,244,103906,1,4,1:3:0:0:
194,384,104013,1,4,1:3:0:0:
339,337,104120,1,0,0:0:0:0:
181,177,104227,5,4,1:3:0:0:
115,315,104334,1,4,1:3:0:0:
138,204,104441,2,0,P|134:142|31:75,1,167.999994873047,8|4,1:0|1:3,0:0:0:0:
11,134,104763,5,0,1:3:0:0:
72,237,104870,1,12,1:3:0:0:
0,325,104977,1,2,1:2:0:0:
0,325,105084,1,8,1:3:0:0:
158,286,105191,5,4,1:3:0:0:
80,164,105298,1,8,1:0:0:0:
175,65,105406,1,2,1:2:0:0:
175,65,105513,2,0,L|267:100,1,83.9999974365235,4|2,1:3|1:2,0:0:0:0:
282,223,105727,6,0,L|466:195,1,167.999994873047,12|2,1:0|1:2,0:0:0:0:
498,144,106048,1,2,1:2:0:0:
350,292,106156,6,0,L|250:307,1,83.9999974365235,8|2,1:0|1:2,0:0:0:0:
213,358,106370,2,2,P|133:344|91:273,1,167.999994873047,6|6,1:3|1:0,1:1:0:0:
91,273,106798,1,0,1:0:0:0:
91,273,107013,1,4,1:2:0:0:
91,273,107227,1,0,1:0:0:0:
91,273,107441,5,12,1:0:0:0:
111,197,107548,1,0,1:0:0:0:
184,218,107656,1,8,1:3:0:0:
165,295,107763,1,4,1:3:0:0:
91,273,107870,2,0,L|81:187,1,83.9999974365235,4|0,1:0|0:0,0:0:0:0:
202,128,108084,5,2,1:3:0:0:
247,265,108191,1,2,1:3:0:0:
80,256,108298,2,0,L|69:169,1,83.9999974365235,4|0,1:0|0:0,0:0:0:0:
22,104,108513,6,0,L|108:93,1,83.9999974365235,8|0,1:0|0:0,0:0:0:0:
490,280,108727,6,0,L|403:290,1,83.9999974365235,12|0,1:0|0:0,0:0:0:0:
200,147,108941,5,2,1:3:0:0:
312,237,109048,1,2,1:3:0:0:
226,231,109156,5,6,1:0:0:0:
283,157,109263,1,0,1:0:0:0:
224,219,109370,1,2,1:0:0:0:
281,145,109477,1,10,1:0:0:0:
312,237,109584,5,8,1:0:0:0:
200,147,109691,2,2,P|207:83|210:31,1,105.000004005432,0|0,1:0|0:0,1:1:0:0:
145,2,110013,5,4,1:0:0:0:
145,2,110227,1,0,3:0:0:0:
145,2,110441,1,2,3:0:0:0:
145,2,110656,1,0,3:0:0:0:
116,74,110763,1,2,3:0:0:0:
55,35,110870,1,4,1:2:0:0:
55,35,111084,1,0,3:0:0:0:
55,35,111298,1,2,3:0:0:0:
55,35,111513,5,2,3:0:0:0:
87,150,111620,1,2,3:0:0:0:
119,265,111727,1,2,3:0:0:0:
119,265,111941,1,2,3:0:0:0:
84,198,112156,5,0,3:0:0:0:
157,202,112263,1,2,3:0:0:0:
230,206,112370,2,0,L|302:179,1,70,2|0,3:0|3:0,3:3:0:0:
352,119,112584,6,0,L|338:263,1,140,4|0,1:0|1:0,1:1:0:0:
311,296,112870,1,0,1:0:0:0:
355,310,112941,1,0,1:0:0:0:
399,324,113013,1,8,1:0:0:0:
461,277,113120,1,0,3:0:0:0:
511,338,113227,1,2,3:0:0:0:
450,384,113334,1,2,3:0:0:0:
338,258,113441,5,4,3:1:0:0:
399,212,113548,1,2,3:0:0:0:
475,228,113656,2,0,P|468:174|461:68,1,140,2|0,3:0|3:0,3:3:0:0:
402,43,113977,1,2,3:0:0:0:
341,88,114084,2,0,P|347:126|352:165,1,70,0|2,3:0|3:0,0:0:0:0:
303,216,114298,1,4,1:2:0:0:
163,157,114513,1,0,3:0:0:0:
222,17,114727,5,2,3:0:0:0:
284,60,114834,1,0,3:0:0:0:
215,91,114941,1,2,3:0:0:0:
151,48,115048,1,2,3:0:0:0:
23,173,115156,5,2,3:0:0:0:
23,173,115370,1,2,3:0:0:0:
23,173,115584,1,2,3:0:0:0:
146,196,115691,1,2,3:0:0:0:
269,219,115798,1,2,3:0:0:0:
269,219,116013,5,0,1:0:0:0:
202,137,116120,1,2,3:0:0:0:
171,286,116227,1,0,1:0:0:0:
216,279,116298,1,0,1:0:0:0:
262,273,116370,1,0,1:0:0:0:
307,265,116441,1,8,1:0:0:0:
353,205,116548,1,0,3:0:0:0:
398,286,116656,5,2,3:0:0:0:
283,142,116763,1,2,3:0:0:0:
366,57,116870,5,4,1:0:0:0:
366,57,117084,1,0,3:0:0:0:
366,57,117298,1,2,3:0:0:0:
366,57,117513,1,0,3:0:0:0:
436,34,117620,1,2,3:0:0:0:
458,104,117727,1,4,1:2:0:0:
458,104,117941,1,0,3:0:0:0:
458,104,118156,1,2,3:0:0:0:
458,104,118370,5,2,3:0:0:0:
330,80,118477,1,2,3:0:0:0:
202,56,118584,1,2,3:0:0:0:
202,56,118798,1,2,3:0:0:0:
270,21,119013,5,0,3:0:0:0:
263,97,119120,1,2,3:0:0:0:
256,173,119227,2,0,L|266:254,1,70,2|0,3:0|3:0,3:3:0:0:
335,360,119441,6,0,L|353:203,1,140,4|0,1:0|1:0,1:1:0:0:
343,174,119727,1,0,1:0:0:0:
387,186,119798,1,0,1:0:0:0:
432,198,119870,1,8,1:0:0:0:
499,164,119977,1,0,3:0:0:0:
503,255,120084,5,2,3:0:0:0:
436,289,120191,1,2,3:0:0:0:
283,254,120298,5,4,1:0:0:0:
350,220,120405,1,2,3:0:0:0:
265,209,120513,2,0,P|187:198|126:187,2,140,2|2|0,3:0|3:0|3:0,3:3:0:0:
223,277,121048,1,2,3:0:0:0:
59,241,121156,2,0,P|62:281|62:330,1,70,4|0,1:2|0:0,3:3:0:0:
120,361,121370,5,2,3:0:0:0:
299,276,121584,1,0,3:0:0:0:
214,97,121798,1,2,3:0:0:0:
199,193,121906,1,2,3:0:0:0:
360,109,122013,6,0,P|346:58|331:20,1,70,4|0,1:0|0:0,0:0:0:0:
267,22,122227,1,2,3:0:0:0:
40,172,122441,5,2,3:2:0:0:
13,241,122548,1,2,3:0:0:0:
114,199,122656,1,2,3:0:0:0:
87,268,122763,1,0,0:0:0:0:
257,318,122870,5,2,3:0:0:0:
472,172,123084,5,2,3:0:0:0:
499,241,123191,1,0,0:0:0:0:
398,199,123299,1,2,3:2:0:0:
425,268,123406,1,2,3:0:0:0:
299,122,123513,5,2,3:0:0:0:
243,308,123620,1,2,3:0:0:0:
183,102,123727,6,0,B|166:66|166:66|180:25,1,83.9999974365235,4|0,1:0|0:0,1:1:0:0:
329,282,123941,6,0,B|346:318|346:318|332:359,1,83.9999974365235,8|0,1:0|1:0,1:1:0:0:
139,230,124156,6,0,L|57:247,1,83.9999974365235,4|8,1:2|1:0,0:0:0:0:
373,154,124370,6,0,L|455:137,1,83.9999974365235,8|0,1:0|1:0,1:1:0:0:
54,157,124584,5,2,3:0:0:0:
54,157,124727,1,2,3:0:0:0:
54,157,124870,1,2,3:0:0:0:
54,157,125013,2,0,L|64:78,1,70,0|0,3:0|0:0,0:0:0:0:
283,150,125441,6,0,P|263:201|256:338,1,167.999994873047,4|0,1:0|1:0,0:0:0:0:
315,357,125763,1,0,1:0:0:0:
500,220,125870,2,0,P|441:213|402:113,1,167.999994873047,8|0,1:0|1:0,0:0:0:0:
438,53,126191,1,0,1:0:0:0:
269,26,126298,2,0,P|274:77|285:122,1,83.9999974365235,8|0,1:0|0:0,0:0:0:0:
202,279,126513,5,0,1:0:0:0:
168,249,126584,1,0,1:0:0:0:
137,215,126656,1,0,1:0:0:0:
100,189,126727,2,0,P|88:261|77:367,2,167.999994873047,8|0|8,1:0|1:0|1:0,0:0:0:0:
23,197,127263,1,2,1:0:0:0:
63,56,127370,1,0,1:0:0:0:
48,41,127584,5,8,1:0:0:0:
189,81,127691,1,2,1:0:0:0:
149,222,127798,1,2,0:1:0:0:
109,156,127906,1,4,1:2:0:0:
344,154,128013,6,0,P|356:226|367:332,1,167.999994873047,10|0,1:0|1:0,0:0:0:0:
400,348,128298,1,2,1:0:0:0:
355,354,128370,1,0,1:0:0:0:
311,361,128441,1,10,1:0:0:0:
255,306,128548,1,0,1:0:0:0:
182,333,128656,1,4,0:2:0:0:
238,381,128763,1,0,1:0:0:0:
185,235,128870,6,0,P|198:158|275:126,1,167.999994873047,12|0,1:0|1:0,0:0:0:0:
362,157,129191,1,0,0:0:0:0:
306,50,129298,1,8,1:0:0:0:
199,106,129406,1,0,1:0:0:0:
255,213,129513,1,0,0:0:0:0:
446,293,129620,5,0,1:0:0:0:
488,218,129727,2,0,P|374:233|324:281,1,167.999994873047,8|0,1:0|1:0,0:0:0:0:
340,309,130013,1,0,1:0:0:0:
296,301,130084,1,0,1:0:0:0:
251,293,130156,1,8,1:0:0:0:
183,253,130263,1,0,1:0:0:0:
148,349,130370,1,0,0:0:0:0:
80,309,130477,1,0,1:0:0:0:
184,143,130584,6,0,P|179:236|171:315,1,167.999994873047,10|0,1:0|1:0,0:0:0:0:
148,349,130870,1,0,1:0:0:0:
192,342,130941,1,0,1:0:0:0:
236,335,131013,1,10,1:0:0:0:
290,275,131120,1,0,1:0:0:0:
271,252,131334,5,4,1:2:0:0:
455,302,131441,1,14,1:0:0:0:
505,118,131548,1,8,1:0:0:0:
374,14,131656,5,2,1:0:0:0:
378,46,131727,1,0,1:0:0:0:
384,90,131798,1,0,1:0:0:0:
391,134,131870,1,8,1:0:0:0:
458,26,131977,1,0,1:0:0:0:
298,47,132084,1,4,1:2:0:0:
319,207,132191,5,0,1:0:0:0:
319,207,132245,1,0,1:0:0:0:
319,207,132298,2,0,P|267:198|139:188,1,167.999994873047,4|0,1:0|1:0,0:0:0:0:
96,138,132620,1,0,1:0:0:0:
173,49,132727,5,8,1:0:0:0:
204,117,132834,1,0,1:0:0:0:
202,47,132941,1,0,1:0:0:0:
288,93,133048,1,0,1:0:0:0:
47,31,133156,6,0,P|53:110|55:216,1,167.999994873047,8|0,1:0|1:0,0:0:0:0:
93,221,133441,1,0,1:0:0:0:
84,265,133513,1,0,1:0:0:0:
75,308,133584,1,8,1:0:0:0:
117,374,133691,1,0,1:0:0:0:
149,307,133798,1,0,1:0:0:0:
44,375,133906,1,0,1:0:0:0:
208,372,134013,6,2,P|257:337|268:229,1,167.999994873047,14|0,1:0|1:0,1:1:0:0:
270,160,134334,1,0,0:0:0:0:
333,202,134441,1,14,1:0:0:0:
202,205,134548,1,0,1:0:0:0:
139,163,134656,1,2,0:1:0:0:
236,42,134763,5,0,1:0:0:0:
278,103,134870,2,2,P|273:167|267:288,1,167.999994873047,14|0,1:0|1:0,1:1:0:0:
253,301,135156,1,0,1:0:0:0:
296,310,135227,1,0,1:0:0:0:
339,319,135298,1,10,1:0:0:0:
405,281,135406,1,0,1:0:0:0:
465,331,135513,1,2,1:0:0:0:
397,375,135620,1,0,1:0:0:0:
244,270,135727,6,0,P|240:186|234:102,1,167.999994873047,14|0,1:0|1:0,0:0:0:0:
181,36,136048,1,0,1:0:0:0:
298,63,136156,1,8,1:0:0:0:
169,160,136263,1,0,1:0:0:0:
318,194,136370,1,0,1:0:0:0:
310,179,136477,1,4,1:2:0:0:
420,186,136584,6,0,P|371:202|347:319,1,167.999994873047,12|0,1:0|1:0,0:0:0:0:
333,349,136870,1,0,1:0:0:0:
377,343,136941,1,0,1:0:0:0:
421,337,137013,1,8,1:0:0:0:
481,272,137120,1,0,1:0:0:0:
410,299,137227,1,4,1:2:0:0:
500,358,137334,1,0,1:0:0:0:
420,186,137441,6,0,L|438:82,1,97.9999970092774,12|0,1:0|0:0,0:0:0:0:
319,217,137656,5,4,1:0:0:0:
319,217,137709,1,0,1:0:0:0:
319,217,137763,2,0,L|300:111,1,97.9999970092774,8|0,1:0|1:0,0:0:0:0:
234,309,137977,5,0,1:0:0:0:
234,309,138031,1,0,1:0:0:0:
234,309,138084,2,0,L|188:212,1,97.9999970092774,8|0,1:0|1:0,0:0:0:0:
153,230,138245,1,0,1:0:0:0:
157,211,138298,1,8,1:0:0:0:
162,191,138352,1,0,1:0:0:0:
167,171,138406,1,0,1:0:0:0:
172,152,138459,1,0,1:0:0:0:
177,133,138513,2,0,L|158:41,1,83.9999974365235,8|0,1:0|1:0,0:0:0:0:
75,229,138727,5,4,1:0:0:0:
437,155,138941,5,4,1:0:0:0:
251,366,139156,6,0,P|256:297|270:192,1,167.999994873047,4|0,1:0|1:0,0:0:0:0:
222,137,139477,1,0,1:0:0:0:
284,19,139584,2,0,P|242:13|156:100,1,167.999994873047,8|0,1:0|1:0,0:0:0:0:
82,121,139906,1,0,1:0:0:0:
98,255,140013,2,0,P|155:245|193:210,1,83.9999974365235,8|0,1:0|0:0,0:0:0:0:
309,113,140227,5,0,1:0:0:0:
351,127,140298,1,0,1:0:0:0:
393,142,140370,1,0,1:0:0:0:
434,158,140441,2,0,P|450:222|467:342,2,167.999994873047,8|0|8,1:0|1:0|1:0,0:0:0:0:
446,82,140977,1,2,1:0:0:0:
329,195,141084,1,0,1:0:0:0:
342,176,141298,5,8,1:0:0:0:
178,135,141406,1,2,1:0:0:0:
137,299,141513,1,2,0:1:0:0:
301,340,141620,1,4,1:2:0:0:
247,222,141727,6,0,L|74:253,1,167.999994873047,10|0,1:0|1:0,0:0:0:0:
47,281,142013,1,2,1:0:0:0:
37,237,142084,1,0,1:0:0:0:
27,192,142156,1,10,1:0:0:0:
76,136,142263,1,0,1:0:0:0:
39,71,142370,1,4,0:2:0:0:
77,7,142477,1,0,1:0:0:0:
103,123,142584,6,0,P|156:117|191:17,1,167.999994873047,12|0,1:0|1:0,0:0:0:0:
266,20,142906,1,0,0:0:0:0:
306,160,143013,2,0,P|293:208|284:253,1,83.9999974365235,8|0,1:0|1:0,0:0:0:0:
416,293,143227,1,0,1:0:0:0:
436,368,143334,1,0,1:0:0:0:
226,318,143441,6,0,P|173:298|148:191,1,167.999994873047,8|0,1:0|1:0,0:0:0:0:
101,187,143727,1,0,1:0:0:0:
118,146,143798,1,0,1:0:0:0:
136,104,143870,1,8,1:0:0:0:
125,24,143977,1,0,1:0:0:0:
200,44,144084,1,0,0:0:0:0:
211,124,144191,1,0,1:0:0:0:
84,161,144298,6,0,B|47:140|47:140|40:88,1,83.9999974365235,10|0,1:0|0:0,0:0:0:0:
196,160,144513,1,0,1:0:0:0:
182,202,144584,1,0,1:0:0:0:
168,245,144656,1,0,1:0:0:0:
155,287,144727,1,10,1:0:0:0:
100,343,144834,1,0,1:0:0:0:
80,265,144941,1,0,0:0:0:0:
25,321,145048,1,4,1:2:0:0:
230,365,145156,6,0,B|270:339|270:339|278:279,1,97.9999970092774,14|8,1:0|1:0,0:0:0:0:
84,161,145370,6,0,B|42:133|42:133|40:80,1,97.9999970092774,2|0,1:0|0:0,0:0:0:0:
257,41,145584,5,8,1:0:0:0:
254,56,145638,1,0,1:0:0:0:
252,73,145691,1,0,1:0:0:0:
250,90,145745,1,0,1:0:0:0:
248,106,145798,1,4,1:2:0:0:
246,122,145852,1,0,1:0:0:0:
244,138,145906,1,0,1:0:0:0:
242,154,145959,1,0,1:0:0:0:
241,170,146013,2,0,B|330:187|303:119|413:140,1,167.999994873047,4|0,1:0|1:0,0:0:0:0:
448,78,146334,5,0,1:0:0:0:
473,227,146441,2,0,P|463:270|465:339,2,83.9999974365235,8|0|0,1:0|1:0|0:0,0:0:0:0:
397,230,146763,1,0,1:0:0:0:
320,315,146870,6,0,P|323:264|321:135,1,167.999994873047,8|0,1:0|1:0,0:0:0:0:
334,103,147156,1,0,1:0:0:0:
290,112,147227,1,0,1:0:0:0:
246,122,147298,1,8,1:0:0:0:
180,81,147406,1,0,1:0:0:0:
134,139,147513,1,0,1:0:0:0:
196,179,147620,1,0,1:0:0:0:
255,44,147727,6,2,P|214:16|174:3,1,83.9999974365235,14|0,1:0|0:0,1:1:0:0:
36,139,147941,1,0,1:0:0:0:
57,66,148048,1,0,0:0:0:0:
6,157,148156,2,0,P|45:171|79:196,1,83.9999974365235,14|0,1:0|1:0,0:0:0:0:
181,345,148370,2,0,P|215:320|254:305,1,83.9999974365235,2|0,0:1|1:0,0:0:0:0:
93,355,148584,6,2,P|99:291|103:176,1,167.999994873047,14|0,1:0|1:0,1:1:0:0:
90,144,148870,1,0,1:0:0:0:
134,139,148941,1,0,1:0:0:0:
178,134,149013,1,10,1:0:0:0:
228,73,149120,1,0,1:0:0:0:
284,126,149227,1,2,1:0:0:0:
238,183,149334,1,0,1:0:0:0:
164,28,149441,6,0,P|231:42|339:52,1,167.999994873047,14|0,1:0|1:0,0:0:0:0:
402,25,149763,1,0,1:0:0:0:
324,232,149870,2,0,P|302:281|291:320,1,83.9999974365235,8|0,1:0|1:0,0:0:0:0:
482,218,150084,2,0,P|469:178|451:140,1,83.9999974365235,0|4,1:0|1:2,0:0:0:0:
267,177,150298,6,0,B|170:156|202:226|91:198,1,167.999994873047,12|0,1:0|1:0,0:0:0:0:
70,229,150584,1,0,1:0:0:0:
64,184,150656,1,0,1:0:0:0:
58,139,150727,1,8,1:0:0:0:
76,57,150834,1,0,1:0:0:0:
158,40,150941,1,4,1:2:0:0:
217,98,151048,2,0,L|323:77,1,83.9999974365235,0|12,1:0|1:0,0:0:0:0:
394,182,151263,5,0,0:0:0:0:
493,161,151370,1,4,1:0:0:0:
391,108,151477,1,8,1:0:0:0:
265,257,151584,6,0,L|277:363,1,83.9999974365235,0|0,1:0|1:0,0:0:0:0:
210,207,151798,5,8,1:0:0:0:
349,290,151906,1,0,1:0:0:0:
198,359,152013,1,4,1:3:0:0:
198,359,152227,5,8,1:3:0:0:
331,208,152334,1,4,1:3:0:0:
331,208,152548,5,8,1:3:0:0:
137,49,152656,1,4,1:3:0:0:
4,200,152870,5,4,1:0:0:0:
4,200,153727,6,0,L|113:209,1,105.000004005432,4|0,1:0|0:0,0:0:0:0:
210,25,154048,6,0,L|201:134,1,105.000004005432,4|0,1:0|0:0,0:0:0:0:
258,179,154370,1,4,1:0:0:0:
258,179,155013,6,0,L|256:233,1,52.5000020027161,4|0,1:2|0:0,0:0:0:0:
256,306,155227,1,4,0:1:0:0:
400,137,155441,6,0,P|392:97|335:50,1,105.000004005432,4|0,1:0|0:0,0:0:0:0:
131,259,155763,6,0,P|139:299|196:346,1,105.000004005432,4|0,1:0|0:0,0:0:0:0:
345,245,156084,5,4,1:0:0:0:
398,298,156298,1,0,1:0:0:0:
327,314,156513,1,0,1:0:0:0:
179,175,156727,6,0,L|193:120,1,52.5000020027161,4|0,1:2|0:0,0:0:0:0:
151,61,157156,5,8,1:0:0:0:
279,174,157263,1,8,1:0:0:0:
117,228,157370,1,0,1:0:0:0:
186,150,157477,5,2,1:2:0:0:
200,223,157584,1,2,1:2:0:0:
207,295,157691,1,0,1:0:0:0:
1,214,157798,6,0,B|11:188|11:188|2:158,1,52.5000020027161,4|0,1:0|0:0,0:0:0:0:
259,17,158013,5,8,1:3:0:0:
486,189,158334,5,8,1:0:0:0:
253,367,158656,5,12,1:0:0:0:
310,116,158870,5,8,1:0:0:0:
313,125,158923,1,0,1:0:0:0:
316,135,158977,1,0,1:0:0:0:
319,145,159031,1,0,1:0:0:0:
353,166,159084,5,2,1:2:0:0:
345,191,159138,1,2,1:2:0:0:
337,215,159191,1,2,1:2:0:0:
329,240,159245,1,2,1:2:0:0:
336,282,159298,5,6,1:2:0:0:
325,280,159351,1,0,1:0:0:0:
315,278,159405,1,0,1:0:0:0:
304,277,159458,1,0,1:0:0:0:
294,275,159513,6,0,L|258:295,1,26.2500010013581,4|0,1:0|2:0,1:1:0:0:
181,364,159727,6,0,B|146:330|146:330|166:205,1,157.500006008148,4|0,1:0|0:0,0:0:0:0:
125,160,160156,1,4,1:2:0:0:
125,160,160370,1,0,1:0:0:0:
321,21,160584,6,0,L|389:117,1,105.000004005432,12|0,1:0|0:0,0:0:0:0:
461,129,160906,6,0,L|411:235,1,105.000004005432,4|0,1:0|0:0,0:0:0:0:
445,300,161227,5,4,1:0:0:0:
445,300,161441,1,2,0:2:0:0:
445,300,161656,1,2,0:2:0:0:
420,378,161870,6,0,L|371:355,1,52.5000020027161,0|0,1:0|0:0,0:0:0:0:
335,286,162084,2,0,L|287:263,1,52.5000020027161,0|0,1:0|0:0,0:0:0:0:
223,304,162298,6,0,B|174:295|174:295|96:382,2,157.500006008148,12|0|0,1:0|1:0|1:0,0:0:0:0:
267,363,163156,5,2,1:2:0:0:
267,363,163370,1,2,1:2:0:0:
267,363,163584,1,2,1:2:0:0:
341,351,163691,1,2,0:0:0:0:
326,279,163798,1,2,1:2:0:0:
251,290,163906,1,2,1:2:0:0:
155,225,164013,6,0,L|145:63,1,157.500006008148,8|0,1:0|1:0,0:0:0:0:
358,26,164656,5,2,1:0:0:0:
390,94,164870,2,2,B|403:88|403:88|410:100|410:100|422:94|422:94|425:108|425:108|441:106|441:106|421:191|463:239,1,210.000008010865,2|4,1:0|0:0,1:1:0:0:
499,315,165406,5,0,1:0:0:0:
499,315,165459,1,0,1:0:0:0:
499,315,165513,1,8,1:0:0:0:
382,368,165620,1,0,1:0:0:0:
196,190,165727,5,8,1:0:0:0:
323,130,165834,1,4,1:3:0:0:
271,202,165941,5,2,1:2:0:0:
249,130,166048,1,0,1:2:0:0:
406,32,166156,5,6,1:2:0:0:
435,104,166263,1,4,1:3:0:0:
463,175,166370,1,8,1:3:0:0:
463,175,166477,1,8,1:3:0:0:
258,15,166584,5,4,1:0:0:0:
258,15,166798,1,8,3:0:0:0:
263,88,166906,1,8,3:0:0:0:
266,161,167013,1,8,3:0:0:0:
266,161,167227,1,8,1:3:0:0:
106,192,167441,6,0,L|159:199,1,52.5000020027161,4|0,1:0|0:0,0:0:0:0:
258,15,167656,5,4,3:0:0:0:
258,15,167870,1,4,3:0:0:0:
496,201,168084,5,2,3:0:0:0:
423,192,168191,1,2,3:0:0:0:
350,182,168298,1,2,3:0:0:0:
350,182,168620,1,4,1:3:0:0:
350,182,168941,1,4,1:3:0:0:
106,192,169156,6,0,L|151:191,1,52.5000020027161,12|0,1:0|0:0,0:0:0:0:
106,192,169370,1,4,1:2:0:0:
258,376,169584,5,2,3:0:0:0:
268,297,169691,1,0,3:0:0:0:
251,368,169798,1,2,3:0:0:0:
261,289,169905,1,2,3:0:0:0:
254,15,170013,5,4,1:0:0:0:
254,15,170227,1,8,3:0:0:0:
249,88,170335,1,8,3:0:0:0:
246,161,170442,1,8,3:0:0:0:
246,161,170656,1,8,3:0:0:0:
406,192,170870,6,0,L|353:199,1,52.5000020027161,4|0,1:0|0:0,0:0:0:0:
254,15,171085,5,4,3:3:0:0:
254,15,171299,1,4,3:3:0:0:
16,201,171513,5,2,3:0:0:0:
89,192,171620,1,2,3:0:0:0:
162,182,171727,1,2,3:0:0:0:
162,182,172049,1,4,1:3:0:0:
162,182,172370,1,4,1:3:0:0:
406,192,172585,6,0,L|353:199,1,52.5000020027161,4|0,1:0|0:0,0:0:0:0:
291,151,172799,1,8,1:0:0:0:
418,27,172906,5,4,1:3:0:0:
469,85,173013,2,0,L|476:138,1,52.5000020027161,8|2,3:1|0:0,0:0:0:0:
219,87,173227,6,0,L|212:34,1,52.5000020027161,6|0,1:2|0:0,0:0:0:0:
128,200,173441,5,4,1:0:0:0:
154,180,173656,5,8,3:0:0:0:
43,137,173763,1,8,3:0:0:0:
0,248,173870,1,8,3:0:0:0:
0,248,174084,1,8,3:0:0:0:
261,381,174298,6,0,L|270:321,1,52.5000020027161,4|0,1:0|0:0,0:0:0:0:
255,258,174513,1,4,3:3:0:0:
255,258,174727,1,4,3:0:0:0:
501,193,174941,5,2,3:0:0:0:
427,185,175048,1,2,3:0:0:0:
353,177,175156,1,2,3:0:0:0:
353,177,175477,1,4,1:3:0:0:
353,177,175798,1,4,1:3:0:0:
136,41,176013,6,0,B|74:52,1,52.5000020027161,12|0,1:0|0:0,0:0:0:0:
44,109,176227,1,4,1:2:0:0:
258,376,176442,5,2,3:0:0:0:
268,297,176549,1,0,3:0:0:0:
251,368,176656,1,2,3:0:0:0:
261,289,176763,1,2,3:0:0:0:
369,117,176870,6,0,B|431:128,1,52.5000020027161,4|0,1:0|0:0,0:0:0:0:
258,5,177084,5,8,3:0:0:0:
253,78,177191,1,8,3:0:0:0:
248,151,177298,1,8,3:0:0:0:
248,151,177513,1,8,3:0:0:0:
74,353,177727,6,0,L|60:295,1,52.5000020027161,12|0,1:0|0:0,0:0:0:0:
109,242,177941,1,4,3:3:0:0:
54,199,178048,1,0,1:0:0:0:
54,199,178102,1,0,1:0:0:0:
54,199,178156,1,12,1:0:0:0:
76,124,178263,1,0,1:0:0:0:
229,190,178370,5,2,3:0:0:0:
300,207,178477,1,2,3:0:0:0:
491,129,178584,6,0,B|451:139|451:139|422:209,1,105.000004005432,4|0,1:0|1:0,0:0:0:0:
433,273,178906,1,4,1:3:0:0:
249,120,179013,6,0,L|257:51,1,52.5000020027161,8|8,1:0|3:0,0:0:0:0:
201,9,179227,1,4,1:3:0:0:
315,308,179441,5,12,1:0:0:0:
281,378,179548,1,8,1:0:0:0:
210,347,179656,1,0,1:0:0:0:
246,278,179763,1,0,1:0:0:0:
443,176,179870,5,12,1:0:0:0:
450,186,179923,1,0,1:0:0:0:
457,196,179977,1,0,1:0:0:0:
464,206,180031,1,0,1:0:0:0:
483,214,180084,5,0,1:0:0:0:
483,221,180138,1,0,1:0:0:0:
483,228,180191,1,0,1:0:0:0:
483,235,180245,1,0,1:0:0:0:
483,242,180298,1,6,1:2:0:0:
258,192,186727,5,2,3:0:0:0:
258,192,186834,1,0,3:0:0:0:
258,192,186941,1,2,3:0:0:0:
258,192,187048,1,2,3:0:0:0:
50,117,187156,5,4,1:0:0:0:
62,127,187584,1,2,3:0:0:0:
62,127,187691,1,0,3:0:0:0:
62,127,187798,1,2,3:0:0:0:
114,69,188013,5,0,3:0:0:0:
129,72,188120,1,2,3:0:0:0:
144,75,188227,1,2,3:0:0:0:
219,185,188441,1,2,3:2:0:0:
329,110,188656,1,2,3:2:0:0:
243,26,188870,5,2,3:0:0:0:
248,62,188977,1,0,3:0:0:0:
253,98,189084,1,2,3:0:0:0:
311,192,189298,5,2,3:0:0:0:
306,228,189405,1,0,3:0:0:0:
301,264,189513,1,2,3:0:0:0:
297,300,189620,1,2,3:0:0:0:
248,358,189727,5,0,3:0:0:0:
347,375,189941,1,2,3:2:0:0:
220,197,190156,5,0,3:0:0:0:
121,180,190370,1,2,3:2:0:0:
18,248,190584,5,2,3:0:0:0:
97,275,190906,1,2,3:0:0:0:
97,275,191013,1,2,3:0:0:0:
228,188,191227,5,2,3:0:0:0:
281,200,191334,1,2,3:0:0:0:
334,213,191441,1,2,3:0:0:0:
334,213,191548,1,0,3:0:0:0:
406,166,191656,6,0,L|436:210,1,52.5000020027161,2|0,3:0|0:0,0:0:0:0:
506,251,191870,6,0,L|477:305,1,52.5000020027161,2|0,3:0|0:0,0:0:0:0:
495,373,192084,5,2,3:0:0:0:
257,373,192298,5,2,3:0:0:0:
257,373,192513,1,2,3:0:0:0:
257,293,192727,5,2,3:0:0:0:
259,256,192834,1,0,3:0:0:0:
260,219,192941,1,2,3:0:0:0:
261,182,193048,1,2,3:0:0:0:
262,106,193156,5,2,3:0:0:0:
262,106,193370,1,2,3:0:0:0:
183,77,193584,5,2,3:0:0:0:
184,121,193691,1,0,3:0:0:0:
185,165,193798,1,2,3:0:0:0:
187,210,193905,1,2,3:0:0:0:
166,287,194013,5,8,3:0:0:0:
115,232,194120,1,8,3:0:0:0:
303,134,194227,5,4,3:0:0:0:
276,219,194334,1,4,3:0:0:0:
63,102,194441,5,8,1:3:0:0:
168,78,194548,1,8,1:3:0:0:
133,357,194656,5,4,1:3:0:0:
41,258,194763,1,4,1:3:0:0:
353,79,194870,6,0,P|343:153|334:298,1,210.000008010865,4|8,1:0|1:0,0:0:0:0:
162,176,195727,6,0,P|158:107|75:40,1,167.999994873047,4|0,1:0|1:0,0:0:0:0:
33,90,196048,1,0,1:0:0:0:
45,281,196156,2,0,P|141:259|247:239,1,167.999994873047,8|0,1:0|1:0,0:0:0:0:
243,176,196477,1,0,1:0:0:0:
387,342,196584,2,0,P|346:362|301:360,1,83.9999974365235,8|0,1:0|0:0,0:0:0:0:
339,227,196798,5,0,1:0:0:0:
382,240,196870,1,0,1:0:0:0:
424,253,196941,1,0,1:0:0:0:
466,266,197013,2,0,P|453:188|440:76,2,167.999994873047,8|0|8,1:0|1:0|1:0,0:0:0:0:
371,160,197548,1,2,1:0:0:0:
291,290,197656,1,0,1:0:0:0:
319,303,197870,5,8,1:0:0:0:
246,145,197977,1,2,1:0:0:0:
88,218,198084,1,2,1:1:0:0:
161,376,198191,1,4,1:2:0:0:
163,265,198298,6,0,P|176:187|189:75,1,167.999994873047,10|0,1:0|1:0,0:0:0:0:
170,56,198584,1,2,1:0:0:0:
214,61,198656,1,0,1:0:0:0:
258,66,198727,1,10,1:0:0:0:
323,23,198834,1,0,1:0:0:0:
382,73,198941,1,4,0:2:0:0:
317,116,199048,1,0,1:0:0:0:
94,101,199156,6,0,P|39:120|14:228,1,167.999994873047,12|0,1:0|1:0,0:0:0:0:
76,256,199477,1,0,1:0:0:0:
181,174,199584,1,8,1:0:0:0:
263,279,199691,2,0,P|268:338|272:380,1,83.9999974365235,0|0,1:0|0:0,0:0:0:0:
75,351,199906,5,0,1:0:0:0:
146,377,200013,2,0,P|149:309|160:188,1,167.999994873047,8|0,1:0|1:0,0:0:0:0:
202,211,200298,1,0,1:0:0:0:
194,166,200370,1,0,1:0:0:0:
186,122,200441,1,8,1:0:0:0:
240,69,200548,1,0,1:0:0:0:
110,99,200656,1,0,1:0:0:0:
164,46,200763,1,0,1:0:0:0:
340,10,200870,6,0,P|347:93|351:177,1,167.999994873047,10|0,1:0|1:0,0:0:0:0:
333,218,201156,1,0,1:0:0:0:
377,219,201227,1,0,1:0:0:0:
421,221,201298,1,10,1:0:0:0:
488,179,201406,1,0,1:0:0:0:
420,144,201513,1,0,1:0:0:0:
489,259,201620,1,4,1:2:0:0:
437,322,201727,2,0,P|373:315|339:307,1,83.9999974365235,14|8,1:0|1:0,0:0:0:0:
233,234,201941,5,2,1:0:0:0:
190,247,202013,1,0,1:0:0:0:
147,260,202084,1,0,1:0:0:0:
103,273,202156,2,0,B|87:249|87:249|94:214,1,48.9999985046387,8|0,1:0|0:0,0:0:0:0:
147,175,202263,1,0,1:0:0:0:
147,175,202316,1,0,1:0:0:0:
147,175,202370,2,0,L|252:206,1,97.9999970092774,4|0,1:2|1:0,0:0:0:0:
272,178,202531,1,0,1:0:0:0:
305,158,202584,6,0,L|284:335,1,167.999994873047,4|0,1:0|1:0,0:0:0:0:
362,307,202906,1,0,1:0:0:0:
446,134,203013,2,0,L|354:103,1,83.9999974365235,8|0,1:0|1:0,0:0:0:0:
414,204,203227,1,0,1:0:0:0:
512,168,203334,1,0,1:0:0:0:
424,19,203441,6,0,L|260:57,1,167.999994873047,8|0,1:0|1:0,0:0:0:0:
256,101,203727,1,0,1:0:0:0:
211,94,203798,1,0,1:0:0:0:
166,87,203870,1,8,1:0:0:0:
108,39,203977,1,0,1:0:0:0:
56,96,204084,1,0,1:0:0:0:
115,144,204191,1,0,1:0:0:0:
274,40,204298,6,2,P|265:109|260:215,1,167.999994873047,14|0,1:0|1:0,1:1:0:0:
208,263,204620,1,0,0:0:0:0:
363,366,204727,2,0,P|353:319|351:274,1,83.9999974365235,14|0,1:0|1:0,0:0:0:0:
483,145,204941,2,0,P|480:186|470:227,1,83.9999974365235,2|0,0:1|1:0,0:0:0:0:
270,333,205156,6,2,B|188:303|188:303|122:377,1,167.999994873047,14|0,1:0|1:0,1:1:0:0:
93,381,205441,1,0,1:0:0:0:
87,336,205513,1,0,1:0:0:0:
81,291,205584,1,10,1:0:0:0:
111,220,205691,1,0,1:0:0:0:
81,147,205798,1,2,1:0:0:0:
108,74,205906,1,0,1:0:0:0:
108,74,205959,1,0,1:0:0:0:
108,74,206013,6,0,P|112:130|116:243,1,167.999994873047,14|0,1:0|1:0,0:0:0:0:
186,270,206334,1,0,1:0:0:0:
329,204,206441,2,0,L|426:228,1,83.9999974365235,8|0,1:0|1:0,0:0:0:0:
314,285,206656,5,0,1:0:0:0:
207,170,206763,1,4,1:2:0:0:
314,58,206870,2,0,B|291:92|291:92|308:146,1,83.9999974365235,12|0,1:0|0:0,0:0:0:0:
483,182,207084,5,0,1:0:0:0:
487,226,207156,1,0,1:0:0:0:
491,270,207227,1,0,1:0:0:0:
495,314,207298,1,8,1:0:0:0:
418,380,207406,1,0,1:0:0:0:
352,303,207513,1,4,1:2:0:0:
290,359,207620,5,0,1:0:0:0:
290,359,207673,1,0,1:0:0:0:
290,359,207727,1,12,1:0:0:0:
196,279,207834,1,0,0:0:0:0:
294,245,207941,1,4,1:0:0:0:
201,355,208048,5,8,1:0:0:0:
119,241,208156,1,0,1:0:0:0:
284,227,208263,1,0,1:0:0:0:
218,114,208370,5,8,1:0:0:0:
151,154,208477,1,0,1:0:0:0:
218,189,208584,1,8,1:0:0:0:
152,75,208691,5,0,1:0:0:0:
298,112,208798,1,8,1:0:0:0:
261,258,208906,1,0,1:0:0:0:
261,258,208959,1,0,1:0:0:0:
261,258,209013,2,0,B|245:281|245:281|250:331,1,48.9999985046387,12|0,1:0|2:0,0:0:0:0:
180,336,209120,1,0,1:0:0:0:
180,336,209173,1,0,1:0:0:0:
180,336,209227,2,0,B|196:359|196:359|191:409,1,48.9999985046387,12|0,1:0|2:0,0:0:0:0:
271,376,209334,1,0,1:0:0:0:
112,284,209441,6,0,P|119:200|131:99,1,167.999994873047,4|0,1:0|1:0,0:0:0:0:
81,60,209763,1,0,1:0:0:0:
237,81,209870,2,0,B|337:73|295:155|407:145,1,167.999994873047,8|0,1:0|1:0,0:0:0:0:
442,98,210191,1,0,1:0:0:0:
474,318,210298,2,0,P|417:293|402:247,1,83.9999974365235,8|0,1:0|0:0,0:0:0:0:
276,186,210513,5,0,1:0:0:0:
232,195,210584,1,0,1:0:0:0:
187,204,210656,1,0,1:0:0:0:
143,212,210727,2,0,P|152:295|159:379,2,167.999994873047,8|0|8,1:0|1:0|1:0,0:0:0:0:
76,175,211263,1,2,1:0:0:0:
188,57,211370,1,0,1:0:0:0:
205,79,211584,5,8,1:0:0:0:
61,37,211691,1,2,1:0:0:0:
46,172,211798,1,2,0:1:0:0:
190,214,211906,1,4,1:2:0:0:
260,162,212013,6,0,P|310:147|351:28,1,167.999994873047,10|0,1:0|1:0,0:0:0:0:
343,5,212298,1,2,1:0:0:0:
386,16,212370,1,0,1:0:0:0:
428,29,212441,1,10,1:0:0:0:
468,97,212548,1,0,1:0:0:0:
403,173,212656,1,4,0:2:0:0:
443,241,212763,1,0,1:0:0:0:
377,326,212870,6,0,P|259:314|181:311,1,167.999994873047,12|0,1:0|1:0,0:0:0:0:
151,268,213191,1,0,0:0:0:0:
217,170,213298,1,8,1:0:0:0:
302,238,213406,1,0,1:0:0:0:
178,191,213513,6,0,P|185:142|189:97,1,83.9999974365235,0|0,1:0|1:0,0:0:0:0:
150,41,213727,2,0,P|81:53|35:167,1,167.999994873047,8|0,1:0|1:0,0:0:0:0:
3,166,214013,1,0,1:0:0:0:
10,209,214084,1,0,1:0:0:0:
18,253,214156,1,8,1:0:0:0:
94,256,214263,1,0,1:0:0:0:
79,327,214370,1,0,0:0:0:0:
6,327,214477,1,0,1:0:0:0:
102,178,214584,6,0,P|154:195|281:224,1,167.999994873047,10|0,1:0|1:0,0:0:0:0:
283,262,214870,1,0,1:0:0:0:
326,250,214941,1,0,1:0:0:0:
369,239,215013,1,10,1:0:0:0:
404,171,215120,1,0,1:0:0:0:
477,197,215227,1,0,0:0:0:0:
441,265,215334,1,4,1:2:0:0:
190,20,215441,6,0,B|244:57|244:57|221:207,1,195.999994018555,14|2,1:0|1:0,0:0:0:0:
180,197,215727,1,0,1:0:0:0:
186,241,215798,1,0,1:0:0:0:
192,285,215870,2,0,L|181:341,3,41.9999987182618,8|0|0|0,1:0|1:0|1:0|1:0,0:0:0:0:
110,309,216084,5,4,1:2:0:0:
98,314,216138,1,0,1:0:0:0:
86,319,216191,1,0,1:0:0:0:
74,324,216245,1,0,1:0:0:0:
63,329,216298,2,0,P|42:279|45:152,1,167.999994873047,4|0,1:0|1:0,0:0:0:0:
12,93,216620,1,0,1:0:0:0:
153,106,216727,2,0,P|136:180|111:202,1,83.9999974365235,8|0,1:0|1:0,0:0:0:0:
91,34,216941,6,0,L|202:14,1,83.9999974365235,0|0,1:0|1:0,0:0:0:0:
229,78,217156,2,0,L|402:138,1,167.999994873047,8|0,1:0|1:0,0:0:0:0:
429,117,217441,1,0,1:0:0:0:
445,159,217513,1,0,1:0:0:0:
460,200,217584,1,8,1:0:0:0:
405,253,217691,1,0,1:0:0:0:
457,306,217798,1,0,1:0:0:0:
512,253,217906,1,0,1:0:0:0:
314,227,218013,6,2,L|330:315,1,83.9999974365235,14|0,1:0|0:0,1:1:0:0:
222,207,218227,1,0,1:0:0:0:
201,332,218334,1,0,0:0:0:0:
80,134,218441,6,0,L|64:222,1,83.9999974365235,14|0,1:0|1:0,0:0:0:0:
172,114,218655,1,2,0:1:0:0:
193,239,218762,1,0,1:0:0:0:
265,21,218870,6,2,L|303:235,1,195.999994018555,14|0,1:0|1:0,1:1:0:0:
344,217,219156,1,0,1:0:0:0:
334,260,219227,1,0,1:0:0:0:
325,303,219298,1,10,1:0:0:0:
366,372,219406,1,0,1:0:0:0:
152,308,219513,1,2,1:0:0:0:
193,239,219621,1,0,1:0:0:0:
371,129,219727,6,0,B|351:82|351:82|230:122,1,167.999994873047,14|0,1:0|1:0,0:0:0:0:
167,95,220048,1,0,1:0:0:0:
134,166,220156,1,8,1:0:0:0:
62,137,220263,1,0,1:0:0:0:
8,191,220370,1,0,1:0:0:0:
80,222,220477,1,4,1:2:0:0:
50,45,220584,6,0,B|130:16|130:16|213:81,1,167.999994873047,12|0,1:0|1:0,0:0:0:0:
200,111,220870,1,0,1:0:0:0:
243,101,220941,1,0,1:0:0:0:
287,92,221013,2,0,L|274:179,1,83.9999974365235,8|0,1:0|1:0,0:0:0:0:
289,248,221441,5,12,1:0:0:0:
199,187,221548,1,8,1:3:0:0:
376,75,221656,2,0,L|389:162,1,83.9999974365235,4|0,1:3|1:0,0:0:0:0:
441,218,221870,5,8,1:0:0:0:
416,325,221977,1,8,1:3:0:0:
469,238,222084,1,4,1:3:0:0:
310,220,222191,5,0,1:0:0:0:
355,377,222298,1,8,1:3:0:0:
289,248,222406,1,4,1:3:0:0:
265,339,222513,5,8,1:3:0:0:
130,237,222620,1,4,1:3:0:0:
232,102,222727,1,8,1:0:0:0:
367,204,222834,1,8,1:3:0:0:
179,159,222941,5,4,1:3:0:0:
118,116,223048,1,4,1:3:0:0:
107,122,223102,1,0,1:0:0:0:
96,129,223156,2,0,B|141:57|141:57|233:63,1,167.999994873047,4|0,1:0|0:0,0:0:0:0:
279,9,223477,1,4,1:3:0:0:
330,67,223584,2,0,L|305:166,2,83.9999974365235,8|0|4,1:0|0:0|1:3,0:0:0:0:
371,192,223906,5,8,1:0:0:0:
424,250,224013,1,4,1:3:0:0:
411,328,224120,1,8,1:0:0:0:
342,361,224227,1,4,1:3:0:0:
319,334,224334,1,2,0:0:0:0:
196,295,224441,1,8,1:0:0:0:
218,227,224548,1,0,0:0:0:0:
106,111,224656,1,4,1:3:0:0:
194,91,224763,1,0,1:0:0:0:
25,53,224870,6,0,P|35:142|41:233,1,167.999994873047,4|2,1:3|0:0,0:0:0:0:
112,244,225191,1,4,1:3:0:0:
117,168,225298,2,0,P|125:121|140:73,1,83.9999974365235,8|2,1:0|0:0,0:0:0:0:
100,19,225513,1,4,1:3:0:0:
319,31,225620,5,8,1:0:0:0:
252,118,225727,1,4,1:3:0:0:
207,24,225834,1,8,1:0:0:0:
312,230,225941,5,4,1:3:0:0:
393,195,226048,1,2,1:2:0:0:
477,171,226156,1,10,1:1:0:0:
466,201,226263,1,4,1:3:0:0:
383,268,226370,5,2,0:1:0:0:
315,156,226477,1,2,1:1:0:0:
472,49,226584,6,0,P|462:132|456:216,1,167.999994873047,4|2,1:3|0:0,0:0:0:0:
457,293,226906,1,4,1:3:0:0:
204,299,227013,5,8,1:0:0:0:
314,227,227120,1,2,0:0:0:0:
386,337,227227,1,4,1:3:0:0:
233,224,227334,5,8,1:0:0:0:
276,293,227441,1,4,1:3:0:0:
338,127,227548,5,8,1:0:0:0:
314,227,227656,1,2,1:2:0:0:
248,145,227763,5,2,1:2:0:0:
198,86,227870,1,8,1:0:0:0:
234,17,227977,1,0,1:0:0:0:
284,76,228084,1,4,1:3:0:0:
177,162,228191,5,8,1:0:0:0:
135,39,228298,1,4,1:0:0:0:
165,177,228406,1,4,1:3:0:0:
123,54,228513,1,4,1:3:0:0:
100,128,228620,5,0,0:0:0:0:
226,91,228727,1,8,1:0:0:0:
216,242,228834,2,0,L|196:352,1,83.9999974365235,4|0,1:3|0:0,0:0:0:0:
135,279,229048,1,8,1:0:0:0:
297,192,229156,5,4,1:3:0:0:
335,260,229263,1,8,1:0:0:0:
100,128,229370,5,4,1:3:0:0:
138,60,229477,1,2,1:2:0:0:
129,356,229584,5,4,1:3:0:0:
51,354,229691,1,8,1:0:0:0:
121,328,229798,1,4,1:3:0:0:
201,338,229906,1,8,1:0:0:0:
12,192,230013,5,4,1:0:0:0:
12,192,230120,1,0,1:0:0:0:
81,166,230870,1,8,1:0:0:0:
500,192,231727,5,4,1:0:0:0:
428,174,232584,1,8,1:0:0:0:
374,226,233013,1,2,3:0:0:0:
374,226,233120,1,0,3:0:0:0:
374,226,233227,1,2,3:0:0:0:
374,226,233334,1,2,3:0:0:0:
310,179,233441,6,0,B|258:179|258:179|199:282,1,157.500006008148,4|0,1:0|0:0,0:0:0:0:
195,348,233870,6,0,L|96:313,1,83.9999974365235,8|0,1:0|0:0,0:0:0:0:
45,348,234084,1,8,1:3:0:0:
16,256,234191,1,4,1:3:0:0:
113,241,234298,1,4,1:0:0:0:
100,163,234406,5,0,1:0:0:0:
76,62,234513,1,8,1:0:0:0:
186,41,234620,1,8,1:3:0:0:
389,265,234727,5,8,1:0:0:0:
419,138,234834,1,8,1:0:0:0:
281,112,234941,1,4,1:3:0:0:
251,239,235048,1,8,1:0:0:0:
377,170,235156,5,4,1:0:0:0:
371,141,235263,1,0,3:0:0:0:
367,111,235370,1,0,3:0:0:0:
365,81,235477,1,2,3:0:0:0:
144,241,235584,5,2,3:0:0:0:
145,254,235691,1,0,3:0:0:0:
147,270,235798,1,0,3:0:0:0:
149,285,235905,1,2,3:0:0:0:
250,186,236013,5,8,1:0:0:0:
251,173,236066,1,8,1:0:0:0:
252,160,236120,2,0,L|242:104,1,41.9999987182618,8|0,1:0|1:0,1:0:0:0:
129,63,236227,5,8,1:0:0:0:
108,61,236280,1,0,1:0:0:0:
87,62,236334,1,8,1:0:0:0:
66,67,236387,1,0,1:0:0:0:
28,58,236441,5,10,1:0:0:0:
39,85,236494,1,0,1:0:0:0:
49,112,236548,1,2,1:0:0:0:
56,141,236601,1,0,1:0:0:0:
74,168,236656,5,10,1:0:0:0:
56,208,236709,1,0,1:0:0:0:
41,248,236763,1,2,1:0:0:0:
31,291,236816,1,0,1:0:0:0:
22,331,236870,6,0,B|100:334|100:334|304:341|203:102|407:109|407:109|485:111,1,567.000013842774,4|2,1:0|3:0,0:0:0:0:
482,111,240156,1,2,3:0:0:0:
482,111,240227,1,2,3:0:0:0:
482,111,240298,1,6,3:0:0:0:
