osu file format v14

[General]
AudioFilename: audio.mp3
AudioLeadIn: 0
PreviewTime: -1
Countdown: 1
SampleSet: Normal
StackLeniency: 0.7
Mode: 0
LetterboxInBreaks: 0
WidescreenStoryboard: 0

[Editor]
Bookmarks: 14222,39444
DistanceSpacing: 0.4
BeatDivisor: 4
GridSize: 4
TimelineZoom: 2.6

[Metadata]
Title:The Empress scream off ver
TitleUnicode:The Empress scream off ver
Artist:UNDEAD CORPORATION
ArtistUnicode:UNDEAD CORPORATION
Creator:Feezly
Version:Feezly[Mazzerin`s style]
Source:
Tags:
BeatmapID:1220936
BeatmapSetID:576756

[Difficulty]
HPDrainRate:1
CircleSize:4.3
OverallDifficulty:8.5
ApproachRate:10
SliderMultiplier:1.6
SliderTickRate:1

[Events]
//Background and Video events
0,0,"CpiqtHJB728.jpg",0,0
//Break Periods
//Storyboard Layer 0 (Background)
//Storyboard Layer 1 (Fail)
//Storyboard Layer 2 (Pass)
//Storyboard Layer 3 (Foreground)
//Storyboard Layer 4 (Overlay)
//Storyboard Sound Samples

[TimingPoints]
0,222.222222222222,4,1,0,100,1,0
14222,-200,4,1,0,100,0,0
15055,-133.333333333333,4,1,0,100,0,0
15999,-200,4,1,0,100,0,0
16833,-133.333333333333,4,1,0,100,0,0
18222,-200,4,1,0,100,0,0
18666,-166.666666666667,4,1,0,100,0,0
19111,-142.857142857143,4,1,0,100,0,0
19555,-125,4,1,0,100,0,0
21333,-100,4,1,0,100,0,0
29333,-66.6666666666667,4,1,0,100,0,0
30222,-100,4,1,0,100,0,0
31111,-66.6666666666667,4,1,0,100,0,0
32111,-100,4,1,0,100,0,0
32888,-66.6666666666667,4,1,0,100,0,0
48888,-50,4,1,0,100,0,0

[Colours]
Combo1 : 64,128,128
Combo2 : 255,0,0
Combo3 : 255,128,0
Combo4 : 192,192,192

[HitObjects]
172,32,14222,6,0,B|108:24|108:24|164:144|60:96|60:96|84:192,1,300
128,256,15111,2,0,L|188:256,1,60.0000022888184
384,256,15333,2,0,L|316:256,1,60.0000022888184
172,180,15555,2,0,L|232:180,1,60.0000022888184
412,180,15777,2,0,L|352:180,1,60.0000022888184
80,180,15999,6,0,B|59:262|59:262|163:214|107:334|107:334|171:326,1,300
404,56,16888,2,0,L|404:132,1,60.0000022888184
332,300,17111,2,0,L|332:232,1,60.0000022888184
248,64,17333,1,0,0:0:0:0:
248,72,17388,1,0,0:0:0:0:
248,80,17444,1,0,0:0:0:0:
248,88,17499,1,0,0:0:0:0:
248,96,17555,1,0,0:0:0:0:
248,104,17611,1,0,0:0:0:0:
248,112,17666,1,0,0:0:0:0:
248,120,17722,1,0,0:0:0:0:
248,128,17777,6,0,B|192:116|192:116|184:188|80:224,1,210.000008010865
112,328,18222,2,0,L|160:360,1,40
224,308,18444,2,0,L|176:340,1,40
128,244,18666,6,0,L|88:196,1,47.9999985351563
200,224,18888,2,0,L|240:176,1,47.9999985351563
132,108,19111,6,0,L|176:164,1,55.9999982910157
252,64,19333,2,0,L|236:128,1,55.9999982910157
180,56,19555,6,0,L|146:1,1,64
324,44,19777,2,0,P|320:96|300:120,1,64
180,152,19999,2,0,P|153:170|132:193,1,64
272,223,20222,2,0,P|302:214|328:196,1,64
387,323,20444,2,0,P|357:314|331:296,1,64
300,120,20666,2,0,L|336:200,1,64
212,260,20888,2,0,P|248:248|276:224,1,64
180,140,21111,5,0,0:0:0:0:
152,156,21166,1,0,0:0:0:0:
132,180,21222,1,0,0:0:0:0:
120,208,21277,1,0,0:0:0:0:
116,248,21333,2,0,P|124:296|152:336,1,80
200,224,21555,2,0,P|248:196|276:164,1,80
284,60,21777,2,0,P|251:83|227:114,1,80
268,232,21999,2,0,P|304:246|344:249,1,80
422,120,22222,6,0,B|376:144|376:144|348:144,1,80
236,80,22444,1,0,0:0:0:0:
260,72,22499,1,0,0:0:0:0:
284,76,22555,1,0,0:0:0:0:
308,88,22611,1,0,0:0:0:0:
328,104,22666,5,0,0:0:0:0:
344,124,22722,1,0,0:0:0:0:
356,144,22777,1,0,0:0:0:0:
360,168,22833,1,0,0:0:0:0:
356,192,22888,5,0,0:0:0:0:
348,216,22944,1,0,0:0:0:0:
328,228,22999,1,0,0:0:0:0:
304,236,23055,1,0,0:0:0:0:
280,236,23111,5,0,0:0:0:0:
260,228,23166,1,0,0:0:0:0:
244,208,23222,1,0,0:0:0:0:
240,184,23277,1,0,0:0:0:0:
256,168,23333,5,0,0:0:0:0:
280,164,23388,1,0,0:0:0:0:
304,168,23444,1,0,0:0:0:0:
324,180,23499,1,0,0:0:0:0:
344,196,23555,5,0,0:0:0:0:
356,216,23611,1,0,0:0:0:0:
360,240,23666,1,0,0:0:0:0:
356,264,23722,1,0,0:0:0:0:
340,284,23777,5,0,0:0:0:0:
320,300,23833,1,0,0:0:0:0:
296,304,23888,1,0,0:0:0:0:
272,304,23944,1,0,0:0:0:0:
252,300,23999,6,0,P|215:289|180:256,1,80
256,224,24221,2,0,P|279:188|288:151,1,80
186,187,24444,2,0,P|174:216|205:284,1,80
256,224,24611,1,0,0:0:0:0:
284,196,24666,1,0,0:0:0:0:
304,160,24722,1,0,0:0:0:0:
312,120,24777,1,0,0:0:0:0:
304,80,24833,1,0,0:0:0:0:
288,44,24888,2,0,P|244:80|196:84,1,80
140,84,25111,5,0,0:0:0:0:
104,100,25166,1,0,0:0:0:0:
76,128,25222,1,0,0:0:0:0:
60,164,25277,1,0,0:0:0:0:
64,204,25333,2,0,P|92:240|135:252,1,80
200,268,25555,5,0,0:0:0:0:
236,252,25611,1,0,0:0:0:0:
276,248,25666,1,0,0:0:0:0:
316,256,25722,1,0,0:0:0:0:
352,276,25777,2,0,P|414:241|429:217,1,80
296,148,25999,2,0,P|248:164|216:200,1,80
376,292,26222,2,0,P|420:272|452:240,1,80
264,132,26444,2,0,P|220:148|180:188,1,80
404,312,26666,6,0,P|448:292|480:260,1,80
232,104,26888,1,0,0:0:0:0:
232,104,26944,1,0,0:0:0:0:
232,104,27000,1,0,0:0:0:0:
232,104,27055,1,0,0:0:0:0:
232,104,27111,1,0,0:0:0:0:
382,233,27221,2,0,B|348:252|348:252|316:280,1,80
160,216,27444,1,0,0:0:0:0:
304,136,27555,2,0,B|344:128|384:136|384:136|416:100|456:80,1,160
192,32,27999,2,0,B|132:32|132:32|20:96,1,160
116,328,28444,5,0,0:0:0:0:
120,328,28499,1,0,0:0:0:0:
124,328,28555,1,0,0:0:0:0:
128,328,28611,1,0,0:0:0:0:
132,328,28666,1,0,0:0:0:0:
136,328,28722,1,0,0:0:0:0:
140,328,28777,1,0,0:0:0:0:
144,328,28833,1,0,0:0:0:0:
148,328,28888,1,0,0:0:0:0:
152,328,28944,1,0,0:0:0:0:
156,328,28999,1,0,0:0:0:0:
160,328,29055,1,0,0:0:0:0:
164,328,29111,1,0,0:0:0:0:
168,328,29166,1,0,0:0:0:0:
172,328,29222,1,0,0:0:0:0:
176,328,29277,1,0,0:0:0:0:
188,328,29333,6,0,P|260:312|284:236,1,120.000004577637
100,69,29555,2,0,P|126:128|171:175,1,120.000004577637
282,276,29777,2,0,P|357:286|438:246,1,120.000004577637
247,98,29999,2,8,P|162:169|162:198,1,120.000004577637,0|0,0:0|0:0,0:3:0:0:
155,265,30222,6,0,L|155:309,7,40
275,126,30666,2,8,L|241:92,7,40,8|8|8|8|8|8|8|8,3:3|3:3|3:3|3:3|3:3|3:3|3:3|3:3,3:3:0:0:
174,61,31111,2,0,P|75:76|36:155,1,180.000006866455
67,350,31333,2,0,P|153:323|218:239,1,180.000006866455
246,157,31555,2,0,L|246:97,8,60.0000022888184
336,268,32055,5,0,0:0:0:0:
336,264,32111,1,0,0:0:0:0:
336,261,32166,1,0,0:0:0:0:
336,257,32222,1,0,0:0:0:0:
336,254,32277,1,0,0:0:0:0:
336,251,32333,1,0,0:0:0:0:
336,247,32388,1,0,0:0:0:0:
336,244,32444,1,0,0:0:0:0:
336,241,32499,1,0,0:0:0:0:
336,237,32555,1,0,0:0:0:0:
336,234,32611,1,0,0:0:0:0:
336,230,32666,1,0,0:0:0:0:
336,227,32722,1,0,0:0:0:0:
336,224,32777,1,0,0:0:0:0:
336,220,32833,1,0,0:0:0:0:
337,214,32888,6,0,P|414:266|416:360,1,180.000006866455
218,250,33111,2,0,P|184:170|235:101,1,180.000006866455,0|0,2:0|2:0,2:3:0:0:
350,16,33333,2,0,P|401:87|391:175,1,180.000006866455
232,344,33555,2,0,P|147:326|118:245,1,180.000006866455,0|0,3:0|3:0,3:0:0:0:
190,175,33777,5,0,0:0:0:0:
206,207,33833,1,0,0:0:0:0:
238,231,33888,1,0,0:0:0:0:
270,247,33944,1,0,0:0:0:0:
302,247,33999,1,0,0:0:0:0:
334,239,34055,1,0,0:0:0:0:
366,223,34111,1,0,0:0:0:0:
390,199,34166,1,0,0:0:0:0:
406,167,34222,1,0,0:0:0:0:
406,135,34277,5,0,0:0:0:0:
382,103,34333,1,0,0:0:0:0:
350,95,34388,1,0,0:0:0:0:
318,103,34444,1,0,0:0:0:0:
294,127,34499,1,0,0:0:0:0:
286,159,34555,1,0,0:0:0:0:
286,199,34611,1,0,0:0:0:0:
170,262,34666,6,0,L|79:348,1,120.000004577637
286,199,34888,6,0,L|377:285,1,120.000004577637
262,49,35111,2,0,B|232:87|151:100|151:100|121:214|33:259|33:259|82:344,1,420.000016021729
280,264,35555,5,0,0:0:0:0:
280,264,35611,1,0,0:0:0:0:
280,264,35666,1,0,0:0:0:0:
280,264,35722,1,0,0:0:0:0:
280,264,35777,1,0,0:0:0:0:
280,264,35833,1,0,0:0:0:0:
280,264,35888,1,0,0:0:0:0:
280,264,35944,1,0,0:0:0:0:
280,264,35999,1,0,0:0:0:0:
280,264,36055,1,0,0:0:0:0:
280,264,36111,1,0,0:0:0:0:
280,264,36166,1,0,0:0:0:0:
280,264,36222,1,0,0:0:0:0:
280,264,36277,1,0,0:0:0:0:
280,264,36333,1,0,0:0:0:0:
280,264,36388,1,0,0:0:0:0:
140,72,36444,6,0,L|80:72,3,60.0000022888184
388,160,36666,2,0,L|448:160,3,60.0000022888184
132,224,36888,2,0,L|72:224,3,60.0000022888184
388,312,37111,2,0,L|448:312,3,60.0000022888184
247,294,37333,1,0,0:0:0:0:
283,302,37389,1,0,0:0:0:0:
303,330,37444,1,0,0:0:0:0:
295,366,37500,1,0,0:0:0:0:
259,374,37555,5,0,0:0:0:0:
227,358,37611,1,0,0:0:0:0:
219,322,37666,1,0,0:0:0:0:
231,290,37722,1,0,0:0:0:0:
251,262,37777,5,0,0:0:0:0:
259,226,37833,1,0,0:0:0:0:
251,190,37889,1,0,0:0:0:0:
239,158,37944,1,0,0:0:0:0:
215,130,38000,5,0,0:0:0:0:
179,130,38055,1,0,0:0:0:0:
156,156,38111,1,0,0:0:0:0:
164,192,38166,1,0,0:0:0:0:
176,224,38222,2,0,P|144:280|40:176,1,240.000009155274
371,68,38888,5,0,0:0:0:0:
368,73,38943,1,0,0:0:0:0:
366,79,38999,1,0,0:0:0:0:
363,84,39054,1,0,0:0:0:0:
361,90,39110,1,0,0:0:0:0:
358,95,39165,1,0,0:0:0:0:
356,101,39221,1,0,0:0:0:0:
352,107,39277,2,0,P|304:179|242:189,1,120.000004577637
245,192,39444,5,0,0:0:0:0:
191,164,39555,1,0,0:0:0:0:
177,105,39666,1,0,0:0:0:0:
213,57,39777,1,0,0:0:0:0:
272,51,39888,1,0,0:0:0:0:
312,95,39999,1,0,0:0:0:0:
318,155,40111,5,0,0:0:0:0:
273,195,40222,1,0,0:0:0:0:
213,185,40333,1,0,0:0:0:0:
181,133,40444,1,0,0:0:0:0:
143,86,40555,1,0,0:0:0:0:
83,80,40666,1,0,0:0:0:0:
42,123,40777,1,0,0:0:0:0:
50,182,40888,5,0,0:0:0:0:
105,204,40999,1,0,0:0:0:0:
160,179,41111,1,0,0:0:0:0:
189,126,41222,1,0,0:0:0:0:
225,78,41333,1,0,0:0:0:0:
283,66,41444,1,0,0:0:0:0:
339,85,41555,1,0,0:0:0:0:
378,130,41666,1,0,0:0:0:0:
359,187,41777,2,0,B|298:227|322:328|322:328|236:256|130:300|130:300|118:261|71:237,1,420.000016021729
241,161,42222,2,0,L|259:161,28,15.0000005722046
208,160,42666,5,0,0:0:0:0:
176,160,42721,1,0,0:0:0:0:
144,168,42777,1,0,0:0:0:0:
120,192,42832,1,0,0:0:0:0:
112,224,42888,5,0,0:0:0:0:
120,256,42943,1,0,0:0:0:0:
152,280,42999,1,0,0:0:0:0:
184,288,43055,1,0,0:0:0:0:
216,272,43110,5,0,0:0:0:0:
232,240,43166,1,0,0:0:0:0:
216,208,43221,1,0,0:0:0:0:
192,184,43277,1,0,0:0:0:0:
176,160,43332,5,0,0:0:0:0:
160,128,43388,1,0,0:0:0:0:
160,96,43443,1,0,0:0:0:0:
184,64,43499,1,0,0:0:0:0:
216,48,43555,5,0,0:0:0:0:
248,56,43610,1,0,0:0:0:0:
272,88,43666,1,0,0:0:0:0:
280,120,43721,1,0,0:0:0:0:
280,160,43777,5,0,0:0:0:0:
280,192,43832,1,0,0:0:0:0:
288,224,43888,1,0,0:0:0:0:
296,256,43943,1,0,0:0:0:0:
320,288,43999,5,0,0:0:0:0:
352,304,44055,1,0,0:0:0:0:
384,304,44110,1,0,0:0:0:0:
416,280,44166,1,0,0:0:0:0:
440,256,44221,5,0,0:0:0:0:
440,224,44277,1,0,0:0:0:0:
432,200,44332,1,0,0:0:0:0:
408,176,44388,1,0,0:0:0:0:
384,176,44443,5,0,0:0:0:0:
360,184,44499,1,0,0:0:0:0:
336,200,44555,1,0,0:0:0:0:
320,216,44610,1,0,0:0:0:0:
312,240,44666,5,0,0:0:0:0:
304,264,44721,1,0,0:0:0:0:
296,288,44777,1,0,0:0:0:0:
288,312,44832,1,0,0:0:0:0:
272,328,44888,5,0,0:0:0:0:
248,320,44943,1,0,0:0:0:0:
240,296,44999,1,0,0:0:0:0:
240,272,45055,1,0,0:0:0:0:
240,248,45110,5,0,0:0:0:0:
248,224,45166,1,0,0:0:0:0:
256,200,45221,1,0,0:0:0:0:
272,184,45277,1,0,0:0:0:0:
296,176,45333,5,0,0:0:0:0:
320,184,45388,1,0,0:0:0:0:
336,200,45444,1,0,0:0:0:0:
344,216,45499,1,0,0:0:0:0:
344,232,45555,5,0,0:0:0:0:
336,248,45611,1,0,0:0:0:0:
328,264,45666,1,0,0:0:0:0:
312,272,45722,1,0,0:0:0:0:
296,280,45777,6,0,L|264:296,12,30.0000011444092
152,104,46166,1,0,0:0:0:0:
176,104,46222,1,0,0:0:0:0:
200,104,46277,1,0,0:0:0:0:
224,104,46333,1,0,0:0:0:0:
248,104,46388,1,0,0:0:0:0:
272,104,46444,1,0,0:0:0:0:
304,104,46499,6,0,L|336:104,20,30.0000011444092
128,232,47111,1,0,0:0:0:0:
128,232,47166,1,0,0:0:0:0:
128,232,47222,1,0,0:0:0:0:
128,232,47277,1,0,0:0:0:0:
128,232,47333,1,0,0:0:0:0:
296,280,47388,6,0,L|264:296,14,30.0000011444092
352,176,47833,1,0,0:0:0:0:
368,160,47888,1,0,0:0:0:0:
352,152,47944,1,0,0:0:0:0:
376,144,47999,1,0,0:0:0:0:
360,128,48055,1,0,0:0:0:0:
384,128,48111,1,0,0:0:0:0:
368,104,48166,1,0,0:0:0:0:
392,104,48222,1,0,0:0:0:0:
376,80,48277,1,0,0:0:0:0:
400,64,48333,6,0,L|416:32,18,30.0000011444092
386,184,48888,2,0,B|273:361|273:361|167:180|167:180|415:183,1,640
256,192,49388,12,0,49666,0:0:0:0:
106,27,49722,5,0,0:0:0:0:
105,35,49778,1,0,0:0:0:0:
104,42,49833,1,0,0:0:0:0:
102,50,49889,1,0,0:0:0:0:
101,57,49944,1,0,0:0:0:0:
100,65,50000,1,0,0:0:0:0:
144,105,50056,5,0,0:0:0:0:
142,112,50111,1,0,0:0:0:0:
140,119,50167,1,0,0:0:0:0:
139,126,50222,1,0,0:0:0:0:
138,134,50278,1,0,0:0:0:0:
137,141,50333,5,0,0:0:0:0:
140,156,50389,1,0,0:0:0:0:
148,169,50444,1,0,0:0:0:0:
159,179,50500,1,0,0:0:0:0:
173,186,50556,1,0,0:0:0:0:
188,187,50611,1,0,0:0:0:0:
203,183,50667,1,0,0:0:0:0:
215,173,50722,5,0,0:0:0:0:
223,159,50777,1,0,0:0:0:0:
223,142,50833,1,0,0:0:0:0:
216,127,50888,1,0,0:0:0:0:
201,120,50944,1,0,0:0:0:0:
185,123,50999,1,0,0:0:0:0:
180,138,51055,1,0,0:0:0:0:
186,152,51111,5,0,0:0:0:0:
190,167,51166,1,0,0:0:0:0:
203,183,51222,1,0,0:0:0:0:
217,188,51277,1,0,0:0:0:0:
231,194,51333,1,0,0:0:0:0:
245,200,51388,1,0,0:0:0:0:
261,201,51444,1,0,0:0:0:0:
276,200,51499,5,0,0:0:0:0:
291,181,51555,2,0,P|308:89|236:62,1,160
244,80,51722,1,0,0:0:0:0:
233,91,51777,1,0,0:0:0:0:
220,101,51833,1,0,0:0:0:0:
209,112,51888,1,0,0:0:0:0:
194,119,51944,1,0,0:0:0:0:
177,118,52000,5,0,0:0:0:0:
155,107,52055,1,0,0:0:0:0:
139,88,52111,1,0,0:0:0:0:
151,67,52166,1,0,0:0:0:0:
174,59,52222,1,0,0:0:0:0:
192,73,52277,1,0,0:0:0:0:
208,87,52333,1,0,0:0:0:0:
220,101,52388,1,0,0:0:0:0:
196,108,52444,6,0,B|69:178|69:178|123:271,1,240
124,283,52666,1,0,0:0:0:0:
127,306,52721,1,0,0:0:0:0:
109,322,52777,1,0,0:0:0:0:
85,324,52832,1,0,0:0:0:0:
72,303,52888,1,0,0:0:0:0:
69,278,52944,1,0,0:0:0:0:
80,256,52999,5,0,0:0:0:0:
100,242,53055,1,0,0:0:0:0:
124,240,53111,1,0,0:0:0:0:
146,248,53166,1,0,0:0:0:0:
165,261,53222,1,0,0:0:0:0:
183,276,53277,1,0,0:0:0:0:
202,290,53333,2,0,B|278:276|278:276|334:292|381:279|381:279|458:257|459:155,1,320
437,150,53611,5,0,0:0:0:0:
409,133,53666,1,0,0:0:0:0:
377,126,53722,1,0,0:0:0:0:
345,129,53777,1,0,0:0:0:0:
314,140,53833,1,0,0:0:0:0:
289,160,53888,1,0,0:0:0:0:
268,185,53944,1,0,0:0:0:0:
239,198,53999,1,0,0:0:0:0:
206,197,54055,5,0,0:0:0:0:
175,187,54111,1,0,0:0:0:0:
150,166,54166,1,0,0:0:0:0:
137,136,54222,1,0,0:0:0:0:
147,105,54277,1,0,0:0:0:0:
174,88,54333,1,0,0:0:0:0:
205,86,54388,1,0,0:0:0:0:
233,101,54444,1,0,0:0:0:0:
241,131,54499,5,0,0:0:0:0:
241,163,54555,1,0,0:0:0:0:
240,195,54611,1,0,0:0:0:0:
240,226,54666,1,0,0:0:0:0:
238,258,54722,1,0,0:0:0:0:
235,289,54777,1,0,0:0:0:0:
240,320,54833,1,0,0:0:0:0:
263,341,54888,1,0,0:0:0:0:
295,344,54944,5,0,0:0:0:0:
323,331,54999,1,0,0:0:0:0:
337,302,55055,1,0,0:0:0:0:
328,270,55111,2,0,B|361:217|328:164|328:164|464:164|464:33,1,320
330,68,55555,2,0,B|202:104|78:67|78:67|78:161,1,320
126,249,55999,2,0,L|421:100,1,320
256,192,56444,12,0,56888,0:0:0:0:
255,194,56999,5,0,0:0:0:0:
158,59,57111,1,0,0:0:0:0:
122,220,57222,1,0,0:0:0:0:
284,109,57333,1,0,0:0:0:0:
35,113,57444,1,0,0:0:0:0:
238,267,57555,1,0,0:0:0:0:
155,128,57666,1,0,0:0:0:0:
42,283,57777,1,0,0:0:0:0:
337,175,57888,1,0,0:0:0:0:
159,34,57999,1,0,0:0:0:0:
148,294,58111,1,0,0:0:0:0:
148,294,58222,6,0,P|216:354|320:317,1,160
331,310,58444,1,0,0:0:0:0:
353,287,58499,1,0,0:0:0:0:
371,260,58555,1,0,0:0:0:0:
386,231,58611,1,0,0:0:0:0:
385,199,58666,1,0,0:0:0:0:
371,169,58722,1,0,0:0:0:0:
344,151,58777,1,0,0:0:0:0:
313,137,58833,5,0,0:0:0:0:
284,148,58888,1,0,0:0:0:0:
274,178,58944,1,0,0:0:0:0:
294,202,58999,1,0,0:0:0:0:
325,210,59055,1,0,0:0:0:0:
336,180,59111,2,0,B|336:13,1,160
304,25,59277,5,0,0:0:0:0:
271,25,59333,1,0,0:0:0:0:
239,25,59388,1,0,0:0:0:0:
206,26,59444,1,0,0:0:0:0:
174,27,59499,1,0,0:0:0:0:
143,36,59555,2,0,P|150:175|296:212,1,240
258,211,59778,5,0,0:0:0:0:
282,190,59833,1,0,0:0:0:0:
272,159,59889,1,0,0:0:0:0:
244,143,59944,1,0,0:0:0:0:
211,143,60000,1,0,0:0:0:0:
180,153,60056,1,0,0:0:0:0:
162,179,60111,1,0,0:0:0:0:
162,211,60167,1,0,0:0:0:0:
167,242,60222,2,0,P|237:316|375:248,1,240
374,244,60444,5,0,0:0:0:0:
366,213,60499,1,0,0:0:0:0:
348,185,60555,1,0,0:0:0:0:
320,167,60611,1,0,0:0:0:0:
288,165,60666,1,0,0:0:0:0:
256,173,60722,1,0,0:0:0:0:
228,187,60777,1,0,0:0:0:0:
220,155,60833,5,0,0:0:0:0:
199,131,60888,1,0,0:0:0:0:
226,114,60944,1,0,0:0:0:0:
210,86,60999,1,0,0:0:0:0:
236,68,61055,1,0,0:0:0:0:
214,44,61111,1,0,0:0:0:0:
188,63,61166,5,0,0:0:0:0:
199,93,61222,1,0,0:0:0:0:
168,102,61277,1,0,0:0:0:0:
185,128,61333,1,0,0:0:0:0:
155,140,61388,1,0,0:0:0:0:
180,159,61444,1,0,0:0:0:0:
150,169,61499,1,0,0:0:0:0:
167,195,61555,1,0,0:0:0:0:
137,207,61611,1,0,0:0:0:0:
158,230,61666,1,0,0:0:0:0:
128,243,61722,1,0,0:0:0:0:
139,272,61777,6,0,L|212:361,1,80
73,195,61888,2,0,L|14:267,1,80
185,128,61999,2,0,L|244:195,1,80
97,46,62111,2,0,L|12:105,1,80
222,26,62222,1,0,0:0:0:0:
209,145,62333,1,0,0:0:0:0:
314,100,62444,1,0,0:0:0:0:
203,240,62555,1,0,0:0:0:0:
314,202,62666,1,0,0:0:0:0:
246,349,62777,5,0,0:0:0:0:
357,284,62888,1,0,0:0:0:0:
334,370,62999,1,0,0:0:0:0:
116,324,63111,2,0,P|111:208|283:148,2,320
