osu file format v14

[General]
AudioFilename: audio.mp3
AudioLeadIn: 0
PreviewTime: 60703
Countdown: 0
SampleSet: Soft
StackLeniency: 0.7
Mode: 0
LetterboxInBreaks: 0
WidescreenStoryboard: 0

[Editor]
DistanceSpacing: 1
BeatDivisor: 4
GridSize: 16
TimelineZoom: 3.799999

[Metadata]
Title:The Empress scream off ver
TitleUnicode:The Empress scream off ver
Artist:UNDEAD CORPORATION
ArtistUnicode:UNDEAD CORPORATION
Creator:[Crz]Makii
Version:Lu:Lunatic
Source:東方Project
Tags:flandre touhou metal drum death Jepetski Zenx 暴君 C84 Comiket 84 パインツリーさわけん Admiral Wisteria Promontory U.N.オーエンは彼女なのか? Owen was her? Scarlet 東方紅魔郷 ~ the Embodiment of Scarlet Devil Touhou Koumakyou Eastern Lair
BeatmapID:1914325
BeatmapSetID:916643

[Difficulty]
HPDrainRate:5
CircleSize:4.5
OverallDifficulty:9.5
ApproachRate:10
SliderMultiplier:1.6
SliderTickRate:1

[Events]
//Background and Video events
0,0,"bg.jpg",0,0
//Break Periods
//Storyboard Layer 0 (Background)
//Storyboard Layer 1 (Fail)
//Storyboard Layer 2 (Pass)
//Storyboard Layer 3 (Foreground)
//Storyboard Sound Samples

[TimingPoints]
3870,222.222222222222,4,2,1,60,1,0
4758,-200,4,2,1,60,0,0
7425,-100,4,2,1,60,0,0
18092,-90.9090909090909,4,2,1,60,0,1
32314,-100,4,2,1,60,0,0
53647,-100,4,2,1,60,0,1
60758,-100,4,2,1,60,0,0
76758,-90.9090909090909,4,2,1,60,0,1
90981,-100,4,2,1,60,0,0
105203,-100,4,2,1,60,0,1
119425,-100,4,2,1,60,0,0

[HitObjects]
114,75,3869,5,4,0:0:0:0:
446,53,4758,2,0,L|458:135,1,80
376,254,5203,2,0,L|364:172,1,80
471,229,5647,1,4,0:0:0:0:
155,339,6536,2,0,L|63:322,1,80
158,238,6981,1,8,0:0:0:0:
167,239,7036,1,8,0:0:0:0:
177,241,7092,1,8,0:0:0:0:
187,243,7147,1,8,0:0:0:0:
197,245,7203,1,8,0:0:0:0:
207,247,7258,1,8,0:0:0:0:
217,248,7314,1,8,0:0:0:0:
226,250,7369,1,8,0:0:0:0:
236,252,7425,5,12,0:0:0:0:
299,325,7647,1,2,0:0:0:0:
393,341,7869,1,0,0:0:0:0:
474,289,8092,1,2,0:0:0:0:
460,194,8314,1,0,0:0:0:0:
395,123,8536,1,2,0:0:0:0:
299,135,8758,1,0,0:0:0:0:
240,211,8981,1,2,0:0:0:0:
365,243,9203,5,0,0:0:0:0:
351,148,9425,1,2,0:0:0:0:
293,70,9647,1,0,0:0:0:0:
197,62,9869,1,2,0:0:0:0:
105,92,10092,1,0,0:0:0:0:
58,175,10314,1,2,0:0:0:0:
71,269,10536,1,0,0:0:0:0:
125,347,10758,1,8,0:0:0:0:
134,348,10813,1,8,0:0:0:0:
144,350,10869,1,8,0:0:0:0:
154,352,10924,1,8,0:0:0:0:
164,354,10981,6,0,B|194:363|194:363|252:346,1,80,4|0,0:0|0:0,0:0:0:0:
311,234,11203,2,0,B|281:225|281:225|223:242,1,80
347,356,11425,2,0,L|436:343,1,80,8|0,0:0|0:0,0:0:0:0:
488,204,11647,2,0,L|399:191,1,80
342,53,11869,2,0,P|316:100|321:142,1,80,4|0,0:0|0:0,0:0:0:0:
205,28,12092,2,0,P|170:75|203:143,1,80
77,17,12314,2,0,P|46:29|7:90,1,80,8|0,0:0|0:0,0:0:0:0:
34,158,12536,1,0,0:0:0:0:
36,177,12591,1,0,0:0:0:0:
38,197,12647,1,0,0:0:0:0:
41,217,12702,1,0,0:0:0:0:
41,236,12758,6,0,L|26:287,3,40,4|0|0|0,0:0|0:0|0:0|0:0,0:0:0:0:
127,201,12981,2,0,L|142:150,3,40,4|0|0|0,0:0|0:0|0:0|0:0,0:0:0:0:
171,285,13203,2,0,L|156:336,3,40,4|0|0|0,0:0|0:0|0:0|0:0,0:0:0:0:
257,250,13426,2,0,L|272:199,3,40,4|0|0|0,0:0|0:0|0:0|0:0,0:0:0:0:
312,348,13647,5,4,0:0:0:0:
376,38,13869,1,0,0:0:0:0:
452,154,14092,1,8,0:0:0:0:
452,163,14147,1,8,0:0:0:0:
452,173,14203,1,8,0:0:0:0:
452,183,14258,1,8,0:0:0:0:
453,193,14314,1,8,0:0:0:0:
453,203,14369,1,8,0:0:0:0:
453,213,14425,1,8,0:0:0:0:
454,223,14480,1,8,0:0:0:0:
454,233,14536,1,4,0:0:0:0:
315,157,14758,5,4,0:0:0:0:
301,171,14813,1,0,0:0:0:0:
294,190,14869,1,0,0:0:0:0:
294,210,14924,1,0,0:0:0:0:
303,228,14980,1,0,0:0:0:0:
384,314,15203,2,0,L|445:319,4,40,8|0|0|0|0,0:0|0:0|0:0|0:0|0:0,0:0:0:0:
263,318,15647,5,4,0:0:0:0:
227,300,15702,1,0,0:0:0:0:
187,297,15758,1,0,0:0:0:0:
150,311,15813,1,0,0:0:0:0:
121,337,15869,1,0,0:0:0:0:
45,260,16092,2,0,L|39:214,4,40,8|0|0|0|0,0:0|0:0|0:0|0:0|0:0,0:0:0:0:
94,101,16536,5,4,0:0:0:0:
139,119,16591,1,0,0:0:0:0:
187,107,16647,1,0,0:0:0:0:
218,70,16702,1,0,0:0:0:0:
222,20,16758,1,0,0:0:0:0:
287,271,16981,1,0,0:0:0:0:
144,36,17203,5,4,0:0:0:0:
368,348,17647,5,4,0:0:0:0:
456,37,18092,5,4,0:0:0:0:
462,45,18147,1,0,0:0:0:0:
467,55,18203,1,0,0:0:0:0:
470,66,18258,1,0,0:0:0:0:
471,76,18314,1,8,0:0:0:0:
470,87,18369,1,0,0:0:0:0:
467,98,18425,1,0,0:0:0:0:
461,107,18480,1,0,0:0:0:0:
455,116,18536,1,8,0:0:0:0:
446,123,18591,1,0,0:0:0:0:
436,128,18647,1,0,0:0:0:0:
426,131,18703,1,0,0:0:0:0:
415,132,18758,1,8,0:0:0:0:
404,132,18814,1,0,0:0:0:0:
393,128,18869,1,0,0:0:0:0:
384,123,18925,1,0,0:0:0:0:
374,115,18981,6,0,L|358:71,3,44.0000013427735,8|0|0|0,0:0|0:0|0:0|0:0,0:0:0:0:
328,191,19203,2,0,L|344:235,3,44.0000013427735,8|0|0|0,0:0|0:0|0:0|0:0,0:0:0:0:
278,94,19425,2,0,L|262:50,3,44.0000013427735,8|0|0|0,0:0|0:0|0:0|0:0,0:0:0:0:
232,170,19647,2,0,L|248:214,3,44.0000013427735,8|0|0|0,0:0|0:0|0:0|0:0,0:0:0:0:
163,68,19869,5,4,0:0:0:0:
153,62,19924,1,0,0:0:0:0:
143,57,19980,1,0,0:0:0:0:
133,54,20035,1,0,0:0:0:0:
122,53,20091,1,8,0:0:0:0:
111,54,20146,1,0,0:0:0:0:
100,57,20202,1,0,0:0:0:0:
90,61,20257,1,0,0:0:0:0:
81,67,20313,1,8,0:0:0:0:
72,74,20368,1,0,0:0:0:0:
65,82,20424,1,0,0:0:0:0:
60,92,20480,1,0,0:0:0:0:
56,102,20535,1,8,0:0:0:0:
53,113,20591,1,0,0:0:0:0:
53,124,20646,1,0,0:0:0:0:
54,135,20702,1,0,0:0:0:0:
54,145,20758,6,0,B|48:176|48:176|59:253,1,88.000002685547,8|0,0:0|0:0,0:0:0:0:
157,347,20981,2,0,B|164:328|164:328|152:239,1,88.000002685547,8|0,0:0|0:0,0:0:0:0:
224,193,21203,1,8,0:0:0:0:
244,199,21258,1,0,0:0:0:0:
265,206,21314,1,0,0:0:0:0:
286,213,21369,1,0,0:0:0:0:
312,223,21425,1,8,0:0:0:0:
333,216,21480,1,0,0:0:0:0:
354,210,21536,1,0,0:0:0:0:
375,203,21591,1,0,0:0:0:0:
397,196,21647,5,4,0:0:0:0:
406,191,21702,1,0,0:0:0:0:
417,188,21758,1,0,0:0:0:0:
428,187,21813,1,0,0:0:0:0:
439,188,21869,1,8,0:0:0:0:
449,192,21924,1,0,0:0:0:0:
459,197,21980,1,0,0:0:0:0:
467,204,22035,1,0,0:0:0:0:
474,213,22091,1,8,0:0:0:0:
479,223,22146,1,0,0:0:0:0:
482,233,22202,1,0,0:0:0:0:
482,244,22258,1,0,0:0:0:0:
481,255,22313,1,8,0:0:0:0:
477,266,22369,1,0,0:0:0:0:
472,275,22424,1,0,0:0:0:0:
465,283,22480,1,0,0:0:0:0:
451,288,22536,6,0,L|394:283,3,44.0000013427735,8|0|0|0,0:0|0:0|0:0|0:0,0:0:0:0:
367,357,22758,2,0,L|310:362,3,44.0000013427735,8|0|0|0,0:0|0:0|0:0|0:0,0:0:0:0:
274,279,22981,2,0,L|217:274,3,44.0000013427735,8|0|0|0,0:0|0:0|0:0|0:0,0:0:0:0:
190,348,23203,2,0,L|133:353,3,44.0000013427735,8|0|0|0,0:0|0:0|0:0|0:0,0:0:0:0:
59,261,23425,5,4,0:0:0:0:
50,254,23480,1,0,0:0:0:0:
42,246,23536,1,0,0:0:0:0:
36,237,23591,1,0,0:0:0:0:
32,227,23647,1,8,0:0:0:0:
30,216,23702,1,0,0:0:0:0:
30,205,23758,1,0,0:0:0:0:
32,194,23813,1,0,0:0:0:0:
36,184,23869,1,8,0:0:0:0:
42,175,23924,1,0,0:0:0:0:
49,167,23980,1,0,0:0:0:0:
58,160,24036,1,0,0:0:0:0:
68,156,24091,1,8,0:0:0:0:
79,153,24147,1,0,0:0:0:0:
90,152,24202,1,0,0:0:0:0:
101,154,24258,1,0,0:0:0:0:
110,156,24314,6,0,B|133:168|133:168|211:150,1,88.000002685547,8|0,0:0|0:0,0:0:0:0:
259,27,24536,2,0,B|236:15|236:15|158:33,1,88.000002685547,8|0,0:0|0:0,0:0:0:0:
317,154,24758,2,0,P|415:170|376:54,1,264.000008056641,8|0,0:0|0:0,0:0:0:0:
245,102,25203,5,4,0:0:0:0:
238,107,25258,1,0,0:0:0:0:
233,113,25314,1,0,0:0:0:0:
228,120,25369,1,0,0:0:0:0:
224,127,25425,1,8,0:0:0:0:
221,135,25480,1,0,0:0:0:0:
218,143,25536,1,0,0:0:0:0:
217,151,25591,1,0,0:0:0:0:
216,159,25647,1,8,0:0:0:0:
217,167,25702,1,0,0:0:0:0:
218,175,25758,1,0,0:0:0:0:
220,183,25814,1,0,0:0:0:0:
223,191,25869,1,8,0:0:0:0:
227,198,25925,1,0,0:0:0:0:
232,205,25980,1,0,0:0:0:0:
237,211,26036,1,0,0:0:0:0:
243,215,26092,6,0,L|254:265,3,44.0000013427735,8|0|0|0,0:0|0:0|0:0|0:0,0:0:0:0:
337,189,26314,2,0,L|326:139,3,44.0000013427735,8|0|0|0,0:0|0:0|0:0|0:0,0:0:0:0:
411,233,26536,2,0,L|422:283,3,44.0000013427735,8|0|0|0,0:0|0:0|0:0|0:0,0:0:0:0:
505,207,26758,2,0,L|494:157,3,44.0000013427735,8|0|0|0,0:0|0:0|0:0|0:0,0:0:0:0:
399,97,26981,5,4,0:0:0:0:
389,92,27036,1,0,0:0:0:0:
378,88,27092,1,0,0:0:0:0:
367,87,27147,1,0,0:0:0:0:
356,89,27203,1,8,0:0:0:0:
346,92,27258,1,0,0:0:0:0:
336,97,27314,1,0,0:0:0:0:
328,105,27369,1,0,0:0:0:0:
321,113,27425,1,8,0:0:0:0:
316,123,27480,1,0,0:0:0:0:
313,134,27536,1,0,0:0:0:0:
313,145,27592,1,0,0:0:0:0:
314,156,27647,1,8,0:0:0:0:
318,166,27703,1,0,0:0:0:0:
323,175,27758,1,0,0:0:0:0:
331,184,27814,1,0,0:0:0:0:
341,190,27869,6,0,L|399:199,3,44.0000013427735,8|0|0|0,0:0|0:0|0:0|0:0,0:0:0:0:
273,255,28092,2,0,L|215:264,3,44.0000013427735,8|0|0|0,0:0|0:0|0:0|0:0,0:0:0:0:
428,316,28314,1,0,0:0:0:0:
409,328,28369,1,0,0:0:0:0:
391,341,28425,1,0,0:0:0:0:
373,353,28480,1,0,0:0:0:0:
353,363,28536,1,8,0:0:0:0:
334,351,28591,1,0,0:0:0:0:
315,339,28647,1,0,0:0:0:0:
296,328,28702,1,0,0:0:0:0:
278,316,28758,1,4,0:0:0:0:
96,243,28981,5,8,0:0:0:0:
55,256,29036,1,0,0:0:0:0:
34,293,29092,1,0,0:0:0:0:
46,334,29147,1,0,0:0:0:0:
83,356,29203,2,0,L|139:353,3,44.0000013427735,4|0|0|0,0:0|0:0|0:0|0:0,0:0:0:0:
185,256,29425,5,8,0:0:0:0:
226,243,29480,1,0,0:0:0:0:
247,206,29536,1,0,0:0:0:0:
235,165,29591,1,0,0:0:0:0:
198,143,29647,2,0,L|142:146,3,44.0000013427735,4|0|0|0,0:0|0:0|0:0|0:0,0:0:0:0:
215,64,29869,2,0,L|167:50,3,44.0000013427735,8|0|0|0,0:0|0:0|0:0|0:0,0:0:0:0:
316,33,30092,2,0,L|372:30,3,44.0000013427735,4|0|0|0,0:0|0:0|0:0|0:0,0:0:0:0:
299,112,30314,2,0,L|347:126,3,44.0000013427735,8|0|0|0,0:0|0:0|0:0|0:0,0:0:0:0:
427,85,30536,6,0,P|462:113|443:213,1,132.00000402832,4|0,0:0|0:0,0:0:0:0:
397,235,30758,1,8,0:0:0:0:
386,235,30813,1,0,0:0:0:0:
375,236,30869,1,0,0:0:0:0:
364,236,30924,1,0,0:0:0:0:
353,237,30980,1,4,0:0:0:0:
303,300,31203,1,8,0:0:0:0:
224,253,31425,2,0,B|188:200|188:200|138:300|138:300|87:202|87:202|52:258,1,352.000010742188,4|0,0:0|0:0,0:0:0:0:
380,143,32314,6,0,L|441:140,7,40
346,65,32758,2,0,L|285:68,7,40
297,157,33203,2,0,P|304:211|304:212,7,40
232,102,33647,2,0,B|217:113|217:113|194:103,3,40
144,40,33869,2,0,B|129:29|129:29|106:39,3,40
53,91,34092,5,0,0:0:0:0:
48,100,34147,1,0,0:0:0:0:
45,109,34203,1,0,0:0:0:0:
43,119,34258,1,0,0:0:0:0:
42,129,34314,1,0,0:0:0:0:
43,139,34369,1,0,0:0:0:0:
44,149,34425,1,0,0:0:0:0:
47,158,34480,1,0,0:0:0:0:
50,169,34536,6,0,L|65:213,7,40
137,203,34981,2,0,L|136:260,7,40
218,249,35425,2,0,L|194:302,7,40
296,278,35869,5,0,0:0:0:0:
303,284,35924,1,0,0:0:0:0:
312,288,35980,1,0,0:0:0:0:
321,292,36035,1,0,0:0:0:0:
331,294,36091,1,0,0:0:0:0:
341,295,36146,1,0,0:0:0:0:
351,294,36202,1,0,0:0:0:0:
361,291,36257,1,0,0:0:0:0:
370,286,36314,6,0,L|396:248,7,40
388,168,36758,2,0,L|362:130,7,40
460,212,37203,2,0,L|509:208,7,40
329,199,37647,5,0,0:0:0:0:
315,193,37702,1,0,0:0:0:0:
300,191,37758,1,0,0:0:0:0:
285,192,37813,1,0,0:0:0:0:
270,196,37869,1,0,0:0:0:0:
257,203,37924,1,0,0:0:0:0:
246,212,37980,1,0,0:0:0:0:
237,224,38035,1,0,0:0:0:0:
230,237,38092,1,0,0:0:0:0:
224,223,38147,1,0,0:0:0:0:
214,211,38203,1,0,0:0:0:0:
203,202,38258,1,0,0:0:0:0:
190,195,38314,1,0,0:0:0:0:
175,191,38369,1,0,0:0:0:0:
160,190,38425,1,0,0:0:0:0:
145,192,38480,1,0,0:0:0:0:
127,198,38536,6,0,L|110:248,7,40
73,138,38981,1,0,0:0:0:0:
72,133,39036,1,0,0:0:0:0:
72,128,39092,1,0,0:0:0:0:
71,123,39147,1,0,0:0:0:0:
71,118,39203,1,0,0:0:0:0:
71,113,39258,1,0,0:0:0:0:
70,108,39314,1,0,0:0:0:0:
70,103,39369,1,0,0:0:0:0:
68,98,39425,6,0,L|63:47,7,40
159,64,39869,2,0,L|200:34,7,40,0|0|0|0|0|0|0|0,0:3|0:3|0:3|0:3|0:3|0:3|0:3|0:3,0:3:0:0:
146,156,40314,2,0,L|192:177,7,40
253,111,40758,2,0,L|296:110,7,40
386,45,41203,5,0,0:0:0:0:
393,51,41258,1,0,0:0:0:0:
401,57,41314,1,0,0:0:0:0:
407,65,41369,1,0,0:0:0:0:
413,73,41425,1,0,0:0:0:0:
418,82,41480,1,0,0:0:0:0:
421,91,41536,1,0,0:0:0:0:
424,101,41591,1,0,0:0:0:0:
425,111,41647,1,0,0:0:0:0:
425,121,41702,1,0,0:0:0:0:
425,131,41758,1,0,0:0:0:0:
422,141,41814,1,0,0:0:0:0:
419,150,41869,1,0,0:0:0:0:
415,159,41925,1,0,0:0:0:0:
410,168,41980,1,0,0:0:0:0:
404,176,42036,1,0,0:0:0:0:
396,187,42092,6,0,L|404:237,7,40
331,122,42536,2,0,L|323:72,7,40
312,207,42981,1,0,0:0:0:0:
302,206,43036,1,0,0:0:0:0:
292,206,43092,1,0,0:0:0:0:
282,205,43147,1,0,0:0:0:0:
272,205,43203,1,0,0:0:0:0:
262,204,43258,1,0,0:0:0:0:
252,204,43314,1,0,0:0:0:0:
242,203,43369,1,0,0:0:0:0:
227,202,43425,2,0,L|183:216,7,40
202,109,43869,5,0,0:0:0:0:
212,108,43924,1,0,0:0:0:0:
222,108,43980,1,0,0:0:0:0:
232,108,44035,1,0,0:0:0:0:
241,107,44091,1,0,0:0:0:0:
251,107,44146,1,0,0:0:0:0:
261,106,44202,1,0,0:0:0:0:
271,106,44257,1,0,0:0:0:0:
287,104,44314,2,0,L|331:118,7,40
416,39,44758,5,0,0:0:0:0:
444,66,44813,1,0,0:0:0:0:
456,104,44869,1,0,0:0:0:0:
447,142,44924,1,0,0:0:0:0:
421,172,44981,1,0,0:0:0:0:
417,181,45036,1,0,0:0:0:0:
415,191,45092,1,0,0:0:0:0:
416,201,45147,1,0,0:0:0:0:
421,210,45203,1,0,0:0:0:0:
445,241,45258,1,0,0:0:0:0:
454,279,45314,1,0,0:0:0:0:
446,318,45369,1,0,0:0:0:0:
423,351,45425,1,0,0:0:0:0:
413,352,45480,1,0,0:0:0:0:
404,353,45536,1,0,0:0:0:0:
394,355,45591,1,0,0:0:0:0:
381,353,45647,6,0,L|329:346,8,40
52,345,46536,6,0,L|42:262,1,80
136,193,46758,2,0,L|146:276,1,80
223,333,46981,2,0,L|255:256,1,80
371,243,47203,2,0,L|338:319,1,80
330,68,47425,2,0,L|413:58,1,80
481,151,47647,2,0,L|398:161,1,80
152,22,47869,2,0,L|228:54,1,80
241,169,48091,2,0,L|164:136,1,80
62,86,48314,5,0,0:0:0:0:
37,116,48425,1,0,0:0:0:0:
27,155,48536,1,0,0:0:0:0:
34,194,48647,1,0,0:0:0:0:
58,226,48758,1,0,0:0:0:0:
125,294,48869,1,0,0:0:0:0:
174,213,48981,1,0,0:0:0:0:
239,283,49092,1,0,0:0:0:0:
301,186,49203,6,0,B|316:161|316:161|305:97,1,80
215,35,49425,2,0,B|200:60|200:60|211:124,1,80
335,272,49647,2,0,B|360:287|360:287|424:276,1,80
486,186,49869,2,0,B|461:171|461:171|397:182,1,80
335,123,50092,6,0,L|256:119,3,80
179,217,50536,2,0,L|175:296,3,80
250,353,50981,2,0,L|329:357,3,80
406,259,51425,2,0,L|410:180,3,80
343,61,51869,6,0,P|283:53|256:65,1,80
214,175,52092,2,0,P|274:183|301:171,1,80
17,30,52314,2,0,P|9:90|21:117,1,80
131,159,52537,2,0,P|139:99|127:72,1,80
50,278,52758,5,0,0:0:0:0:
108,353,52869,1,0,0:0:0:0:
154,268,52981,1,0,0:0:0:0:
208,346,53092,1,0,0:0:0:0:
275,277,53203,1,0,0:0:0:0:
288,182,53314,1,0,0:0:0:0:
275,86,53425,1,0,0:0:0:0:
209,15,53536,1,0,0:0:0:0:
137,84,53647,5,4,0:0:0:0:
307,153,53758,1,0,0:0:0:0:
156,161,53869,5,8,0:0:0:0:
315,72,53980,1,0,0:0:0:0:
153,227,54092,5,4,0:0:0:0:
288,77,54203,1,0,0:0:0:0:
299,223,54314,5,8,0:0:0:0:
146,91,54425,1,0,0:0:0:0:
221,182,54536,5,4,0:0:0:0:
163,349,54647,1,0,0:0:0:0:
151,195,54758,5,8,0:0:0:0:
225,338,54869,1,0,0:0:0:0:
251,179,54981,5,4,0:0:0:0:
130,342,55092,1,0,0:0:0:0:
111,182,55203,5,8,0:0:0:0:
262,360,55314,1,0,0:0:0:0:
352,204,55425,5,4,0:0:0:0:
375,303,55536,1,0,0:0:0:0:
438,157,55647,5,8,0:0:0:0:
438,247,55758,1,0,0:0:0:0:
512,91,55869,5,4,0:0:0:0:
507,201,55981,1,0,0:0:0:0:
360,37,56092,5,8,0:0:0:0:
370,207,56203,1,0,0:0:0:0:
251,97,56314,5,4,0:0:0:0:
430,110,56425,1,0,0:0:0:0:
212,206,56536,5,8,0:0:0:0:
359,184,56647,1,0,0:0:0:0:
122,141,56758,5,4,0:0:0:0:
293,215,56869,1,0,0:0:0:0:
68,272,56981,5,8,0:0:0:0:
225,293,57092,1,0,0:0:0:0:
199,135,57203,5,4,0:0:0:0:
386,40,57425,1,0,0:0:0:0:
399,38,57480,1,0,0:0:0:0:
412,39,57536,1,0,0:0:0:0:
424,44,57591,1,0,0:0:0:0:
435,51,57647,1,0,0:0:0:0:
445,61,57702,1,0,0:0:0:0:
451,72,57758,1,0,0:0:0:0:
455,85,57813,1,0,0:0:0:0:
455,98,57869,1,0,0:0:0:0:
452,111,57924,1,0,0:0:0:0:
447,123,57980,1,0,0:0:0:0:
438,134,58036,1,0,0:0:0:0:
428,142,58092,5,0,0:0:0:0:
419,146,58147,1,0,0:0:0:0:
411,152,58203,1,0,0:0:0:0:
403,159,58258,1,0,0:0:0:0:
397,166,58314,1,0,0:0:0:0:
392,175,58369,1,0,0:0:0:0:
388,184,58425,1,0,0:0:0:0:
385,194,58480,1,0,0:0:0:0:
384,204,58536,1,0,0:0:0:0:
383,214,58591,1,0,0:0:0:0:
385,224,58647,1,0,0:0:0:0:
388,233,58703,1,0,0:0:0:0:
391,242,58758,1,0,0:0:0:0:
396,251,58814,1,0,0:0:0:0:
403,259,58869,1,0,0:0:0:0:
410,266,58925,1,0,0:0:0:0:
419,272,58981,6,0,L|463:280,7,40
337,339,59425,2,0,L|293:347,7,40
303,249,59869,5,0,0:0:0:0:
300,234,59924,1,0,0:0:0:0:
293,221,59980,1,0,0:0:0:0:
283,210,60035,1,0,0:0:0:0:
269,204,60091,1,0,0:0:0:0:
254,203,60146,1,0,0:0:0:0:
240,208,60202,1,0,0:0:0:0:
228,216,60257,1,0,0:0:0:0:
218,229,60314,1,0,0:0:0:0:
230,191,60369,1,0,0:0:0:0:
223,152,60425,1,0,0:0:0:0:
197,122,60480,1,0,0:0:0:0:
160,108,60536,1,0,0:0:0:0:
121,114,60591,1,0,0:0:0:0:
90,139,60647,1,0,0:0:0:0:
75,175,60702,1,0,0:0:0:0:
80,215,60758,5,0,0:0:0:0:
145,260,60869,1,0,0:0:0:0:
225,261,60981,1,0,0:0:0:0:
286,210,61092,1,0,0:0:0:0:
472,76,61203,5,0,0:0:0:0:
414,20,61314,1,0,0:0:0:0:
334,21,61425,1,0,0:0:0:0:
293,90,61536,1,0,0:0:0:0:
460,187,61647,5,0,0:0:0:0:
481,264,61758,1,0,0:0:0:0:
445,335,61869,1,0,0:0:0:0:
368,359,61981,1,0,0:0:0:0:
242,202,62092,5,0,0:0:0:0:
165,224,62203,1,0,0:0:0:0:
119,289,62314,1,0,0:0:0:0:
119,368,62425,1,0,0:0:0:0:
281,293,62536,5,0,0:0:0:0:
355,263,62647,1,0,0:0:0:0:
434,269,62758,1,0,0:0:0:0:
485,329,62869,1,0,0:0:0:0:
476,160,62981,5,0,0:0:0:0:
435,90,63092,1,0,0:0:0:0:
359,63,63203,1,0,0:0:0:0:
283,88,63314,1,0,0:0:0:0:
81,24,63425,5,0,0:0:0:0:
52,98,63536,1,0,0:0:0:0:
69,175,63647,1,0,0:0:0:0:
117,238,63758,1,0,0:0:0:0:
343,246,63869,5,0,0:0:0:0:
374,171,63981,1,0,0:0:0:0:
372,91,64092,1,0,0:0:0:0:
323,27,64203,1,0,0:0:0:0:
191,117,64314,6,0,L|210:213,3,80
134,272,64758,2,0,L|38:291,3,80
301,183,65203,2,0,L|282:279,3,80
358,338,65647,2,0,L|454:357,3,80
460,250,66092,5,0,0:0:0:0:
471,170,66203,1,0,0:0:0:0:
483,90,66314,1,0,0:0:0:0:
494,10,66425,1,0,0:0:0:0:
286,27,66536,5,0,0:0:0:0:
278,106,66647,1,0,0:0:0:0:
270,185,66758,1,0,0:0:0:0:
263,264,66869,1,0,0:0:0:0:
382,141,66981,5,0,0:0:0:0:
302,136,67092,1,0,0:0:0:0:
222,126,67203,1,0,0:0:0:0:
142,117,67314,1,0,0:0:0:0:
49,288,67425,5,0,0:0:0:0:
129,293,67536,1,0,0:0:0:0:
209,303,67647,1,0,0:0:0:0:
289,312,67758,1,0,0:0:0:0:
387,255,67869,6,0,L|432:250,15,40
480,184,68758,2,0,L|475:139,15,40
407,89,69647,2,0,L|362:94,15,40
314,160,70536,2,0,L|319:205,15,40
296,299,71425,5,0,0:0:0:0:
299,308,71480,1,0,0:0:0:0:
301,318,71536,1,0,0:0:0:0:
301,328,71591,1,0,0:0:0:0:
299,337,71647,1,0,0:0:0:0:
295,347,71702,1,0,0:0:0:0:
290,355,71758,1,0,0:0:0:0:
283,362,71813,1,0,0:0:0:0:
275,368,71869,1,0,0:0:0:0:
266,372,71925,1,0,0:0:0:0:
256,375,71980,1,0,0:0:0:0:
246,375,72036,1,0,0:0:0:0:
236,374,72091,1,0,0:0:0:0:
227,371,72147,1,0,0:0:0:0:
218,366,72202,1,0,0:0:0:0:
211,360,72258,1,0,0:0:0:0:
203,353,72314,5,0,0:0:0:0:
204,343,72369,1,0,0:0:0:0:
204,333,72425,1,0,0:0:0:0:
202,323,72480,1,0,0:0:0:0:
199,313,72536,1,0,0:0:0:0:
194,305,72591,1,0,0:0:0:0:
187,297,72647,1,0,0:0:0:0:
180,291,72702,1,0,0:0:0:0:
171,286,72758,1,0,0:0:0:0:
162,282,72814,1,0,0:0:0:0:
152,280,72869,1,0,0:0:0:0:
142,280,72925,1,0,0:0:0:0:
132,282,72980,1,0,0:0:0:0:
123,285,73036,1,0,0:0:0:0:
114,290,73091,1,0,0:0:0:0:
106,296,73147,1,0,0:0:0:0:
95,302,73203,5,0,0:0:0:0:
95,306,73258,1,0,0:0:0:0:
95,311,73314,1,0,0:0:0:0:
96,316,73369,1,0,0:0:0:0:
96,321,73425,1,0,0:0:0:0:
96,326,73480,1,0,0:0:0:0:
97,331,73536,1,0,0:0:0:0:
97,336,73591,1,0,0:0:0:0:
97,341,73647,1,0,0:0:0:0:
98,346,73703,1,0,0:0:0:0:
98,351,73758,1,0,0:0:0:0:
98,356,73814,1,0,0:0:0:0:
99,361,73869,1,0,0:0:0:0:
99,366,73925,1,0,0:0:0:0:
99,371,73980,1,0,0:0:0:0:
100,376,74036,1,0,0:0:0:0:
99,375,74092,2,0,L|148:380,15,40
204,328,74981,5,0,0:0:0:0:
327,347,75203,5,0,0:0:0:0:
333,335,75258,1,0,0:0:0:0:
342,325,75314,1,0,0:0:0:0:
353,317,75369,1,0,0:0:0:0:
365,311,75425,1,0,0:0:0:0:
378,308,75480,1,0,0:0:0:0:
391,308,75536,1,0,0:0:0:0:
404,310,75591,1,0,0:0:0:0:
416,315,75647,1,0,0:0:0:0:
427,323,75703,1,0,0:0:0:0:
437,332,75758,1,0,0:0:0:0:
444,344,75814,1,0,0:0:0:0:
451,358,75869,5,0,0:0:0:0:
413,346,75924,1,0,0:0:0:0:
382,320,75980,1,0,0:0:0:0:
365,284,76035,1,0,0:0:0:0:
364,244,76091,1,0,0:0:0:0:
378,207,76146,1,0,0:0:0:0:
407,179,76202,1,0,0:0:0:0:
444,165,76257,1,0,0:0:0:0:
483,167,76313,5,0,0:0:0:0:
102,48,76758,5,0,0:0:0:0:
92,53,76813,1,0,0:0:0:0:
83,59,76869,1,0,0:0:0:0:
75,67,76924,1,0,0:0:0:0:
68,75,76980,1,0,0:0:0:0:
62,85,77035,1,0,0:0:0:0:
58,95,77091,1,0,0:0:0:0:
55,105,77146,1,0,0:0:0:0:
53,116,77202,1,0,0:0:0:0:
53,127,77258,1,0,0:0:0:0:
55,138,77313,1,0,0:0:0:0:
58,149,77369,1,0,0:0:0:0:
62,159,77424,1,0,0:0:0:0:
68,168,77480,1,0,0:0:0:0:
74,177,77535,1,0,0:0:0:0:
82,184,77591,1,0,0:0:0:0:
90,192,77647,5,0,0:0:0:0:
104,199,77702,1,0,0:0:0:0:
118,208,77758,1,0,0:0:0:0:
129,221,77813,1,0,0:0:0:0:
137,235,77869,1,0,0:0:0:0:
143,250,77924,1,0,0:0:0:0:
146,266,77980,1,0,0:0:0:0:
145,283,78035,1,0,0:0:0:0:
142,299,78091,1,0,0:0:0:0:
135,314,78147,1,0,0:0:0:0:
126,327,78202,1,0,0:0:0:0:
114,339,78258,1,0,0:0:0:0:
100,348,78313,1,0,0:0:0:0:
85,354,78369,1,0,0:0:0:0:
69,358,78424,1,0,0:0:0:0:
53,358,78480,1,0,0:0:0:0:
32,353,78536,6,0,L|18:299,7,44.0000013427735
66,253,78981,2,0,L|74:202,3,44.0000013427735
36,140,79203,2,0,L|28:89,3,44.0000013427735
108,45,79425,5,0,0:0:0:0:
113,45,79480,1,0,0:0:0:0:
118,45,79536,1,0,0:0:0:0:
124,46,79591,1,0,0:0:0:0:
129,46,79647,1,0,0:0:0:0:
135,46,79702,1,0,0:0:0:0:
140,47,79758,1,0,0:0:0:0:
146,47,79813,1,0,0:0:0:0:
151,47,79869,1,0,0:0:0:0:
157,48,79925,1,0,0:0:0:0:
162,48,79980,1,0,0:0:0:0:
168,48,80036,1,0,0:0:0:0:
173,49,80091,1,0,0:0:0:0:
179,49,80147,1,0,0:0:0:0:
184,49,80202,1,0,0:0:0:0:
190,50,80258,1,0,0:0:0:0:
196,49,80314,5,0,0:0:0:0:
183,66,80369,1,0,0:0:0:0:
173,86,80425,1,0,0:0:0:0:
169,108,80480,1,0,0:0:0:0:
168,130,80536,1,0,0:0:0:0:
172,151,80591,1,0,0:0:0:0:
180,172,80647,1,0,0:0:0:0:
192,190,80702,1,0,0:0:0:0:
207,206,80758,1,0,0:0:0:0:
225,218,80814,1,0,0:0:0:0:
246,226,80869,1,0,0:0:0:0:
267,230,80925,1,0,0:0:0:0:
289,230,80980,1,0,0:0:0:0:
311,226,81036,1,0,0:0:0:0:
331,217,81091,1,0,0:0:0:0:
349,204,81147,1,0,0:0:0:0:
363,186,81203,5,0,0:0:0:0:
362,180,81258,1,0,0:0:0:0:
362,175,81314,1,0,0:0:0:0:
361,169,81369,1,0,0:0:0:0:
361,164,81425,1,0,0:0:0:0:
360,158,81480,1,0,0:0:0:0:
360,153,81536,1,0,0:0:0:0:
360,147,81591,1,0,0:0:0:0:
359,142,81647,1,0,0:0:0:0:
359,136,81703,1,0,0:0:0:0:
358,131,81758,1,0,0:0:0:0:
358,125,81814,1,0,0:0:0:0:
357,120,81869,1,0,0:0:0:0:
357,114,81925,1,0,0:0:0:0:
357,109,81980,1,0,0:0:0:0:
356,103,82036,1,0,0:0:0:0:
356,97,82092,6,0,L|364:54,3,44.0000013427735
282,168,82314,2,0,L|290:211,3,44.0000013427735
238,81,82536,2,0,L|246:38,3,44.0000013427735
164,152,82758,2,0,L|172:195,3,44.0000013427735
99,54,82981,5,0,0:0:0:0:
88,52,83036,1,0,0:0:0:0:
77,52,83092,1,0,0:0:0:0:
66,54,83147,1,0,0:0:0:0:
56,58,83203,1,0,0:0:0:0:
47,64,83258,1,0,0:0:0:0:
39,72,83314,1,0,0:0:0:0:
34,82,83369,1,0,0:0:0:0:
30,92,83425,1,0,0:0:0:0:
28,103,83481,1,0,0:0:0:0:
28,114,83536,1,0,0:0:0:0:
31,124,83592,1,0,0:0:0:0:
35,134,83647,1,0,0:0:0:0:
42,143,83703,1,0,0:0:0:0:
50,151,83758,1,0,0:0:0:0:
60,156,83814,1,0,0:0:0:0:
68,158,83869,5,0,0:0:0:0:
81,168,83924,1,0,0:0:0:0:
92,180,83980,1,0,0:0:0:0:
101,193,84035,1,0,0:0:0:0:
108,208,84091,1,0,0:0:0:0:
112,224,84146,1,0,0:0:0:0:
114,241,84202,1,0,0:0:0:0:
113,257,84257,1,0,0:0:0:0:
110,273,84313,1,0,0:0:0:0:
104,289,84369,1,0,0:0:0:0:
96,303,84424,1,0,0:0:0:0:
86,316,84480,1,0,0:0:0:0:
73,327,84535,1,0,0:0:0:0:
59,335,84591,1,0,0:0:0:0:
44,342,84646,1,0,0:0:0:0:
28,346,84702,1,0,0:0:0:0:
10,350,84758,5,0,0:0:0:0:
13,328,84813,1,0,0:0:0:0:
20,307,84869,1,0,0:0:0:0:
31,288,84924,1,0,0:0:0:0:
45,271,84980,1,0,0:0:0:0:
62,257,85035,1,0,0:0:0:0:
81,247,85091,1,0,0:0:0:0:
102,240,85146,1,0,0:0:0:0:
124,237,85202,1,0,0:0:0:0:
146,238,85258,1,0,0:0:0:0:
167,244,85313,1,0,0:0:0:0:
187,253,85369,1,0,0:0:0:0:
205,265,85424,1,0,0:0:0:0:
221,281,85480,1,0,0:0:0:0:
233,299,85535,1,0,0:0:0:0:
242,319,85591,1,0,0:0:0:0:
249,342,85647,6,0,L|251:389,7,44.0000013427735
324,281,86092,2,0,L|320:223,3,44.0000013427735
404,341,86314,2,0,L|400:399,3,44.0000013427735
474,288,86536,1,0,0:0:0:0:
473,282,86591,1,0,0:0:0:0:
473,277,86647,1,0,0:0:0:0:
473,271,86702,1,0,0:0:0:0:
473,266,86758,1,0,0:0:0:0:
473,260,86813,1,0,0:0:0:0:
473,255,86869,1,0,0:0:0:0:
473,249,86924,1,0,0:0:0:0:
473,244,86980,1,0,0:0:0:0:
472,238,87036,1,0,0:0:0:0:
472,233,87091,1,0,0:0:0:0:
472,227,87147,1,0,0:0:0:0:
472,222,87202,1,0,0:0:0:0:
472,216,87258,1,0,0:0:0:0:
472,211,87313,1,0,0:0:0:0:
472,205,87369,1,0,0:0:0:0:
473,199,87425,5,0,0:0:0:0:
482,185,87480,1,0,0:0:0:0:
488,169,87536,1,0,0:0:0:0:
491,153,87591,1,0,0:0:0:0:
491,137,87647,1,0,0:0:0:0:
489,121,87702,1,0,0:0:0:0:
483,105,87758,1,0,0:0:0:0:
474,91,87813,1,0,0:0:0:0:
463,79,87869,1,0,0:0:0:0:
450,69,87925,1,0,0:0:0:0:
435,62,87980,1,0,0:0:0:0:
419,57,88036,1,0,0:0:0:0:
403,56,88091,1,0,0:0:0:0:
387,58,88147,1,0,0:0:0:0:
371,62,88202,1,0,0:0:0:0:
356,70,88258,1,0,0:0:0:0:
341,81,88314,5,0,0:0:0:0:
334,107,88369,1,0,0:0:0:0:
322,132,88425,1,0,0:0:0:0:
306,154,88480,1,0,0:0:0:0:
285,172,88536,1,0,0:0:0:0:
261,185,88591,1,0,0:0:0:0:
235,193,88647,1,0,0:0:0:0:
207,196,88702,1,0,0:0:0:0:
180,192,88758,1,0,0:0:0:0:
154,184,88814,1,0,0:0:0:0:
130,170,88869,1,0,0:0:0:0:
110,151,88925,1,0,0:0:0:0:
94,129,88980,1,0,0:0:0:0:
83,104,89036,1,0,0:0:0:0:
77,77,89091,1,0,0:0:0:0:
77,50,89147,1,0,0:0:0:0:
96,39,89203,5,0,0:0:0:0:
68,66,89258,1,0,0:0:0:0:
56,104,89314,1,0,0:0:0:0:
65,142,89369,1,0,0:0:0:0:
91,172,89426,1,0,0:0:0:0:
95,181,89481,1,0,0:0:0:0:
97,191,89537,1,0,0:0:0:0:
96,201,89592,1,0,0:0:0:0:
91,210,89648,1,0,0:0:0:0:
67,241,89703,1,0,0:0:0:0:
58,279,89759,1,0,0:0:0:0:
66,318,89814,1,0,0:0:0:0:
89,351,89870,1,0,0:0:0:0:
99,352,89925,1,0,0:0:0:0:
108,353,89981,1,0,0:0:0:0:
118,355,90036,1,0,0:0:0:0:
131,353,90092,6,0,L|192:348,7,44.0000013427735
236,307,90536,1,0,0:0:0:0:
235,301,90591,1,0,0:0:0:0:
235,296,90647,1,0,0:0:0:0:
235,290,90702,1,0,0:0:0:0:
234,285,90758,1,0,0:0:0:0:
234,279,90813,1,0,0:0:0:0:
234,274,90869,1,0,0:0:0:0:
233,268,90924,1,0,0:0:0:0:
232,260,90981,6,0,L|230:214,15,40
454,256,91869,1,0,0:0:0:0:
457,270,91924,1,0,0:0:0:0:
458,285,91980,1,0,0:0:0:0:
456,300,92035,1,0,0:0:0:0:
451,314,92091,1,0,0:0:0:0:
444,327,92146,1,0,0:0:0:0:
435,339,92202,1,0,0:0:0:0:
424,349,92257,1,0,0:0:0:0:
411,357,92313,1,0,0:0:0:0:
397,362,92369,1,0,0:0:0:0:
382,365,92424,1,0,0:0:0:0:
367,365,92480,1,0,0:0:0:0:
353,363,92535,1,0,0:0:0:0:
339,357,92591,1,0,0:0:0:0:
326,350,92646,1,0,0:0:0:0:
314,340,92702,1,0,0:0:0:0:
306,323,92758,6,0,L|303:276,15,40
364,233,93647,1,0,0:0:0:0:
381,223,93702,1,0,0:0:0:0:
395,208,93758,1,0,0:0:0:0:
403,190,93813,1,0,0:0:0:0:
406,171,93869,1,0,0:0:0:0:
403,151,93924,1,0,0:0:0:0:
394,133,93980,1,0,0:0:0:0:
381,119,94035,1,0,0:0:0:0:
363,108,94092,2,0,L|315:115,3,40
273,35,94314,2,0,L|225:28,3,40
137,77,94536,5,0,0:0:0:0:
112,78,94591,1,0,0:0:0:0:
89,88,94647,1,0,0:0:0:0:
72,106,94702,1,0,0:0:0:0:
62,129,94758,1,0,0:0:0:0:
61,154,94813,1,0,0:0:0:0:
69,177,94869,1,0,0:0:0:0:
85,196,94924,1,0,0:0:0:0:
111,212,94981,1,0,0:0:0:0:
136,227,95036,1,0,0:0:0:0:
154,251,95092,1,0,0:0:0:0:
161,280,95147,1,0,0:0:0:0:
156,309,95203,1,0,0:0:0:0:
140,335,95258,1,0,0:0:0:0:
116,352,95314,1,0,0:0:0:0:
87,358,95369,1,0,0:0:0:0:
58,353,95425,6,0,L|48:285,3,40
106,251,95647,2,0,L|112:203,3,40
33,166,95869,2,0,L|22:97,3,40
92,77,96091,2,0,L|98:29,3,40
225,44,96314,5,0,0:0:0:0:
249,49,96369,1,0,0:0:0:0:
273,55,96425,1,0,0:0:0:0:
297,61,96480,1,0,0:0:0:0:
322,67,96536,1,0,0:0:0:0:
346,72,96591,1,0,0:0:0:0:
370,78,96647,1,0,0:0:0:0:
395,84,96702,1,0,0:0:0:0:
421,89,96758,1,0,0:0:0:0:
394,102,96813,1,0,0:0:0:0:
367,116,96869,1,0,0:0:0:0:
341,130,96924,1,0,0:0:0:0:
314,144,96980,1,0,0:0:0:0:
287,157,97035,1,0,0:0:0:0:
261,171,97091,1,0,0:0:0:0:
234,185,97146,1,0,0:0:0:0:
207,199,97203,6,0,L|146:230,3,40
206,90,97425,2,0,L|144:59,3,40
314,144,97647,2,0,B|401:129|476:152|476:152|398:195,1,240
372,273,98092,5,0,0:0:0:0:
373,297,98147,1,0,0:0:0:0:
365,321,98203,1,0,0:0:0:0:
348,339,98258,1,0,0:0:0:0:
326,350,98314,1,0,0:0:0:0:
301,352,98369,1,0,0:0:0:0:
278,344,98425,1,0,0:0:0:0:
259,328,98480,1,0,0:0:0:0:
248,306,98536,1,0,0:0:0:0:
239,278,98591,1,0,0:0:0:0:
219,255,98647,1,0,0:0:0:0:
192,243,98702,1,0,0:0:0:0:
162,243,98758,1,0,0:0:0:0:
135,255,98813,1,0,0:0:0:0:
115,277,98869,1,0,0:0:0:0:
105,305,98924,1,0,0:0:0:0:
108,335,98981,6,0,L|117:384,3,40
166,275,99203,2,0,L|174:226,3,40
95,153,99425,2,0,L|103:201,3,40
152,92,99647,2,0,L|160:43,3,40
260,42,99869,5,0,0:0:0:0:
269,44,99924,1,0,0:0:0:0:
279,46,99980,1,0,0:0:0:0:
289,49,100035,1,0,0:0:0:0:
298,51,100091,1,0,0:0:0:0:
308,54,100146,1,0,0:0:0:0:
318,56,100202,1,0,0:0:0:0:
327,59,100257,1,0,0:0:0:0:
337,62,100314,1,0,0:0:0:0:
315,82,100369,1,0,0:0:0:0:
293,102,100425,1,0,0:0:0:0:
271,123,100480,1,0,0:0:0:0:
249,143,100536,1,0,0:0:0:0:
288,151,100591,1,0,0:0:0:0:
327,159,100647,1,0,0:0:0:0:
366,166,100702,1,0,0:0:0:0:
406,174,100758,6,0,L|398:121,3,40
487,117,100981,2,0,L|495:63,3,40
492,217,101203,1,0,0:0:0:0:
492,221,101258,1,0,0:0:0:0:
492,226,101314,1,0,0:0:0:0:
492,231,101369,1,0,0:0:0:0:
492,236,101425,1,0,0:0:0:0:
492,241,101480,1,0,0:0:0:0:
492,246,101536,1,0,0:0:0:0:
492,251,101591,1,0,0:0:0:0:
492,256,101647,1,0,0:0:0:0:
394,344,101869,5,0,0:0:0:0:
392,334,101924,1,0,0:0:0:0:
390,324,101980,1,0,0:0:0:0:
389,314,102035,1,0,0:0:0:0:
387,304,102091,1,0,0:0:0:0:
290,261,102314,5,0,0:0:0:0:
277,276,102369,1,0,0:0:0:0:
270,295,102425,1,0,0:0:0:0:
271,314,102480,1,0,0:0:0:0:
279,333,102536,1,0,0:0:0:0:
158,345,102758,5,0,0:0:0:0:
171,318,102813,1,0,0:0:0:0:
177,289,102869,1,0,0:0:0:0:
174,259,102924,1,0,0:0:0:0:
162,231,102980,1,0,0:0:0:0:
51,210,103203,5,0,0:0:0:0:
28,242,103258,1,0,0:0:0:0:
19,281,103314,1,0,0:0:0:0:
24,320,103369,1,0,0:0:0:0:
44,355,103425,1,0,0:0:0:0:
266,200,103647,5,0,0:0:0:0:
301,165,103702,1,0,0:0:0:0:
317,118,103758,1,0,0:0:0:0:
307,70,103813,1,0,0:0:0:0:
276,32,103869,1,0,0:0:0:0:
186,108,104092,1,0,0:0:0:0:
498,37,104314,5,0,0:0:0:0:
484,353,104758,5,0,0:0:0:0:
86,40,105203,5,0,0:0:0:0:
71,53,105258,1,0,0:0:0:0:
60,70,105314,1,0,0:0:0:0:
53,88,105369,1,0,0:0:0:0:
50,108,105425,1,0,0:0:0:0:
51,128,105480,1,0,0:0:0:0:
57,147,105536,1,0,0:0:0:0:
67,165,105591,1,0,0:0:0:0:
80,179,105647,1,0,0:0:0:0:
92,194,105702,1,0,0:0:0:0:
101,212,105758,1,0,0:0:0:0:
106,231,105813,1,0,0:0:0:0:
108,251,105869,1,0,0:0:0:0:
105,271,105924,1,0,0:0:0:0:
98,290,105980,1,0,0:0:0:0:
87,307,106035,1,0,0:0:0:0:
74,319,106092,5,0,0:0:0:0:
62,302,106147,1,0,0:0:0:0:
54,284,106203,1,0,0:0:0:0:
51,264,106258,1,0,0:0:0:0:
52,244,106314,1,0,0:0:0:0:
58,225,106369,1,0,0:0:0:0:
68,208,106425,1,0,0:0:0:0:
82,194,106480,1,0,0:0:0:0:
99,183,106536,1,0,0:0:0:0:
118,177,106592,1,0,0:0:0:0:
138,175,106647,1,0,0:0:0:0:
158,178,106703,1,0,0:0:0:0:
176,185,106758,1,0,0:0:0:0:
192,197,106814,1,0,0:0:0:0:
206,212,106869,1,0,0:0:0:0:
215,229,106925,1,0,0:0:0:0:
222,249,106981,5,0,0:0:0:0:
197,266,107036,1,0,0:0:0:0:
173,284,107092,1,0,0:0:0:0:
149,302,107147,1,0,0:0:0:0:
125,320,107203,1,0,0:0:0:0:
99,304,107258,1,0,0:0:0:0:
74,288,107314,1,0,0:0:0:0:
48,273,107369,1,0,0:0:0:0:
23,257,107425,1,0,0:0:0:0:
47,239,107480,1,0,0:0:0:0:
71,221,107536,1,0,0:0:0:0:
95,203,107591,1,0,0:0:0:0:
119,185,107647,1,0,0:0:0:0:
145,201,107702,1,0,0:0:0:0:
170,217,107758,1,0,0:0:0:0:
196,232,107813,1,0,0:0:0:0:
221,248,107869,6,0,L|268:280,7,40
221,136,108314,2,0,L|268:104,7,40
303,200,108758,1,0,0:0:0:0:
311,204,108813,1,0,0:0:0:0:
321,208,108869,1,0,0:0:0:0:
330,209,108924,1,0,0:0:0:0:
340,209,108980,1,0,0:0:0:0:
350,207,109035,1,0,0:0:0:0:
359,203,109091,1,0,0:0:0:0:
368,198,109146,1,0,0:0:0:0:
375,191,109202,1,0,0:0:0:0:
380,183,109258,1,0,0:0:0:0:
384,173,109313,1,0,0:0:0:0:
387,164,109369,1,0,0:0:0:0:
387,154,109424,1,0,0:0:0:0:
386,144,109480,1,0,0:0:0:0:
383,134,109535,1,0,0:0:0:0:
378,126,109591,1,0,0:0:0:0:
370,116,109647,6,0,L|342:74,7,40
480,88,110092,2,0,L|508:46,7,40
475,171,110536,1,0,0:0:0:0:
487,208,110591,1,0,0:0:0:0:
487,248,110647,1,0,0:0:0:0:
474,286,110702,1,0,0:0:0:0:
450,318,110758,1,0,0:0:0:0:
418,341,110813,1,0,0:0:0:0:
380,352,110869,1,0,0:0:0:0:
340,351,110924,1,0,0:0:0:0:
302,337,110981,1,0,0:0:0:0:
301,312,111036,1,0,0:0:0:0:
312,290,111092,1,0,0:0:0:0:
333,277,111147,1,0,0:0:0:0:
358,276,111203,1,0,0:0:0:0:
380,288,111258,1,0,0:0:0:0:
392,310,111314,1,0,0:0:0:0:
392,334,111369,1,0,0:0:0:0:
380,352,111425,5,0,0:0:0:0:
345,371,111480,1,0,0:0:0:0:
305,376,111536,1,0,0:0:0:0:
268,364,111591,1,0,0:0:0:0:
237,338,111647,1,0,0:0:0:0:
220,303,111702,1,0,0:0:0:0:
217,263,111758,1,0,0:0:0:0:
231,226,111813,1,0,0:0:0:0:
259,197,111869,1,0,0:0:0:0:
295,181,111925,1,0,0:0:0:0:
335,181,111981,1,0,0:0:0:0:
341,182,112036,1,0,0:0:0:0:
348,182,112092,1,0,0:0:0:0:
355,183,112147,1,0,0:0:0:0:
361,183,112203,1,0,0:0:0:0:
368,184,112258,1,0,0:0:0:0:
372,185,112314,5,0,0:0:0:0:
411,190,112369,1,0,0:0:0:0:
448,176,112425,1,0,0:0:0:0:
475,147,112480,1,0,0:0:0:0:
486,109,112536,1,0,0:0:0:0:
479,70,112591,1,0,0:0:0:0:
455,39,112647,1,0,0:0:0:0:
419,22,112702,1,0,0:0:0:0:
380,23,112758,2,0,L|323:40,7,40
140,199,113203,5,0,0:0:0:0:
100,193,113258,1,0,0:0:0:0:
63,207,113314,1,0,0:0:0:0:
36,236,113369,1,0,0:0:0:0:
25,274,113425,1,0,0:0:0:0:
32,313,113480,1,0,0:0:0:0:
56,344,113536,1,0,0:0:0:0:
92,361,113591,1,0,0:0:0:0:
131,360,113647,2,0,L|189:344,7,40
353,353,114092,5,0,0:0:0:0:
360,313,114147,1,0,0:0:0:0:
368,274,114203,1,0,0:0:0:0:
376,235,114258,1,0,0:0:0:0:
383,195,114314,1,0,0:0:0:0:
391,156,114369,1,0,0:0:0:0:
399,117,114425,1,0,0:0:0:0:
422,149,114480,1,0,0:0:0:0:
444,182,114536,2,0,L|480:237,7,40
159,31,114981,5,0,0:0:0:0:
151,70,115036,1,0,0:0:0:0:
143,109,115092,1,0,0:0:0:0:
135,148,115147,1,0,0:0:0:0:
128,188,115203,1,0,0:0:0:0:
120,227,115258,1,0,0:0:0:0:
112,266,115314,1,0,0:0:0:0:
90,235,115369,1,0,0:0:0:0:
68,202,115425,2,0,L|32:147,7,40
335,41,115869,5,0,0:0:0:0:
308,70,115924,1,0,0:0:0:0:
296,107,115980,1,0,0:0:0:0:
301,147,116035,1,0,0:0:0:0:
322,180,116091,1,0,0:0:0:0:
356,201,116146,1,0,0:0:0:0:
395,206,116202,1,0,0:0:0:0:
433,194,116257,1,0,0:0:0:0:
460,163,116314,1,0,0:0:0:0:
455,133,116369,1,0,0:0:0:0:
436,111,116425,1,0,0:0:0:0:
407,103,116480,1,0,0:0:0:0:
379,112,116536,1,0,0:0:0:0:
360,134,116591,1,0,0:0:0:0:
356,164,116647,1,0,0:0:0:0:
369,190,116702,1,0,0:0:0:0:
395,206,116758,2,0,L|453:197,7,40
374,302,117203,2,0,L|316:311,7,40
245,235,117647,5,0,0:0:0:0:
208,218,117702,1,0,0:0:0:0:
169,223,117758,1,0,0:0:0:0:
138,247,117813,1,0,0:0:0:0:
123,283,117869,1,0,0:0:0:0:
129,322,117924,1,0,0:0:0:0:
153,353,117980,1,0,0:0:0:0:
191,367,118035,1,0,0:0:0:0:
229,360,118092,1,0,0:0:0:0:
249,303,118147,1,0,0:0:0:0:
236,246,118203,1,0,0:0:0:0:
195,203,118258,1,0,0:0:0:0:
138,187,118314,1,0,0:0:0:0:
81,204,118369,1,0,0:0:0:0:
41,248,118425,1,0,0:0:0:0:
30,306,118480,1,0,0:0:0:0:
47,362,118536,5,0,0:0:0:0:
71,359,118591,1,0,0:0:0:0:
92,346,118647,1,0,0:0:0:0:
106,325,118702,1,0,0:0:0:0:
110,301,118758,1,0,0:0:0:0:
104,277,118813,1,0,0:0:0:0:
88,258,118869,1,0,0:0:0:0:
65,248,118924,1,0,0:0:0:0:
44,234,118981,1,0,0:0:0:0:
36,228,119036,1,0,0:0:0:0:
29,220,119092,1,0,0:0:0:0:
25,211,119147,1,0,0:0:0:0:
24,202,119203,1,0,0:0:0:0:
25,192,119258,1,0,0:0:0:0:
28,182,119314,1,0,0:0:0:0:
34,174,119369,1,0,0:0:0:0:
42,168,119425,5,4,0:0:0:0:
