osu file format v14

[General]
AudioFilename: audio.mp3
AudioLeadIn: 0
PreviewTime: 42690
Countdown: 0
SampleSet: Normal
StackLeniency: 0.7
Mode: 1
LetterboxInBreaks: 0
WidescreenStoryboard: 1

[Editor]
Bookmarks: 135,14357,42801,71245,99690,129912,158356,174356,188579,217023,245468
DistanceSpacing: 2
BeatDivisor: 4
GridSize: 32
TimelineZoom: 3.4

[Metadata]
Title:The Empress
TitleUnicode:The Empress
Artist:UNDEAD CORPORATION
ArtistUnicode:UNDEAD CORPORATION
Creator:Raiden
Version:Oni
Source:東方紅魔郷 ~ the Embodiment of Scarlet Devil.
Tags:FA Featured Artist UC Melodeath Melodic Death Metal English U.N.オーエンは彼女なのか? UN U.N. Owen was her? wa Kanojo Nanoka? Flandre Scarlet フランドール・スカーレット EoSD Extra Stage TH06 TH 6 TOHO Complete Box GOLD Touhou 東方Project ZUN Team Shanghai Alice The Violation Fleshgod Apocalypse madness stream stamina
BeatmapID:2505779
BeatmapSetID:452051

[Difficulty]
HPDrainRate:6
CircleSize:2
OverallDifficulty:5
ApproachRate:10
SliderMultiplier:1.3
SliderTickRate:1

[Events]
//Background and Video events
0,0,"44908884_p0_master1200.jpg",0,150
//Break Periods
//Storyboard Layer 0 (Background)
//Storyboard Layer 1 (Fail)
//Storyboard Layer 2 (Pass)
//Storyboard Layer 3 (Foreground)
//Storyboard Layer 4 (Overlay)
//Storyboard Sound Samples

[TimingPoints]
173,222.222222222222,4,1,0,5,1,0
173,-200,4,1,0,5,0,0
1949,-181.818181818182,4,1,0,15,0,0
3727,-166.666666666667,4,1,0,25,0,0
7283,-153.846153846154,4,1,0,35,0,0
8616,-149.253731343284,4,1,0,35,0,0
8838,-147.058823529412,4,1,0,35,0,0
9060,-142.857142857143,4,1,0,35,0,0
9505,-133.333333333333,4,1,0,45,0,0
14368,222.222222222222,4,1,0,100,1,0
14368,-100,4,1,0,100,0,0
28590,-100,4,1,0,100,0,1
41923,-100,4,1,0,100,0,0
42812,-100,4,1,0,100,0,1
56590,-100,4,1,0,100,0,0
71256,-100,4,1,0,100,0,1
85479,-100,4,1,0,100,0,0
115701,-100,4,1,0,100,0,1
128145,-100,4,1,0,100,0,0
129923,-100,4,1,0,100,0,1
143701,-100,4,1,0,100,0,0
217034,-100,4,1,0,100,0,1
229479,-100,4,1,0,100,0,0
231256,-100,4,1,0,100,0,1
244590,-100,4,1,0,100,0,0
245479,-100,4,1,0,100,0,1
259701,-100,4,1,0,100,0,0

[HitObjects]
256,192,173,5,0,0:0:0:0:
256,192,1061,5,0,0:0:0:0:
256,192,1950,5,8,0:0:0:0:
256,192,2839,5,8,0:0:0:0:
256,192,3061,5,8,0:0:0:0:
256,192,3728,5,0,0:0:0:0:
256,192,4617,5,0,0:0:0:0:
256,192,4839,5,0,0:0:0:0:
256,192,5061,5,0,0:0:0:0:
256,192,5506,5,8,0:0:0:0:
256,192,6395,5,8,0:0:0:0:
256,192,6617,5,8,0:0:0:0:
256,192,7284,5,0,0:0:0:0:
256,192,8172,5,0,0:0:0:0:
256,192,8395,5,0,0:0:0:0:
256,192,8617,5,8,0:0:0:0:
256,192,8839,5,8,0:0:0:0:
256,192,9061,5,0,0:0:0:0:
256,192,9506,5,8,0:0:0:0:
256,192,9950,5,0,0:0:0:0:
256,192,10172,5,8,0:0:0:0:
256,192,10617,5,0,0:0:0:0:
256,192,10728,5,8,0:0:0:0:
256,192,10839,5,8,0:0:0:0:
256,192,11061,5,0,0:0:0:0:
256,192,11284,5,8,0:0:0:0:
256,192,11506,5,0,0:0:0:0:
256,192,11728,5,8,0:0:0:0:
256,192,11950,5,0,0:0:0:0:
256,192,12172,5,8,0:0:0:0:
256,192,12395,5,8,0:0:0:0:
256,192,12617,5,0,0:0:0:0:
256,192,12839,5,8,0:0:0:0:
256,192,13061,5,0,0:0:0:0:
256,192,13284,5,0,0:0:0:0:
256,192,13506,5,8,0:0:0:0:
256,192,13950,5,0,0:0:0:0:
256,192,14368,5,4,0:0:0:0:
256,192,15256,5,12,0:0:0:0:
256,192,15479,5,0,0:0:0:0:
256,192,15701,5,8,0:0:0:0:
256,192,15923,5,8,0:0:0:0:
256,192,16145,5,4,0:0:0:0:
256,192,17034,5,12,0:0:0:0:
256,192,17256,5,8,0:0:0:0:
256,192,17479,5,0,0:0:0:0:
256,192,17534,5,0,0:0:0:0:
256,192,17590,5,0,0:0:0:0:
256,192,17701,5,0,0:0:0:0:
256,192,17812,5,0,0:0:0:0:
256,192,17923,5,12,0:0:0:0:
256,192,18145,5,0,0:0:0:0:
256,192,18367,5,0,0:0:0:0:
256,192,18590,5,0,0:0:0:0:
256,192,18812,5,8,0:0:0:0:
256,192,19034,5,8,0:0:0:0:
256,192,19256,5,8,0:0:0:0:
256,192,19479,5,8,0:0:0:0:
256,192,19701,5,0,0:0:0:0:
256,192,19923,5,0,0:0:0:0:
256,192,20145,5,8,0:0:0:0:
256,192,20367,5,0,0:0:0:0:
256,192,20590,5,8,0:0:0:0:
256,192,20812,5,8,0:0:0:0:
256,192,21034,5,0,0:0:0:0:
256,192,21256,5,8,0:0:0:0:
256,192,21312,5,8,0:0:0:0:
256,192,21367,5,8,0:0:0:0:
256,192,21479,5,8,0:0:0:0:
256,192,21701,5,8,0:0:0:0:
256,192,21923,5,0,0:0:0:0:
256,192,22034,5,8,0:0:0:0:
256,192,22145,5,0,0:0:0:0:
256,192,22256,5,0,0:0:0:0:
256,192,22367,5,8,0:0:0:0:
256,192,22590,5,8,0:0:0:0:
256,192,22812,5,0,0:0:0:0:
256,192,22867,5,0,0:0:0:0:
256,192,22923,5,0,0:0:0:0:
256,192,23034,5,0,0:0:0:0:
256,192,23145,5,8,0:0:0:0:
256,192,23256,5,0,0:0:0:0:
256,192,23479,5,8,0:0:0:0:
256,192,23701,5,0,0:0:0:0:
256,192,23812,5,8,0:0:0:0:
256,192,23867,5,8,0:0:0:0:
256,192,23923,5,8,0:0:0:0:
256,192,24034,5,0,0:0:0:0:
256,192,24145,5,8,0:0:0:0:
256,192,24367,5,8,0:0:0:0:
256,192,24479,5,8,0:0:0:0:
256,192,24534,5,8,0:0:0:0:
256,192,24590,5,0,0:0:0:0:
256,192,24812,5,0,0:0:0:0:
256,192,24923,5,0,0:0:0:0:
256,192,25034,5,8,0:0:0:0:
256,192,25256,5,8,0:0:0:0:
256,192,25367,5,0,0:0:0:0:
256,192,25479,5,0,0:0:0:0:
256,192,25701,5,0,0:0:0:0:
256,192,25812,5,0,0:0:0:0:
256,192,25923,5,8,0:0:0:0:
256,192,26145,5,0,0:0:0:0:
256,192,26256,5,0,0:0:0:0:
256,192,26367,5,8,0:0:0:0:
256,192,26590,5,8,0:0:0:0:
256,192,26701,5,8,0:0:0:0:
256,192,26812,5,0,0:0:0:0:
256,192,27034,5,8,0:0:0:0:
256,192,27090,5,8,0:0:0:0:
256,192,27145,5,8,0:0:0:0:
256,192,27256,5,8,0:0:0:0:
256,192,27479,5,8,0:0:0:0:
256,192,27701,5,4,0:0:0:0:
256,192,28145,5,12,0:0:0:0:
256,192,28590,5,4,0:0:0:0:
256,192,28812,5,8,0:0:0:0:
256,192,28923,5,8,0:0:0:0:
256,192,29034,5,0,0:0:0:0:
256,192,29145,5,8,0:0:0:0:
256,192,29256,5,0,0:0:0:0:
256,192,29367,5,0,0:0:0:0:
256,192,29479,5,8,0:0:0:0:
256,192,29701,5,0,0:0:0:0:
256,192,29923,5,8,0:0:0:0:
256,192,30145,5,8,0:0:0:0:
256,192,30256,5,8,0:0:0:0:
256,192,30367,5,0,0:0:0:0:
256,192,30590,5,8,0:0:0:0:
256,192,30701,5,8,0:0:0:0:
256,192,30812,5,0,0:0:0:0:
256,192,30923,5,8,0:0:0:0:
256,192,31034,5,0,0:0:0:0:
256,192,31145,5,0,0:0:0:0:
256,192,31256,5,8,0:0:0:0:
256,192,31479,5,8,0:0:0:0:
256,192,31701,5,0,0:0:0:0:
256,192,31756,5,0,0:0:0:0:
256,192,31812,5,0,0:0:0:0:
256,192,31923,5,8,0:0:0:0:
256,192,32034,5,8,0:0:0:0:
256,192,32145,5,0,0:0:0:0:
256,192,32367,5,8,0:0:0:0:
256,192,32590,5,8,0:0:0:0:
256,192,32701,5,8,0:0:0:0:
256,192,32812,5,0,0:0:0:0:
256,192,32923,5,0,0:0:0:0:
256,192,33034,5,8,0:0:0:0:
256,192,33256,5,0,0:0:0:0:
256,192,33479,5,8,0:0:0:0:
256,192,33590,5,0,0:0:0:0:
256,192,33701,5,8,0:0:0:0:
256,192,33756,5,8,0:0:0:0:
256,192,33812,5,8,0:0:0:0:
256,192,33923,5,0,0:0:0:0:
256,192,34145,5,8,0:0:0:0:
256,192,34367,5,0,0:0:0:0:
256,192,34479,5,8,0:0:0:0:
256,192,34590,5,0,0:0:0:0:
256,192,34701,5,0,0:0:0:0:
256,192,34812,5,8,0:0:0:0:
256,192,35034,5,0,0:0:0:0:
256,192,35256,5,8,0:0:0:0:
256,192,35367,5,0,0:0:0:0:
256,192,35479,5,8,0:0:0:0:
256,192,35590,5,0,0:0:0:0:
256,192,35701,5,0,0:0:0:0:
256,192,35923,5,8,0:0:0:0:
256,192,36145,5,0,0:0:0:0:
256,192,36256,5,8,0:0:0:0:
256,192,36367,5,0,0:0:0:0:
256,192,36479,5,0,0:0:0:0:
256,192,36590,5,8,0:0:0:0:
256,192,36812,5,0,0:0:0:0:
256,192,36923,5,0,0:0:0:0:
256,192,37034,5,8,0:0:0:0:
256,192,37145,5,0,0:0:0:0:
256,192,37256,5,8,0:0:0:0:
256,192,37367,5,8,0:0:0:0:
256,192,37479,5,0,0:0:0:0:
256,192,37701,5,8,0:0:0:0:
256,192,37923,5,0,0:0:0:0:
256,192,38034,5,8,0:0:0:0:
256,192,38145,5,0,0:0:0:0:
256,192,38201,5,0,0:0:0:0:
256,192,38256,5,0,0:0:0:0:
256,192,38367,5,8,0:0:0:0:
256,192,38590,5,8,0:0:0:0:
256,192,38812,5,8,0:0:0:0:
256,192,39034,5,0,0:0:0:0:
256,192,39145,5,0,0:0:0:0:
256,192,39256,5,8,0:0:0:0:
256,192,39479,5,0,0:0:0:0:
256,192,39701,5,8,0:0:0:0:
256,192,39812,5,0,0:0:0:0:
256,192,39923,5,8,0:0:0:0:
256,192,40145,5,0,0:0:0:0:
256,192,40367,5,8,0:0:0:0:
256,192,40479,5,8,0:0:0:0:
256,192,40590,5,0,0:0:0:0:
256,192,40812,5,0,0:0:0:0:
256,192,41034,5,8,0:0:0:0:
256,192,41256,5,8,0:0:0:0:
256,192,41312,5,8,0:0:0:0:
256,192,41367,5,0,0:0:0:0:
256,192,41479,5,8,0:0:0:0:
256,192,41701,5,0,0:0:0:0:
256,192,41812,5,0,0:0:0:0:
256,192,41923,5,8,0:0:0:0:
256,192,42145,5,0,0:0:0:0:
256,192,42201,5,0,0:0:0:0:
256,192,42256,5,0,0:0:0:0:
256,192,42367,5,8,0:0:0:0:
256,192,42812,5,12,0:0:0:0:
256,192,43034,5,0,0:0:0:0:
256,192,43145,5,0,0:0:0:0:
256,192,43256,5,0,0:0:0:0:
256,192,43479,5,0,0:0:0:0:
256,192,43701,5,8,0:0:0:0:
256,192,43923,5,8,0:0:0:0:
256,192,44034,5,8,0:0:0:0:
256,192,44145,5,0,0:0:0:0:
256,192,44256,5,8,0:0:0:0:
256,192,44367,5,0,0:0:0:0:
256,192,44479,5,0,0:0:0:0:
256,192,44590,5,8,0:0:0:0:
256,192,44812,5,0,0:0:0:0:
256,192,45034,5,8,0:0:0:0:
256,192,45145,5,0,0:0:0:0:
256,192,45256,5,0,0:0:0:0:
256,192,45367,5,0,0:0:0:0:
256,192,45479,5,8,0:0:0:0:
256,192,45701,5,0,0:0:0:0:
256,192,45812,5,0,0:0:0:0:
256,192,45923,5,8,0:0:0:0:
256,192,46034,5,0,0:0:0:0:
256,192,46145,5,8,0:0:0:0:
256,192,46367,5,0,0:0:0:0:
256,192,46590,5,8,0:0:0:0:
256,192,46701,5,0,0:0:0:0:
256,192,46812,5,8,0:0:0:0:
256,192,46923,5,8,0:0:0:0:
256,192,47034,5,0,0:0:0:0:
256,192,47256,5,8,0:0:0:0:
256,192,47367,5,8,0:0:0:0:
256,192,47479,5,0,0:0:0:0:
256,192,47590,5,0,0:0:0:0:
256,192,47701,5,8,0:0:0:0:
256,192,47812,5,0,0:0:0:0:
256,192,47923,5,0,0:0:0:0:
256,192,48145,5,8,0:0:0:0:
256,192,48201,5,8,0:0:0:0:
256,192,48256,5,8,0:0:0:0:
256,192,48367,5,0,0:0:0:0:
256,192,48479,5,8,0:0:0:0:
256,192,48534,5,8,0:0:0:0:
256,192,48590,5,8,0:0:0:0:
256,192,48701,5,0,0:0:0:0:
256,192,48812,5,8,0:0:0:0:
256,192,48923,5,0,0:0:0:0:
256,192,49034,5,8,0:0:0:0:
256,192,49256,5,8,0:0:0:0:
256,192,49312,5,8,0:0:0:0:
256,192,49367,5,8,0:0:0:0:
256,192,49479,5,0,0:0:0:0:
256,192,49590,5,0,0:0:0:0:
256,192,49701,5,8,0:0:0:0:
256,192,49923,5,0,0:0:0:0:
256,192,50145,5,8,0:0:0:0:
256,192,50256,5,8,0:0:0:0:
256,192,50367,5,0,0:0:0:0:
256,192,50479,5,8,0:0:0:0:
256,192,50590,5,0,0:0:0:0:
256,192,50701,5,0,0:0:0:0:
256,192,50812,5,8,0:0:0:0:
256,192,51034,5,0,0:0:0:0:
256,192,51145,5,0,0:0:0:0:
256,192,51256,5,8,0:0:0:0:
256,192,51367,5,0,0:0:0:0:
256,192,51479,5,8,0:0:0:0:
256,192,51701,5,8,0:0:0:0:
256,192,51812,5,0,0:0:0:0:
256,192,51923,5,8,0:0:0:0:
256,192,52034,5,8,0:0:0:0:
256,192,52145,5,0,0:0:0:0:
256,192,52367,5,0,0:0:0:0:
256,192,52590,5,8,0:0:0:0:
256,192,52701,5,8,0:0:0:0:
256,192,52812,5,0,0:0:0:0:
256,192,52923,5,0,0:0:0:0:
256,192,53034,5,8,0:0:0:0:
256,192,53256,5,0,0:0:0:0:
256,192,53479,5,8,0:0:0:0:
256,192,53590,5,8,0:0:0:0:
256,192,53701,5,0,0:0:0:0:
256,192,53923,5,8,0:0:0:0:
256,192,54145,5,0,0:0:0:0:
256,192,54256,5,0,0:0:0:0:
256,192,54367,5,8,0:0:0:0:
256,192,54590,5,0,0:0:0:0:
256,192,54701,5,0,0:0:0:0:
256,192,54812,5,8,0:0:0:0:
256,192,54923,5,0,0:0:0:0:
256,192,55034,5,8,0:0:0:0:
256,192,55256,5,8,0:0:0:0:
256,192,55367,5,8,0:0:0:0:
256,192,55423,5,8,0:0:0:0:
256,192,55479,5,0,0:0:0:0:
256,192,55590,5,8,0:0:0:0:
256,192,55701,5,8,0:0:0:0:
256,192,55812,5,0,0:0:0:0:
256,192,55923,5,0,0:0:0:0:
256,192,55979,5,0,0:0:0:0:
256,192,56034,5,0,0:0:0:0:
256,192,56145,5,8,0:0:0:0:
256,192,56256,5,8,0:0:0:0:
256,192,56367,5,0,0:0:0:0:
256,192,56479,5,0,0:0:0:0:
256,192,56534,5,0,0:0:0:0:
256,192,56590,5,8,0:0:0:0:
256,192,57034,5,4,0:0:0:0:
256,192,57145,5,0,0:0:0:0:
256,192,57256,5,8,0:0:0:0:
256,192,57367,5,8,0:0:0:0:
256,192,57479,5,0,0:0:0:0:
256,192,57701,5,8,0:0:0:0:
256,192,57923,5,8,0:0:0:0:
256,192,58034,5,8,0:0:0:0:
256,192,58145,5,0,0:0:0:0:
256,192,58256,5,0,0:0:0:0:
256,192,58367,5,8,0:0:0:0:
256,192,58590,5,0,0:0:0:0:
256,192,58701,5,0,0:0:0:0:
256,192,58812,5,8,0:0:0:0:
256,192,59034,5,0,0:0:0:0:
256,192,59145,5,0,0:0:0:0:
256,192,59256,5,8,0:0:0:0:
256,192,59479,5,8,0:0:0:0:
256,192,59701,5,0,0:0:0:0:
256,192,59923,5,8,0:0:0:0:
256,192,60145,5,8,0:0:0:0:
256,192,60256,5,0,0:0:0:0:
256,192,60367,5,0,0:0:0:0:
256,192,60590,5,8,0:0:0:0:
256,192,60812,5,8,0:0:0:0:
256,192,60923,5,8,0:0:0:0:
256,192,61034,5,0,0:0:0:0:
256,192,61256,5,8,0:0:0:0:
256,192,61479,5,8,0:0:0:0:
256,192,61590,5,8,0:0:0:0:
256,192,61701,5,0,0:0:0:0:
256,192,61812,5,0,0:0:0:0:
256,192,61923,5,8,0:0:0:0:
256,192,62145,5,8,0:0:0:0:
256,192,62256,5,8,0:0:0:0:
256,192,62367,5,0,0:0:0:0:
256,192,62590,5,8,0:0:0:0:
256,192,62812,5,0,0:0:0:0:
256,192,62923,5,8,0:0:0:0:
256,192,63034,5,0,0:0:0:0:
256,192,63145,5,0,0:0:0:0:
256,192,63256,5,8,0:0:0:0:
256,192,63479,5,0,0:0:0:0:
256,192,63590,5,8,0:0:0:0:
256,192,63812,5,0,0:0:0:0:
256,192,64145,5,8,0:0:0:0:
256,192,64367,5,0,0:0:0:0:
256,192,64479,5,0,0:0:0:0:
256,192,64590,5,8,0:0:0:0:
256,192,64701,5,0,0:0:0:0:
256,192,64812,5,0,0:0:0:0:
256,192,64923,5,8,0:0:0:0:
256,192,65256,5,0,0:0:0:0:
256,192,65479,5,8,0:0:0:0:
256,192,65590,5,0,0:0:0:0:
256,192,65701,5,0,0:0:0:0:
256,192,65812,5,8,0:0:0:0:
256,192,66145,5,8,0:0:0:0:
256,192,66256,5,8,0:0:0:0:
256,192,66367,5,0,0:0:0:0:
256,192,66590,5,0,0:0:0:0:
256,192,66812,5,8,0:0:0:0:
256,192,66923,5,8,0:0:0:0:
256,192,67034,5,0,0:0:0:0:
256,192,67145,5,0,0:0:0:0:
256,192,67256,5,8,0:0:0:0:
256,192,67479,5,0,0:0:0:0:
256,192,67701,5,8,0:0:0:0:
256,192,67812,5,8,0:0:0:0:
256,192,67923,5,8,0:0:0:0:
256,192,68145,5,0,0:0:0:0:
256,192,68367,5,0,0:0:0:0:
256,192,68590,5,8,0:0:0:0:
256,192,68701,5,8,0:0:0:0:
256,192,68923,5,0,0:0:0:0:
256,192,69256,5,0,0:0:0:0:
256,192,69479,5,8,0:0:0:0:
256,192,69590,5,0,0:0:0:0:
256,192,69701,5,8,0:0:0:0:
256,192,69812,5,8,0:0:0:0:
256,192,69923,5,0,0:0:0:0:
256,192,70145,5,0,0:0:0:0:
256,192,70367,5,8,0:0:0:0:
256,192,70479,5,8,0:0:0:0:
256,192,70590,5,0,0:0:0:0:
256,192,70645,5,0,0:0:0:0:
256,192,70701,5,0,0:0:0:0:
256,192,70812,5,8,0:0:0:0:
256,192,71034,5,0,0:0:0:0:
256,192,71256,5,12,0:0:0:0:
256,192,71479,5,0,0:0:0:0:
256,192,71590,5,0,0:0:0:0:
256,192,71701,5,0,0:0:0:0:
256,192,71923,5,0,0:0:0:0:
256,192,72145,5,8,0:0:0:0:
256,192,72367,5,8,0:0:0:0:
256,192,72479,5,8,0:0:0:0:
256,192,72590,5,0,0:0:0:0:
256,192,72701,5,8,0:0:0:0:
256,192,72812,5,0,0:0:0:0:
256,192,72923,5,0,0:0:0:0:
256,192,73034,5,8,0:0:0:0:
256,192,73256,5,0,0:0:0:0:
256,192,73479,5,8,0:0:0:0:
256,192,73590,5,0,0:0:0:0:
256,192,73701,5,0,0:0:0:0:
256,192,73812,5,0,0:0:0:0:
256,192,73923,5,8,0:0:0:0:
256,192,74145,5,0,0:0:0:0:
256,192,74256,5,0,0:0:0:0:
256,192,74367,5,8,0:0:0:0:
256,192,74479,5,0,0:0:0:0:
256,192,74590,5,8,0:0:0:0:
256,192,74812,5,0,0:0:0:0:
256,192,75034,5,8,0:0:0:0:
256,192,75145,5,0,0:0:0:0:
256,192,75256,5,8,0:0:0:0:
256,192,75367,5,8,0:0:0:0:
256,192,75479,5,0,0:0:0:0:
256,192,75701,5,8,0:0:0:0:
256,192,75812,5,8,0:0:0:0:
256,192,75923,5,0,0:0:0:0:
256,192,76034,5,0,0:0:0:0:
256,192,76145,5,8,0:0:0:0:
256,192,76256,5,0,0:0:0:0:
256,192,76367,5,0,0:0:0:0:
256,192,76590,5,8,0:0:0:0:
256,192,76645,5,8,0:0:0:0:
256,192,76701,5,8,0:0:0:0:
256,192,76812,5,0,0:0:0:0:
256,192,76923,5,8,0:0:0:0:
256,192,76979,5,8,0:0:0:0:
256,192,77034,5,8,0:0:0:0:
256,192,77145,5,0,0:0:0:0:
256,192,77256,5,8,0:0:0:0:
256,192,77367,5,0,0:0:0:0:
256,192,77479,5,8,0:0:0:0:
256,192,77701,5,8,0:0:0:0:
256,192,77756,5,8,0:0:0:0:
256,192,77812,5,8,0:0:0:0:
256,192,77923,5,0,0:0:0:0:
256,192,78034,5,0,0:0:0:0:
256,192,78145,5,8,0:0:0:0:
256,192,78367,5,0,0:0:0:0:
256,192,78590,5,8,0:0:0:0:
256,192,78701,5,8,0:0:0:0:
256,192,78812,5,0,0:0:0:0:
256,192,78923,5,8,0:0:0:0:
256,192,79034,5,0,0:0:0:0:
256,192,79145,5,0,0:0:0:0:
256,192,79256,5,8,0:0:0:0:
256,192,79479,5,0,0:0:0:0:
256,192,79590,5,0,0:0:0:0:
256,192,79701,5,8,0:0:0:0:
256,192,79812,5,0,0:0:0:0:
256,192,79923,5,8,0:0:0:0:
256,192,80145,5,8,0:0:0:0:
256,192,80256,5,0,0:0:0:0:
256,192,80367,5,8,0:0:0:0:
256,192,80479,5,8,0:0:0:0:
256,192,80590,5,0,0:0:0:0:
256,192,80812,5,0,0:0:0:0:
256,192,81034,5,8,0:0:0:0:
256,192,81145,5,8,0:0:0:0:
256,192,81256,5,0,0:0:0:0:
256,192,81367,5,0,0:0:0:0:
256,192,81479,5,8,0:0:0:0:
256,192,81701,5,0,0:0:0:0:
256,192,81923,5,8,0:0:0:0:
256,192,82034,5,8,0:0:0:0:
256,192,82145,5,0,0:0:0:0:
256,192,82367,5,8,0:0:0:0:
256,192,82590,5,0,0:0:0:0:
256,192,82701,5,0,0:0:0:0:
256,192,82812,5,8,0:0:0:0:
256,192,83034,5,0,0:0:0:0:
256,192,83145,5,0,0:0:0:0:
256,192,83256,5,8,0:0:0:0:
256,192,83367,5,0,0:0:0:0:
256,192,83479,5,8,0:0:0:0:
256,192,83701,5,8,0:0:0:0:
256,192,83812,5,8,0:0:0:0:
256,192,83867,5,8,0:0:0:0:
256,192,83923,5,0,0:0:0:0:
256,192,84034,5,8,0:0:0:0:
256,192,84145,5,8,0:0:0:0:
256,192,84201,5,8,0:0:0:0:
256,192,84256,5,0,0:0:0:0:
256,192,84367,5,8,0:0:0:0:
256,192,84479,5,8,0:0:0:0:
256,192,84590,5,0,0:0:0:0:
256,192,84701,5,8,0:0:0:0:
256,192,84812,5,0,0:0:0:0:
256,192,84923,5,0,0:0:0:0:
256,192,84979,5,0,0:0:0:0:
256,192,85034,5,8,0:0:0:0:
256,192,85479,5,4,0:0:0:0:
256,192,85701,5,8,0:0:0:0:
256,192,85812,5,8,0:0:0:0:
256,192,85923,5,0,0:0:0:0:
256,192,86145,5,8,0:0:0:0:
256,192,86367,5,8,0:0:0:0:
256,192,86479,5,8,0:0:0:0:
256,192,86590,5,0,0:0:0:0:
256,192,86701,5,0,0:0:0:0:
256,192,86812,5,8,0:0:0:0:
256,192,87034,5,0,0:0:0:0:
256,192,87145,5,0,0:0:0:0:
256,192,87256,5,8,0:0:0:0:
256,192,87479,5,0,0:0:0:0:
256,192,87590,5,0,0:0:0:0:
256,192,87701,5,8,0:0:0:0:
256,192,87923,5,8,0:0:0:0:
256,192,88145,5,0,0:0:0:0:
256,192,88256,5,0,0:0:0:0:
256,192,88367,5,8,0:0:0:0:
256,192,88479,5,0,0:0:0:0:
256,192,88590,5,8,0:0:0:0:
256,192,88701,5,8,0:0:0:0:
256,192,88812,5,0,0:0:0:0:
256,192,89034,5,8,0:0:0:0:
256,192,89256,5,8,0:0:0:0:
256,192,89367,5,8,0:0:0:0:
256,192,89479,5,0,0:0:0:0:
256,192,89701,5,8,0:0:0:0:
256,192,89923,5,8,0:0:0:0:
256,192,90034,5,8,0:0:0:0:
256,192,90145,5,0,0:0:0:0:
256,192,90256,5,0,0:0:0:0:
256,192,90367,5,8,0:0:0:0:
256,192,90479,5,0,0:0:0:0:
256,192,90590,5,8,0:0:0:0:
256,192,90701,5,8,0:0:0:0:
256,192,90812,5,0,0:0:0:0:
256,192,91034,5,8,0:0:0:0:
256,192,91256,5,0,0:0:0:0:
256,192,91367,5,8,0:0:0:0:
256,192,91479,5,0,0:0:0:0:
256,192,91590,5,0,0:0:0:0:
256,192,91701,5,8,0:0:0:0:
256,192,91923,5,0,0:0:0:0:
256,192,92145,5,8,0:0:0:0:
256,192,92256,5,8,0:0:0:0:
256,192,92367,5,0,0:0:0:0:
256,192,92590,5,8,0:0:0:0:
256,192,92812,5,0,0:0:0:0:
256,192,92923,5,0,0:0:0:0:
256,192,93034,5,8,0:0:0:0:
256,192,93256,5,0,0:0:0:0:
256,192,93479,5,8,0:0:0:0:
256,192,93590,5,0,0:0:0:0:
256,192,93701,5,0,0:0:0:0:
256,192,93923,5,8,0:0:0:0:
256,192,94034,5,8,0:0:0:0:
256,192,94145,5,0,0:0:0:0:
256,192,94367,5,8,0:0:0:0:
256,192,94479,5,0,0:0:0:0:
256,192,94590,5,8,0:0:0:0:
256,192,94701,5,8,0:0:0:0:
256,192,94812,5,0,0:0:0:0:
256,192,95034,5,0,0:0:0:0:
256,192,95256,5,8,0:0:0:0:
256,192,95367,5,8,0:0:0:0:
256,192,95479,5,0,0:0:0:0:
256,192,95590,5,0,0:0:0:0:
256,192,95701,5,8,0:0:0:0:
256,192,95923,5,0,0:0:0:0:
256,192,96145,5,8,0:0:0:0:
256,192,96256,5,8,0:0:0:0:
256,192,96367,5,8,0:0:0:0:
256,192,96479,5,8,0:0:0:0:
256,192,96590,5,0,0:0:0:0:
256,192,96812,5,0,0:0:0:0:
256,192,97034,5,8,0:0:0:0:
256,192,97145,5,8,0:0:0:0:
256,192,97367,5,0,0:0:0:0:
256,192,97590,5,0,0:0:0:0:
256,192,97923,5,8,0:0:0:0:
256,192,97979,5,8,0:0:0:0:
256,192,98034,5,0,0:0:0:0:
256,192,98145,5,8,0:0:0:0:
256,192,98256,5,8,0:0:0:0:
256,192,98367,5,0,0:0:0:0:
256,192,98479,5,8,0:0:0:0:
256,192,98590,5,0,0:0:0:0:
256,192,98701,5,0,0:0:0:0:
256,192,98812,5,8,0:0:0:0:
256,192,98923,5,8,0:0:0:0:
256,192,99034,5,0,0:0:0:0:
256,192,99090,5,0,0:0:0:0:
256,192,99145,5,0,0:0:0:0:
256,192,99256,5,8,0:0:0:0:
256,192,99479,5,0,0:0:0:0:
256,192,99701,5,8,0:0:0:0:
256,192,99923,5,0,0:0:0:0:
256,192,100034,5,0,0:0:0:0:
256,192,100145,5,0,0:0:0:0:
256,192,100367,5,0,0:0:0:0:
256,192,100479,5,0,0:0:0:0:
256,192,100590,5,8,0:0:0:0:
256,192,100812,5,0,0:0:0:0:
256,192,101034,5,8,0:0:0:0:
256,192,101145,5,8,0:0:0:0:
256,192,101256,5,0,0:0:0:0:
256,192,101367,5,0,0:0:0:0:
256,192,101479,5,8,0:0:0:0:
256,192,101701,5,0,0:0:0:0:
256,192,101812,5,0,0:0:0:0:
256,192,101923,5,0,0:0:0:0:
256,192,102145,5,0,0:0:0:0:
256,192,102256,5,0,0:0:0:0:
256,192,102367,5,8,0:0:0:0:
256,192,102590,5,0,0:0:0:0:
256,192,102701,5,0,0:0:0:0:
256,192,102812,5,8,0:0:0:0:
256,192,103034,5,8,0:0:0:0:
256,192,103256,5,8,0:0:0:0:
256,192,103479,5,0,0:0:0:0:
256,192,103590,5,0,0:0:0:0:
256,192,103701,5,0,0:0:0:0:
256,192,103923,5,0,0:0:0:0:
256,192,104034,5,0,0:0:0:0:
256,192,104145,5,8,0:0:0:0:
256,192,104367,5,8,0:0:0:0:
256,192,104590,5,0,0:0:0:0:
256,192,104701,5,8,0:0:0:0:
256,192,104812,5,0,0:0:0:0:
256,192,104923,5,0,0:0:0:0:
256,192,105034,5,8,0:0:0:0:
256,192,105256,5,8,0:0:0:0:
256,192,105367,5,8,0:0:0:0:
256,192,105479,5,0,0:0:0:0:
256,192,105701,5,0,0:0:0:0:
256,192,105812,5,0,0:0:0:0:
256,192,105923,5,8,0:0:0:0:
256,192,106145,5,8,0:0:0:0:
256,192,106367,5,0,0:0:0:0:
256,192,106479,5,0,0:0:0:0:
256,192,106590,5,8,0:0:0:0:
256,192,106701,5,0,0:0:0:0:
256,192,106756,5,0,0:0:0:0:
256,192,106812,5,8,0:0:0:0:
256,192,107034,5,8,0:0:0:0:
256,192,107145,5,8,0:0:0:0:
256,192,107256,5,0,0:0:0:0:
256,192,107479,5,0,0:0:0:0:
256,192,107590,5,0,0:0:0:0:
256,192,107701,5,8,0:0:0:0:
256,192,107923,5,0,0:0:0:0:
256,192,108145,5,8,0:0:0:0:
256,192,108256,5,8,0:0:0:0:
256,192,108367,5,0,0:0:0:0:
256,192,108479,5,0,0:0:0:0:
256,192,108590,5,8,0:0:0:0:
256,192,108812,5,0,0:0:0:0:
256,192,108923,5,0,0:0:0:0:
256,192,109034,5,0,0:0:0:0:
256,192,109256,5,0,0:0:0:0:
256,192,109367,5,0,0:0:0:0:
256,192,109479,5,8,0:0:0:0:
256,192,109701,5,0,0:0:0:0:
256,192,109923,5,8,0:0:0:0:
256,192,110034,5,0,0:0:0:0:
256,192,110145,5,0,0:0:0:0:
256,192,110256,5,0,0:0:0:0:
256,192,110367,5,8,0:0:0:0:
256,192,110590,5,0,0:0:0:0:
256,192,110701,5,8,0:0:0:0:
256,192,110812,5,0,0:0:0:0:
256,192,111034,5,8,0:0:0:0:
256,192,111145,5,0,0:0:0:0:
256,192,111256,5,8,0:0:0:0:
256,192,111479,5,0,0:0:0:0:
256,192,111590,5,0,0:0:0:0:
256,192,111701,5,8,0:0:0:0:
256,192,111923,5,0,0:0:0:0:
256,192,112145,5,8,0:0:0:0:
256,192,112256,5,8,0:0:0:0:
256,192,112367,5,0,0:0:0:0:
256,192,112590,5,8,0:0:0:0:
256,192,112701,5,8,0:0:0:0:
256,192,112812,5,0,0:0:0:0:
256,192,112923,5,0,0:0:0:0:
256,192,113034,5,8,0:0:0:0:
256,192,113256,5,0,0:0:0:0:
256,192,113367,5,0,0:0:0:0:
256,192,113479,5,8,0:0:0:0:
256,192,113590,5,8,0:0:0:0:
256,192,113701,5,0,0:0:0:0:
256,192,113923,5,8,0:0:0:0:
256,192,114034,5,0,0:0:0:0:
256,192,114090,5,0,0:0:0:0:
256,192,114145,5,8,0:0:0:0:
256,192,114256,5,8,0:0:0:0:
256,192,114367,5,0,0:0:0:0:
256,192,114479,5,8,0:0:0:0:
256,192,114590,5,0,0:0:0:0:
256,192,114701,5,0,0:0:0:0:
256,192,114812,5,8,0:0:0:0:
256,192,114923,5,0,0:0:0:0:
256,192,115034,5,8,0:0:0:0:
256,192,115090,5,8,0:0:0:0:
256,192,115145,5,8,0:0:0:0:
256,192,115256,5,0,0:0:0:0:
256,192,115701,5,0,0:0:0:0:
256,192,115923,5,8,0:0:0:0:
256,192,116034,5,8,0:0:0:0:
256,192,116145,5,0,0:0:0:0:
256,192,116367,5,0,0:0:0:0:
256,192,116479,5,0,0:0:0:0:
256,192,116590,5,8,0:0:0:0:
256,192,116812,5,0,0:0:0:0:
256,192,116923,5,0,0:0:0:0:
256,192,117034,5,8,0:0:0:0:
256,192,117145,5,0,0:0:0:0:
256,192,117256,5,8,0:0:0:0:
256,192,117312,5,8,0:0:0:0:
256,192,117367,5,8,0:0:0:0:
256,192,117479,5,0,0:0:0:0:
256,192,117701,5,8,0:0:0:0:
256,192,117812,5,0,0:0:0:0:
256,192,117923,5,8,0:0:0:0:
256,192,118034,5,0,0:0:0:0:
256,192,118145,5,8,0:0:0:0:
256,192,118256,5,8,0:0:0:0:
256,192,118367,5,0,0:0:0:0:
256,192,118590,5,0,0:0:0:0:
256,192,118701,5,0,0:0:0:0:
256,192,118812,5,8,0:0:0:0:
256,192,119034,5,0,0:0:0:0:
256,192,119256,5,8,0:0:0:0:
256,192,119479,5,0,0:0:0:0:
256,192,119590,5,0,0:0:0:0:
256,192,119701,5,8,0:0:0:0:
256,192,119923,5,0,0:0:0:0:
256,192,120034,5,0,0:0:0:0:
256,192,120145,5,8,0:0:0:0:
256,192,120367,5,0,0:0:0:0:
256,192,120479,5,8,0:0:0:0:
256,192,120590,5,0,0:0:0:0:
256,192,120701,5,0,0:0:0:0:
256,192,120812,5,8,0:0:0:0:
256,192,120923,5,0,0:0:0:0:
256,192,120979,5,0,0:0:0:0:
256,192,121034,5,8,0:0:0:0:
256,192,121145,5,0,0:0:0:0:
256,192,121256,5,8,0:0:0:0:
256,192,121367,5,8,0:0:0:0:
256,192,121479,5,0,0:0:0:0:
256,192,121701,5,8,0:0:0:0:
256,192,121812,5,8,0:0:0:0:
256,192,121923,5,0,0:0:0:0:
256,192,122145,5,0,0:0:0:0:
256,192,122256,5,0,0:0:0:0:
256,192,122367,5,8,0:0:0:0:
256,192,122590,5,8,0:0:0:0:
256,192,122812,5,0,0:0:0:0:
256,192,123034,5,8,0:0:0:0:
256,192,123145,5,8,0:0:0:0:
256,192,123256,5,0,0:0:0:0:
256,192,123479,5,0,0:0:0:0:
256,192,123590,5,0,0:0:0:0:
256,192,123701,5,8,0:0:0:0:
256,192,123923,5,8,0:0:0:0:
256,192,124034,5,8,0:0:0:0:
256,192,124145,5,0,0:0:0:0:
256,192,124201,5,0,0:0:0:0:
256,192,124256,5,0,0:0:0:0:
256,192,124367,5,8,0:0:0:0:
256,192,124479,5,0,0:0:0:0:
256,192,124590,5,8,0:0:0:0:
256,192,124812,5,0,0:0:0:0:
256,192,125034,5,8,0:0:0:0:
256,192,125090,5,8,0:0:0:0:
256,192,125145,5,8,0:0:0:0:
256,192,125256,5,0,0:0:0:0:
256,192,125367,5,0,0:0:0:0:
256,192,125479,5,8,0:0:0:0:
256,192,125701,5,0,0:0:0:0:
256,192,125923,5,8,0:0:0:0:
256,192,126034,5,8,0:0:0:0:
256,192,126145,5,0,0:0:0:0:
256,192,126256,5,0,0:0:0:0:
256,192,126367,5,8,0:0:0:0:
256,192,126590,5,0,0:0:0:0:
256,192,126701,5,0,0:0:0:0:
256,192,126812,5,8,0:0:0:0:
256,192,127034,5,0,0:0:0:0:
256,192,127145,5,8,0:0:0:0:
256,192,127256,5,8,0:0:0:0:
256,192,127479,5,0,0:0:0:0:
256,192,127534,5,0,0:0:0:0:
256,192,127590,5,0,0:0:0:0:
256,192,127701,5,8,0:0:0:0:
256,192,127812,5,0,0:0:0:0:
256,192,127923,5,8,0:0:0:0:
256,192,128034,5,0,0:0:0:0:
256,192,128145,5,8,0:0:0:0:
256,192,128256,5,8,0:0:0:0:
256,192,128367,5,0,0:0:0:0:
256,192,128479,5,0,0:0:0:0:
256,192,128590,5,8,0:0:0:0:
256,192,128701,5,8,0:0:0:0:
256,192,128812,5,0,0:0:0:0:
256,192,128923,5,0,0:0:0:0:
256,192,128979,5,0,0:0:0:0:
256,192,129034,5,8,0:0:0:0:
256,192,129701,5,8,0:0:0:0:
256,192,129756,5,8,0:0:0:0:
256,192,129812,5,8,0:0:0:0:
256,192,129923,5,4,0:0:0:0:
256,192,130145,5,8,0:0:0:0:
256,192,130256,5,8,0:0:0:0:
256,192,130367,5,0,0:0:0:0:
256,192,130479,5,8,0:0:0:0:
256,192,130590,5,0,0:0:0:0:
256,192,130701,5,0,0:0:0:0:
256,192,130812,5,8,0:0:0:0:
256,192,131034,5,0,0:0:0:0:
256,192,131256,5,8,0:0:0:0:
256,192,131479,5,8,0:0:0:0:
256,192,131590,5,8,0:0:0:0:
256,192,131701,5,0,0:0:0:0:
256,192,131923,5,8,0:0:0:0:
256,192,132034,5,8,0:0:0:0:
256,192,132145,5,0,0:0:0:0:
256,192,132256,5,8,0:0:0:0:
256,192,132367,5,0,0:0:0:0:
256,192,132479,5,0,0:0:0:0:
256,192,132590,5,8,0:0:0:0:
256,192,132812,5,8,0:0:0:0:
256,192,133034,5,0,0:0:0:0:
256,192,133090,5,0,0:0:0:0:
256,192,133145,5,0,0:0:0:0:
256,192,133256,5,8,0:0:0:0:
256,192,133367,5,8,0:0:0:0:
256,192,133479,5,0,0:0:0:0:
256,192,133701,5,8,0:0:0:0:
256,192,133923,5,8,0:0:0:0:
256,192,134034,5,8,0:0:0:0:
256,192,134145,5,0,0:0:0:0:
256,192,134256,5,0,0:0:0:0:
256,192,134367,5,8,0:0:0:0:
256,192,134590,5,0,0:0:0:0:
256,192,134812,5,8,0:0:0:0:
256,192,134923,5,0,0:0:0:0:
256,192,135034,5,8,0:0:0:0:
256,192,135090,5,8,0:0:0:0:
256,192,135145,5,8,0:0:0:0:
256,192,135256,5,0,0:0:0:0:
256,192,135479,5,8,0:0:0:0:
256,192,135701,5,0,0:0:0:0:
256,192,135812,5,8,0:0:0:0:
256,192,135923,5,0,0:0:0:0:
256,192,136034,5,0,0:0:0:0:
256,192,136145,5,8,0:0:0:0:
256,192,136367,5,0,0:0:0:0:
256,192,136590,5,8,0:0:0:0:
256,192,136701,5,0,0:0:0:0:
256,192,136812,5,8,0:0:0:0:
256,192,136923,5,0,0:0:0:0:
256,192,137034,5,8,0:0:0:0:
256,192,137145,5,8,0:0:0:0:
256,192,137256,5,0,0:0:0:0:
256,192,137479,5,0,0:0:0:0:
256,192,137590,5,8,0:0:0:0:
256,192,137701,5,0,0:0:0:0:
256,192,137812,5,0,0:0:0:0:
256,192,137923,5,8,0:0:0:0:
256,192,138145,5,0,0:0:0:0:
256,192,138256,5,0,0:0:0:0:
256,192,138367,5,8,0:0:0:0:
256,192,138479,5,0,0:0:0:0:
256,192,138590,5,8,0:0:0:0:
256,192,138701,5,8,0:0:0:0:
256,192,138812,5,0,0:0:0:0:
256,192,138923,5,0,0:0:0:0:
256,192,139034,5,8,0:0:0:0:
256,192,139256,5,0,0:0:0:0:
256,192,139367,5,8,0:0:0:0:
256,192,139479,5,0,0:0:0:0:
256,192,139534,5,0,0:0:0:0:
256,192,139590,5,0,0:0:0:0:
256,192,139701,5,8,0:0:0:0:
256,192,139923,5,8,0:0:0:0:
256,192,140034,5,0,0:0:0:0:
256,192,140145,5,8,0:0:0:0:
256,192,140367,5,0,0:0:0:0:
256,192,140479,5,0,0:0:0:0:
256,192,140590,5,8,0:0:0:0:
256,192,140812,5,0,0:0:0:0:
256,192,141034,5,8,0:0:0:0:
256,192,141145,5,0,0:0:0:0:
256,192,141256,5,8,0:0:0:0:
256,192,141479,5,0,0:0:0:0:
256,192,141701,5,8,0:0:0:0:
256,192,141812,5,8,0:0:0:0:
256,192,141923,5,4,0:0:0:0:
256,192,142145,5,0,0:0:0:0:
256,192,142367,5,12,0:0:0:0:
256,192,142590,5,8,0:0:0:0:
256,192,142701,5,8,0:0:0:0:
256,192,142812,5,0,0:0:0:0:
256,192,143034,5,0,0:0:0:0:
256,192,143256,5,12,0:0:0:0:
256,192,143701,5,12,0:0:0:0:
256,192,144145,5,4,0:0:0:0:
256,192,144256,5,0,0:0:0:0:
256,192,144367,5,8,0:0:0:0:
256,192,144479,5,8,0:0:0:0:
256,192,144590,5,0,0:0:0:0:
256,192,144812,5,8,0:0:0:0:
256,192,145034,5,8,0:0:0:0:
256,192,145145,5,8,0:0:0:0:
256,192,145256,5,0,0:0:0:0:
256,192,145367,5,0,0:0:0:0:
256,192,145479,5,8,0:0:0:0:
256,192,145701,5,0,0:0:0:0:
256,192,145812,5,0,0:0:0:0:
256,192,145923,5,8,0:0:0:0:
256,192,146145,5,0,0:0:0:0:
256,192,146256,5,0,0:0:0:0:
256,192,146367,5,8,0:0:0:0:
256,192,146590,5,8,0:0:0:0:
256,192,146812,5,0,0:0:0:0:
256,192,147034,5,8,0:0:0:0:
256,192,147256,5,8,0:0:0:0:
256,192,147367,5,0,0:0:0:0:
256,192,147479,5,8,0:0:0:0:
256,192,147701,5,8,0:0:0:0:
256,192,147923,5,8,0:0:0:0:
256,192,148034,5,8,0:0:0:0:
256,192,148145,5,0,0:0:0:0:
256,192,148367,5,8,0:0:0:0:
256,192,148590,5,8,0:0:0:0:
256,192,148701,5,8,0:0:0:0:
256,192,148812,5,0,0:0:0:0:
256,192,148923,5,0,0:0:0:0:
256,192,149034,5,8,0:0:0:0:
256,192,149256,5,8,0:0:0:0:
256,192,149367,5,0,0:0:0:0:
256,192,149479,5,8,0:0:0:0:
256,192,149701,5,8,0:0:0:0:
256,192,149923,5,8,0:0:0:0:
256,192,150034,5,8,0:0:0:0:
256,192,150145,5,0,0:0:0:0:
256,192,150256,5,0,0:0:0:0:
256,192,150367,5,8,0:0:0:0:
256,192,150590,5,0,0:0:0:0:
256,192,150701,5,0,0:0:0:0:
256,192,150812,5,8,0:0:0:0:
256,192,150923,5,8,0:0:0:0:
256,192,151256,5,8,0:0:0:0:
256,192,151479,5,0,0:0:0:0:
256,192,151590,5,0,0:0:0:0:
256,192,151701,5,8,0:0:0:0:
256,192,151812,5,0,0:0:0:0:
256,192,151923,5,0,0:0:0:0:
256,192,152034,5,8,0:0:0:0:
256,192,152367,5,8,0:0:0:0:
256,192,152590,5,8,0:0:0:0:
256,192,152701,5,0,0:0:0:0:
256,192,152812,5,0,0:0:0:0:
256,192,152923,5,8,0:0:0:0:
256,192,153256,5,8,0:0:0:0:
256,192,153367,5,0,0:0:0:0:
256,192,153479,5,8,0:0:0:0:
256,192,153701,5,8,0:0:0:0:
256,192,153923,5,8,0:0:0:0:
256,192,154034,5,8,0:0:0:0:
256,192,154145,5,0,0:0:0:0:
256,192,154256,5,0,0:0:0:0:
256,192,154367,5,8,0:0:0:0:
256,192,154590,5,0,0:0:0:0:
256,192,154812,5,8,0:0:0:0:
256,192,154923,5,8,0:0:0:0:
256,192,155034,5,8,0:0:0:0:
256,192,155256,5,0,0:0:0:0:
256,192,155479,5,0,0:0:0:0:
256,192,155701,5,8,0:0:0:0:
256,192,155923,5,8,0:0:0:0:
256,192,156034,5,0,0:0:0:0:
256,192,156256,5,8,0:0:0:0:
256,192,156590,5,8,0:0:0:0:
256,192,156701,5,0,0:0:0:0:
256,192,156756,5,0,0:0:0:0:
256,192,156812,5,8,0:0:0:0:
256,192,156923,5,8,0:0:0:0:
256,192,157034,5,0,0:0:0:0:
256,192,157256,5,0,0:0:0:0:
256,192,157479,5,8,0:0:0:0:
256,192,157590,5,8,0:0:0:0:
256,192,157701,5,0,0:0:0:0:
256,192,157756,5,0,0:0:0:0:
256,192,157812,5,0,0:0:0:0:
256,192,157923,5,8,0:0:0:0:
256,192,158145,5,0,0:0:0:0:
256,192,158367,5,8,0:0:0:0:
256,192,158590,5,0,0:0:0:0:
256,192,158701,5,0,0:0:0:0:
256,192,158812,5,0,0:0:0:0:
256,192,159034,5,0,0:0:0:0:
256,192,159145,5,0,0:0:0:0:
256,192,159256,5,8,0:0:0:0:
256,192,159479,5,0,0:0:0:0:
256,192,159701,5,8,0:0:0:0:
256,192,159812,5,8,0:0:0:0:
256,192,159923,5,0,0:0:0:0:
256,192,160034,5,0,0:0:0:0:
256,192,160145,5,8,0:0:0:0:
256,192,160367,5,0,0:0:0:0:
256,192,160479,5,0,0:0:0:0:
256,192,160590,5,0,0:0:0:0:
256,192,160812,5,0,0:0:0:0:
256,192,160923,5,0,0:0:0:0:
256,192,161034,5,8,0:0:0:0:
256,192,161256,5,0,0:0:0:0:
256,192,161367,5,0,0:0:0:0:
256,192,161479,5,8,0:0:0:0:
256,192,161701,5,8,0:0:0:0:
256,192,161923,5,8,0:0:0:0:
256,192,162145,5,0,0:0:0:0:
256,192,162256,5,0,0:0:0:0:
256,192,162367,5,0,0:0:0:0:
256,192,162590,5,0,0:0:0:0:
256,192,162701,5,0,0:0:0:0:
256,192,162812,5,8,0:0:0:0:
256,192,163034,5,8,0:0:0:0:
256,192,163256,5,0,0:0:0:0:
256,192,163367,5,8,0:0:0:0:
256,192,163479,5,0,0:0:0:0:
256,192,163590,5,0,0:0:0:0:
256,192,163701,5,8,0:0:0:0:
256,192,163923,5,8,0:0:0:0:
256,192,164034,5,8,0:0:0:0:
256,192,164145,5,0,0:0:0:0:
256,192,164367,5,0,0:0:0:0:
256,192,164479,5,0,0:0:0:0:
256,192,164590,5,8,0:0:0:0:
256,192,164812,5,8,0:0:0:0:
256,192,165034,5,0,0:0:0:0:
256,192,165145,5,0,0:0:0:0:
256,192,165256,5,8,0:0:0:0:
256,192,165367,5,0,0:0:0:0:
256,192,165423,5,0,0:0:0:0:
256,192,165479,5,8,0:0:0:0:
256,192,165701,5,8,0:0:0:0:
256,192,165812,5,8,0:0:0:0:
256,192,165923,5,0,0:0:0:0:
256,192,166145,5,0,0:0:0:0:
256,192,166256,5,0,0:0:0:0:
256,192,166367,5,8,0:0:0:0:
256,192,166590,5,0,0:0:0:0:
256,192,166812,5,8,0:0:0:0:
256,192,166923,5,8,0:0:0:0:
256,192,167034,5,0,0:0:0:0:
256,192,167145,5,0,0:0:0:0:
256,192,167256,5,8,0:0:0:0:
256,192,167479,5,0,0:0:0:0:
256,192,167590,5,0,0:0:0:0:
256,192,167701,5,0,0:0:0:0:
256,192,167923,5,0,0:0:0:0:
256,192,168034,5,0,0:0:0:0:
256,192,168145,5,8,0:0:0:0:
256,192,168367,5,0,0:0:0:0:
256,192,168590,5,8,0:0:0:0:
256,192,168701,5,0,0:0:0:0:
256,192,168812,5,0,0:0:0:0:
256,192,168923,5,0,0:0:0:0:
256,192,169034,5,8,0:0:0:0:
256,192,169256,5,0,0:0:0:0:
256,192,169367,5,8,0:0:0:0:
256,192,169479,5,0,0:0:0:0:
256,192,169701,5,8,0:0:0:0:
256,192,169812,5,0,0:0:0:0:
256,192,169923,5,8,0:0:0:0:
256,192,170145,5,0,0:0:0:0:
256,192,170256,5,0,0:0:0:0:
256,192,170367,5,8,0:0:0:0:
256,192,170590,5,0,0:0:0:0:
256,192,170812,5,8,0:0:0:0:
256,192,170923,5,8,0:0:0:0:
256,192,171034,5,0,0:0:0:0:
256,192,171256,5,8,0:0:0:0:
256,192,171367,5,8,0:0:0:0:
256,192,171479,5,0,0:0:0:0:
256,192,171590,5,0,0:0:0:0:
256,192,171701,5,8,0:0:0:0:
256,192,171923,5,0,0:0:0:0:
256,192,172034,5,0,0:0:0:0:
256,192,172145,5,8,0:0:0:0:
256,192,172256,5,8,0:0:0:0:
256,192,172367,5,0,0:0:0:0:
256,192,172590,5,8,0:0:0:0:
256,192,172701,5,0,0:0:0:0:
256,192,172756,5,0,0:0:0:0:
256,192,172812,5,8,0:0:0:0:
256,192,172923,5,8,0:0:0:0:
256,192,173034,5,0,0:0:0:0:
256,192,173145,5,8,0:0:0:0:
256,192,173256,5,0,0:0:0:0:
256,192,173367,5,0,0:0:0:0:
256,192,173479,5,8,0:0:0:0:
256,192,173590,5,0,0:0:0:0:
256,192,173701,5,8,0:0:0:0:
256,192,173756,5,8,0:0:0:0:
256,192,173812,5,8,0:0:0:0:
256,192,173923,5,0,0:0:0:0:
256,192,174367,5,0,0:0:0:0:
256,192,174590,5,0,0:0:0:0:
256,192,174701,1,0,0:0:0:0:
256,192,174812,5,8,0:0:0:0:
256,192,175034,5,8,0:0:0:0:
256,192,175145,1,8,0:0:0:0:
256,192,175256,5,0,0:0:0:0:
256,192,175479,5,8,0:0:0:0:
256,192,175590,5,8,0:0:0:0:
256,192,175701,5,8,0:0:0:0:
256,192,175923,1,0,0:0:0:0:
256,192,176145,5,0,0:0:0:0:
256,192,176256,5,8,0:0:0:0:
256,192,176312,1,8,0:0:0:0:
256,192,176367,5,0,0:0:0:0:
256,192,176479,5,0,0:0:0:0:
256,192,176590,5,8,0:0:0:0:
256,192,176701,1,0,0:0:0:0:
256,192,176812,5,8,0:0:0:0:
256,192,177034,5,0,0:0:0:0:
256,192,177145,5,0,0:0:0:0:
256,192,177256,5,8,0:0:0:0:
256,192,177312,1,8,0:0:0:0:
256,192,177367,1,0,0:0:0:0:
256,192,177479,5,8,0:0:0:0:
256,192,177590,1,8,0:0:0:0:
256,192,177701,5,0,0:0:0:0:
256,192,177812,5,0,0:0:0:0:
256,192,177923,5,8,0:0:0:0:
256,192,178034,1,8,0:0:0:0:
256,192,178145,5,0,0:0:0:0:
256,192,178256,5,8,0:0:0:0:
256,192,178479,1,0,0:0:0:0:
256,192,178590,5,8,0:0:0:0:
256,192,178701,5,0,0:0:0:0:
256,192,178812,5,8,0:0:0:0:
256,192,178923,1,0,0:0:0:0:
256,192,179034,5,8,0:0:0:0:
256,192,179145,1,8,0:0:0:0:
256,192,179256,5,0,0:0:0:0:
256,192,179479,5,0,0:0:0:0:
256,192,179590,1,0,0:0:0:0:
256,192,179701,5,8,0:0:0:0:
256,192,179923,5,0,0:0:0:0:
256,192,180034,5,0,0:0:0:0:
256,192,180145,5,8,0:0:0:0:
256,192,180256,1,0,0:0:0:0:
256,192,180367,5,8,0:0:0:0:
256,192,180479,1,8,0:0:0:0:
256,192,180590,5,0,0:0:0:0:
256,192,180812,5,8,0:0:0:0:
256,192,180867,1,8,0:0:0:0:
256,192,180923,1,0,0:0:0:0:
256,192,181034,5,8,0:0:0:0:
256,192,181256,1,0,0:0:0:0:
256,192,181312,1,0,0:0:0:0:
256,192,181367,1,0,0:0:0:0:
256,192,181479,1,8,0:0:0:0:
256,192,181590,5,8,0:0:0:0:
256,192,181701,5,0,0:0:0:0:
256,192,181812,5,0,0:0:0:0:
256,192,181923,5,8,0:0:0:0:
256,192,182034,1,0,0:0:0:0:
256,192,182145,5,0,0:0:0:0:
256,192,182256,1,8,0:0:0:0:
256,192,182367,5,8,0:0:0:0:
256,192,182479,5,0,0:0:0:0:
256,192,182590,5,8,0:0:0:0:
256,192,182701,5,8,0:0:0:0:
256,192,182812,5,0,0:0:0:0:
256,192,183034,5,0,0:0:0:0:
256,192,183145,1,0,0:0:0:0:
256,192,183256,5,8,0:0:0:0:
256,192,183367,5,8,0:0:0:0:
256,192,183479,5,8,0:0:0:0:
256,192,183590,5,0,0:0:0:0:
256,192,183701,5,8,0:0:0:0:
256,192,183812,1,8,0:0:0:0:
256,192,183923,5,0,0:0:0:0:
256,192,184034,5,0,0:0:0:0:
256,192,184145,5,8,0:0:0:0:
256,192,184367,1,0,0:0:0:0:
256,192,184479,1,0,0:0:0:0:
256,192,184590,5,8,0:0:0:0:
256,192,184701,5,8,0:0:0:0:
256,192,184812,5,0,0:0:0:0:
256,192,184923,5,0,0:0:0:0:
256,192,185034,5,12,0:0:0:0:
256,192,185145,1,0,0:0:0:0:
256,192,185256,5,8,0:0:0:0:
256,192,185367,1,8,0:0:0:0:
256,192,185479,5,0,0:0:0:0:
256,192,185701,5,0,0:0:0:0:
256,192,185812,5,0,0:0:0:0:
256,192,185923,5,8,0:0:0:0:
256,192,186034,1,8,0:0:0:0:
256,192,186145,5,0,0:0:0:0:
256,192,186256,1,0,0:0:0:0:
256,192,186367,5,8,0:0:0:0:
256,192,186590,5,8,0:0:0:0:
256,192,186701,5,0,0:0:0:0:
256,192,186812,5,8,0:0:0:0:
256,192,186867,1,8,0:0:0:0:
256,192,186923,1,8,0:0:0:0:
256,192,187034,5,8,0:0:0:0:
256,192,187145,1,0,0:0:0:0:
256,192,187201,1,0,0:0:0:0:
256,192,187256,5,8,0:0:0:0:
256,192,187367,5,8,0:0:0:0:
256,192,187479,5,0,0:0:0:0:
256,192,187590,1,8,0:0:0:0:
256,192,187701,5,8,0:0:0:0:
256,192,187812,1,0,0:0:0:0:
256,192,187923,5,8,0:0:0:0:
256,192,187979,1,8,0:0:0:0:
256,192,188034,5,8,0:0:0:0:
256,192,188145,5,0,0:0:0:0:
256,192,188256,1,8,0:0:0:0:
256,192,188367,1,0,0:0:0:0:
287,191,188590,5,12,0:0:0:0:
197,95,188812,5,0,0:0:0:0:
256,224,188923,5,0,0:0:0:0:
417,280,189034,5,8,0:0:0:0:
126,105,189256,5,0,0:0:0:0:
126,105,189479,5,0,0:0:0:0:
126,105,189590,5,0,0:0:0:0:
256,192,189812,5,0,0:0:0:0:
148,121,189923,5,8,0:0:0:0:
148,121,190145,5,8,0:0:0:0:
256,192,190256,5,8,0:0:0:0:
118,221,190367,5,4,0:0:0:0:
169,134,190590,5,0,0:0:0:0:
256,192,190701,5,0,0:0:0:0:
385,276,190812,5,8,0:0:0:0:
106,124,191034,5,0,0:0:0:0:
378,280,191256,5,8,0:0:0:0:
153,115,191367,5,0,0:0:0:0:
256,192,191590,5,0,0:0:0:0:
389,279,191701,5,8,0:0:0:0:
389,279,191923,5,8,0:0:0:0:
256,192,192034,5,8,0:0:0:0:
142,220,192145,5,4,0:0:0:0:
142,103,192367,5,0,0:0:0:0:
256,192,192479,5,8,0:0:0:0:
407,277,192590,5,0,0:0:0:0:
378,266,192812,5,8,0:0:0:0:
256,192,192923,5,0,0:0:0:0:
256,192,193034,5,8,0:0:0:0:
256,192,193145,5,8,0:0:0:0:
402,301,193367,5,8,0:0:0:0:
202,117,193479,5,0,0:0:0:0:
398,280,193701,5,8,0:0:0:0:
142,220,193923,5,4,0:0:0:0:
366,272,194145,5,8,0:0:0:0:
256,192,194256,5,0,0:0:0:0:
256,192,194367,5,8,0:0:0:0:
256,192,194479,5,8,0:0:0:0:
256,192,194590,5,0,0:0:0:0:
256,192,194701,5,8,0:0:0:0:
256,192,194812,5,0,0:0:0:0:
356,261,195034,5,8,0:0:0:0:
256,192,195145,5,0,0:0:0:0:
156,84,195256,5,0,0:0:0:0:
256,192,195367,5,0,0:0:0:0:
355,258,195479,5,8,0:0:0:0:
256,192,195590,5,8,0:0:0:0:
142,220,195701,5,4,0:0:0:0:
146,108,195923,5,0,0:0:0:0:
409,298,196145,5,8,0:0:0:0:
367,272,196367,5,8,0:0:0:0:
256,192,196479,5,8,0:0:0:0:
152,116,196590,5,0,0:0:0:0:
389,261,196812,5,8,0:0:0:0:
155,103,197034,5,0,0:0:0:0:
155,103,197256,5,0,0:0:0:0:
142,220,197479,5,4,0:0:0:0:
367,263,197812,5,8,0:0:0:0:
367,263,197923,5,0,0:0:0:0:
114,71,198145,5,0,0:0:0:0:
114,71,198367,5,0,0:0:0:0:
411,281,198701,5,8,0:0:0:0:
386,267,198997,5,8,0:0:0:0:
142,220,199256,5,4,0:0:0:0:
150,123,199479,5,0,0:0:0:0:
344,266,199701,5,8,0:0:0:0:
180,116,199923,5,0,0:0:0:0:
372,279,200145,5,8,0:0:0:0:
367,272,200367,5,8,0:0:0:0:
256,192,200479,5,8,0:0:0:0:
367,272,200590,5,0,0:0:0:0:
362,268,200812,5,8,0:0:0:0:
142,220,201034,5,4,0:0:0:0:
160,94,201256,5,0,0:0:0:0:
256,192,201367,5,8,0:0:0:0:
314,229,201479,5,8,0:0:0:0:
306,221,201701,5,8,0:0:0:0:
299,217,201923,5,8,0:0:0:0:
151,88,202145,5,0,0:0:0:0:
340,266,202367,5,8,0:0:0:0:
256,192,202479,5,8,0:0:0:0:
338,248,202590,5,8,0:0:0:0:
256,192,202701,5,8,0:0:0:0:
142,220,202812,5,4,0:0:0:0:
135,85,203034,5,0,0:0:0:0:
399,283,203256,5,8,0:0:0:0:
158,92,203479,5,0,0:0:0:0:
107,128,203590,5,0,0:0:0:0:
107,128,203701,5,0,0:0:0:0:
151,132,203923,5,0,0:0:0:0:
395,330,204145,5,8,0:0:0:0:
142,108,204256,5,0,0:0:0:0:
393,296,204367,5,8,0:0:0:0:
391,296,204479,5,8,0:0:0:0:
142,220,204590,5,4,0:0:0:0:
146,101,204812,5,0,0:0:0:0:
391,277,205034,5,8,0:0:0:0:
384,268,205256,5,8,0:0:0:0:
381,265,205367,5,8,0:0:0:0:
173,123,205479,5,0,0:0:0:0:
153,108,205701,5,0,0:0:0:0:
157,110,205923,5,0,0:0:0:0:
384,260,206034,5,8,0:0:0:0:
373,251,206145,5,8,0:0:0:0:
372,250,206256,5,8,0:0:0:0:
142,220,206367,5,4,0:0:0:0:
256,192,206590,5,8,0:0:0:0:
256,192,206701,5,8,0:0:0:0:
256,192,206812,5,0,0:0:0:0:
256,192,206923,5,8,0:0:0:0:
373,279,207034,5,8,0:0:0:0:
151,112,207145,5,0,0:0:0:0:
256,192,207256,5,8,0:0:0:0:
151,112,207479,5,0,0:0:0:0:
256,192,207590,5,8,0:0:0:0:
151,112,207701,5,0,0:0:0:0:
376,292,207812,5,8,0:0:0:0:
371,274,207923,5,8,0:0:0:0:
142,239,208145,5,4,0:0:0:0:
346,278,208367,5,8,0:0:0:0:
256,192,208479,5,0,0:0:0:0:
256,192,208590,5,8,0:0:0:0:
256,192,208701,5,0,0:0:0:0:
382,279,208812,5,8,0:0:0:0:
370,272,208923,5,8,0:0:0:0:
139,101,209034,5,0,0:0:0:0:
256,192,209256,5,8,0:0:0:0:
256,192,209367,5,8,0:0:0:0:
256,192,209479,5,0,0:0:0:0:
344,276,209590,5,8,0:0:0:0:
113,95,209701,5,0,0:0:0:0:
403,331,209812,5,8,0:0:0:0:
142,239,209923,5,4,0:0:0:0:
140,103,210145,5,0,0:0:0:0:
369,314,210367,5,8,0:0:0:0:
129,106,210590,5,0,0:0:0:0:
364,285,210701,5,8,0:0:0:0:
140,103,210812,5,0,0:0:0:0:
140,100,211034,5,0,0:0:0:0:
388,293,211256,5,8,0:0:0:0:
143,92,211367,5,0,0:0:0:0:
383,293,211479,5,8,0:0:0:0:
378,265,211590,5,8,0:0:0:0:
142,239,211701,5,4,0:0:0:0:
129,94,211923,5,0,0:0:0:0:
362,252,212034,5,8,0:0:0:0:
331,230,212367,5,8,0:0:0:0:
331,230,212479,5,8,0:0:0:0:
141,68,212590,5,0,0:0:0:0:
154,77,212812,5,0,0:0:0:0:
382,280,213034,5,8,0:0:0:0:
256,192,213145,5,8,0:0:0:0:
256,192,213256,5,0,0:0:0:0:
129,95,213367,5,0,0:0:0:0:
142,239,213479,5,12,0:0:0:0:
395,285,213590,5,0,0:0:0:0:
393,284,213645,5,0,0:0:0:0:
98,27,213701,5,0,0:0:0:0:
353,267,213812,5,8,0:0:0:0:
150,124,214034,5,0,0:0:0:0:
361,292,214145,5,8,0:0:0:0:
146,105,214256,5,0,0:0:0:0:
449,338,214367,5,8,0:0:0:0:
145,85,214479,5,0,0:0:0:0:
444,326,214590,5,8,0:0:0:0:
369,270,214701,5,8,0:0:0:0:
363,262,214756,5,8,0:0:0:0:
138,112,214812,5,0,0:0:0:0:
256,192,215034,5,8,0:0:0:0:
91,42,215145,5,0,0:0:0:0:
142,239,215256,5,0,0:0:0:0:
401,292,215367,5,8,0:0:0:0:
196,138,215479,5,0,0:0:0:0:
220,145,215590,5,0,0:0:0:0:
181,111,215701,5,8,0:0:0:0:
338,247,215923,5,8,0:0:0:0:
115,84,216034,5,0,0:0:0:0:
115,84,216145,5,0,0:0:0:0:
420,250,216256,5,8,0:0:0:0:
158,56,216367,5,0,0:0:0:0:
158,56,216423,5,0,0:0:0:0:
158,56,216479,5,0,0:0:0:0:
437,259,216590,5,8,0:0:0:0:
256,192,217034,5,0,0:0:0:0:
256,192,217256,5,8,0:0:0:0:
256,192,217367,5,8,0:0:0:0:
256,192,217479,5,0,0:0:0:0:
256,192,217701,5,0,0:0:0:0:
256,192,217812,5,0,0:0:0:0:
256,192,217923,5,8,0:0:0:0:
256,192,218145,5,0,0:0:0:0:
256,192,218256,5,0,0:0:0:0:
256,192,218367,5,8,0:0:0:0:
256,192,218479,5,0,0:0:0:0:
256,192,218590,5,8,0:0:0:0:
256,192,218645,5,8,0:0:0:0:
256,192,218701,5,8,0:0:0:0:
256,192,218812,5,0,0:0:0:0:
256,192,219034,5,8,0:0:0:0:
256,192,219145,5,0,0:0:0:0:
256,192,219256,5,8,0:0:0:0:
256,192,219367,5,0,0:0:0:0:
256,192,219479,5,8,0:0:0:0:
256,192,219590,5,8,0:0:0:0:
256,192,219701,5,0,0:0:0:0:
256,192,219923,5,0,0:0:0:0:
256,192,220034,5,0,0:0:0:0:
256,192,220145,5,8,0:0:0:0:
256,192,220367,5,0,0:0:0:0:
256,192,220590,5,8,0:0:0:0:
256,192,220812,5,0,0:0:0:0:
256,192,220923,5,0,0:0:0:0:
256,192,221034,5,8,0:0:0:0:
256,192,221256,5,0,0:0:0:0:
256,192,221367,5,0,0:0:0:0:
256,192,221479,5,8,0:0:0:0:
256,192,221701,5,0,0:0:0:0:
256,192,221812,5,8,0:0:0:0:
256,192,221923,5,0,0:0:0:0:
256,192,222034,5,0,0:0:0:0:
256,192,222145,5,8,0:0:0:0:
256,192,222256,5,0,0:0:0:0:
256,192,222312,5,0,0:0:0:0:
256,192,222367,5,8,0:0:0:0:
256,192,222479,5,0,0:0:0:0:
256,192,222590,5,8,0:0:0:0:
256,192,222701,5,8,0:0:0:0:
256,192,222812,5,0,0:0:0:0:
256,192,223034,5,8,0:0:0:0:
256,192,223145,5,8,0:0:0:0:
256,192,223256,5,0,0:0:0:0:
256,192,223479,5,0,0:0:0:0:
256,192,223590,5,0,0:0:0:0:
256,192,223701,5,8,0:0:0:0:
256,192,223923,5,8,0:0:0:0:
256,192,224145,5,0,0:0:0:0:
256,192,224367,5,8,0:0:0:0:
256,192,224479,5,8,0:0:0:0:
256,192,224590,5,0,0:0:0:0:
256,192,224812,5,0,0:0:0:0:
256,192,224923,5,0,0:0:0:0:
256,192,225034,5,8,0:0:0:0:
256,192,225256,5,8,0:0:0:0:
256,192,225367,5,8,0:0:0:0:
256,192,225479,5,0,0:0:0:0:
256,192,225534,5,0,0:0:0:0:
256,192,225590,5,0,0:0:0:0:
256,192,225701,5,8,0:0:0:0:
256,192,225812,5,0,0:0:0:0:
256,192,225923,5,8,0:0:0:0:
256,192,226145,5,0,0:0:0:0:
256,192,226367,5,8,0:0:0:0:
256,192,226423,5,8,0:0:0:0:
256,192,226479,5,8,0:0:0:0:
256,192,226590,5,0,0:0:0:0:
256,192,226701,5,0,0:0:0:0:
256,192,226812,5,8,0:0:0:0:
256,192,227034,5,0,0:0:0:0:
256,192,227256,5,8,0:0:0:0:
256,192,227367,5,8,0:0:0:0:
256,192,227479,5,0,0:0:0:0:
256,192,227590,5,0,0:0:0:0:
256,192,227701,5,8,0:0:0:0:
256,192,227923,5,0,0:0:0:0:
256,192,228034,5,0,0:0:0:0:
256,192,228145,5,8,0:0:0:0:
256,192,228367,5,0,0:0:0:0:
256,192,228479,5,8,0:0:0:0:
256,192,228590,5,8,0:0:0:0:
256,192,228812,5,0,0:0:0:0:
256,192,228867,5,0,0:0:0:0:
256,192,228923,5,0,0:0:0:0:
256,192,229034,5,8,0:0:0:0:
256,192,229145,5,0,0:0:0:0:
256,192,229256,5,8,0:0:0:0:
256,192,229367,5,0,0:0:0:0:
256,192,229479,5,8,0:0:0:0:
256,192,229590,5,8,0:0:0:0:
256,192,229701,5,0,0:0:0:0:
256,192,229812,5,0,0:0:0:0:
256,192,229923,5,8,0:0:0:0:
256,192,230034,5,8,0:0:0:0:
256,192,230145,5,0,0:0:0:0:
256,192,230256,5,0,0:0:0:0:
256,192,230312,5,0,0:0:0:0:
256,192,230367,5,8,0:0:0:0:
256,192,230812,1,0,0:0:0:0:
256,192,230923,1,0,0:0:0:0:
256,192,231034,5,8,0:0:0:0:
256,192,231090,5,8,0:0:0:0:
256,192,231145,5,8,0:0:0:0:
256,192,231256,5,4,0:0:0:0:
256,192,231479,5,8,0:0:0:0:
256,192,231590,5,8,0:0:0:0:
256,192,231701,5,0,0:0:0:0:
256,192,231812,5,8,0:0:0:0:
256,192,231923,5,0,0:0:0:0:
256,192,232034,5,0,0:0:0:0:
256,192,232145,5,8,0:0:0:0:
256,192,232367,5,0,0:0:0:0:
256,192,232590,5,8,0:0:0:0:
256,192,232812,5,8,0:0:0:0:
256,192,232923,5,8,0:0:0:0:
256,192,233034,5,0,0:0:0:0:
256,192,233256,5,8,0:0:0:0:
256,192,233367,5,8,0:0:0:0:
256,192,233479,5,0,0:0:0:0:
256,192,233590,5,8,0:0:0:0:
256,192,233701,5,0,0:0:0:0:
256,192,233812,5,0,0:0:0:0:
256,192,233923,5,8,0:0:0:0:
256,192,234145,5,8,0:0:0:0:
256,192,234367,5,0,0:0:0:0:
256,192,234423,5,0,0:0:0:0:
256,192,234479,5,0,0:0:0:0:
256,192,234590,5,8,0:0:0:0:
256,192,234701,5,8,0:0:0:0:
256,192,234812,5,0,0:0:0:0:
256,192,235034,5,8,0:0:0:0:
256,192,235256,5,8,0:0:0:0:
256,192,235367,5,8,0:0:0:0:
256,192,235479,5,0,0:0:0:0:
256,192,235590,5,0,0:0:0:0:
256,192,235701,5,8,0:0:0:0:
256,192,235923,5,0,0:0:0:0:
256,192,236145,5,8,0:0:0:0:
256,192,236256,5,0,0:0:0:0:
256,192,236367,5,8,0:0:0:0:
256,192,236423,5,8,0:0:0:0:
256,192,236479,5,8,0:0:0:0:
256,192,236590,5,0,0:0:0:0:
256,192,236812,5,8,0:0:0:0:
256,192,237034,5,0,0:0:0:0:
256,192,237145,5,8,0:0:0:0:
256,192,237256,5,0,0:0:0:0:
256,192,237367,5,0,0:0:0:0:
256,192,237479,5,8,0:0:0:0:
256,192,237701,5,0,0:0:0:0:
256,192,237923,5,8,0:0:0:0:
256,192,238034,5,0,0:0:0:0:
256,192,238145,5,8,0:0:0:0:
256,192,238256,5,0,0:0:0:0:
256,192,238367,5,8,0:0:0:0:
256,192,238479,5,8,0:0:0:0:
256,192,238590,5,0,0:0:0:0:
256,192,238812,5,0,0:0:0:0:
256,192,238923,5,8,0:0:0:0:
256,192,239034,5,0,0:0:0:0:
256,192,239145,5,0,0:0:0:0:
256,192,239256,5,8,0:0:0:0:
256,192,239479,5,0,0:0:0:0:
256,192,239590,5,0,0:0:0:0:
256,192,239701,5,8,0:0:0:0:
256,192,239812,5,0,0:0:0:0:
256,192,239923,5,8,0:0:0:0:
256,192,240034,5,8,0:0:0:0:
256,192,240145,5,0,0:0:0:0:
256,192,240256,5,0,0:0:0:0:
256,192,240367,5,8,0:0:0:0:
256,192,240590,5,0,0:0:0:0:
256,192,240701,5,8,0:0:0:0:
256,192,240812,5,0,0:0:0:0:
256,192,240867,5,0,0:0:0:0:
256,192,240923,5,0,0:0:0:0:
256,192,241034,5,8,0:0:0:0:
256,192,241256,5,8,0:0:0:0:
256,192,241367,5,0,0:0:0:0:
256,192,241479,5,8,0:0:0:0:
256,192,241701,5,0,0:0:0:0:
256,192,241812,5,0,0:0:0:0:
256,192,241923,5,8,0:0:0:0:
256,192,241979,1,8,0:0:0:0:
256,192,242034,1,0,0:0:0:0:
256,192,242145,5,0,0:0:0:0:
256,192,242367,5,8,0:0:0:0:
256,192,242590,5,8,0:0:0:0:
256,192,242812,5,0,0:0:0:0:
256,192,242923,1,0,0:0:0:0:
256,192,243034,5,8,0:0:0:0:
256,192,243145,5,8,0:0:0:0:
256,192,243256,5,0,0:0:0:0:
256,192,243479,5,0,0:0:0:0:
256,192,243701,5,8,0:0:0:0:
256,192,243923,5,8,0:0:0:0:
256,192,243979,5,8,0:0:0:0:
256,192,244034,5,0,0:0:0:0:
256,192,244145,5,8,0:0:0:0:
256,192,244367,5,0,0:0:0:0:
256,192,244479,1,0,0:0:0:0:
256,192,244590,5,12,0:0:0:0:
256,192,245034,5,12,0:0:0:0:
256,192,245479,5,12,0:0:0:0:
256,192,245701,5,0,0:0:0:0:
256,192,245812,5,0,0:0:0:0:
256,192,245923,5,0,0:0:0:0:
256,192,246145,5,0,0:0:0:0:
256,192,246367,5,8,0:0:0:0:
256,192,246590,5,8,0:0:0:0:
256,192,246701,5,8,0:0:0:0:
256,192,246812,5,0,0:0:0:0:
256,192,246923,5,8,0:0:0:0:
256,192,247034,5,0,0:0:0:0:
256,192,247145,5,0,0:0:0:0:
256,192,247256,5,8,0:0:0:0:
256,192,247479,5,0,0:0:0:0:
256,192,247701,5,8,0:0:0:0:
256,192,247812,5,0,0:0:0:0:
256,192,247923,5,0,0:0:0:0:
256,192,248034,5,0,0:0:0:0:
256,192,248145,5,8,0:0:0:0:
256,192,248367,5,0,0:0:0:0:
256,192,248479,5,0,0:0:0:0:
256,192,248590,5,8,0:0:0:0:
256,192,248701,5,0,0:0:0:0:
256,192,248812,5,8,0:0:0:0:
256,192,249034,5,0,0:0:0:0:
256,192,249256,5,8,0:0:0:0:
256,192,249367,5,0,0:0:0:0:
256,192,249479,5,8,0:0:0:0:
256,192,249590,5,8,0:0:0:0:
256,192,249701,5,0,0:0:0:0:
256,192,249923,5,8,0:0:0:0:
256,192,250034,5,8,0:0:0:0:
256,192,250145,5,0,0:0:0:0:
256,192,250256,5,0,0:0:0:0:
256,192,250367,5,8,0:0:0:0:
256,192,250479,5,0,0:0:0:0:
256,192,250590,5,0,0:0:0:0:
256,192,250812,5,8,0:0:0:0:
256,192,250867,5,8,0:0:0:0:
256,192,250923,5,8,0:0:0:0:
256,192,251034,5,0,0:0:0:0:
256,192,251145,5,8,0:0:0:0:
256,192,251201,5,8,0:0:0:0:
256,192,251256,5,8,0:0:0:0:
256,192,251367,5,0,0:0:0:0:
256,192,251479,5,8,0:0:0:0:
256,192,251590,5,0,0:0:0:0:
256,192,251701,5,8,0:0:0:0:
256,192,251923,5,8,0:0:0:0:
256,192,251979,5,8,0:0:0:0:
256,192,252034,5,8,0:0:0:0:
256,192,252145,5,0,0:0:0:0:
256,192,252256,5,0,0:0:0:0:
256,192,252367,5,8,0:0:0:0:
256,192,252590,5,0,0:0:0:0:
256,192,252701,1,0,0:0:0:0:
256,192,252812,5,8,0:0:0:0:
256,192,252923,5,8,0:0:0:0:
256,192,253034,5,0,0:0:0:0:
256,192,253145,5,8,0:0:0:0:
256,192,253256,5,0,0:0:0:0:
256,192,253367,5,0,0:0:0:0:
256,192,253479,5,8,0:0:0:0:
256,192,253701,5,0,0:0:0:0:
256,192,253812,5,0,0:0:0:0:
256,192,253923,5,8,0:0:0:0:
256,192,254034,5,0,0:0:0:0:
256,192,254145,5,8,0:0:0:0:
256,192,254256,1,0,0:0:0:0:
256,192,254367,5,8,0:0:0:0:
256,192,254479,5,0,0:0:0:0:
256,192,254590,5,8,0:0:0:0:
256,192,254701,5,8,0:0:0:0:
256,192,254812,5,0,0:0:0:0:
256,192,255034,5,0,0:0:0:0:
256,192,255256,5,8,0:0:0:0:
256,192,255367,5,8,0:0:0:0:
256,192,255479,5,0,0:0:0:0:
256,192,255590,5,8,0:0:0:0:
256,192,255701,5,0,0:0:0:0:
256,192,255812,1,0,0:0:0:0:
256,192,255923,5,8,0:0:0:0:
256,192,256034,1,0,0:0:0:0:
256,192,256145,5,8,0:0:0:0:
256,192,256256,5,8,0:0:0:0:
256,192,256367,5,0,0:0:0:0:
256,192,256590,5,8,0:0:0:0:
256,192,256812,5,0,0:0:0:0:
256,192,256923,5,0,0:0:0:0:
256,192,257034,5,8,0:0:0:0:
256,192,257145,1,8,0:0:0:0:
256,192,257256,5,0,0:0:0:0:
256,192,257367,5,0,0:0:0:0:
256,192,257479,5,8,0:0:0:0:
256,192,257590,5,0,0:0:0:0:
256,192,257701,5,8,0:0:0:0:
256,192,257923,5,8,0:0:0:0:
256,192,258034,5,8,0:0:0:0:
256,192,258090,5,8,0:0:0:0:
256,192,258145,5,0,0:0:0:0:
256,192,258256,5,8,0:0:0:0:
256,192,258367,5,8,0:0:0:0:
256,192,258479,5,0,0:0:0:0:
256,192,258590,5,8,0:0:0:0:
256,192,258701,5,8,0:0:0:0:
256,192,258756,1,8,0:0:0:0:
256,192,258812,5,0,0:0:0:0:
256,192,258923,5,8,0:0:0:0:
256,192,259034,5,8,0:0:0:0:
256,192,259145,5,0,0:0:0:0:
256,192,259256,5,8,0:0:0:0:
256,192,259367,1,0,0:0:0:0:
256,192,259479,1,0,0:0:0:0:
256,192,259590,1,8,0:0:0:0:
256,192,259701,5,4,0:0:0:0:
