osu file format v14

[General]
AudioFilename: audio.mp3
AudioLeadIn: 0
PreviewTime: 42690
Countdown: 0
SampleSet: Normal
StackLeniency: 0.7
Mode: 1
LetterboxInBreaks: 0
WidescreenStoryboard: 1

[Editor]
Bookmarks: 135,14357,42801,71245,99690,129912,158356,174356,188579,217023,245468
DistanceSpacing: 1.7
BeatDivisor: 4
GridSize: 32
TimelineZoom: 4.399999

[Metadata]
Title:The Empress
TitleUnicode:The Empress
Artist:UNDEAD CORPORATION
ArtistUnicode:UNDEAD CORPORATION
Creator:Raiden
Version:Hell Oni
Source:東方紅魔郷 ~ the Embodiment of Scarlet Devil.
Tags:FA Featured Artist UC Melodeath Melodic Death Metal English U.N.オーエンは彼女なのか? UN U.N. Owen was her? wa Kanojo Nanoka? Flandre Scarlet フランドール・スカーレット EoSD Extra Stage TH06 TH 6 TOHO Complete Box GOLD Touhou 東方Project ZUN Team Shanghai Alice The Violation Fleshgod Apocalypse madness stream stamina
BeatmapID:2420013
BeatmapSetID:452051

[Difficulty]
HPDrainRate:4.5
CircleSize:2
OverallDifficulty:7.5
ApproachRate:10
SliderMultiplier:1.4
SliderTickRate:1

[Events]
//Background and Video events
0,0,"44908884_p0_master1200.jpg",0,150
//Break Periods
//Storyboard Layer 0 (Background)
//Storyboard Layer 1 (Fail)
//Storyboard Layer 2 (Pass)
//Storyboard Layer 3 (Foreground)
//Storyboard Layer 4 (Overlay)
//Storyboard Sound Samples

[TimingPoints]
173,222.222222222222,4,1,0,5,1,0
173,-200,4,1,0,5,0,0
1949,-181.818181818182,4,1,0,15,0,0
3727,-166.666666666667,4,1,0,25,0,0
7283,-153.846153846154,4,1,0,35,0,0
8616,-149.253731343284,4,1,0,35,0,0
8838,-147.058823529412,4,1,0,35,0,0
9060,-142.857142857143,4,1,0,35,0,0
9505,-133.333333333333,4,1,0,45,0,0
14368,222.222222222222,4,1,0,100,1,0
14368,-100,4,1,0,100,0,0
28590,-100,4,1,0,100,0,1
41923,-100,4,1,0,100,0,0
42812,-100,4,1,0,100,0,1
56590,-100,4,1,0,100,0,0
71256,-100,4,1,0,100,0,1
85479,-100,4,1,0,100,0,0
115701,-100,4,1,0,100,0,1
128145,-100,4,1,0,100,0,0
129923,-100,4,1,0,100,0,1
143701,-100,4,1,0,100,0,0
217034,-100,4,1,0,100,0,1
229479,-100,4,1,0,100,0,0
231256,-100,4,1,0,100,0,1
244590,-100,4,1,0,100,0,0
245479,-100,4,1,0,100,0,1
259701,-100,4,1,0,100,0,0

[HitObjects]
96,85,173,5,0,0:0:0:0:
359,281,617,5,8,0:0:0:0:
131,114,1061,5,0,0:0:0:0:
113,94,1950,5,0,0:0:0:0:
406,318,2395,5,8,0:0:0:0:
406,318,2839,5,8,0:0:0:0:
256,192,3061,1,8,0:0:0:0:
140,104,3728,5,0,0:0:0:0:
378,282,4172,5,8,0:0:0:0:
378,282,4395,5,8,0:0:0:0:
115,85,4617,5,0,0:0:0:0:
154,100,4839,5,0,0:0:0:0:
382,263,5061,5,8,0:0:0:0:
174,134,5506,5,0,0:0:0:0:
358,263,5950,5,8,0:0:0:0:
379,291,6395,5,8,0:0:0:0:
165,138,6617,5,0,0:0:0:0:
164,103,7284,5,0,0:0:0:0:
404,266,7728,5,8,0:0:0:0:
168,89,8172,5,0,0:0:0:0:
168,89,8395,5,0,0:0:0:0:
168,89,8617,5,0,0:0:0:0:
393,270,8839,5,8,0:0:0:0:
139,111,9061,5,0,0:0:0:0:
344,246,9506,5,8,0:0:0:0:
98,95,9950,5,0,0:0:0:0:
256,192,10172,5,8,0:0:0:0:
127,112,10617,5,0,0:0:0:0:
351,254,10728,5,8,0:0:0:0:
348,253,10839,5,8,0:0:0:0:
362,268,11061,5,8,0:0:0:0:
349,279,11284,5,8,0:0:0:0:
160,154,11506,5,0,0:0:0:0:
390,292,11728,5,8,0:0:0:0:
147,114,11950,5,0,0:0:0:0:
393,283,12172,5,8,0:0:0:0:
345,264,12395,5,8,0:0:0:0:
152,109,12617,5,0,0:0:0:0:
151,93,12839,5,0,0:0:0:0:
340,280,13061,5,8,0:0:0:0:
131,83,13284,5,0,0:0:0:0:
122,94,13506,5,0,0:0:0:0:
351,232,13950,5,8,0:0:0:0:
106,115,14368,5,4,0:0:0:0:
106,115,15256,5,4,0:0:0:0:
332,249,15479,5,8,0:0:0:0:
125,111,15701,5,0,0:0:0:0:
301,240,15923,5,0,0:0:0:0:
136,126,16145,5,4,0:0:0:0:
123,144,17034,5,4,0:0:0:0:
374,321,17256,5,8,0:0:0:0:
383,270,17479,5,8,0:0:0:0:
383,270,17534,5,8,0:0:0:0:
130,144,17590,5,0,0:0:0:0:
130,144,17645,5,0,0:0:0:0:
388,292,17701,5,8,0:0:0:0:
388,292,17756,5,8,0:0:0:0:
116,150,17812,5,0,0:0:0:0:
122,162,17867,5,0,0:0:0:0:
123,162,17923,5,0,0:0:0:0:
160,169,18145,5,0,0:0:0:0:
157,165,18367,5,8,0:0:0:0:
157,165,18590,5,0,0:0:0:0:
376,278,18812,5,8,0:0:0:0:
376,278,19034,5,8,0:0:0:0:
157,165,19256,5,8,0:0:0:0:
399,302,19479,5,0,0:0:0:0:
157,165,19701,5,0,0:0:0:0:
157,165,19923,5,0,0:0:0:0:
256,192,20145,1,8,0:0:0:0:
157,165,20367,5,0,0:0:0:0:
157,165,20590,5,8,0:0:0:0:
383,288,20812,5,8,0:0:0:0:
154,148,21034,5,0,0:0:0:0:
326,242,21256,5,8,0:0:0:0:
326,242,21312,5,8,0:0:0:0:
326,242,21367,5,8,0:0:0:0:
326,242,21423,5,8,0:0:0:0:
110,110,21479,5,0,0:0:0:0:
132,132,21590,5,0,0:0:0:0:
326,242,21701,5,8,0:0:0:0:
129,132,21812,5,0,0:0:0:0:
326,242,21923,5,8,0:0:0:0:
110,110,21979,5,0,0:0:0:0:
132,132,22034,5,0,0:0:0:0:
132,132,22090,5,0,0:0:0:0:
332,234,22145,5,8,0:0:0:0:
129,132,22256,5,0,0:0:0:0:
345,251,22367,5,8,0:0:0:0:
256,192,22479,1,0,0:0:0:0:
132,132,22590,5,0,0:0:0:0:
130,132,22645,5,0,0:0:0:0:
130,132,22701,5,0,0:0:0:0:
129,132,22756,5,0,0:0:0:0:
352,275,22812,5,8,0:0:0:0:
348,275,22923,5,8,0:0:0:0:
132,132,23034,5,0,0:0:0:0:
132,132,23090,5,0,0:0:0:0:
130,132,23145,5,0,0:0:0:0:
130,132,23201,5,0,0:0:0:0:
333,266,23256,5,8,0:0:0:0:
129,132,23367,5,0,0:0:0:0:
333,266,23479,5,8,0:0:0:0:
132,132,23590,5,0,0:0:0:0:
130,132,23645,5,0,0:0:0:0:
334,253,23701,5,8,0:0:0:0:
333,253,23756,5,8,0:0:0:0:
333,253,23812,5,8,0:0:0:0:
332,234,23923,5,8,0:0:0:0:
333,266,23979,5,8,0:0:0:0:
146,161,24034,5,0,0:0:0:0:
125,132,24090,5,0,0:0:0:0:
340,260,24145,5,8,0:0:0:0:
187,163,24367,5,0,0:0:0:0:
256,192,24423,1,0,0:0:0:0:
256,192,24479,1,0,0:0:0:0:
256,192,24534,1,0,0:0:0:0:
326,266,24590,5,8,0:0:0:0:
199,168,24701,5,0,0:0:0:0:
326,266,24812,5,8,0:0:0:0:
326,258,24867,5,8,0:0:0:0:
184,133,24923,5,0,0:0:0:0:
326,258,24979,5,0,0:0:0:0:
326,258,25034,5,8,0:0:0:0:
319,259,25256,5,8,0:0:0:0:
320,259,25312,5,8,0:0:0:0:
320,259,25367,5,8,0:0:0:0:
320,259,25423,5,8,0:0:0:0:
178,120,25479,5,0,0:0:0:0:
335,253,25701,5,8,0:0:0:0:
178,120,25756,5,8,0:0:0:0:
179,122,25812,5,0,0:0:0:0:
179,126,25867,5,0,0:0:0:0:
331,298,25923,5,0,0:0:0:0:
200,160,26145,5,0,0:0:0:0:
320,259,26256,5,8,0:0:0:0:
177,147,26367,5,4,0:0:0:0:
320,305,26590,5,8,0:0:0:0:
313,293,26701,5,8,0:0:0:0:
146,97,26812,5,4,0:0:0:0:
301,255,27034,5,8,0:0:0:0:
300,263,27090,5,8,0:0:0:0:
300,268,27145,5,8,0:0:0:0:
300,268,27201,5,8,0:0:0:0:
146,97,27256,5,0,0:0:0:0:
150,114,27479,5,0,0:0:0:0:
256,192,27534,1,0,0:0:0:0:
150,114,27590,5,0,0:0:0:0:
311,268,27701,5,12,0:0:0:0:
311,268,28145,5,12,0:0:0:0:
185,124,28590,5,0,0:0:0:0:
172,130,28645,5,0,0:0:0:0:
172,130,28701,5,0,0:0:0:0:
172,130,28756,5,0,0:0:0:0:
295,253,28812,5,8,0:0:0:0:
193,134,28867,5,8,0:0:0:0:
238,149,28923,5,0,0:0:0:0:
238,149,28979,5,0,0:0:0:0:
300,243,29034,5,8,0:0:0:0:
300,243,29145,5,8,0:0:0:0:
193,134,29256,5,0,0:0:0:0:
193,134,29367,5,0,0:0:0:0:
193,134,29423,5,0,0:0:0:0:
372,297,29479,5,8,0:0:0:0:
164,139,29590,5,0,0:0:0:0:
341,291,29701,5,8,0:0:0:0:
156,127,29812,5,0,0:0:0:0:
352,271,29923,5,8,0:0:0:0:
156,148,29979,5,0,0:0:0:0:
138,152,30034,5,0,0:0:0:0:
138,152,30090,5,0,0:0:0:0:
351,291,30145,5,8,0:0:0:0:
189,123,30256,5,0,0:0:0:0:
168,130,30367,5,0,0:0:0:0:
155,136,30423,5,0,0:0:0:0:
155,136,30479,5,0,0:0:0:0:
155,136,30534,5,0,0:0:0:0:
342,277,30590,5,8,0:0:0:0:
347,285,30645,5,8,0:0:0:0:
129,112,30701,5,0,0:0:0:0:
129,112,30756,5,0,0:0:0:0:
351,291,30812,5,8,0:0:0:0:
143,120,30923,5,0,0:0:0:0:
342,277,31034,5,8,0:0:0:0:
352,271,31090,5,8,0:0:0:0:
143,120,31145,5,0,0:0:0:0:
143,120,31201,5,0,0:0:0:0:
372,297,31256,5,8,0:0:0:0:
145,143,31367,5,0,0:0:0:0:
368,308,31479,5,8,0:0:0:0:
157,163,31590,5,0,0:0:0:0:
375,311,31701,5,8,0:0:0:0:
349,253,31812,5,8,0:0:0:0:
349,253,31867,5,8,0:0:0:0:
170,164,31923,5,0,0:0:0:0:
349,253,32034,5,8,0:0:0:0:
168,130,32145,5,0,0:0:0:0:
155,136,32201,5,0,0:0:0:0:
155,136,32256,5,0,0:0:0:0:
155,136,32312,5,0,0:0:0:0:
363,259,32367,5,8,0:0:0:0:
148,125,32423,5,8,0:0:0:0:
148,125,32479,5,0,0:0:0:0:
148,125,32534,5,0,0:0:0:0:
349,253,32590,5,8,0:0:0:0:
148,125,32701,5,0,0:0:0:0:
349,253,32812,5,8,0:0:0:0:
360,244,32867,5,8,0:0:0:0:
113,104,32923,5,0,0:0:0:0:
113,104,32979,5,0,0:0:0:0:
372,297,33034,5,8,0:0:0:0:
128,139,33145,5,0,0:0:0:0:
363,259,33256,5,8,0:0:0:0:
132,139,33367,5,0,0:0:0:0:
306,248,33479,5,8,0:0:0:0:
130,139,33534,5,0,0:0:0:0:
130,139,33590,5,0,0:0:0:0:
127,138,33645,5,0,0:0:0:0:
332,250,33701,5,8,0:0:0:0:
184,160,33812,5,0,0:0:0:0:
168,130,33923,5,0,0:0:0:0:
155,136,33979,5,0,0:0:0:0:
155,136,34034,5,0,0:0:0:0:
155,136,34090,5,0,0:0:0:0:
328,226,34145,5,8,0:0:0:0:
337,266,34201,5,8,0:0:0:0:
116,128,34256,5,0,0:0:0:0:
116,128,34312,5,0,0:0:0:0:
357,245,34367,5,8,0:0:0:0:
116,128,34479,5,0,0:0:0:0:
337,266,34590,5,8,0:0:0:0:
329,273,34645,5,8,0:0:0:0:
116,128,34701,5,0,0:0:0:0:
116,128,34756,5,0,0:0:0:0:
372,297,34812,5,8,0:0:0:0:
118,145,34923,5,0,0:0:0:0:
358,251,35034,5,8,0:0:0:0:
112,145,35145,5,0,0:0:0:0:
383,263,35256,5,8,0:0:0:0:
344,263,35312,5,8,0:0:0:0:
358,251,35367,5,8,0:0:0:0:
344,263,35423,5,8,0:0:0:0:
157,151,35479,5,0,0:0:0:0:
325,263,35534,5,0,0:0:0:0:
325,263,35590,5,8,0:0:0:0:
325,263,35645,5,8,0:0:0:0:
168,130,35701,5,0,0:0:0:0:
155,136,35812,5,0,0:0:0:0:
330,257,35923,5,8,0:0:0:0:
179,136,36034,5,0,0:0:0:0:
179,136,36090,5,0,0:0:0:0:
372,274,36145,5,8,0:0:0:0:
315,232,36201,5,8,0:0:0:0:
359,301,36256,5,8,0:0:0:0:
372,297,36312,5,8,0:0:0:0:
211,164,36367,5,0,0:0:0:0:
157,125,36479,5,0,0:0:0:0:
372,297,36590,5,8,0:0:0:0:
185,120,36645,5,0,0:0:0:0:
184,119,36701,5,0,0:0:0:0:
178,119,36756,5,0,0:0:0:0:
343,273,36812,5,8,0:0:0:0:
178,119,36923,5,0,0:0:0:0:
320,232,37034,5,8,0:0:0:0:
174,119,37145,5,0,0:0:0:0:
173,119,37201,5,0,0:0:0:0:
362,284,37256,5,8,0:0:0:0:
194,173,37367,5,0,0:0:0:0:
168,130,37479,5,0,0:0:0:0:
155,136,37534,5,0,0:0:0:0:
155,136,37590,5,0,0:0:0:0:
155,136,37645,5,0,0:0:0:0:
382,264,37701,5,8,0:0:0:0:
134,120,37756,5,8,0:0:0:0:
134,120,37812,5,0,0:0:0:0:
134,120,37867,5,0,0:0:0:0:
362,284,37923,5,8,0:0:0:0:
324,274,38034,5,0,0:0:0:0:
376,299,38145,5,8,0:0:0:0:
365,307,38201,5,8,0:0:0:0:
134,120,38256,5,0,0:0:0:0:
134,120,38312,5,0,0:0:0:0:
324,274,38367,5,8,0:0:0:0:
182,150,38479,5,0,0:0:0:0:
340,263,38590,5,8,0:0:0:0:
141,144,38701,5,8,0:0:0:0:
222,143,38812,5,0,0:0:0:0:
142,143,38923,5,0,0:0:0:0:
340,263,39034,5,8,0:0:0:0:
160,155,39090,5,0,0:0:0:0:
324,274,39145,5,8,0:0:0:0:
161,155,39201,5,0,0:0:0:0:
327,259,39256,5,8,0:0:0:0:
167,139,39367,5,0,0:0:0:0:
309,263,39479,5,8,0:0:0:0:
164,140,39534,5,0,0:0:0:0:
164,139,39590,5,0,0:0:0:0:
164,139,39645,5,0,0:0:0:0:
335,270,39701,5,8,0:0:0:0:
167,148,39812,5,0,0:0:0:0:
328,302,39923,5,8,0:0:0:0:
326,286,39979,5,8,0:0:0:0:
182,157,40034,5,0,0:0:0:0:
164,160,40090,5,0,0:0:0:0:
337,300,40145,5,8,0:0:0:0:
326,286,40256,5,0,0:0:0:0:
337,300,40367,5,8,0:0:0:0:
337,300,40423,5,8,0:0:0:0:
330,309,40479,5,8,0:0:0:0:
131,110,40534,5,8,0:0:0:0:
118,107,40590,5,0,0:0:0:0:
219,171,40701,5,0,0:0:0:0:
313,277,40812,5,8,0:0:0:0:
256,192,40867,1,8,0:0:0:0:
187,175,40923,5,0,0:0:0:0:
137,153,41034,5,0,0:0:0:0:
321,299,41256,5,8,0:0:0:0:
340,283,41312,5,8,0:0:0:0:
329,272,41367,5,8,0:0:0:0:
329,272,41423,5,8,0:0:0:0:
256,192,41479,5,0,0:0:0:0:
256,192,41701,5,0,0:0:0:0:
256,192,41812,5,0,0:0:0:0:
331,295,41923,5,8,0:0:0:0:
324,262,42145,5,8,0:0:0:0:
256,192,42201,5,0,0:0:0:0:
256,192,42256,5,0,0:0:0:0:
256,192,42312,5,0,0:0:0:0:
319,298,42367,5,8,0:0:0:0:
256,192,42812,5,8,0:0:0:0:
256,192,42867,5,8,0:0:0:0:
257,192,42923,5,0,0:0:0:0:
256,192,42979,5,0,0:0:0:0:
256,192,43034,5,8,0:0:0:0:
256,192,43090,5,8,0:0:0:0:
256,192,43145,5,0,0:0:0:0:
256,192,43256,5,8,0:0:0:0:
257,192,43367,5,0,0:0:0:0:
256,192,43423,5,0,0:0:0:0:
256,192,43479,5,8,0:0:0:0:
256,192,43534,5,8,0:0:0:0:
256,192,43590,5,0,0:0:0:0:
256,192,43645,5,0,0:0:0:0:
256,192,43701,5,8,0:0:0:0:
256,192,43812,5,8,0:0:0:0:
256,192,43923,5,0,0:0:0:0:
256,192,43979,5,0,0:0:0:0:
256,192,44034,5,0,0:0:0:0:
256,192,44090,5,0,0:0:0:0:
256,192,44145,5,8,0:0:0:0:
256,192,44201,5,8,0:0:0:0:
256,192,44256,5,0,0:0:0:0:
256,192,44312,5,0,0:0:0:0:
256,192,44367,5,8,0:0:0:0:
256,192,44423,5,8,0:0:0:0:
256,192,44479,5,0,0:0:0:0:
256,192,44534,5,0,0:0:0:0:
256,192,44590,5,8,0:0:0:0:
257,192,44701,5,0,0:0:0:0:
256,192,44812,5,8,0:0:0:0:
256,192,44867,5,0,0:0:0:0:
256,192,44923,5,0,0:0:0:0:
256,192,44979,5,0,0:0:0:0:
256,192,45034,5,8,0:0:0:0:
256,192,45090,5,8,0:0:0:0:
257,192,45145,5,0,0:0:0:0:
256,192,45201,5,0,0:0:0:0:
256,192,45256,5,8,0:0:0:0:
256,192,45367,5,0,0:0:0:0:
256,192,45479,5,8,0:0:0:0:
256,192,45534,5,8,0:0:0:0:
256,192,45590,5,8,0:0:0:0:
256,192,45645,5,8,0:0:0:0:
256,192,45701,5,0,0:0:0:0:
256,192,45756,5,0,0:0:0:0:
256,192,45812,5,0,0:0:0:0:
256,192,45867,5,0,0:0:0:0:
256,192,45923,5,8,0:0:0:0:
255,192,45979,5,8,0:0:0:0:
256,192,46034,5,8,0:0:0:0:
255,192,46090,5,8,0:0:0:0:
255,192,46145,5,0,0:0:0:0:
255,192,46256,5,0,0:0:0:0:
256,192,46367,5,8,0:0:0:0:
256,192,46423,5,8,0:0:0:0:
255,192,46479,5,0,0:0:0:0:
255,192,46534,5,0,0:0:0:0:
255,192,46590,5,8,0:0:0:0:
255,192,46645,5,8,0:0:0:0:
255,192,46701,5,0,0:0:0:0:
255,192,46812,5,8,0:0:0:0:
256,192,46923,5,0,0:0:0:0:
255,192,47034,5,0,0:0:0:0:
255,192,47090,5,0,0:0:0:0:
255,192,47145,5,0,0:0:0:0:
255,192,47201,5,0,0:0:0:0:
255,192,47256,5,8,0:0:0:0:
255,192,47367,5,0,0:0:0:0:
255,192,47423,5,0,0:0:0:0:
255,192,47479,5,8,0:0:0:0:
255,192,47534,5,8,0:0:0:0:
255,192,47590,5,8,0:0:0:0:
255,192,47645,5,0,0:0:0:0:
255,192,47701,5,8,0:0:0:0:
256,192,47812,5,0,0:0:0:0:
255,192,47923,5,0,0:0:0:0:
255,192,47979,5,0,0:0:0:0:
255,192,48034,5,0,0:0:0:0:
255,192,48090,5,0,0:0:0:0:
342,268,48145,5,8,0:0:0:0:
396,271,48256,5,8,0:0:0:0:
396,271,48312,5,8,0:0:0:0:
248,163,48367,5,0,0:0:0:0:
134,87,48423,5,0,0:0:0:0:
352,286,48479,5,8,0:0:0:0:
352,286,48534,5,8,0:0:0:0:
367,281,48590,5,8,0:0:0:0:
367,281,48645,5,8,0:0:0:0:
117,54,48701,5,0,0:0:0:0:
117,54,48756,5,0,0:0:0:0:
146,78,48812,5,8,0:0:0:0:
138,92,48923,5,0,0:0:0:0:
384,272,49034,5,8,0:0:0:0:
384,272,49090,5,8,0:0:0:0:
355,265,49145,5,0,0:0:0:0:
355,265,49201,5,0,0:0:0:0:
162,92,49256,5,8,0:0:0:0:
162,92,49312,5,8,0:0:0:0:
158,105,49367,5,0,0:0:0:0:
158,105,49423,5,0,0:0:0:0:
370,269,49479,5,8,0:0:0:0:
428,302,49534,5,8,0:0:0:0:
311,240,49590,5,8,0:0:0:0:
337,256,49645,5,8,0:0:0:0:
376,292,49701,5,0,0:0:0:0:
149,110,49812,5,0,0:0:0:0:
256,192,49923,5,8,0:0:0:0:
257,192,50034,5,0,0:0:0:0:
256,192,50090,5,0,0:0:0:0:
256,192,50145,5,8,0:0:0:0:
256,192,50201,5,8,0:0:0:0:
256,192,50256,5,8,0:0:0:0:
256,192,50312,5,0,0:0:0:0:
256,192,50367,5,8,0:0:0:0:
257,192,50479,5,0,0:0:0:0:
256,192,50590,5,0,0:0:0:0:
256,192,50645,5,0,0:0:0:0:
256,192,50701,5,8,0:0:0:0:
256,192,50756,5,0,0:0:0:0:
256,192,50812,5,8,0:0:0:0:
256,192,50923,5,0,0:0:0:0:
256,192,51034,5,0,0:0:0:0:
256,192,51090,5,0,0:0:0:0:
256,192,51145,5,0,0:0:0:0:
256,192,51201,5,0,0:0:0:0:
256,192,51256,5,8,0:0:0:0:
256,192,51312,5,8,0:0:0:0:
256,192,51367,5,0,0:0:0:0:
256,192,51423,5,0,0:0:0:0:
256,192,51479,5,8,0:0:0:0:
256,192,51590,5,0,0:0:0:0:
256,192,51701,5,8,0:0:0:0:
256,192,51756,5,8,0:0:0:0:
257,192,51812,5,8,0:0:0:0:
256,192,51867,5,8,0:0:0:0:
256,192,51923,5,0,0:0:0:0:
256,192,51979,5,0,0:0:0:0:
256,192,52034,5,0,0:0:0:0:
256,192,52090,5,0,0:0:0:0:
256,192,52145,5,8,0:0:0:0:
257,192,52256,5,0,0:0:0:0:
256,192,52312,5,0,0:0:0:0:
256,192,52367,5,8,0:0:0:0:
256,192,52479,5,8,0:0:0:0:
256,192,52534,5,0,0:0:0:0:
256,192,52590,5,8,0:0:0:0:
256,192,52645,5,8,0:0:0:0:
256,192,52701,5,8,0:0:0:0:
256,192,52756,5,8,0:0:0:0:
256,192,52812,5,0,0:0:0:0:
256,192,52867,5,0,0:0:0:0:
256,192,52923,5,0,0:0:0:0:
256,192,52979,5,0,0:0:0:0:
256,192,53034,5,8,0:0:0:0:
256,192,53145,5,0,0:0:0:0:
255,192,53256,5,8,0:0:0:0:
255,192,53312,5,8,0:0:0:0:
255,192,53367,5,0,0:0:0:0:
256,192,53479,5,8,0:0:0:0:
256,192,53534,5,8,0:0:0:0:
255,192,53590,5,0,0:0:0:0:
255,192,53645,5,0,0:0:0:0:
255,192,53701,5,0,0:0:0:0:
255,192,53756,5,0,0:0:0:0:
255,192,53812,5,8,0:0:0:0:
255,192,53923,5,8,0:0:0:0:
256,192,54034,5,0,0:0:0:0:
255,192,54145,5,0,0:0:0:0:
255,192,54201,5,0,0:0:0:0:
255,192,54256,5,0,0:0:0:0:
255,192,54312,5,0,0:0:0:0:
255,192,54367,5,8,0:0:0:0:
255,192,54479,5,0,0:0:0:0:
255,192,54590,5,8,0:0:0:0:
255,192,54645,5,0,0:0:0:0:
255,192,54701,5,8,0:0:0:0:
255,192,54756,5,0,0:0:0:0:
255,192,54812,5,8,0:0:0:0:
256,192,54923,5,0,0:0:0:0:
255,192,55034,5,0,0:0:0:0:
255,192,55090,5,0,0:0:0:0:
255,192,55145,5,0,0:0:0:0:
255,192,55201,5,0,0:0:0:0:
342,268,55256,5,8,0:0:0:0:
326,284,55312,5,8,0:0:0:0:
326,282,55367,5,8,0:0:0:0:
319,276,55423,5,8,0:0:0:0:
353,288,55479,5,0,0:0:0:0:
256,192,55590,5,0,0:0:0:0:
256,192,55701,5,0,0:0:0:0:
357,272,55756,5,8,0:0:0:0:
351,267,55812,5,8,0:0:0:0:
348,266,55867,5,8,0:0:0:0:
256,192,55923,5,0,0:0:0:0:
256,192,56034,5,0,0:0:0:0:
397,258,56145,5,8,0:0:0:0:
256,192,56201,5,0,0:0:0:0:
369,270,56256,5,8,0:0:0:0:
256,192,56312,5,0,0:0:0:0:
362,263,56367,5,8,0:0:0:0:
358,261,56423,5,8,0:0:0:0:
147,103,56479,5,0,0:0:0:0:
170,107,56534,5,0,0:0:0:0:
400,278,56590,5,8,0:0:0:0:
148,271,57034,5,4,0:0:0:0:
474,348,57145,5,8,0:0:0:0:
184,110,57256,5,0,0:0:0:0:
138,107,57312,5,0,0:0:0:0:
425,303,57367,5,8,0:0:0:0:
157,113,57479,5,0,0:0:0:0:
425,303,57590,5,8,0:0:0:0:
157,112,57645,5,0,0:0:0:0:
157,112,57701,5,8,0:0:0:0:
474,348,57812,5,0,0:0:0:0:
157,112,57923,5,8,0:0:0:0:
157,112,57979,5,0,0:0:0:0:
425,303,58034,5,8,0:0:0:0:
356,270,58090,5,8,0:0:0:0:
185,123,58145,5,0,0:0:0:0:
425,303,58256,5,8,0:0:0:0:
176,119,58367,5,8,0:0:0:0:
474,348,58423,5,8,0:0:0:0:
175,119,58479,5,0,0:0:0:0:
175,119,58534,5,0,0:0:0:0:
175,119,58590,5,0,0:0:0:0:
175,119,58645,5,0,0:0:0:0:
425,303,58701,5,8,0:0:0:0:
153,109,58812,5,0,0:0:0:0:
425,303,58923,5,8,0:0:0:0:
164,132,59034,5,0,0:0:0:0:
164,132,59090,5,0,0:0:0:0:
474,348,59145,5,8,0:0:0:0:
425,303,59256,5,8,0:0:0:0:
164,132,59367,5,0,0:0:0:0:
435,313,59423,5,0,0:0:0:0:
143,112,59479,5,0,0:0:0:0:
425,303,59590,5,8,0:0:0:0:
143,112,59701,5,8,0:0:0:0:
143,112,59756,5,8,0:0:0:0:
474,348,59812,5,0,0:0:0:0:
206,149,59867,5,0,0:0:0:0:
398,263,59923,5,8,0:0:0:0:
425,303,60034,5,0,0:0:0:0:
425,303,60145,5,8,0:0:0:0:
206,149,60256,5,0,0:0:0:0:
440,310,60367,5,8,0:0:0:0:
440,310,60423,5,8,0:0:0:0:
440,310,60479,5,8,0:0:0:0:
438,309,60534,5,8,0:0:0:0:
165,80,60590,5,0,0:0:0:0:
425,303,60701,5,8,0:0:0:0:
178,145,60812,5,8,0:0:0:0:
425,303,60867,5,8,0:0:0:0:
178,145,60923,5,0,0:0:0:0:
107,81,60979,5,0,0:0:0:0:
407,269,61034,5,8,0:0:0:0:
474,348,61145,5,0,0:0:0:0:
107,99,61256,5,8,0:0:0:0:
425,303,61312,5,0,0:0:0:0:
112,102,61367,5,0,0:0:0:0:
112,102,61423,5,0,0:0:0:0:
112,102,61479,5,8,0:0:0:0:
425,303,61590,5,8,0:0:0:0:
112,102,61701,5,0,0:0:0:0:
112,102,61756,5,0,0:0:0:0:
425,303,61812,5,8,0:0:0:0:
147,106,61923,5,0,0:0:0:0:
474,348,62034,5,0,0:0:0:0:
147,106,62090,5,0,0:0:0:0:
147,106,62145,5,8,0:0:0:0:
425,303,62256,5,0,0:0:0:0:
425,303,62367,5,8,0:0:0:0:
147,106,62423,5,8,0:0:0:0:
147,106,62479,5,0,0:0:0:0:
147,106,62534,5,0,0:0:0:0:
147,106,62590,5,8,0:0:0:0:
147,106,62701,5,0,0:0:0:0:
425,303,62812,5,8,0:0:0:0:
474,348,62867,5,8,0:0:0:0:
147,106,62923,5,0,0:0:0:0:
425,303,63034,5,8,0:0:0:0:
147,106,63145,5,0,0:0:0:0:
373,261,63201,5,0,0:0:0:0:
160,124,63256,5,8,0:0:0:0:
425,303,63367,5,0,0:0:0:0:
256,192,63423,5,0,0:0:0:0:
151,117,63479,5,8,0:0:0:0:
151,117,63534,5,0,0:0:0:0:
425,303,63590,5,8,0:0:0:0:
256,192,63701,5,0,0:0:0:0:
474,348,63812,5,8,0:0:0:0:
151,110,63867,5,0,0:0:0:0:
181,113,63923,5,0,0:0:0:0:
170,101,63979,5,0,0:0:0:0:
425,303,64034,5,8,0:0:0:0:
168,85,64145,5,0,0:0:0:0:
147,106,64256,5,0,0:0:0:0:
425,303,64367,5,8,0:0:0:0:
425,303,64423,5,8,0:0:0:0:
147,106,64479,5,0,0:0:0:0:
474,348,64590,5,8,0:0:0:0:
151,110,64701,5,0,0:0:0:0:
151,110,64756,5,0,0:0:0:0:
256,192,64812,5,8,0:0:0:0:
147,106,64867,5,0,0:0:0:0:
425,303,64923,5,8,0:0:0:0:
147,106,65034,5,0,0:0:0:0:
425,303,65145,5,8,0:0:0:0:
147,106,65201,5,0,0:0:0:0:
256,192,65256,5,8,0:0:0:0:
151,110,65367,5,0,0:0:0:0:
425,303,65479,5,8,0:0:0:0:
256,192,65590,5,0,0:0:0:0:
256,192,65645,5,0,0:0:0:0:
256,192,65701,5,8,0:0:0:0:
256,192,65756,5,8,0:0:0:0:
425,303,65812,5,8,0:0:0:0:
164,122,65923,5,0,0:0:0:0:
425,303,66034,5,0,0:0:0:0:
425,303,66145,5,8,0:0:0:0:
164,122,66201,5,0,0:0:0:0:
164,122,66256,5,0,0:0:0:0:
164,122,66367,5,8,0:0:0:0:
164,122,66479,5,0,0:0:0:0:
164,122,66534,5,0,0:0:0:0:
474,348,66590,5,8,0:0:0:0:
164,122,66701,5,0,0:0:0:0:
425,303,66812,5,8,0:0:0:0:
425,303,66923,5,0,0:0:0:0:
133,105,66979,5,0,0:0:0:0:
470,310,67034,5,8,0:0:0:0:
425,303,67145,5,8,0:0:0:0:
133,105,67256,5,0,0:0:0:0:
133,105,67312,5,0,0:0:0:0:
474,348,67367,5,8,0:0:0:0:
172,94,67479,5,0,0:0:0:0:
416,275,67534,5,8,0:0:0:0:
425,303,67590,5,8,0:0:0:0:
409,272,67645,5,8,0:0:0:0:
145,99,67701,5,0,0:0:0:0:
425,303,67812,5,0,0:0:0:0:
425,303,67923,5,8,0:0:0:0:
133,105,68034,5,0,0:0:0:0:
133,105,68090,5,0,0:0:0:0:
133,105,68145,5,8,0:0:0:0:
133,105,68256,5,0,0:0:0:0:
474,348,68367,5,8,0:0:0:0:
133,105,68423,5,0,0:0:0:0:
184,132,68479,5,0,0:0:0:0:
425,303,68590,5,8,0:0:0:0:
425,303,68701,5,8,0:0:0:0:
184,132,68812,5,0,0:0:0:0:
184,132,68867,5,0,0:0:0:0:
425,303,68923,5,8,0:0:0:0:
184,132,69034,5,0,0:0:0:0:
474,348,69145,5,8,0:0:0:0:
232,156,69256,5,0,0:0:0:0:
425,303,69367,5,8,0:0:0:0:
193,148,69423,5,8,0:0:0:0:
288,192,69479,5,8,0:0:0:0:
232,156,69590,5,0,0:0:0:0:
425,303,69701,5,8,0:0:0:0:
232,156,69812,5,0,0:0:0:0:
435,303,69867,5,0,0:0:0:0:
425,303,69923,5,8,0:0:0:0:
232,156,70034,5,0,0:0:0:0:
474,348,70145,5,8,0:0:0:0:
425,303,70256,5,8,0:0:0:0:
369,263,70367,5,8,0:0:0:0:
369,263,70423,5,8,0:0:0:0:
213,65,70479,5,0,0:0:0:0:
178,70,70534,5,0,0:0:0:0:
178,70,70590,5,0,0:0:0:0:
178,70,70645,5,0,0:0:0:0:
404,300,70701,5,8,0:0:0:0:
324,240,70756,5,8,0:0:0:0:
160,98,70812,5,0,0:0:0:0:
160,98,70923,5,0,0:0:0:0:
399,259,71034,5,8,0:0:0:0:
256,192,71256,5,8,0:0:0:0:
256,192,71312,5,8,0:0:0:0:
257,192,71367,5,0,0:0:0:0:
256,192,71423,5,0,0:0:0:0:
256,192,71479,5,8,0:0:0:0:
256,192,71534,5,8,0:0:0:0:
256,192,71590,5,0,0:0:0:0:
256,192,71701,5,8,0:0:0:0:
257,192,71812,5,0,0:0:0:0:
256,192,71867,5,0,0:0:0:0:
256,192,71923,5,8,0:0:0:0:
256,192,71979,5,8,0:0:0:0:
256,192,72034,5,0,0:0:0:0:
256,192,72090,5,0,0:0:0:0:
256,192,72145,5,8,0:0:0:0:
256,192,72256,5,8,0:0:0:0:
256,192,72367,5,0,0:0:0:0:
256,192,72423,5,0,0:0:0:0:
256,192,72479,5,0,0:0:0:0:
256,192,72534,5,0,0:0:0:0:
256,192,72590,5,8,0:0:0:0:
256,192,72645,5,8,0:0:0:0:
256,192,72701,5,0,0:0:0:0:
256,192,72756,5,0,0:0:0:0:
256,192,72812,5,8,0:0:0:0:
256,192,72867,5,8,0:0:0:0:
256,192,72923,5,0,0:0:0:0:
256,192,72979,5,0,0:0:0:0:
256,192,73034,5,8,0:0:0:0:
257,192,73145,5,0,0:0:0:0:
256,192,73256,5,8,0:0:0:0:
256,192,73312,5,0,0:0:0:0:
256,192,73367,5,0,0:0:0:0:
256,192,73423,5,0,0:0:0:0:
256,192,73479,5,8,0:0:0:0:
256,192,73534,5,8,0:0:0:0:
257,192,73590,5,0,0:0:0:0:
256,192,73645,5,0,0:0:0:0:
256,192,73701,5,8,0:0:0:0:
256,192,73812,5,0,0:0:0:0:
256,192,73923,5,8,0:0:0:0:
256,192,73979,5,8,0:0:0:0:
256,192,74034,5,8,0:0:0:0:
256,192,74090,5,8,0:0:0:0:
256,192,74145,5,0,0:0:0:0:
256,192,74201,5,0,0:0:0:0:
256,192,74256,5,0,0:0:0:0:
256,192,74312,5,0,0:0:0:0:
256,192,74367,5,8,0:0:0:0:
255,192,74423,5,8,0:0:0:0:
256,192,74479,5,8,0:0:0:0:
255,192,74534,5,8,0:0:0:0:
255,192,74590,5,0,0:0:0:0:
255,192,74701,5,0,0:0:0:0:
256,192,74812,5,8,0:0:0:0:
256,192,74867,5,8,0:0:0:0:
255,192,74923,5,0,0:0:0:0:
255,192,74979,5,0,0:0:0:0:
255,192,75034,5,8,0:0:0:0:
255,192,75090,5,8,0:0:0:0:
255,192,75145,5,0,0:0:0:0:
255,192,75256,5,8,0:0:0:0:
256,192,75367,5,0,0:0:0:0:
255,192,75479,5,0,0:0:0:0:
255,192,75534,5,0,0:0:0:0:
255,192,75590,5,0,0:0:0:0:
255,192,75645,5,0,0:0:0:0:
255,192,75701,5,8,0:0:0:0:
255,192,75812,5,0,0:0:0:0:
255,192,75867,5,0,0:0:0:0:
255,192,75923,5,8,0:0:0:0:
255,192,75979,5,8,0:0:0:0:
255,192,76034,5,8,0:0:0:0:
255,192,76090,5,0,0:0:0:0:
255,192,76145,5,8,0:0:0:0:
256,192,76256,5,0,0:0:0:0:
255,192,76367,5,0,0:0:0:0:
255,192,76423,5,0,0:0:0:0:
255,192,76479,5,0,0:0:0:0:
255,192,76534,5,0,0:0:0:0:
342,268,76590,5,8,0:0:0:0:
396,271,76701,5,8,0:0:0:0:
396,271,76756,5,8,0:0:0:0:
248,163,76812,5,0,0:0:0:0:
134,87,76867,5,0,0:0:0:0:
352,286,76923,5,8,0:0:0:0:
352,286,76979,5,8,0:0:0:0:
367,281,77034,5,8,0:0:0:0:
367,281,77090,5,8,0:0:0:0:
117,54,77145,5,0,0:0:0:0:
117,54,77201,5,0,0:0:0:0:
146,78,77256,5,8,0:0:0:0:
138,92,77367,5,0,0:0:0:0:
384,272,77479,5,8,0:0:0:0:
384,272,77534,5,8,0:0:0:0:
355,265,77590,5,0,0:0:0:0:
355,265,77645,5,0,0:0:0:0:
162,92,77701,5,8,0:0:0:0:
162,92,77756,5,8,0:0:0:0:
158,105,77812,5,0,0:0:0:0:
158,105,77867,5,0,0:0:0:0:
370,269,77923,5,8,0:0:0:0:
428,302,77979,5,8,0:0:0:0:
311,240,78034,5,8,0:0:0:0:
337,256,78090,5,8,0:0:0:0:
376,292,78145,5,0,0:0:0:0:
149,110,78256,5,0,0:0:0:0:
256,192,78367,5,8,0:0:0:0:
257,192,78479,5,0,0:0:0:0:
256,192,78534,5,0,0:0:0:0:
256,192,78590,5,8,0:0:0:0:
256,192,78645,5,8,0:0:0:0:
256,192,78701,5,8,0:0:0:0:
256,192,78756,5,0,0:0:0:0:
256,192,78812,5,8,0:0:0:0:
257,192,78923,5,0,0:0:0:0:
256,192,79034,5,0,0:0:0:0:
256,192,79090,5,0,0:0:0:0:
256,192,79145,5,8,0:0:0:0:
256,192,79201,5,0,0:0:0:0:
256,192,79256,5,8,0:0:0:0:
256,192,79367,5,0,0:0:0:0:
256,192,79479,5,0,0:0:0:0:
256,192,79534,5,0,0:0:0:0:
256,192,79590,5,0,0:0:0:0:
256,192,79645,5,0,0:0:0:0:
256,192,79701,5,8,0:0:0:0:
256,192,79756,5,8,0:0:0:0:
256,192,79812,5,0,0:0:0:0:
256,192,79867,5,0,0:0:0:0:
256,192,79923,5,8,0:0:0:0:
256,192,80034,5,0,0:0:0:0:
256,192,80145,5,8,0:0:0:0:
256,192,80201,5,8,0:0:0:0:
257,192,80256,5,8,0:0:0:0:
256,192,80312,5,8,0:0:0:0:
256,192,80367,5,0,0:0:0:0:
256,192,80423,5,0,0:0:0:0:
256,192,80479,5,0,0:0:0:0:
256,192,80534,5,0,0:0:0:0:
256,192,80590,5,8,0:0:0:0:
257,192,80701,5,0,0:0:0:0:
256,192,80756,5,0,0:0:0:0:
256,192,80812,5,8,0:0:0:0:
256,192,80923,5,8,0:0:0:0:
256,192,80979,5,0,0:0:0:0:
256,192,81034,5,8,0:0:0:0:
256,192,81090,5,8,0:0:0:0:
256,192,81145,5,8,0:0:0:0:
256,192,81201,5,8,0:0:0:0:
256,192,81256,5,0,0:0:0:0:
256,192,81312,5,0,0:0:0:0:
256,192,81367,5,0,0:0:0:0:
256,192,81423,5,0,0:0:0:0:
256,192,81479,5,8,0:0:0:0:
256,192,81590,5,0,0:0:0:0:
255,192,81701,5,8,0:0:0:0:
255,192,81756,5,8,0:0:0:0:
255,192,81812,5,0,0:0:0:0:
256,192,81923,5,8,0:0:0:0:
256,192,81979,5,8,0:0:0:0:
255,192,82034,5,0,0:0:0:0:
255,192,82090,5,0,0:0:0:0:
255,192,82145,5,0,0:0:0:0:
255,192,82201,5,0,0:0:0:0:
255,192,82256,5,8,0:0:0:0:
255,192,82367,5,8,0:0:0:0:
256,192,82479,5,0,0:0:0:0:
255,192,82590,5,0,0:0:0:0:
255,192,82645,5,0,0:0:0:0:
255,192,82701,5,0,0:0:0:0:
255,192,82756,5,0,0:0:0:0:
255,192,82812,5,8,0:0:0:0:
255,192,82923,5,0,0:0:0:0:
255,192,83034,5,8,0:0:0:0:
255,192,83090,5,0,0:0:0:0:
255,192,83145,5,8,0:0:0:0:
255,192,83201,5,0,0:0:0:0:
255,192,83256,5,8,0:0:0:0:
256,192,83367,5,0,0:0:0:0:
255,192,83479,5,0,0:0:0:0:
255,192,83534,5,0,0:0:0:0:
255,192,83590,5,0,0:0:0:0:
255,192,83645,5,0,0:0:0:0:
342,268,83701,5,8,0:0:0:0:
326,284,83756,5,8,0:0:0:0:
326,282,83812,5,8,0:0:0:0:
319,276,83867,5,8,0:0:0:0:
353,288,83923,5,0,0:0:0:0:
256,192,84034,5,0,0:0:0:0:
256,192,84090,1,8,0:0:0:0:
256,192,84145,1,8,0:0:0:0:
357,272,84201,5,8,0:0:0:0:
256,192,84256,1,0,0:0:0:0:
256,192,84367,5,0,0:0:0:0:
256,192,84479,1,8,0:0:0:0:
256,192,84590,1,0,0:0:0:0:
256,192,84645,5,0,0:0:0:0:
369,270,84701,5,8,0:0:0:0:
256,192,84756,5,0,0:0:0:0:
362,263,84812,5,8,0:0:0:0:
358,261,84867,5,8,0:0:0:0:
147,103,84923,5,0,0:0:0:0:
170,107,84979,5,0,0:0:0:0:
400,278,85034,5,8,0:0:0:0:
256,192,85145,1,0,0:0:0:0:
256,192,85201,1,0,0:0:0:0:
256,192,85256,1,0,0:0:0:0:
256,192,85367,1,8,0:0:0:0:
256,192,85479,5,4,0:0:0:0:
187,149,85590,5,8,0:0:0:0:
150,151,85701,5,0,0:0:0:0:
208,166,85756,5,0,0:0:0:0:
181,176,85812,5,8,0:0:0:0:
433,250,85923,5,0,0:0:0:0:
167,150,86034,5,8,0:0:0:0:
158,138,86145,5,0,0:0:0:0:
229,206,86201,5,0,0:0:0:0:
168,149,86256,5,8,0:0:0:0:
398,263,86367,5,0,0:0:0:0:
222,139,86479,5,8,0:0:0:0:
180,139,86590,5,0,0:0:0:0:
192,133,86645,5,0,0:0:0:0:
180,139,86701,5,8,0:0:0:0:
334,303,86812,5,0,0:0:0:0:
163,147,86867,5,0,0:0:0:0:
185,162,86923,5,8,0:0:0:0:
334,303,86979,5,8,0:0:0:0:
334,303,87034,5,0,0:0:0:0:
185,162,87145,5,8,0:0:0:0:
161,154,87256,5,0,0:0:0:0:
251,146,87312,5,0,0:0:0:0:
154,142,87367,5,8,0:0:0:0:
154,142,87479,5,0,0:0:0:0:
317,298,87590,5,8,0:0:0:0:
334,303,87701,5,0,0:0:0:0:
169,150,87756,5,0,0:0:0:0:
134,149,87812,5,8,0:0:0:0:
134,149,87923,5,0,0:0:0:0:
127,162,88034,5,8,0:0:0:0:
122,146,88145,5,0,0:0:0:0:
210,172,88201,5,0,0:0:0:0:
138,145,88256,5,8,0:0:0:0:
124,161,88367,5,0,0:0:0:0:
217,158,88423,5,0,0:0:0:0:
171,175,88479,5,8,0:0:0:0:
200,124,88590,5,0,0:0:0:0:
125,161,88701,5,8,0:0:0:0:
342,301,88812,5,8,0:0:0:0:
338,295,88867,5,8,0:0:0:0:
338,295,88923,5,8,0:0:0:0:
337,292,88979,5,8,0:0:0:0:
133,132,89034,5,0,0:0:0:0:
141,147,89145,5,8,0:0:0:0:
354,271,89256,5,0,0:0:0:0:
178,164,89312,5,0,0:0:0:0:
138,164,89367,5,8,0:0:0:0:
355,280,89479,5,0,0:0:0:0:
138,167,89590,5,8,0:0:0:0:
354,281,89701,5,0,0:0:0:0:
229,178,89756,5,0,0:0:0:0:
138,167,89812,5,8,0:0:0:0:
354,281,89923,5,0,0:0:0:0:
119,151,90034,5,8,0:0:0:0:
138,164,90145,5,0,0:0:0:0:
138,167,90201,5,0,0:0:0:0:
231,192,90256,5,8,0:0:0:0:
335,278,90367,5,0,0:0:0:0:
138,229,90479,5,8,0:0:0:0:
332,279,90590,5,0,0:0:0:0:
153,153,90645,5,0,0:0:0:0:
124,116,90701,5,8,0:0:0:0:
335,266,90812,5,8,0:0:0:0:
389,228,90923,5,8,0:0:0:0:
113,160,91034,5,0,0:0:0:0:
139,153,91090,5,0,0:0:0:0:
129,229,91145,5,0,0:0:0:0:
344,277,91256,5,8,0:0:0:0:
336,264,91367,5,8,0:0:0:0:
102,156,91479,5,0,0:0:0:0:
139,149,91534,5,0,0:0:0:0:
110,168,91590,5,0,0:0:0:0:
351,280,91701,5,8,0:0:0:0:
106,192,91812,5,0,0:0:0:0:
344,256,91923,5,8,0:0:0:0:
103,181,92034,5,0,0:0:0:0:
346,255,92145,5,8,0:0:0:0:
51,168,92256,5,0,0:0:0:0:
128,115,92590,5,0,0:0:0:0:
150,122,92701,5,0,0:0:0:0:
347,231,92812,5,8,0:0:0:0:
171,140,92923,5,0,0:0:0:0:
329,245,93034,5,8,0:0:0:0:
171,140,93145,5,0,0:0:0:0:
329,245,93256,5,8,0:0:0:0:
139,136,93367,5,0,0:0:0:0:
434,237,93479,5,8,0:0:0:0:
386,274,93590,5,8,0:0:0:0:
124,140,93701,5,0,0:0:0:0:
117,137,93812,5,0,0:0:0:0:
357,291,93923,5,8,0:0:0:0:
139,136,94034,5,8,0:0:0:0:
357,291,94145,5,0,0:0:0:0:
98,131,94256,5,0,0:0:0:0:
105,142,94367,5,0,0:0:0:0:
386,277,94479,5,8,0:0:0:0:
354,319,94590,5,0,0:0:0:0:
111,154,94701,5,8,0:0:0:0:
152,136,94812,5,0,0:0:0:0:
166,164,94923,5,0,0:0:0:0:
172,164,95034,5,0,0:0:0:0:
171,164,95145,5,8,0:0:0:0:
347,288,95256,5,0,0:0:0:0:
172,164,95367,5,8,0:0:0:0:
421,252,95479,5,0,0:0:0:0:
128,152,95590,5,8,0:0:0:0:
326,244,95701,5,0,0:0:0:0:
131,160,95812,5,8,0:0:0:0:
196,160,95867,5,8,0:0:0:0:
196,160,95923,5,0,0:0:0:0:
196,160,95979,5,8,0:0:0:0:
193,160,96034,5,0,0:0:0:0:
190,159,96090,5,0,0:0:0:0:
190,159,96145,5,8,0:0:0:0:
313,220,96256,5,0,0:0:0:0:
231,162,96367,5,0,0:0:0:0:
231,162,96423,5,8,0:0:0:0:
286,213,96479,5,8,0:0:0:0:
287,213,96534,5,8,0:0:0:0:
210,143,96590,5,0,0:0:0:0:
293,178,96701,5,8,0:0:0:0:
234,132,96812,5,0,0:0:0:0:
245,192,96867,5,8,0:0:0:0:
244,192,96923,5,0,0:0:0:0:
242,192,96979,5,8,0:0:0:0:
242,192,97034,5,0,0:0:0:0:
241,192,97145,5,0,0:0:0:0:
245,192,97256,5,8,0:0:0:0:
245,192,97312,5,0,0:0:0:0:
245,192,97367,5,0,0:0:0:0:
245,192,97423,5,0,0:0:0:0:
245,192,97479,5,8,0:0:0:0:
245,192,97590,5,0,0:0:0:0:
240,202,97701,5,8,0:0:0:0:
257,198,97812,5,0,0:0:0:0:
337,291,97923,5,8,0:0:0:0:
333,279,97979,5,8,0:0:0:0:
194,162,98034,5,0,0:0:0:0:
393,229,98090,5,0,0:0:0:0:
92,161,98145,5,0,0:0:0:0:
98,152,98201,5,0,0:0:0:0:
81,150,98256,5,0,0:0:0:0:
72,139,98312,5,0,0:0:0:0:
415,223,98367,5,8,0:0:0:0:
62,130,98479,5,0,0:0:0:0:
65,158,98590,5,0,0:0:0:0:
85,129,98645,5,0,0:0:0:0:
319,267,98701,5,8,0:0:0:0:
52,171,98756,5,0,0:0:0:0:
350,246,98812,5,8,0:0:0:0:
418,236,98867,5,8,0:0:0:0:
41,144,98923,5,0,0:0:0:0:
52,171,98979,5,0,0:0:0:0:
313,277,99034,5,8,0:0:0:0:
299,277,99145,5,8,0:0:0:0:
64,119,99256,5,0,0:0:0:0:
45,121,99367,5,0,0:0:0:0:
155,162,99423,5,0,0:0:0:0:
97,136,99479,5,0,0:0:0:0:
81,139,99590,5,0,0:0:0:0:
256,192,99701,5,8,0:0:0:0:
256,192,99756,5,8,0:0:0:0:
256,192,99812,5,8,0:0:0:0:
256,192,99867,5,8,0:0:0:0:
256,192,99923,5,0,0:0:0:0:
256,192,100034,5,0,0:0:0:0:
257,192,100145,5,0,0:0:0:0:
257,192,100201,5,0,0:0:0:0:
257,192,100256,5,0,0:0:0:0:
257,192,100312,5,0,0:0:0:0:
256,192,100367,5,0,0:0:0:0:
256,192,100423,5,0,0:0:0:0:
256,192,100479,5,0,0:0:0:0:
256,192,100534,5,0,0:0:0:0:
256,192,100590,5,8,0:0:0:0:
257,192,100701,5,0,0:0:0:0:
256,192,100812,5,0,0:0:0:0:
256,192,100867,5,0,0:0:0:0:
255,192,100923,5,0,0:0:0:0:
255,192,100979,5,0,0:0:0:0:
255,192,101034,5,8,0:0:0:0:
256,192,101145,5,8,0:0:0:0:
256,192,101256,5,0,0:0:0:0:
256,192,101312,5,0,0:0:0:0:
255,192,101367,5,0,0:0:0:0:
255,192,101423,5,0,0:0:0:0:
359,247,101479,5,8,0:0:0:0:
256,192,101590,5,8,0:0:0:0:
256,192,101701,5,8,0:0:0:0:
256,192,101756,5,8,0:0:0:0:
255,192,101812,5,0,0:0:0:0:
255,192,101867,5,0,0:0:0:0:
347,234,101923,5,8,0:0:0:0:
256,192,102034,5,0,0:0:0:0:
256,192,102145,5,0,0:0:0:0:
256,192,102201,5,0,0:0:0:0:
255,192,102256,5,0,0:0:0:0:
255,192,102312,5,0,0:0:0:0:
347,234,102367,5,8,0:0:0:0:
256,192,102479,5,0,0:0:0:0:
256,192,102534,5,0,0:0:0:0:
256,192,102590,5,0,0:0:0:0:
256,192,102645,5,0,0:0:0:0:
256,192,102701,5,0,0:0:0:0:
256,192,102756,5,0,0:0:0:0:
347,234,102812,5,8,0:0:0:0:
257,192,102923,5,0,0:0:0:0:
257,192,102979,5,0,0:0:0:0:
257,192,103034,5,8,0:0:0:0:
257,192,103090,5,0,0:0:0:0:
256,192,103145,5,0,0:0:0:0:
256,192,103201,5,0,0:0:0:0:
347,234,103256,5,8,0:0:0:0:
256,192,103367,5,0,0:0:0:0:
256,192,103479,5,8,0:0:0:0:
256,192,103534,5,8,0:0:0:0:
255,192,103590,5,0,0:0:0:0:
255,192,103645,5,0,0:0:0:0:
256,192,103701,5,0,0:0:0:0:
256,192,103812,5,0,0:0:0:0:
256,192,103923,5,0,0:0:0:0:
255,192,103979,5,0,0:0:0:0:
255,192,104034,5,0,0:0:0:0:
255,192,104090,5,0,0:0:0:0:
342,263,104145,5,8,0:0:0:0:
256,192,104256,5,0,0:0:0:0:
256,192,104367,5,0,0:0:0:0:
256,192,104423,5,0,0:0:0:0:
255,192,104479,5,0,0:0:0:0:
255,192,104534,5,0,0:0:0:0:
388,287,104590,5,8,0:0:0:0:
256,192,104645,5,8,0:0:0:0:
256,192,104701,5,8,0:0:0:0:
256,192,104756,5,8,0:0:0:0:
256,192,104812,5,0,0:0:0:0:
255,192,104923,5,0,0:0:0:0:
424,259,105034,5,8,0:0:0:0:
256,192,105090,5,8,0:0:0:0:
256,192,105145,5,8,0:0:0:0:
256,192,105201,5,8,0:0:0:0:
256,192,105256,5,0,0:0:0:0:
256,192,105312,5,0,0:0:0:0:
255,192,105367,5,0,0:0:0:0:
255,192,105423,5,0,0:0:0:0:
256,192,105479,5,8,0:0:0:0:
256,192,105590,5,0,0:0:0:0:
256,192,105701,5,0,0:0:0:0:
255,192,105756,5,0,0:0:0:0:
255,192,105812,5,0,0:0:0:0:
255,192,105867,5,0,0:0:0:0:
395,251,105923,5,8,0:0:0:0:
256,192,106034,5,8,0:0:0:0:
256,192,106145,5,0,0:0:0:0:
256,192,106201,5,0,0:0:0:0:
255,192,106256,5,0,0:0:0:0:
255,192,106312,5,0,0:0:0:0:
403,271,106367,5,0,0:0:0:0:
256,192,106423,5,0,0:0:0:0:
256,192,106479,5,0,0:0:0:0:
256,192,106534,5,0,0:0:0:0:
391,258,106590,5,8,0:0:0:0:
256,192,106701,5,0,0:0:0:0:
376,255,106812,5,8,0:0:0:0:
256,192,106923,5,0,0:0:0:0:
256,192,106979,5,0,0:0:0:0:
256,192,107034,5,8,0:0:0:0:
255,192,107145,5,8,0:0:0:0:
256,192,107256,5,8,0:0:0:0:
256,192,107312,5,8,0:0:0:0:
256,192,107367,5,0,0:0:0:0:
256,192,107479,5,0,0:0:0:0:
256,192,107534,5,0,0:0:0:0:
256,192,107590,5,0,0:0:0:0:
259,191,107645,5,0,0:0:0:0:
375,245,107701,5,8,0:0:0:0:
257,192,107812,5,0,0:0:0:0:
257,192,107923,5,0,0:0:0:0:
257,192,107979,5,0,0:0:0:0:
256,192,108034,5,0,0:0:0:0:
256,192,108090,5,0,0:0:0:0:
381,256,108145,5,8,0:0:0:0:
257,192,108256,5,8,0:0:0:0:
257,192,108312,5,0,0:0:0:0:
257,192,108367,5,8,0:0:0:0:
257,192,108423,5,8,0:0:0:0:
256,192,108479,5,0,0:0:0:0:
256,192,108534,5,0,0:0:0:0:
393,250,108590,5,8,0:0:0:0:
257,192,108701,5,0,0:0:0:0:
257,192,108812,5,8,0:0:0:0:
256,192,108867,5,8,0:0:0:0:
256,192,108923,5,8,0:0:0:0:
257,192,108979,5,8,0:0:0:0:
257,192,109034,5,0,0:0:0:0:
257,192,109090,5,0,0:0:0:0:
257,192,109145,5,0,0:0:0:0:
257,192,109201,5,0,0:0:0:0:
256,192,109256,5,8,0:0:0:0:
256,192,109367,5,0,0:0:0:0:
411,292,109479,5,8,0:0:0:0:
257,192,109534,5,8,0:0:0:0:
257,192,109590,5,0,0:0:0:0:
257,192,109645,5,0,0:0:0:0:
257,192,109701,5,0,0:0:0:0:
256,192,109812,5,0,0:0:0:0:
444,292,109923,5,8,0:0:0:0:
423,294,109979,5,8,0:0:0:0:
257,192,110034,5,8,0:0:0:0:
257,192,110090,5,0,0:0:0:0:
257,192,110145,5,8,0:0:0:0:
256,192,110256,5,0,0:0:0:0:
445,266,110367,5,8,0:0:0:0:
418,264,110423,5,8,0:0:0:0:
255,192,110479,5,8,0:0:0:0:
255,192,110534,5,8,0:0:0:0:
256,192,110590,5,0,0:0:0:0:
256,192,110645,5,0,0:0:0:0:
256,192,110701,5,0,0:0:0:0:
256,192,110756,5,0,0:0:0:0:
256,192,110812,5,8,0:0:0:0:
256,192,110923,5,0,0:0:0:0:
450,303,111034,5,8,0:0:0:0:
256,192,111090,5,8,0:0:0:0:
256,192,111145,5,0,0:0:0:0:
256,192,111201,5,0,0:0:0:0:
492,331,111256,5,8,0:0:0:0:
257,192,111367,5,0,0:0:0:0:
257,192,111479,5,0,0:0:0:0:
257,192,111534,5,0,0:0:0:0:
256,192,111590,5,0,0:0:0:0:
256,192,111645,5,0,0:0:0:0:
475,328,111701,5,8,0:0:0:0:
257,192,111812,5,8,0:0:0:0:
257,192,111867,5,8,0:0:0:0:
257,192,111923,5,0,0:0:0:0:
257,192,111979,5,0,0:0:0:0:
256,192,112034,5,0,0:0:0:0:
256,192,112090,5,0,0:0:0:0:
396,290,112145,5,8,0:0:0:0:
130,93,112256,5,0,0:0:0:0:
131,93,112367,5,8,0:0:0:0:
130,93,112479,5,0,0:0:0:0:
104,103,112534,5,0,0:0:0:0:
131,93,112590,5,8,0:0:0:0:
131,93,112645,5,8,0:0:0:0:
131,93,112701,5,0,0:0:0:0:
375,313,112812,5,8,0:0:0:0:
131,93,112867,5,0,0:0:0:0:
130,93,112923,5,0,0:0:0:0:
130,93,112979,5,0,0:0:0:0:
367,254,113034,5,8,0:0:0:0:
131,93,113145,5,0,0:0:0:0:
131,93,113201,5,0,0:0:0:0:
131,93,113256,5,8,0:0:0:0:
131,93,113312,5,8,0:0:0:0:
130,93,113367,5,0,0:0:0:0:
130,93,113423,5,0,0:0:0:0:
344,271,113479,5,8,0:0:0:0:
131,93,113590,5,8,0:0:0:0:
131,93,113645,5,8,0:0:0:0:
131,93,113701,5,0,0:0:0:0:
131,93,113756,5,0,0:0:0:0:
130,93,113812,5,0,0:0:0:0:
130,93,113867,5,0,0:0:0:0:
321,219,113923,5,8,0:0:0:0:
315,242,114034,5,8,0:0:0:0:
128,110,114145,5,0,0:0:0:0:
138,120,114201,5,8,0:0:0:0:
363,253,114256,5,8,0:0:0:0:
144,100,114312,5,8,0:0:0:0:
144,100,114367,5,0,0:0:0:0:
131,93,114423,5,0,0:0:0:0:
256,192,114479,5,8,0:0:0:0:
131,93,114590,5,0,0:0:0:0:
130,93,114701,5,0,0:0:0:0:
130,93,114756,5,0,0:0:0:0:
398,243,114812,5,8,0:0:0:0:
152,77,114867,5,0,0:0:0:0:
152,77,114923,5,0,0:0:0:0:
152,77,114979,5,0,0:0:0:0:
409,281,115034,5,8,0:0:0:0:
169,110,115090,5,8,0:0:0:0:
369,251,115145,5,8,0:0:0:0:
403,268,115201,5,8,0:0:0:0:
142,75,115256,5,0,0:0:0:0:
408,291,115701,5,8,0:0:0:0:
127,86,115756,5,8,0:0:0:0:
131,85,115812,5,0,0:0:0:0:
131,85,115867,5,0,0:0:0:0:
127,86,115923,5,8,0:0:0:0:
131,85,115979,5,0,0:0:0:0:
131,85,116034,5,8,0:0:0:0:
127,86,116090,5,0,0:0:0:0:
408,291,116145,5,8,0:0:0:0:
131,85,116256,5,0,0:0:0:0:
131,85,116367,5,0,0:0:0:0:
131,85,116423,5,0,0:0:0:0:
127,86,116479,5,0,0:0:0:0:
127,86,116534,5,0,0:0:0:0:
400,274,116590,5,8,0:0:0:0:
131,85,116701,5,0,0:0:0:0:
131,85,116812,5,8,0:0:0:0:
131,85,116867,5,8,0:0:0:0:
127,86,116923,5,0,0:0:0:0:
127,86,116979,5,0,0:0:0:0:
400,274,117034,5,8,0:0:0:0:
343,242,117090,5,8,0:0:0:0:
131,85,117145,5,8,0:0:0:0:
131,85,117201,5,8,0:0:0:0:
131,85,117256,5,0,0:0:0:0:
127,86,117367,5,0,0:0:0:0:
400,274,117479,5,8,0:0:0:0:
127,86,117534,5,8,0:0:0:0:
131,85,117590,5,8,0:0:0:0:
131,85,117645,5,8,0:0:0:0:
131,85,117701,5,0,0:0:0:0:
131,85,117756,5,0,0:0:0:0:
127,86,117812,5,0,0:0:0:0:
127,86,117867,5,0,0:0:0:0:
400,274,117923,5,8,0:0:0:0:
121,105,118034,5,0,0:0:0:0:
400,274,118145,5,8,0:0:0:0:
403,300,118201,5,8,0:0:0:0:
403,300,118256,5,8,0:0:0:0:
121,105,118312,5,0,0:0:0:0:
400,274,118367,5,8,0:0:0:0:
131,85,118479,5,0,0:0:0:0:
127,86,118590,5,0,0:0:0:0:
127,86,118645,5,0,0:0:0:0:
131,85,118701,5,0,0:0:0:0:
131,85,118756,5,0,0:0:0:0:
385,274,118812,5,8,0:0:0:0:
131,85,118923,5,0,0:0:0:0:
131,85,119034,5,8,0:0:0:0:
127,86,119090,5,8,0:0:0:0:
131,85,119145,5,0,0:0:0:0:
127,86,119201,5,0,0:0:0:0:
385,274,119256,5,8,0:0:0:0:
131,85,119367,5,8,0:0:0:0:
131,85,119479,5,0,0:0:0:0:
131,85,119534,5,0,0:0:0:0:
127,86,119590,5,0,0:0:0:0:
127,86,119645,5,0,0:0:0:0:
385,274,119701,5,8,0:0:0:0:
389,264,119756,5,8,0:0:0:0:
347,306,119812,5,8,0:0:0:0:
123,151,119867,5,0,0:0:0:0:
361,289,119923,5,8,0:0:0:0:
125,110,120034,5,0,0:0:0:0:
385,274,120145,5,8,0:0:0:0:
127,86,120201,5,8,0:0:0:0:
131,85,120256,5,8,0:0:0:0:
131,85,120312,5,8,0:0:0:0:
131,85,120367,5,0,0:0:0:0:
131,85,120423,5,0,0:0:0:0:
127,86,120479,5,8,0:0:0:0:
101,137,120590,5,0,0:0:0:0:
101,137,120701,5,0,0:0:0:0:
101,137,120756,5,0,0:0:0:0:
385,274,120812,5,8,0:0:0:0:
353,313,120867,5,8,0:0:0:0:
101,137,120923,5,0,0:0:0:0:
101,137,120979,5,0,0:0:0:0:
385,274,121034,5,8,0:0:0:0:
101,137,121145,5,0,0:0:0:0:
316,258,121256,5,8,0:0:0:0:
403,270,121312,5,8,0:0:0:0:
101,137,121367,5,0,0:0:0:0:
101,137,121423,5,0,0:0:0:0:
316,258,121479,5,8,0:0:0:0:
101,137,121534,5,0,0:0:0:0:
101,137,121590,5,0,0:0:0:0:
101,137,121645,5,0,0:0:0:0:
316,258,121701,5,8,0:0:0:0:
309,290,121756,5,8,0:0:0:0:
101,137,121812,5,0,0:0:0:0:
101,137,121867,5,0,0:0:0:0:
316,258,121923,5,8,0:0:0:0:
313,230,122034,5,0,0:0:0:0:
131,85,122145,5,8,0:0:0:0:
131,85,122201,5,8,0:0:0:0:
127,86,122256,5,0,0:0:0:0:
127,86,122312,5,0,0:0:0:0:
127,86,122367,5,8,0:0:0:0:
131,85,122423,5,8,0:0:0:0:
131,85,122479,5,8,0:0:0:0:
131,85,122534,5,8,0:0:0:0:
131,85,122590,5,0,0:0:0:0:
127,86,122701,5,0,0:0:0:0:
408,291,122812,5,8,0:0:0:0:
131,85,122923,5,0,0:0:0:0:
131,85,122979,5,0,0:0:0:0:
127,86,123034,5,8,0:0:0:0:
131,85,123145,5,0,0:0:0:0:
408,291,123256,5,8,0:0:0:0:
353,258,123312,5,8,0:0:0:0:
131,85,123367,5,8,0:0:0:0:
131,85,123423,5,8,0:0:0:0:
131,85,123479,5,0,0:0:0:0:
131,85,123534,5,0,0:0:0:0:
127,86,123590,5,0,0:0:0:0:
127,86,123645,5,0,0:0:0:0:
400,274,123701,5,8,0:0:0:0:
131,85,123812,5,0,0:0:0:0:
131,85,123923,5,8,0:0:0:0:
127,86,124034,5,0,0:0:0:0:
127,86,124090,5,0,0:0:0:0:
400,274,124145,5,8,0:0:0:0:
343,242,124201,5,8,0:0:0:0:
131,85,124256,5,8,0:0:0:0:
131,85,124312,5,0,0:0:0:0:
131,85,124367,5,8,0:0:0:0:
131,85,124423,5,0,0:0:0:0:
127,86,124479,5,0,0:0:0:0:
127,86,124534,5,0,0:0:0:0:
400,274,124590,5,8,0:0:0:0:
131,85,124701,5,0,0:0:0:0:
131,85,124812,5,0,0:0:0:0:
131,85,124867,5,0,0:0:0:0:
127,86,124923,5,0,0:0:0:0:
127,86,124979,5,0,0:0:0:0:
400,274,125034,5,8,0:0:0:0:
359,278,125090,5,8,0:0:0:0:
121,105,125145,5,0,0:0:0:0:
121,105,125201,5,0,0:0:0:0:
400,274,125256,5,8,0:0:0:0:
403,300,125367,5,0,0:0:0:0:
400,274,125479,5,8,0:0:0:0:
345,283,125534,5,8,0:0:0:0:
131,85,125590,5,8,0:0:0:0:
131,85,125645,5,8,0:0:0:0:
127,86,125701,5,0,0:0:0:0:
127,86,125756,5,0,0:0:0:0:
131,85,125812,5,0,0:0:0:0:
131,85,125867,5,0,0:0:0:0:
385,274,125923,5,8,0:0:0:0:
131,85,126034,5,0,0:0:0:0:
131,85,126145,5,8,0:0:0:0:
131,85,126256,5,0,0:0:0:0:
127,86,126312,5,0,0:0:0:0:
385,274,126367,5,8,0:0:0:0:
366,313,126423,5,8,0:0:0:0:
131,85,126479,5,8,0:0:0:0:
131,85,126534,5,8,0:0:0:0:
131,85,126590,5,0,0:0:0:0:
131,85,126645,5,0,0:0:0:0:
127,86,126701,5,0,0:0:0:0:
127,86,126756,5,0,0:0:0:0:
385,274,126812,5,8,0:0:0:0:
347,306,126923,5,0,0:0:0:0:
361,289,127034,5,8,0:0:0:0:
385,298,127090,5,8,0:0:0:0:
125,110,127145,5,0,0:0:0:0:
125,110,127201,5,0,0:0:0:0:
385,274,127256,5,8,0:0:0:0:
256,192,127312,5,8,0:0:0:0:
256,192,127367,5,8,0:0:0:0:
256,192,127423,5,8,0:0:0:0:
256,192,127479,5,0,0:0:0:0:
256,192,127534,5,0,0:0:0:0:
256,192,127590,5,0,0:0:0:0:
256,192,127645,5,0,0:0:0:0:
256,192,127701,5,8,0:0:0:0:
256,192,127812,5,0,0:0:0:0:
256,192,127923,5,8,0:0:0:0:
256,192,128034,5,0,0:0:0:0:
256,192,128090,5,0,0:0:0:0:
328,250,128145,5,8,0:0:0:0:
379,296,128201,5,8,0:0:0:0:
256,192,128256,5,8,0:0:0:0:
124,103,128312,5,8,0:0:0:0:
329,263,128367,5,0,0:0:0:0:
256,192,128423,5,0,0:0:0:0:
256,192,128479,5,0,0:0:0:0:
256,192,128534,5,0,0:0:0:0:
335,248,128590,5,8,0:0:0:0:
150,108,128701,5,0,0:0:0:0:
256,192,128756,5,0,0:0:0:0:
334,253,128812,5,8,0:0:0:0:
256,192,128867,5,8,0:0:0:0:
144,107,128923,5,0,0:0:0:0:
144,107,128979,5,0,0:0:0:0:
387,269,129034,5,8,0:0:0:0:
256,192,129701,5,8,0:0:0:0:
256,192,129812,5,8,0:0:0:0:
185,124,129923,5,0,0:0:0:0:
172,130,129979,5,0,0:0:0:0:
172,130,130034,5,0,0:0:0:0:
172,130,130090,5,0,0:0:0:0:
295,253,130145,5,8,0:0:0:0:
193,134,130201,5,8,0:0:0:0:
238,149,130256,5,0,0:0:0:0:
238,149,130312,5,0,0:0:0:0:
300,243,130367,5,8,0:0:0:0:
300,243,130479,5,8,0:0:0:0:
193,134,130590,5,0,0:0:0:0:
193,134,130701,5,0,0:0:0:0:
193,134,130756,5,0,0:0:0:0:
372,297,130812,5,8,0:0:0:0:
164,139,130923,5,0,0:0:0:0:
341,291,131034,5,8,0:0:0:0:
156,127,131145,5,0,0:0:0:0:
352,271,131256,5,8,0:0:0:0:
156,148,131312,5,0,0:0:0:0:
138,152,131367,5,0,0:0:0:0:
138,152,131423,5,0,0:0:0:0:
351,291,131479,5,8,0:0:0:0:
189,123,131590,5,0,0:0:0:0:
168,130,131701,5,0,0:0:0:0:
155,136,131756,5,0,0:0:0:0:
155,136,131812,5,0,0:0:0:0:
155,136,131867,5,0,0:0:0:0:
342,277,131923,5,8,0:0:0:0:
347,285,131979,5,8,0:0:0:0:
129,112,132034,5,0,0:0:0:0:
129,112,132090,5,0,0:0:0:0:
351,291,132145,5,8,0:0:0:0:
143,120,132256,5,0,0:0:0:0:
342,277,132367,5,8,0:0:0:0:
352,271,132423,5,8,0:0:0:0:
143,120,132479,5,0,0:0:0:0:
143,120,132534,5,0,0:0:0:0:
372,297,132590,5,8,0:0:0:0:
145,143,132701,5,0,0:0:0:0:
368,308,132812,5,8,0:0:0:0:
157,163,132923,5,0,0:0:0:0:
375,311,133034,5,8,0:0:0:0:
349,253,133145,5,8,0:0:0:0:
349,253,133201,5,8,0:0:0:0:
170,164,133256,5,0,0:0:0:0:
349,253,133367,5,8,0:0:0:0:
168,130,133479,5,0,0:0:0:0:
155,136,133534,5,0,0:0:0:0:
155,136,133590,5,0,0:0:0:0:
155,136,133645,5,0,0:0:0:0:
363,259,133701,5,8,0:0:0:0:
148,125,133756,5,8,0:0:0:0:
148,125,133812,5,0,0:0:0:0:
148,125,133867,5,0,0:0:0:0:
349,253,133923,5,8,0:0:0:0:
148,125,134034,5,0,0:0:0:0:
349,253,134145,5,8,0:0:0:0:
360,244,134201,5,8,0:0:0:0:
113,104,134256,5,0,0:0:0:0:
113,104,134312,5,0,0:0:0:0:
372,297,134367,5,8,0:0:0:0:
128,139,134479,5,0,0:0:0:0:
363,259,134590,5,8,0:0:0:0:
132,139,134701,5,0,0:0:0:0:
306,248,134812,5,8,0:0:0:0:
130,139,134867,5,0,0:0:0:0:
130,139,134923,5,0,0:0:0:0:
127,138,134979,5,0,0:0:0:0:
332,250,135034,5,8,0:0:0:0:
184,160,135145,5,0,0:0:0:0:
168,130,135256,5,0,0:0:0:0:
155,136,135312,5,0,0:0:0:0:
155,136,135367,5,0,0:0:0:0:
155,136,135423,5,0,0:0:0:0:
328,226,135479,5,8,0:0:0:0:
337,266,135534,5,8,0:0:0:0:
116,128,135590,5,0,0:0:0:0:
116,128,135645,5,0,0:0:0:0:
357,245,135701,5,8,0:0:0:0:
116,128,135812,5,0,0:0:0:0:
337,266,135923,5,8,0:0:0:0:
329,273,135979,5,8,0:0:0:0:
116,128,136034,5,0,0:0:0:0:
116,128,136090,5,0,0:0:0:0:
372,297,136145,5,8,0:0:0:0:
118,145,136256,5,0,0:0:0:0:
358,251,136367,5,8,0:0:0:0:
112,145,136479,5,0,0:0:0:0:
383,263,136590,5,8,0:0:0:0:
344,263,136645,5,8,0:0:0:0:
358,251,136701,5,8,0:0:0:0:
344,263,136756,5,8,0:0:0:0:
157,151,136812,5,0,0:0:0:0:
325,263,136867,5,0,0:0:0:0:
325,263,136923,5,8,0:0:0:0:
325,263,136979,5,8,0:0:0:0:
168,130,137034,5,0,0:0:0:0:
155,136,137145,5,0,0:0:0:0:
330,257,137256,5,8,0:0:0:0:
179,136,137367,5,0,0:0:0:0:
179,136,137423,5,0,0:0:0:0:
372,274,137479,5,8,0:0:0:0:
315,232,137534,5,8,0:0:0:0:
359,301,137590,5,8,0:0:0:0:
372,297,137645,5,8,0:0:0:0:
211,164,137701,5,0,0:0:0:0:
157,125,137812,5,0,0:0:0:0:
372,297,137923,5,8,0:0:0:0:
185,120,137979,5,0,0:0:0:0:
184,119,138034,5,0,0:0:0:0:
178,119,138090,5,0,0:0:0:0:
343,273,138145,5,8,0:0:0:0:
178,119,138256,5,0,0:0:0:0:
320,232,138367,5,8,0:0:0:0:
174,119,138479,5,0,0:0:0:0:
173,119,138534,5,0,0:0:0:0:
362,284,138590,5,8,0:0:0:0:
194,173,138701,5,0,0:0:0:0:
168,130,138812,5,0,0:0:0:0:
155,136,138867,5,0,0:0:0:0:
155,136,138923,5,0,0:0:0:0:
155,136,138979,5,0,0:0:0:0:
382,264,139034,5,8,0:0:0:0:
134,120,139090,5,8,0:0:0:0:
134,120,139145,5,0,0:0:0:0:
134,120,139201,5,0,0:0:0:0:
362,284,139256,5,8,0:0:0:0:
324,274,139367,5,0,0:0:0:0:
376,299,139479,5,8,0:0:0:0:
365,307,139534,5,8,0:0:0:0:
134,120,139590,5,0,0:0:0:0:
134,120,139645,5,0,0:0:0:0:
324,274,139701,5,8,0:0:0:0:
182,150,139812,5,0,0:0:0:0:
340,263,139923,5,8,0:0:0:0:
141,144,140034,5,8,0:0:0:0:
222,143,140145,5,0,0:0:0:0:
142,143,140256,5,0,0:0:0:0:
340,263,140367,5,8,0:0:0:0:
160,155,140423,5,0,0:0:0:0:
324,274,140479,5,8,0:0:0:0:
161,155,140534,5,0,0:0:0:0:
327,259,140590,5,8,0:0:0:0:
309,263,140812,5,8,0:0:0:0:
164,140,140867,5,0,0:0:0:0:
164,139,140923,5,0,0:0:0:0:
164,139,140979,5,0,0:0:0:0:
335,270,141034,5,8,0:0:0:0:
328,302,141256,5,8,0:0:0:0:
326,286,141312,5,8,0:0:0:0:
182,157,141367,5,0,0:0:0:0:
164,160,141423,5,0,0:0:0:0:
337,300,141479,5,8,0:0:0:0:
337,300,141701,5,8,0:0:0:0:
330,309,141812,5,8,0:0:0:0:
118,107,141923,5,4,0:0:0:0:
313,277,142145,5,8,0:0:0:0:
187,175,142256,5,0,0:0:0:0:
137,153,142367,5,4,0:0:0:0:
321,299,142590,5,8,0:0:0:0:
340,283,142645,5,8,0:0:0:0:
329,272,142701,5,8,0:0:0:0:
329,272,142756,5,8,0:0:0:0:
256,192,142812,5,0,0:0:0:0:
256,192,143034,5,0,0:0:0:0:
256,192,143145,5,0,0:0:0:0:
331,295,143256,5,12,0:0:0:0:
256,192,143701,1,12,0:0:0:0:
159,162,144145,5,4,0:0:0:0:
308,263,144256,5,8,0:0:0:0:
170,153,144367,5,0,0:0:0:0:
308,263,144479,5,8,0:0:0:0:
170,153,144590,5,0,0:0:0:0:
308,263,144701,5,8,0:0:0:0:
170,153,144812,5,0,0:0:0:0:
308,263,144923,5,8,0:0:0:0:
170,153,145034,5,0,0:0:0:0:
113,167,145090,5,0,0:0:0:0:
308,263,145145,5,8,0:0:0:0:
170,153,145256,5,0,0:0:0:0:
308,263,145367,5,8,0:0:0:0:
170,153,145479,5,0,0:0:0:0:
198,175,145534,5,0,0:0:0:0:
308,263,145590,5,8,0:0:0:0:
170,153,145701,5,0,0:0:0:0:
308,263,145812,5,8,0:0:0:0:
170,153,145923,5,0,0:0:0:0:
308,263,146034,5,0,0:0:0:0:
170,153,146145,5,8,0:0:0:0:
308,263,146256,5,8,0:0:0:0:
170,153,146367,5,0,0:0:0:0:
308,263,146479,5,8,0:0:0:0:
170,153,146590,5,0,0:0:0:0:
308,263,146701,5,8,0:0:0:0:
170,153,146812,5,0,0:0:0:0:
155,155,146867,5,0,0:0:0:0:
124,160,146923,5,0,0:0:0:0:
326,260,147034,5,8,0:0:0:0:
323,259,147145,5,8,0:0:0:0:
318,259,147256,5,0,0:0:0:0:
251,222,147367,5,0,0:0:0:0:
333,233,147479,5,8,0:0:0:0:
333,233,147534,5,8,0:0:0:0:
333,233,147590,5,8,0:0:0:0:
333,233,147645,5,8,0:0:0:0:
156,127,147701,5,0,0:0:0:0:
308,263,147812,5,8,0:0:0:0:
170,153,147923,5,0,0:0:0:0:
308,263,148034,5,8,0:0:0:0:
170,153,148145,5,0,0:0:0:0:
205,171,148201,5,0,0:0:0:0:
308,263,148256,5,8,0:0:0:0:
170,153,148367,5,0,0:0:0:0:
308,263,148479,5,8,0:0:0:0:
170,153,148590,5,0,0:0:0:0:
220,217,148645,5,0,0:0:0:0:
308,263,148701,5,0,0:0:0:0:
170,153,148812,5,8,0:0:0:0:
308,263,148923,5,8,0:0:0:0:
170,153,149034,5,0,0:0:0:0:
174,190,149090,5,0,0:0:0:0:
153,161,149145,5,0,0:0:0:0:
323,305,149256,5,8,0:0:0:0:
308,263,149367,5,8,0:0:0:0:
170,153,149479,5,0,0:0:0:0:
308,263,149590,5,8,0:0:0:0:
170,153,149701,5,0,0:0:0:0:
308,263,149812,5,8,0:0:0:0:
170,153,149923,5,0,0:0:0:0:
198,181,149979,5,0,0:0:0:0:
308,263,150034,5,8,0:0:0:0:
170,153,150145,5,0,0:0:0:0:
308,263,150256,5,8,0:0:0:0:
170,153,150367,5,0,0:0:0:0:
308,263,150479,5,0,0:0:0:0:
170,153,150590,5,8,0:0:0:0:
308,263,150701,5,8,0:0:0:0:
192,157,150812,5,0,0:0:0:0:
217,168,150923,5,0,0:0:0:0:
290,211,151256,5,0,0:0:0:0:
196,152,151312,5,0,0:0:0:0:
192,150,151367,5,0,0:0:0:0:
192,150,151423,5,0,0:0:0:0:
337,257,151479,5,8,0:0:0:0:
178,166,151590,5,0,0:0:0:0:
203,143,151645,5,0,0:0:0:0:
316,238,151701,5,8,0:0:0:0:
203,144,151812,5,0,0:0:0:0:
203,144,151867,5,0,0:0:0:0:
316,238,151923,5,8,0:0:0:0:
316,238,152034,5,8,0:0:0:0:
206,176,152145,5,8,0:0:0:0:
296,226,152201,5,0,0:0:0:0:
298,227,152256,5,0,0:0:0:0:
297,227,152312,5,0,0:0:0:0:
261,192,152367,5,8,0:0:0:0:
199,156,152479,5,0,0:0:0:0:
199,156,152590,5,8,0:0:0:0:
201,156,152645,5,8,0:0:0:0:
200,157,152701,5,0,0:0:0:0:
201,157,152756,5,0,0:0:0:0:
201,157,152812,5,8,0:0:0:0:
316,238,152923,5,8,0:0:0:0:
206,176,153034,5,8,0:0:0:0:
298,227,153145,5,0,0:0:0:0:
297,227,153201,5,0,0:0:0:0:
188,180,153256,5,8,0:0:0:0:
188,171,153312,5,8,0:0:0:0:
188,171,153367,5,0,0:0:0:0:
188,171,153423,5,0,0:0:0:0:
298,242,153479,5,8,0:0:0:0:
280,179,153590,5,0,0:0:0:0:
290,224,153701,5,8,0:0:0:0:
214,168,153756,5,0,0:0:0:0:
213,171,153812,5,0,0:0:0:0:
213,171,153867,5,0,0:0:0:0:
212,171,153923,5,8,0:0:0:0:
236,167,153979,5,0,0:0:0:0:
236,167,154034,5,0,0:0:0:0:
235,167,154090,5,0,0:0:0:0:
229,167,154145,5,8,0:0:0:0:
227,166,154256,5,8,0:0:0:0:
216,211,154367,5,0,0:0:0:0:
190,157,154479,5,0,0:0:0:0:
188,168,154534,5,0,0:0:0:0:
166,151,154590,5,8,0:0:0:0:
221,186,154701,5,0,0:0:0:0:
274,204,154812,5,8,0:0:0:0:
291,220,154867,5,8,0:0:0:0:
287,217,154923,5,8,0:0:0:0:
283,217,154979,5,8,0:0:0:0:
215,171,155034,5,0,0:0:0:0:
195,168,155145,5,8,0:0:0:0:
178,166,155201,5,8,0:0:0:0:
178,166,155256,5,0,0:0:0:0:
237,196,155367,5,8,0:0:0:0:
224,193,155423,5,8,0:0:0:0:
227,191,155479,5,0,0:0:0:0:
209,194,155590,5,0,0:0:0:0:
249,220,155701,5,8,0:0:0:0:
245,210,155756,5,8,0:0:0:0:
243,211,155812,5,8,0:0:0:0:
242,213,155867,5,8,0:0:0:0:
181,186,155923,5,0,0:0:0:0:
179,182,156034,5,8,0:0:0:0:
174,179,156145,5,8,0:0:0:0:
220,168,156201,5,8,0:0:0:0:
214,169,156256,5,0,0:0:0:0:
220,206,156367,5,8,0:0:0:0:
217,207,156479,5,0,0:0:0:0:
217,207,156534,5,0,0:0:0:0:
337,291,156590,5,8,0:0:0:0:
194,162,156701,5,0,0:0:0:0:
337,291,156756,5,0,0:0:0:0:
192,165,156812,5,8,0:0:0:0:
192,153,156867,5,0,0:0:0:0:
193,153,156923,5,0,0:0:0:0:
337,291,156979,5,0,0:0:0:0:
236,172,157034,5,8,0:0:0:0:
328,279,157145,5,0,0:0:0:0:
199,169,157256,5,0,0:0:0:0:
319,267,157367,5,8,0:0:0:0:
337,291,157479,5,8,0:0:0:0:
350,282,157534,5,8,0:0:0:0:
192,165,157590,5,0,0:0:0:0:
313,277,157645,5,0,0:0:0:0:
313,277,157701,5,8,0:0:0:0:
319,267,157756,5,8,0:0:0:0:
178,185,157812,5,0,0:0:0:0:
306,275,157867,5,0,0:0:0:0:
299,277,157923,5,8,0:0:0:0:
206,179,158034,5,0,0:0:0:0:
256,192,158145,1,8,0:0:0:0:
206,184,158256,5,0,0:0:0:0:
256,192,158367,5,8,0:0:0:0:
256,192,158423,5,8,0:0:0:0:
256,192,158479,5,8,0:0:0:0:
256,192,158534,5,8,0:0:0:0:
256,192,158590,5,0,0:0:0:0:
256,192,158701,5,0,0:0:0:0:
257,192,158812,5,0,0:0:0:0:
257,192,158867,5,0,0:0:0:0:
257,192,158923,5,0,0:0:0:0:
257,192,158979,5,0,0:0:0:0:
256,192,159034,5,0,0:0:0:0:
256,192,159090,5,0,0:0:0:0:
256,192,159145,5,0,0:0:0:0:
256,192,159201,5,0,0:0:0:0:
256,192,159256,5,8,0:0:0:0:
257,192,159367,5,0,0:0:0:0:
256,192,159479,5,0,0:0:0:0:
256,192,159534,5,0,0:0:0:0:
255,192,159590,5,0,0:0:0:0:
255,192,159645,5,0,0:0:0:0:
255,192,159701,5,8,0:0:0:0:
256,192,159812,5,8,0:0:0:0:
256,192,159923,5,0,0:0:0:0:
256,192,159979,5,0,0:0:0:0:
255,192,160034,5,0,0:0:0:0:
255,192,160090,5,0,0:0:0:0:
359,247,160145,5,8,0:0:0:0:
256,192,160256,5,8,0:0:0:0:
256,192,160367,5,8,0:0:0:0:
256,192,160423,5,8,0:0:0:0:
255,192,160479,5,0,0:0:0:0:
255,192,160534,5,0,0:0:0:0:
347,234,160590,5,8,0:0:0:0:
256,192,160701,5,0,0:0:0:0:
256,192,160812,5,0,0:0:0:0:
256,192,160867,5,0,0:0:0:0:
255,192,160923,5,0,0:0:0:0:
255,192,160979,5,0,0:0:0:0:
347,234,161034,5,8,0:0:0:0:
256,192,161145,5,0,0:0:0:0:
256,192,161201,5,0,0:0:0:0:
256,192,161256,5,0,0:0:0:0:
256,192,161312,5,0,0:0:0:0:
256,192,161367,5,0,0:0:0:0:
256,192,161423,5,0,0:0:0:0:
347,234,161479,5,8,0:0:0:0:
257,192,161590,5,0,0:0:0:0:
257,192,161645,5,0,0:0:0:0:
257,192,161701,5,8,0:0:0:0:
257,192,161756,5,0,0:0:0:0:
256,192,161812,5,0,0:0:0:0:
256,192,161867,5,0,0:0:0:0:
347,234,161923,5,8,0:0:0:0:
256,192,162034,5,0,0:0:0:0:
256,192,162145,5,8,0:0:0:0:
256,192,162201,5,8,0:0:0:0:
255,192,162256,5,0,0:0:0:0:
255,192,162312,5,0,0:0:0:0:
256,192,162367,5,0,0:0:0:0:
256,192,162479,5,0,0:0:0:0:
256,192,162590,5,0,0:0:0:0:
255,192,162645,5,0,0:0:0:0:
255,192,162701,5,0,0:0:0:0:
255,192,162756,5,0,0:0:0:0:
342,263,162812,5,8,0:0:0:0:
256,192,162923,5,0,0:0:0:0:
256,192,163034,5,0,0:0:0:0:
256,192,163090,5,0,0:0:0:0:
255,192,163145,5,0,0:0:0:0:
255,192,163201,5,0,0:0:0:0:
388,287,163256,5,8,0:0:0:0:
256,192,163312,5,8,0:0:0:0:
256,192,163367,5,8,0:0:0:0:
256,192,163423,5,8,0:0:0:0:
256,192,163479,5,0,0:0:0:0:
255,192,163590,5,0,0:0:0:0:
424,259,163701,5,8,0:0:0:0:
256,192,163756,5,8,0:0:0:0:
256,192,163812,5,8,0:0:0:0:
256,192,163867,5,8,0:0:0:0:
256,192,163923,5,0,0:0:0:0:
256,192,163979,5,0,0:0:0:0:
255,192,164034,5,0,0:0:0:0:
255,192,164090,5,0,0:0:0:0:
256,192,164145,5,8,0:0:0:0:
256,192,164256,5,0,0:0:0:0:
256,192,164367,5,0,0:0:0:0:
255,192,164423,5,0,0:0:0:0:
255,192,164479,5,0,0:0:0:0:
255,192,164534,5,0,0:0:0:0:
395,251,164590,5,8,0:0:0:0:
256,192,164701,5,8,0:0:0:0:
256,192,164812,5,0,0:0:0:0:
256,192,164867,5,0,0:0:0:0:
255,192,164923,5,0,0:0:0:0:
255,192,164979,5,0,0:0:0:0:
403,271,165034,5,0,0:0:0:0:
256,192,165090,5,0,0:0:0:0:
256,192,165145,5,0,0:0:0:0:
256,192,165201,5,0,0:0:0:0:
391,258,165256,5,8,0:0:0:0:
256,192,165367,5,0,0:0:0:0:
376,255,165479,5,8,0:0:0:0:
256,192,165590,5,0,0:0:0:0:
256,192,165645,5,0,0:0:0:0:
256,192,165701,5,8,0:0:0:0:
255,192,165812,5,8,0:0:0:0:
256,192,165923,5,8,0:0:0:0:
256,192,165979,5,8,0:0:0:0:
256,192,166034,5,0,0:0:0:0:
256,192,166145,5,0,0:0:0:0:
256,192,166201,5,0,0:0:0:0:
256,192,166256,5,0,0:0:0:0:
259,191,166312,5,0,0:0:0:0:
375,245,166367,5,8,0:0:0:0:
257,192,166479,5,0,0:0:0:0:
257,192,166590,5,0,0:0:0:0:
257,192,166645,5,0,0:0:0:0:
256,192,166701,5,0,0:0:0:0:
256,192,166756,5,0,0:0:0:0:
381,256,166812,5,8,0:0:0:0:
257,192,166923,5,8,0:0:0:0:
257,192,166979,5,0,0:0:0:0:
257,192,167034,5,8,0:0:0:0:
257,192,167090,5,8,0:0:0:0:
256,192,167145,5,0,0:0:0:0:
256,192,167201,5,0,0:0:0:0:
393,250,167256,5,8,0:0:0:0:
257,192,167367,5,0,0:0:0:0:
257,192,167479,5,8,0:0:0:0:
256,192,167534,5,8,0:0:0:0:
256,192,167590,5,8,0:0:0:0:
257,192,167645,5,8,0:0:0:0:
257,192,167701,5,0,0:0:0:0:
257,192,167756,5,0,0:0:0:0:
257,192,167812,5,0,0:0:0:0:
257,192,167867,5,0,0:0:0:0:
256,192,167923,5,8,0:0:0:0:
256,192,168034,5,0,0:0:0:0:
411,292,168145,5,8,0:0:0:0:
257,192,168201,5,8,0:0:0:0:
257,192,168256,5,0,0:0:0:0:
257,192,168312,5,0,0:0:0:0:
257,192,168367,5,0,0:0:0:0:
256,192,168479,5,0,0:0:0:0:
444,292,168590,5,8,0:0:0:0:
423,294,168645,5,8,0:0:0:0:
257,192,168701,5,8,0:0:0:0:
257,192,168756,5,0,0:0:0:0:
257,192,168812,5,8,0:0:0:0:
256,192,168923,5,0,0:0:0:0:
445,266,169034,5,8,0:0:0:0:
418,264,169090,5,8,0:0:0:0:
255,192,169145,5,8,0:0:0:0:
255,192,169201,5,8,0:0:0:0:
256,192,169256,5,0,0:0:0:0:
256,192,169312,5,0,0:0:0:0:
256,192,169367,5,0,0:0:0:0:
256,192,169423,5,0,0:0:0:0:
256,192,169479,5,8,0:0:0:0:
256,192,169590,5,0,0:0:0:0:
450,303,169701,5,8,0:0:0:0:
256,192,169756,5,8,0:0:0:0:
256,192,169812,5,0,0:0:0:0:
256,192,169867,5,0,0:0:0:0:
492,331,169923,5,8,0:0:0:0:
257,192,170034,5,0,0:0:0:0:
257,192,170145,5,0,0:0:0:0:
257,192,170201,5,0,0:0:0:0:
256,192,170256,5,0,0:0:0:0:
256,192,170312,5,0,0:0:0:0:
475,328,170367,5,8,0:0:0:0:
257,192,170479,5,8,0:0:0:0:
257,192,170534,5,8,0:0:0:0:
257,192,170590,5,0,0:0:0:0:
257,192,170645,5,0,0:0:0:0:
256,192,170701,5,0,0:0:0:0:
256,192,170756,5,0,0:0:0:0:
396,290,170812,5,8,0:0:0:0:
130,93,170923,5,0,0:0:0:0:
131,93,171034,5,8,0:0:0:0:
130,93,171145,5,0,0:0:0:0:
104,103,171201,5,0,0:0:0:0:
131,93,171256,5,8,0:0:0:0:
131,93,171312,5,8,0:0:0:0:
131,93,171367,5,0,0:0:0:0:
375,313,171479,5,8,0:0:0:0:
131,93,171534,5,0,0:0:0:0:
130,93,171590,5,0,0:0:0:0:
130,93,171645,5,0,0:0:0:0:
367,254,171701,5,8,0:0:0:0:
131,93,171812,5,0,0:0:0:0:
131,93,171867,5,0,0:0:0:0:
131,93,171923,5,8,0:0:0:0:
131,93,171979,5,8,0:0:0:0:
130,93,172034,5,0,0:0:0:0:
130,93,172090,5,0,0:0:0:0:
344,271,172145,5,8,0:0:0:0:
131,93,172256,5,8,0:0:0:0:
131,93,172312,5,8,0:0:0:0:
131,93,172367,5,0,0:0:0:0:
131,93,172423,5,0,0:0:0:0:
130,93,172479,5,0,0:0:0:0:
130,93,172534,5,0,0:0:0:0:
321,219,172590,5,8,0:0:0:0:
315,242,172701,5,8,0:0:0:0:
128,110,172812,5,0,0:0:0:0:
138,120,172867,5,8,0:0:0:0:
363,253,172923,5,8,0:0:0:0:
144,100,172979,5,8,0:0:0:0:
144,100,173034,5,0,0:0:0:0:
131,93,173090,5,0,0:0:0:0:
256,192,173145,5,8,0:0:0:0:
131,93,173256,5,0,0:0:0:0:
130,93,173367,5,0,0:0:0:0:
130,93,173423,5,0,0:0:0:0:
398,243,173479,5,8,0:0:0:0:
152,77,173534,5,0,0:0:0:0:
152,77,173590,5,0,0:0:0:0:
152,77,173645,5,0,0:0:0:0:
409,281,173701,5,8,0:0:0:0:
369,251,173812,5,8,0:0:0:0:
142,75,173923,5,0,0:0:0:0:
256,192,173979,5,8,0:0:0:0:
256,192,174034,5,8,0:0:0:0:
256,192,174090,5,8,0:0:0:0:
256,192,174145,5,0,0:0:0:0:
256,192,174201,5,0,0:0:0:0:
256,192,174256,5,8,0:0:0:0:
164,125,174367,5,0,0:0:0:0:
373,233,174479,5,8,0:0:0:0:
121,108,174590,5,0,0:0:0:0:
152,122,174645,5,0,0:0:0:0:
361,225,174701,5,8,0:0:0:0:
148,143,174812,5,0,0:0:0:0:
385,249,174923,5,8,0:0:0:0:
156,157,175034,5,0,0:0:0:0:
156,157,175090,5,0,0:0:0:0:
386,246,175145,5,8,0:0:0:0:
132,153,175256,5,0,0:0:0:0:
345,245,175367,5,8,0:0:0:0:
138,143,175479,5,0,0:0:0:0:
160,160,175534,5,0,0:0:0:0:
359,261,175590,5,8,0:0:0:0:
359,261,175645,5,8,0:0:0:0:
169,146,175701,5,0,0:0:0:0:
365,268,175812,5,8,0:0:0:0:
156,167,175923,5,0,0:0:0:0:
202,161,175979,5,0,0:0:0:0:
384,292,176034,5,8,0:0:0:0:
171,150,176145,5,0,0:0:0:0:
234,168,176256,5,8,0:0:0:0:
204,171,176367,5,0,0:0:0:0:
334,256,176442,5,0,0:0:0:0:
330,244,176516,5,0,0:0:0:0:
244,182,176590,5,8,0:0:0:0:
243,182,176664,5,8,0:0:0:0:
243,182,176738,5,8,0:0:0:0:
347,252,176812,5,8,0:0:0:0:
221,185,176886,5,0,0:0:0:0:
298,210,176960,5,0,0:0:0:0:
227,161,177034,5,8,0:0:0:0:
180,161,177182,5,0,0:0:0:0:
337,189,177256,5,0,0:0:0:0:
246,195,177330,5,0,0:0:0:0:
211,171,177405,5,0,0:0:0:0:
285,210,177479,5,8,0:0:0:0:
318,273,177627,5,8,0:0:0:0:
262,196,177701,5,0,0:0:0:0:
256,200,177775,5,0,0:0:0:0:
256,200,177849,5,0,0:0:0:0:
256,200,177923,5,8,0:0:0:0:
316,265,177997,5,8,0:0:0:0:
301,268,178071,5,0,0:0:0:0:
300,259,178145,5,8,0:0:0:0:
231,210,178201,1,8,0:0:0:0:
211,201,178256,1,8,0:0:0:0:
256,192,178367,1,0,0:0:0:0:
293,185,178423,5,0,0:0:0:0:
287,192,178479,5,8,0:0:0:0:
263,185,178534,5,0,0:0:0:0:
287,231,178590,5,8,0:0:0:0:
172,149,178645,5,8,0:0:0:0:
229,150,178701,5,0,0:0:0:0:
203,159,178812,5,0,0:0:0:0:
244,160,178923,5,0,0:0:0:0:
208,153,178979,5,0,0:0:0:0:
295,194,179034,5,8,0:0:0:0:
198,137,179090,5,8,0:0:0:0:
198,137,179145,5,0,0:0:0:0:
192,137,179256,5,0,0:0:0:0:
189,136,179367,5,0,0:0:0:0:
226,160,179479,5,8,0:0:0:0:
184,164,179534,5,8,0:0:0:0:
212,170,179590,5,0,0:0:0:0:
167,159,179701,5,8,0:0:0:0:
236,148,179812,5,0,0:0:0:0:
276,206,179867,5,0,0:0:0:0:
322,241,179923,5,8,0:0:0:0:
291,158,180034,5,8,0:0:0:0:
327,169,180145,5,0,0:0:0:0:
324,143,180219,5,8,0:0:0:0:
240,178,180293,5,8,0:0:0:0:
136,117,180367,5,0,0:0:0:0:
226,114,180442,5,8,0:0:0:0:
198,77,180516,5,8,0:0:0:0:
262,203,180590,5,0,0:0:0:0:
417,175,180701,5,8,0:0:0:0:
307,270,180812,5,8,0:0:0:0:
307,270,180867,5,8,0:0:0:0:
296,232,180923,5,8,0:0:0:0:
296,232,180979,5,8,0:0:0:0:
172,143,181034,5,0,0:0:0:0:
186,148,181256,5,0,0:0:0:0:
227,189,181312,5,0,0:0:0:0:
203,184,181367,5,0,0:0:0:0:
200,184,181423,5,0,0:0:0:0:
180,132,181479,5,8,0:0:0:0:
114,153,181590,5,0,0:0:0:0:
298,192,181701,5,0,0:0:0:0:
150,145,181756,5,0,0:0:0:0:
224,171,181812,5,0,0:0:0:0:
181,149,181923,5,8,0:0:0:0:
226,146,182034,5,0,0:0:0:0:
225,147,182145,5,0,0:0:0:0:
227,139,182201,5,0,0:0:0:0:
225,148,182256,5,0,0:0:0:0:
197,147,182367,5,8,0:0:0:0:
206,206,182479,5,8,0:0:0:0:
206,206,182590,5,0,0:0:0:0:
236,149,182645,5,0,0:0:0:0:
206,206,182701,5,8,0:0:0:0:
186,157,182812,5,8,0:0:0:0:
280,198,182923,5,0,0:0:0:0:
177,159,183034,5,0,0:0:0:0:
234,179,183090,5,0,0:0:0:0:
177,159,183145,5,8,0:0:0:0:
217,197,183256,5,8,0:0:0:0:
306,141,183367,5,0,0:0:0:0:
274,114,183479,5,0,0:0:0:0:
272,178,183534,5,0,0:0:0:0:
274,114,183590,5,0,0:0:0:0:
211,192,183701,5,8,0:0:0:0:
311,231,183812,5,8,0:0:0:0:
259,189,183923,5,0,0:0:0:0:
280,206,183979,5,0,0:0:0:0:
259,189,184034,5,0,0:0:0:0:
205,185,184145,5,8,0:0:0:0:
259,189,184256,5,8,0:0:0:0:
232,171,184367,5,0,0:0:0:0:
265,178,184423,5,0,0:0:0:0:
225,172,184479,5,8,0:0:0:0:
188,159,184590,5,8,0:0:0:0:
225,172,184701,5,8,0:0:0:0:
221,170,184812,5,0,0:0:0:0:
266,159,184867,5,0,0:0:0:0:
220,170,184923,5,8,0:0:0:0:
165,137,185034,5,12,0:0:0:0:
319,175,185145,5,8,0:0:0:0:
295,162,185256,5,0,0:0:0:0:
323,236,185367,5,8,0:0:0:0:
244,160,185479,5,0,0:0:0:0:
332,220,185590,5,0,0:0:0:0:
222,153,185701,5,8,0:0:0:0:
225,176,185812,5,0,0:0:0:0:
280,197,185923,5,0,0:0:0:0:
263,199,186034,5,8,0:0:0:0:
259,139,186145,5,0,0:0:0:0:
188,143,186256,5,0,0:0:0:0:
316,234,186367,5,8,0:0:0:0:
196,168,186479,5,0,0:0:0:0:
330,228,186590,5,8,0:0:0:0:
173,189,186701,5,0,0:0:0:0:
289,192,186812,5,8,0:0:0:0:
276,143,186867,5,8,0:0:0:0:
301,203,186923,5,0,0:0:0:0:
301,203,186979,5,8,0:0:0:0:
301,203,187034,5,0,0:0:0:0:
301,203,187090,5,0,0:0:0:0:
298,203,187145,5,8,0:0:0:0:
339,198,187256,5,8,0:0:0:0:
323,196,187312,5,8,0:0:0:0:
298,203,187367,5,0,0:0:0:0:
298,203,187423,5,0,0:0:0:0:
294,202,187479,5,8,0:0:0:0:
262,165,187590,5,8,0:0:0:0:
301,203,187701,5,0,0:0:0:0:
301,203,187756,5,0,0:0:0:0:
301,203,187812,5,0,0:0:0:0:
301,203,187867,5,0,0:0:0:0:
299,156,187923,5,8,0:0:0:0:
224,192,187979,1,8,0:0:0:0:
224,192,188034,1,0,0:0:0:0:
322,227,188256,5,0,0:0:0:0:
295,238,188312,5,0,0:0:0:0:
292,191,188367,5,0,0:0:0:0:
292,191,188479,5,0,0:0:0:0:
287,191,188590,5,12,0:0:0:0:
197,95,188812,5,0,0:0:0:0:
256,224,188923,5,0,0:0:0:0:
417,280,189034,5,8,0:0:0:0:
126,105,189256,5,0,0:0:0:0:
126,105,189479,5,0,0:0:0:0:
126,105,189590,5,0,0:0:0:0:
256,192,189812,5,0,0:0:0:0:
148,121,189923,5,8,0:0:0:0:
148,121,190145,5,8,0:0:0:0:
256,192,190256,5,8,0:0:0:0:
118,221,190367,5,4,0:0:0:0:
169,134,190590,5,0,0:0:0:0:
256,192,190701,5,0,0:0:0:0:
385,276,190812,5,8,0:0:0:0:
106,124,191034,5,0,0:0:0:0:
256,192,191145,5,0,0:0:0:0:
378,280,191256,5,8,0:0:0:0:
153,115,191367,5,0,0:0:0:0:
256,192,191590,5,0,0:0:0:0:
389,279,191701,5,8,0:0:0:0:
389,279,191923,5,8,0:0:0:0:
256,192,192034,5,8,0:0:0:0:
142,220,192145,5,4,0:0:0:0:
142,103,192367,5,0,0:0:0:0:
256,192,192479,5,8,0:0:0:0:
407,277,192590,5,0,0:0:0:0:
378,266,192812,5,8,0:0:0:0:
256,192,192923,5,0,0:0:0:0:
256,192,193034,5,8,0:0:0:0:
256,192,193145,5,8,0:0:0:0:
402,301,193367,5,8,0:0:0:0:
202,117,193479,5,0,0:0:0:0:
398,280,193701,5,8,0:0:0:0:
224,192,193812,5,0,0:0:0:0:
142,220,193923,5,4,0:0:0:0:
256,192,194034,5,8,0:0:0:0:
366,272,194145,5,8,0:0:0:0:
256,192,194256,5,0,0:0:0:0:
256,192,194367,5,8,0:0:0:0:
256,192,194479,5,8,0:0:0:0:
256,192,194590,5,0,0:0:0:0:
256,192,194701,5,8,0:0:0:0:
256,192,194812,5,0,0:0:0:0:
356,261,195034,5,8,0:0:0:0:
256,192,195145,5,0,0:0:0:0:
156,84,195256,5,0,0:0:0:0:
256,192,195367,5,0,0:0:0:0:
355,258,195479,5,8,0:0:0:0:
256,192,195590,5,8,0:0:0:0:
142,220,195701,5,4,0:0:0:0:
146,108,195923,5,0,0:0:0:0:
409,298,196145,5,8,0:0:0:0:
367,272,196367,5,8,0:0:0:0:
256,192,196479,5,8,0:0:0:0:
152,116,196590,5,0,0:0:0:0:
389,261,196812,5,8,0:0:0:0:
155,103,197034,5,0,0:0:0:0:
155,103,197256,5,0,0:0:0:0:
142,220,197479,5,4,0:0:0:0:
367,263,197812,5,8,0:0:0:0:
367,263,197923,5,0,0:0:0:0:
114,71,198145,5,0,0:0:0:0:
114,71,198367,5,0,0:0:0:0:
411,281,198701,5,8,0:0:0:0:
386,267,198997,5,8,0:0:0:0:
142,220,199256,5,4,0:0:0:0:
150,123,199479,5,0,0:0:0:0:
344,266,199701,5,8,0:0:0:0:
180,116,199923,5,0,0:0:0:0:
372,279,200145,5,8,0:0:0:0:
367,272,200367,5,8,0:0:0:0:
256,192,200479,5,8,0:0:0:0:
367,272,200590,5,0,0:0:0:0:
362,268,200812,5,8,0:0:0:0:
142,220,201034,5,4,0:0:0:0:
160,94,201256,5,0,0:0:0:0:
256,192,201367,5,8,0:0:0:0:
314,229,201479,5,8,0:0:0:0:
306,221,201701,5,8,0:0:0:0:
299,217,201923,5,8,0:0:0:0:
151,88,202145,5,0,0:0:0:0:
340,266,202367,5,8,0:0:0:0:
256,192,202479,5,8,0:0:0:0:
338,248,202590,5,8,0:0:0:0:
256,192,202701,5,8,0:0:0:0:
142,220,202812,5,4,0:0:0:0:
135,85,203034,5,0,0:0:0:0:
399,283,203256,5,8,0:0:0:0:
158,92,203479,5,0,0:0:0:0:
107,128,203590,5,0,0:0:0:0:
107,128,203701,5,0,0:0:0:0:
151,132,203923,5,0,0:0:0:0:
395,330,204145,5,8,0:0:0:0:
142,108,204256,5,0,0:0:0:0:
393,296,204367,5,8,0:0:0:0:
391,296,204479,5,8,0:0:0:0:
142,220,204590,5,4,0:0:0:0:
146,101,204812,5,0,0:0:0:0:
391,277,205034,5,8,0:0:0:0:
384,268,205256,5,8,0:0:0:0:
381,265,205367,5,8,0:0:0:0:
173,123,205479,5,0,0:0:0:0:
153,108,205701,5,0,0:0:0:0:
157,110,205923,5,0,0:0:0:0:
384,260,206034,5,8,0:0:0:0:
373,251,206145,5,8,0:0:0:0:
372,250,206256,5,8,0:0:0:0:
142,220,206367,5,4,0:0:0:0:
256,192,206590,5,8,0:0:0:0:
256,192,206701,5,8,0:0:0:0:
256,192,206812,5,0,0:0:0:0:
256,192,206923,5,8,0:0:0:0:
373,279,207034,5,8,0:0:0:0:
151,112,207145,5,0,0:0:0:0:
256,192,207256,5,8,0:0:0:0:
256,192,207367,5,0,0:0:0:0:
151,112,207479,5,0,0:0:0:0:
256,192,207590,5,8,0:0:0:0:
151,112,207701,5,0,0:0:0:0:
376,292,207812,5,8,0:0:0:0:
371,274,207923,5,8,0:0:0:0:
256,192,208034,5,8,0:0:0:0:
142,239,208145,5,4,0:0:0:0:
256,192,208256,5,8,0:0:0:0:
346,278,208367,5,8,0:0:0:0:
256,192,208479,5,0,0:0:0:0:
256,192,208590,5,8,0:0:0:0:
256,192,208701,5,0,0:0:0:0:
382,279,208812,5,8,0:0:0:0:
370,272,208923,5,8,0:0:0:0:
139,101,209034,5,0,0:0:0:0:
256,192,209145,5,8,0:0:0:0:
256,192,209256,5,8,0:0:0:0:
256,192,209367,5,8,0:0:0:0:
256,192,209479,5,0,0:0:0:0:
344,276,209590,5,8,0:0:0:0:
113,95,209701,5,0,0:0:0:0:
403,331,209812,5,8,0:0:0:0:
142,239,209923,5,4,0:0:0:0:
140,103,210145,5,0,0:0:0:0:
369,314,210367,5,8,0:0:0:0:
129,106,210590,5,0,0:0:0:0:
364,285,210701,5,8,0:0:0:0:
140,103,210812,5,0,0:0:0:0:
140,100,211034,5,0,0:0:0:0:
388,293,211256,5,8,0:0:0:0:
143,92,211367,5,0,0:0:0:0:
383,293,211479,5,8,0:0:0:0:
378,265,211590,5,8,0:0:0:0:
142,239,211701,5,4,0:0:0:0:
129,94,211923,5,0,0:0:0:0:
362,252,212034,5,8,0:0:0:0:
331,230,212367,5,8,0:0:0:0:
331,230,212479,5,8,0:0:0:0:
141,68,212590,5,0,0:0:0:0:
154,77,212812,5,0,0:0:0:0:
382,280,213034,5,8,0:0:0:0:
256,192,213090,5,8,0:0:0:0:
256,192,213145,5,8,0:0:0:0:
256,192,213201,5,8,0:0:0:0:
256,192,213256,5,0,0:0:0:0:
129,95,213367,5,0,0:0:0:0:
142,239,213479,5,12,0:0:0:0:
395,285,213590,5,0,0:0:0:0:
393,284,213645,5,0,0:0:0:0:
98,27,213701,5,0,0:0:0:0:
167,123,213756,5,0,0:0:0:0:
353,267,213812,5,8,0:0:0:0:
150,124,213923,5,0,0:0:0:0:
150,124,214034,5,0,0:0:0:0:
150,124,214090,5,0,0:0:0:0:
361,292,214145,5,8,0:0:0:0:
146,105,214256,5,0,0:0:0:0:
146,105,214312,5,0,0:0:0:0:
449,338,214367,5,8,0:0:0:0:
145,85,214479,5,0,0:0:0:0:
444,326,214590,5,8,0:0:0:0:
156,121,214645,5,0,0:0:0:0:
369,270,214701,5,8,0:0:0:0:
363,262,214756,5,8,0:0:0:0:
138,112,214812,5,0,0:0:0:0:
393,293,214923,5,0,0:0:0:0:
256,192,215034,5,8,0:0:0:0:
378,250,215090,5,8,0:0:0:0:
91,42,215145,5,0,0:0:0:0:
142,239,215256,5,0,0:0:0:0:
400,292,215330,5,8,0:0:0:0:
401,292,215405,5,8,0:0:0:0:
196,138,215479,5,0,0:0:0:0:
400,291,215553,5,8,0:0:0:0:
220,145,215627,5,0,0:0:0:0:
181,111,215701,5,8,0:0:0:0:
191,123,215812,5,0,0:0:0:0:
338,247,215923,5,8,0:0:0:0:
115,84,216034,5,0,0:0:0:0:
115,84,216145,5,0,0:0:0:0:
420,251,216256,5,8,0:0:0:0:
158,56,216367,5,0,0:0:0:0:
158,56,216423,5,0,0:0:0:0:
158,56,216479,5,0,0:0:0:0:
256,192,216534,5,0,0:0:0:0:
437,259,216590,5,8,0:0:0:0:
408,291,217034,5,8,0:0:0:0:
127,86,217090,5,8,0:0:0:0:
131,85,217145,5,0,0:0:0:0:
131,85,217201,5,0,0:0:0:0:
127,86,217256,5,8,0:0:0:0:
131,85,217312,5,0,0:0:0:0:
131,85,217367,5,8,0:0:0:0:
127,86,217423,5,0,0:0:0:0:
408,291,217479,5,8,0:0:0:0:
131,85,217590,5,0,0:0:0:0:
131,85,217701,5,0,0:0:0:0:
131,85,217756,5,0,0:0:0:0:
127,86,217812,5,0,0:0:0:0:
127,86,217867,5,0,0:0:0:0:
400,274,217923,5,8,0:0:0:0:
131,85,218034,5,0,0:0:0:0:
131,85,218145,5,8,0:0:0:0:
131,85,218201,5,8,0:0:0:0:
127,86,218256,5,0,0:0:0:0:
127,86,218312,5,0,0:0:0:0:
400,274,218367,5,8,0:0:0:0:
343,242,218423,5,8,0:0:0:0:
131,85,218479,5,8,0:0:0:0:
131,85,218534,5,8,0:0:0:0:
131,85,218590,5,0,0:0:0:0:
127,86,218701,5,0,0:0:0:0:
400,274,218812,5,8,0:0:0:0:
127,86,218867,5,8,0:0:0:0:
131,85,218923,5,8,0:0:0:0:
131,85,218979,5,8,0:0:0:0:
131,85,219034,5,0,0:0:0:0:
131,85,219090,5,0,0:0:0:0:
127,86,219145,5,0,0:0:0:0:
127,86,219201,5,0,0:0:0:0:
400,274,219256,5,8,0:0:0:0:
121,105,219367,5,0,0:0:0:0:
400,274,219479,5,8,0:0:0:0:
403,300,219534,5,8,0:0:0:0:
403,300,219590,5,8,0:0:0:0:
121,105,219645,5,0,0:0:0:0:
400,274,219701,5,8,0:0:0:0:
131,85,219812,5,0,0:0:0:0:
127,86,219923,5,0,0:0:0:0:
127,86,219979,5,0,0:0:0:0:
131,85,220034,5,0,0:0:0:0:
131,85,220090,5,0,0:0:0:0:
385,274,220145,5,8,0:0:0:0:
131,85,220256,5,0,0:0:0:0:
131,85,220367,5,8,0:0:0:0:
127,86,220423,5,8,0:0:0:0:
131,85,220479,5,0,0:0:0:0:
127,86,220534,5,0,0:0:0:0:
385,274,220590,5,8,0:0:0:0:
131,85,220701,5,8,0:0:0:0:
131,85,220812,5,0,0:0:0:0:
131,85,220867,5,0,0:0:0:0:
127,86,220923,5,0,0:0:0:0:
127,86,220979,5,0,0:0:0:0:
385,274,221034,5,8,0:0:0:0:
389,264,221090,5,8,0:0:0:0:
347,306,221145,5,8,0:0:0:0:
123,151,221201,5,0,0:0:0:0:
361,289,221256,5,8,0:0:0:0:
125,110,221367,5,0,0:0:0:0:
385,274,221479,5,8,0:0:0:0:
127,86,221534,5,8,0:0:0:0:
131,85,221590,5,8,0:0:0:0:
131,85,221645,5,8,0:0:0:0:
131,85,221701,5,0,0:0:0:0:
131,85,221756,5,0,0:0:0:0:
127,86,221812,5,8,0:0:0:0:
101,137,221923,5,0,0:0:0:0:
101,137,222034,5,0,0:0:0:0:
101,137,222090,5,0,0:0:0:0:
385,274,222145,5,8,0:0:0:0:
353,313,222201,5,8,0:0:0:0:
101,137,222256,5,0,0:0:0:0:
101,137,222312,5,0,0:0:0:0:
385,274,222367,5,8,0:0:0:0:
101,137,222479,5,0,0:0:0:0:
316,258,222590,5,8,0:0:0:0:
403,270,222645,5,8,0:0:0:0:
101,137,222701,5,0,0:0:0:0:
101,137,222756,5,0,0:0:0:0:
316,258,222812,5,8,0:0:0:0:
101,137,222867,5,0,0:0:0:0:
101,137,222923,5,0,0:0:0:0:
101,137,222979,5,0,0:0:0:0:
316,258,223034,5,8,0:0:0:0:
309,290,223090,5,8,0:0:0:0:
101,137,223145,5,0,0:0:0:0:
101,137,223201,5,0,0:0:0:0:
316,258,223256,5,8,0:0:0:0:
313,230,223367,5,0,0:0:0:0:
131,85,223479,5,8,0:0:0:0:
131,85,223534,5,8,0:0:0:0:
127,86,223590,5,0,0:0:0:0:
127,86,223645,5,0,0:0:0:0:
127,86,223701,5,8,0:0:0:0:
131,85,223756,5,8,0:0:0:0:
131,85,223812,5,8,0:0:0:0:
131,85,223867,5,8,0:0:0:0:
131,85,223923,5,0,0:0:0:0:
127,86,224034,5,0,0:0:0:0:
408,291,224145,5,8,0:0:0:0:
131,85,224256,5,0,0:0:0:0:
131,85,224312,5,0,0:0:0:0:
127,86,224367,5,8,0:0:0:0:
131,85,224479,5,0,0:0:0:0:
408,291,224590,5,8,0:0:0:0:
353,258,224645,5,8,0:0:0:0:
131,85,224701,5,8,0:0:0:0:
131,85,224756,5,8,0:0:0:0:
131,85,224812,5,0,0:0:0:0:
131,85,224867,5,0,0:0:0:0:
127,86,224923,5,0,0:0:0:0:
127,86,224979,5,0,0:0:0:0:
400,274,225034,5,8,0:0:0:0:
131,85,225145,5,0,0:0:0:0:
131,85,225256,5,8,0:0:0:0:
127,86,225367,5,0,0:0:0:0:
127,86,225423,5,0,0:0:0:0:
400,274,225479,5,8,0:0:0:0:
343,242,225534,5,8,0:0:0:0:
131,85,225590,5,8,0:0:0:0:
131,85,225645,5,0,0:0:0:0:
131,85,225701,5,8,0:0:0:0:
131,85,225756,5,0,0:0:0:0:
127,86,225812,5,0,0:0:0:0:
127,86,225867,5,0,0:0:0:0:
400,274,225923,5,8,0:0:0:0:
131,85,226034,5,0,0:0:0:0:
131,85,226145,5,0,0:0:0:0:
131,85,226201,5,0,0:0:0:0:
127,86,226256,5,0,0:0:0:0:
127,86,226312,5,0,0:0:0:0:
400,274,226367,5,8,0:0:0:0:
359,278,226423,5,8,0:0:0:0:
121,105,226479,5,0,0:0:0:0:
121,105,226534,5,0,0:0:0:0:
400,274,226590,5,8,0:0:0:0:
403,300,226701,5,0,0:0:0:0:
400,274,226812,5,8,0:0:0:0:
345,283,226867,5,8,0:0:0:0:
131,85,226923,5,8,0:0:0:0:
131,85,226979,5,8,0:0:0:0:
127,86,227034,5,0,0:0:0:0:
127,86,227090,5,0,0:0:0:0:
131,85,227145,5,0,0:0:0:0:
131,85,227201,5,0,0:0:0:0:
385,274,227256,5,8,0:0:0:0:
131,85,227367,5,0,0:0:0:0:
131,85,227479,5,8,0:0:0:0:
131,85,227590,5,0,0:0:0:0:
127,86,227645,5,0,0:0:0:0:
385,274,227701,5,8,0:0:0:0:
366,313,227756,5,8,0:0:0:0:
131,85,227812,5,8,0:0:0:0:
131,85,227867,5,8,0:0:0:0:
131,85,227923,5,0,0:0:0:0:
131,85,227979,5,0,0:0:0:0:
127,86,228034,5,0,0:0:0:0:
127,86,228090,5,0,0:0:0:0:
385,274,228145,5,8,0:0:0:0:
347,306,228256,5,0,0:0:0:0:
361,289,228367,5,8,0:0:0:0:
385,298,228423,5,8,0:0:0:0:
125,110,228479,5,0,0:0:0:0:
125,110,228534,5,0,0:0:0:0:
385,274,228590,5,8,0:0:0:0:
256,192,228645,5,8,0:0:0:0:
256,192,228701,5,8,0:0:0:0:
256,192,228756,5,8,0:0:0:0:
256,192,228812,5,0,0:0:0:0:
256,192,228867,5,0,0:0:0:0:
256,192,228923,5,0,0:0:0:0:
256,192,228979,5,0,0:0:0:0:
256,192,229034,5,8,0:0:0:0:
256,192,229145,5,0,0:0:0:0:
256,192,229256,5,8,0:0:0:0:
256,192,229367,5,0,0:0:0:0:
256,192,229423,5,0,0:0:0:0:
328,250,229479,5,8,0:0:0:0:
379,296,229534,5,8,0:0:0:0:
256,192,229590,5,8,0:0:0:0:
124,103,229645,5,8,0:0:0:0:
329,263,229701,5,0,0:0:0:0:
256,192,229756,5,0,0:0:0:0:
256,192,229812,5,0,0:0:0:0:
256,192,229867,5,0,0:0:0:0:
335,248,229923,5,8,0:0:0:0:
150,108,230034,5,0,0:0:0:0:
256,192,230090,5,0,0:0:0:0:
334,253,230145,5,8,0:0:0:0:
256,192,230201,5,8,0:0:0:0:
144,107,230256,5,0,0:0:0:0:
144,107,230312,5,0,0:0:0:0:
387,269,230367,5,8,0:0:0:0:
256,192,230812,1,0,0:0:0:0:
256,192,230867,1,0,0:0:0:0:
256,192,230923,1,0,0:0:0:0:
256,192,230979,1,0,0:0:0:0:
256,192,231034,5,8,0:0:0:0:
256,192,231145,5,8,0:0:0:0:
185,124,231256,5,0,0:0:0:0:
172,130,231312,5,0,0:0:0:0:
172,130,231367,5,0,0:0:0:0:
172,130,231423,5,0,0:0:0:0:
295,253,231479,5,8,0:0:0:0:
193,134,231534,5,8,0:0:0:0:
238,149,231590,5,0,0:0:0:0:
238,149,231645,5,0,0:0:0:0:
300,243,231701,5,8,0:0:0:0:
300,243,231812,5,8,0:0:0:0:
193,134,231923,5,0,0:0:0:0:
193,134,232034,5,0,0:0:0:0:
193,134,232090,5,0,0:0:0:0:
372,297,232145,5,8,0:0:0:0:
164,139,232256,5,0,0:0:0:0:
341,291,232367,5,8,0:0:0:0:
156,127,232479,5,0,0:0:0:0:
352,271,232590,5,8,0:0:0:0:
156,148,232645,5,0,0:0:0:0:
138,152,232701,5,0,0:0:0:0:
138,152,232756,5,0,0:0:0:0:
351,291,232812,5,8,0:0:0:0:
189,123,232923,5,0,0:0:0:0:
168,130,233034,5,0,0:0:0:0:
155,136,233090,5,0,0:0:0:0:
155,136,233145,5,0,0:0:0:0:
155,136,233201,5,0,0:0:0:0:
342,277,233256,5,8,0:0:0:0:
347,285,233312,5,8,0:0:0:0:
129,112,233367,5,0,0:0:0:0:
129,112,233423,5,0,0:0:0:0:
351,291,233479,5,8,0:0:0:0:
143,120,233590,5,0,0:0:0:0:
342,277,233701,5,8,0:0:0:0:
352,271,233756,5,8,0:0:0:0:
143,120,233812,5,0,0:0:0:0:
143,120,233867,5,0,0:0:0:0:
372,297,233923,5,8,0:0:0:0:
145,143,234034,5,0,0:0:0:0:
368,308,234145,5,8,0:0:0:0:
157,163,234256,5,0,0:0:0:0:
375,311,234367,5,8,0:0:0:0:
349,253,234479,5,8,0:0:0:0:
349,253,234534,5,8,0:0:0:0:
170,164,234590,5,0,0:0:0:0:
349,253,234701,5,8,0:0:0:0:
168,130,234812,5,0,0:0:0:0:
155,136,234867,5,0,0:0:0:0:
155,136,234923,5,0,0:0:0:0:
155,136,234979,5,0,0:0:0:0:
363,259,235034,5,8,0:0:0:0:
148,125,235090,5,8,0:0:0:0:
148,125,235145,5,0,0:0:0:0:
148,125,235201,5,0,0:0:0:0:
349,253,235256,5,8,0:0:0:0:
148,125,235367,5,0,0:0:0:0:
349,253,235479,5,8,0:0:0:0:
360,244,235534,5,8,0:0:0:0:
113,104,235590,5,0,0:0:0:0:
113,104,235645,5,0,0:0:0:0:
372,297,235701,5,8,0:0:0:0:
128,139,235812,5,0,0:0:0:0:
363,259,235923,5,8,0:0:0:0:
132,139,236034,5,0,0:0:0:0:
306,248,236145,5,8,0:0:0:0:
130,139,236201,5,0,0:0:0:0:
130,139,236256,5,0,0:0:0:0:
127,138,236312,5,0,0:0:0:0:
332,250,236367,5,8,0:0:0:0:
184,160,236479,5,0,0:0:0:0:
168,130,236590,5,0,0:0:0:0:
155,136,236645,5,0,0:0:0:0:
155,136,236701,5,0,0:0:0:0:
155,136,236756,5,0,0:0:0:0:
328,226,236812,5,8,0:0:0:0:
337,266,236867,5,8,0:0:0:0:
116,128,236923,5,0,0:0:0:0:
116,128,236979,5,0,0:0:0:0:
357,245,237034,5,8,0:0:0:0:
116,128,237145,5,0,0:0:0:0:
337,266,237256,5,8,0:0:0:0:
329,273,237312,5,8,0:0:0:0:
116,128,237367,5,0,0:0:0:0:
116,128,237423,5,0,0:0:0:0:
372,297,237479,5,8,0:0:0:0:
118,145,237590,5,0,0:0:0:0:
358,251,237701,5,8,0:0:0:0:
112,145,237812,5,0,0:0:0:0:
383,263,237923,5,8,0:0:0:0:
344,263,237979,5,8,0:0:0:0:
358,251,238034,5,8,0:0:0:0:
344,263,238090,5,8,0:0:0:0:
157,151,238145,5,0,0:0:0:0:
325,263,238201,5,0,0:0:0:0:
325,263,238256,5,8,0:0:0:0:
325,263,238312,5,8,0:0:0:0:
168,130,238367,5,0,0:0:0:0:
155,136,238479,5,0,0:0:0:0:
330,257,238590,5,8,0:0:0:0:
179,136,238701,5,0,0:0:0:0:
179,136,238756,5,0,0:0:0:0:
372,274,238812,5,8,0:0:0:0:
315,232,238867,5,8,0:0:0:0:
359,301,238923,5,8,0:0:0:0:
372,297,238979,5,8,0:0:0:0:
211,164,239034,5,0,0:0:0:0:
157,125,239145,5,0,0:0:0:0:
372,297,239256,5,8,0:0:0:0:
185,120,239312,5,0,0:0:0:0:
184,119,239367,5,0,0:0:0:0:
178,119,239423,5,0,0:0:0:0:
343,273,239479,5,8,0:0:0:0:
178,119,239590,5,0,0:0:0:0:
320,232,239701,5,8,0:0:0:0:
174,119,239812,5,0,0:0:0:0:
173,119,239867,5,0,0:0:0:0:
362,284,239923,5,8,0:0:0:0:
194,173,240034,5,0,0:0:0:0:
168,130,240145,5,0,0:0:0:0:
155,136,240201,5,0,0:0:0:0:
155,136,240256,5,0,0:0:0:0:
155,136,240312,5,0,0:0:0:0:
382,264,240367,5,8,0:0:0:0:
134,120,240423,5,8,0:0:0:0:
134,120,240479,5,0,0:0:0:0:
134,120,240534,5,0,0:0:0:0:
362,284,240590,5,8,0:0:0:0:
324,274,240701,5,0,0:0:0:0:
376,299,240812,5,8,0:0:0:0:
365,307,240867,5,8,0:0:0:0:
134,120,240923,5,0,0:0:0:0:
134,120,240979,5,0,0:0:0:0:
324,274,241034,5,8,0:0:0:0:
182,150,241145,5,0,0:0:0:0:
340,263,241256,5,8,0:0:0:0:
141,144,241367,5,8,0:0:0:0:
222,143,241479,5,0,0:0:0:0:
142,143,241590,5,0,0:0:0:0:
340,263,241701,5,8,0:0:0:0:
160,155,241756,5,0,0:0:0:0:
324,274,241812,5,8,0:0:0:0:
161,155,241867,5,0,0:0:0:0:
327,259,241923,5,8,0:0:0:0:
167,139,242034,5,0,0:0:0:0:
309,263,242145,5,8,0:0:0:0:
164,140,242201,5,0,0:0:0:0:
164,139,242256,5,0,0:0:0:0:
164,139,242312,5,0,0:0:0:0:
335,270,242367,5,8,0:0:0:0:
167,148,242479,5,0,0:0:0:0:
328,302,242590,5,8,0:0:0:0:
326,286,242645,5,8,0:0:0:0:
182,157,242701,5,0,0:0:0:0:
164,160,242756,5,0,0:0:0:0:
337,300,242812,5,8,0:0:0:0:
326,286,242923,5,0,0:0:0:0:
337,300,243034,5,8,0:0:0:0:
337,300,243090,5,8,0:0:0:0:
330,309,243145,5,8,0:0:0:0:
131,110,243201,5,8,0:0:0:0:
118,107,243256,5,0,0:0:0:0:
219,171,243367,5,0,0:0:0:0:
313,277,243479,5,8,0:0:0:0:
256,192,243534,1,8,0:0:0:0:
187,175,243590,5,0,0:0:0:0:
137,153,243701,5,0,0:0:0:0:
199,180,243812,1,8,0:0:0:0:
321,299,243923,5,8,0:0:0:0:
340,283,243979,5,8,0:0:0:0:
329,272,244034,5,8,0:0:0:0:
329,272,244090,5,8,0:0:0:0:
256,192,244145,5,0,0:0:0:0:
256,192,244367,5,0,0:0:0:0:
256,192,244479,5,0,0:0:0:0:
331,295,244590,5,12,0:0:0:0:
256,192,245034,5,12,0:0:0:0:
256,192,245479,5,8,0:0:0:0:
256,192,245534,5,8,0:0:0:0:
257,192,245590,5,0,0:0:0:0:
256,192,245645,5,0,0:0:0:0:
256,192,245701,5,8,0:0:0:0:
256,192,245756,5,8,0:0:0:0:
256,192,245812,5,0,0:0:0:0:
256,192,245923,5,8,0:0:0:0:
257,192,246034,5,0,0:0:0:0:
256,192,246090,5,0,0:0:0:0:
256,192,246145,5,8,0:0:0:0:
256,192,246201,5,8,0:0:0:0:
256,192,246256,5,0,0:0:0:0:
256,192,246312,5,0,0:0:0:0:
256,192,246367,5,8,0:0:0:0:
256,192,246479,5,8,0:0:0:0:
256,192,246590,5,0,0:0:0:0:
256,192,246645,5,0,0:0:0:0:
256,192,246701,5,0,0:0:0:0:
256,192,246756,5,0,0:0:0:0:
256,192,246812,5,8,0:0:0:0:
256,192,246867,5,8,0:0:0:0:
256,192,246923,5,0,0:0:0:0:
256,192,246979,5,0,0:0:0:0:
256,192,247034,5,8,0:0:0:0:
256,192,247090,5,8,0:0:0:0:
256,192,247145,5,0,0:0:0:0:
256,192,247201,5,0,0:0:0:0:
256,192,247256,5,8,0:0:0:0:
257,192,247367,5,0,0:0:0:0:
256,192,247479,5,8,0:0:0:0:
256,192,247534,5,0,0:0:0:0:
256,192,247590,5,0,0:0:0:0:
256,192,247645,5,0,0:0:0:0:
256,192,247701,5,8,0:0:0:0:
256,192,247756,5,8,0:0:0:0:
257,192,247812,5,0,0:0:0:0:
256,192,247867,5,0,0:0:0:0:
256,192,247923,5,8,0:0:0:0:
256,192,248034,5,0,0:0:0:0:
256,192,248145,5,8,0:0:0:0:
256,192,248201,5,8,0:0:0:0:
256,192,248256,5,8,0:0:0:0:
256,192,248312,5,8,0:0:0:0:
256,192,248367,5,0,0:0:0:0:
256,192,248423,5,0,0:0:0:0:
256,192,248479,5,0,0:0:0:0:
256,192,248534,5,0,0:0:0:0:
256,192,248590,5,8,0:0:0:0:
255,192,248645,5,8,0:0:0:0:
256,192,248701,5,8,0:0:0:0:
255,192,248756,5,8,0:0:0:0:
255,192,248812,5,0,0:0:0:0:
255,192,248923,5,0,0:0:0:0:
256,192,249034,5,8,0:0:0:0:
256,192,249090,5,8,0:0:0:0:
255,192,249145,5,0,0:0:0:0:
255,192,249201,5,0,0:0:0:0:
255,192,249256,5,8,0:0:0:0:
255,192,249312,5,8,0:0:0:0:
255,192,249367,5,0,0:0:0:0:
255,192,249479,5,8,0:0:0:0:
256,192,249590,5,0,0:0:0:0:
255,192,249701,5,0,0:0:0:0:
255,192,249756,5,0,0:0:0:0:
255,192,249812,5,0,0:0:0:0:
255,192,249867,5,0,0:0:0:0:
255,192,249923,5,8,0:0:0:0:
255,192,250034,5,0,0:0:0:0:
255,192,250090,5,0,0:0:0:0:
255,192,250145,5,8,0:0:0:0:
255,192,250201,5,8,0:0:0:0:
255,192,250256,5,8,0:0:0:0:
255,192,250312,5,0,0:0:0:0:
255,192,250367,5,8,0:0:0:0:
256,192,250479,5,0,0:0:0:0:
255,192,250590,5,0,0:0:0:0:
255,192,250645,5,0,0:0:0:0:
255,192,250701,5,0,0:0:0:0:
255,192,250756,5,0,0:0:0:0:
342,268,250812,5,8,0:0:0:0:
396,271,250923,5,8,0:0:0:0:
396,271,250979,5,8,0:0:0:0:
248,163,251034,5,0,0:0:0:0:
134,87,251090,5,0,0:0:0:0:
352,286,251145,5,8,0:0:0:0:
352,286,251201,5,8,0:0:0:0:
367,281,251256,5,8,0:0:0:0:
367,281,251312,5,8,0:0:0:0:
117,54,251367,5,0,0:0:0:0:
117,54,251423,5,0,0:0:0:0:
146,78,251479,5,8,0:0:0:0:
138,92,251590,5,0,0:0:0:0:
384,272,251701,5,8,0:0:0:0:
384,272,251756,5,8,0:0:0:0:
355,265,251812,5,0,0:0:0:0:
355,265,251867,5,0,0:0:0:0:
162,92,251923,5,8,0:0:0:0:
162,92,251979,5,8,0:0:0:0:
158,105,252034,5,0,0:0:0:0:
158,105,252090,5,0,0:0:0:0:
370,269,252145,5,8,0:0:0:0:
428,302,252201,5,8,0:0:0:0:
311,240,252256,5,8,0:0:0:0:
337,256,252312,5,8,0:0:0:0:
376,292,252367,5,0,0:0:0:0:
149,110,252479,5,0,0:0:0:0:
256,192,252590,5,8,0:0:0:0:
256,192,252645,5,8,0:0:0:0:
257,192,252701,5,0,0:0:0:0:
256,192,252756,5,0,0:0:0:0:
256,192,252812,5,0,0:0:0:0:
256,192,252867,5,0,0:0:0:0:
256,192,252923,5,0,0:0:0:0:
256,192,252979,5,0,0:0:0:0:
256,192,253034,5,8,0:0:0:0:
257,192,253145,5,0,0:0:0:0:
256,192,253256,5,0,0:0:0:0:
256,192,253312,5,0,0:0:0:0:
256,192,253367,5,0,0:0:0:0:
256,192,253423,5,0,0:0:0:0:
256,192,253479,5,8,0:0:0:0:
256,192,253534,5,8,0:0:0:0:
256,192,253590,5,8,0:0:0:0:
256,192,253645,5,8,0:0:0:0:
256,192,253701,5,0,0:0:0:0:
256,192,253756,5,0,0:0:0:0:
256,192,253812,5,0,0:0:0:0:
256,192,253867,5,0,0:0:0:0:
256,192,253923,5,8,0:0:0:0:
256,192,254034,5,0,0:0:0:0:
256,192,254145,5,0,0:0:0:0:
256,192,254201,5,0,0:0:0:0:
256,192,254256,5,0,0:0:0:0:
256,192,254312,5,0,0:0:0:0:
256,192,254367,5,8,0:0:0:0:
256,192,254423,5,8,0:0:0:0:
257,192,254479,5,8,0:0:0:0:
256,192,254534,5,8,0:0:0:0:
256,192,254590,5,8,0:0:0:0:
256,192,254645,5,8,0:0:0:0:
256,192,254701,5,0,0:0:0:0:
256,192,254812,5,8,0:0:0:0:
256,192,254923,5,0,0:0:0:0:
256,192,254979,5,0,0:0:0:0:
257,192,255034,5,0,0:0:0:0:
256,192,255090,5,0,0:0:0:0:
256,192,255145,5,0,0:0:0:0:
256,192,255201,5,0,0:0:0:0:
256,192,255256,5,8,0:0:0:0:
256,192,255312,5,8,0:0:0:0:
256,192,255367,5,8,0:0:0:0:
256,192,255423,5,8,0:0:0:0:
256,192,255479,5,0,0:0:0:0:
256,192,255534,5,0,0:0:0:0:
256,192,255590,5,0,0:0:0:0:
256,192,255645,5,0,0:0:0:0:
256,192,255701,5,8,0:0:0:0:
256,192,255812,5,0,0:0:0:0:
255,192,255923,5,8,0:0:0:0:
255,192,256034,5,0,0:0:0:0:
256,192,256145,5,8,0:0:0:0:
256,192,256201,5,8,0:0:0:0:
255,192,256256,5,0,0:0:0:0:
255,192,256312,5,0,0:0:0:0:
255,192,256367,5,0,0:0:0:0:
255,192,256423,5,0,0:0:0:0:
255,192,256479,5,0,0:0:0:0:
255,192,256534,5,0,0:0:0:0:
255,192,256590,5,8,0:0:0:0:
256,192,256701,5,0,0:0:0:0:
255,192,256812,5,0,0:0:0:0:
255,192,256867,5,0,0:0:0:0:
255,192,256923,5,0,0:0:0:0:
255,192,256979,5,0,0:0:0:0:
255,192,257034,5,8,0:0:0:0:
255,192,257090,5,8,0:0:0:0:
255,192,257145,5,0,0:0:0:0:
255,192,257201,5,0,0:0:0:0:
255,192,257256,5,0,0:0:0:0:
255,192,257312,5,0,0:0:0:0:
255,192,257367,5,0,0:0:0:0:
255,192,257423,5,0,0:0:0:0:
255,192,257479,5,8,0:0:0:0:
256,192,257590,5,0,0:0:0:0:
255,192,257701,5,0,0:0:0:0:
255,192,257756,5,0,0:0:0:0:
255,192,257812,5,0,0:0:0:0:
255,192,257867,5,0,0:0:0:0:
342,268,257923,5,8,0:0:0:0:
326,284,257979,5,8,0:0:0:0:
326,282,258034,5,8,0:0:0:0:
319,276,258090,5,8,0:0:0:0:
353,288,258145,5,0,0:0:0:0:
256,192,258256,5,0,0:0:0:0:
256,192,258312,5,8,0:0:0:0:
256,192,258367,5,8,0:0:0:0:
256,192,258423,5,8,0:0:0:0:
256,192,258479,5,0,0:0:0:0:
253,191,258534,5,0,0:0:0:0:
256,192,258590,5,0,0:0:0:0:
256,192,258645,5,0,0:0:0:0:
256,192,258701,5,8,0:0:0:0:
256,192,258812,5,0,0:0:0:0:
256,192,258867,5,0,0:0:0:0:
256,192,258923,5,0,0:0:0:0:
256,192,258979,5,0,0:0:0:0:
256,192,259034,5,8,0:0:0:0:
256,192,259145,5,0,0:0:0:0:
256,192,259201,5,0,0:0:0:0:
256,192,259256,5,8,0:0:0:0:
256,192,259312,5,8,0:0:0:0:
256,192,259367,5,0,0:0:0:0:
256,192,259423,5,0,0:0:0:0:
256,192,259479,5,0,0:0:0:0:
256,192,259534,5,0,0:0:0:0:
256,192,259590,5,8,0:0:0:0:
256,192,259701,5,4,0:0:0:0:
