osu file format v14

[General]
AudioFilename: audio.mp3
AudioLeadIn: 0
PreviewTime: 42690
Countdown: 0
SampleSet: Normal
StackLeniency: 0.7
Mode: 1
LetterboxInBreaks: 0
WidescreenStoryboard: 1

[Editor]
Bookmarks: 135,14357,42801,71245,99690,129912,158356,174356,188579,217023,245468
DistanceSpacing: 1.9
BeatDivisor: 4
GridSize: 32
TimelineZoom: 2.000001

[Metadata]
Title:The Empress
TitleUnicode:The Empress
Artist:UNDEAD CORPORATION
ArtistUnicode:UNDEAD CORPORATION
Creator:Raiden
Version:Futsuu
Source:東方紅魔郷 ~ the Embodiment of Scarlet Devil.
Tags:FA Featured Artist UC Melodeath Melodic Death Metal English U.N.オーエンは彼女なのか? UN U.N. Owen was her? wa Kanojo Nanoka? Flandre Scarlet フランドール・スカーレット EoSD Extra Stage TH06 TH 6 TOHO Complete Box GOLD Touhou 東方Project ZUN Team Shanghai Alice The Violation Fleshgod Apocalypse madness stream stamina
BeatmapID:2504589
BeatmapSetID:452051

[Difficulty]
HPDrainRate:7
CircleSize:2
OverallDifficulty:4
ApproachRate:10
SliderMultiplier:1.1
SliderTickRate:1

[Events]
//Background and Video events
0,0,"44908884_p0_master1200.jpg",0,150
//Break Periods
//Storyboard Layer 0 (Background)
//Storyboard Layer 1 (Fail)
//Storyboard Layer 2 (Pass)
//Storyboard Layer 3 (Foreground)
//Storyboard Layer 4 (Overlay)
//Storyboard Sound Samples

[TimingPoints]
173,222.222222222222,4,1,0,5,1,0
173,-200,4,1,0,5,0,0
1949,-181.818181818182,4,1,0,15,0,0
3727,-166.666666666667,4,1,0,25,0,0
7283,-153.846153846154,4,1,0,35,0,0
8616,-149.253731343284,4,1,0,35,0,0
8838,-147.058823529412,4,1,0,35,0,0
9060,-142.857142857143,4,1,0,35,0,0
9505,-133.333333333333,4,1,0,45,0,0
14368,222.222222222222,4,1,0,100,1,0
14368,-100,4,1,0,100,0,0
28590,-100,4,1,0,100,0,1
41923,-100,4,1,0,100,0,0
42812,-100,4,1,0,100,0,1
56590,-100,4,1,0,100,0,0
71256,-100,4,1,0,100,0,1
85479,-100,4,1,0,100,0,0
115701,-100,4,1,0,100,0,1
128145,-100,4,1,0,100,0,0
129923,-100,4,1,0,100,0,1
143701,-100,4,1,0,100,0,0
217034,-100,4,1,0,100,0,1
229479,-100,4,1,0,100,0,0
231256,-100,4,1,0,100,0,1
244590,-100,4,1,0,100,0,0
245479,-100,4,1,0,100,0,1
259701,-100,4,1,0,100,0,0

[HitObjects]
256,192,173,5,0,0:0:0:0:
256,192,1061,5,0,0:0:0:0:
256,192,1950,5,8,0:0:0:0:
256,192,2839,5,8,0:0:0:0:
256,192,3728,5,0,0:0:0:0:
256,192,4617,5,0,0:0:0:0:
256,192,5506,5,8,0:0:0:0:
256,192,6395,5,8,0:0:0:0:
256,192,7284,5,0,0:0:0:0:
256,192,8172,5,0,0:0:0:0:
256,192,8617,5,8,0:0:0:0:
256,192,9061,5,8,0:0:0:0:
256,192,9950,5,0,0:0:0:0:
256,192,10839,5,0,0:0:0:0:
256,192,11284,5,0,0:0:0:0:
256,192,11728,5,8,0:0:0:0:
256,192,12172,5,8,0:0:0:0:
256,192,12617,5,0,0:0:0:0:
256,192,13061,5,8,0:0:0:0:
256,192,13506,5,8,0:0:0:0:
256,192,14368,5,4,0:0:0:0:
256,192,15256,5,12,0:0:0:0:
256,192,15701,5,8,0:0:0:0:
256,192,16145,5,4,0:0:0:0:
256,192,17034,5,12,0:0:0:0:
256,192,17479,5,0,0:0:0:0:
256,192,17701,5,0,0:0:0:0:
256,192,17923,5,12,0:0:0:0:
256,192,18367,5,0,0:0:0:0:
256,192,18812,5,8,0:0:0:0:
256,192,19034,5,8,0:0:0:0:
256,192,19256,5,8,0:0:0:0:
256,192,19479,5,8,0:0:0:0:
256,192,19701,5,0,0:0:0:0:
256,192,20145,5,0,0:0:0:0:
256,192,20590,5,0,0:0:0:0:
256,192,21034,5,8,0:0:0:0:
256,192,21256,5,8,0:0:0:0:
256,192,21479,5,8,0:0:0:0:
256,192,21923,5,0,0:0:0:0:
256,192,22367,5,8,0:0:0:0:
256,192,22812,5,0,0:0:0:0:
256,192,23034,5,0,0:0:0:0:
256,192,23256,5,0,0:0:0:0:
256,192,23701,5,0,0:0:0:0:
256,192,23923,5,0,0:0:0:0:
256,192,24145,5,8,0:0:0:0:
256,192,24590,5,0,0:0:0:0:
256,192,25034,5,8,0:0:0:0:
256,192,25256,5,8,0:0:0:0:
256,192,25479,5,0,0:0:0:0:
256,192,25701,5,0,0:0:0:0:
256,192,25923,5,8,0:0:0:0:
256,192,26367,5,8,0:0:0:0:
256,192,26812,5,0,0:0:0:0:
256,192,27034,5,8,0:0:0:0:
256,192,27256,5,8,0:0:0:0:
256,192,27479,5,8,0:0:0:0:
256,192,27701,5,4,0:0:0:0:
256,192,28590,5,4,0:0:0:0:
256,192,29034,5,0,0:0:0:0:
256,192,29479,5,8,0:0:0:0:
256,192,29701,5,0,0:0:0:0:
256,192,29923,5,8,0:0:0:0:
256,192,30145,5,8,0:0:0:0:
256,192,30367,5,0,0:0:0:0:
256,192,30812,5,0,0:0:0:0:
256,192,31256,5,8,0:0:0:0:
256,192,31479,5,8,0:0:0:0:
256,192,31701,5,0,0:0:0:0:
256,192,32145,5,0,0:0:0:0:
256,192,32590,5,8,0:0:0:0:
256,192,33034,5,8,0:0:0:0:
256,192,33256,5,0,0:0:0:0:
256,192,33479,5,8,0:0:0:0:
256,192,33701,5,8,0:0:0:0:
256,192,33923,5,0,0:0:0:0:
256,192,34367,5,0,0:0:0:0:
256,192,34590,5,0,0:0:0:0:
256,192,34812,5,8,0:0:0:0:
256,192,35034,5,0,0:0:0:0:
256,192,35256,5,8,0:0:0:0:
256,192,35701,5,0,0:0:0:0:
256,192,36145,5,0,0:0:0:0:
256,192,36367,5,0,0:0:0:0:
256,192,36590,5,8,0:0:0:0:
256,192,36812,5,0,0:0:0:0:
256,192,37034,5,8,0:0:0:0:
256,192,37256,5,8,0:0:0:0:
256,192,37479,5,0,0:0:0:0:
256,192,37923,5,0,0:0:0:0:
256,192,38145,5,0,0:0:0:0:
256,192,38367,5,8,0:0:0:0:
256,192,38590,5,8,0:0:0:0:
256,192,39034,5,0,0:0:0:0:
256,192,39256,5,8,0:0:0:0:
256,192,39479,5,0,0:0:0:0:
256,192,39701,5,8,0:0:0:0:
256,192,39923,5,8,0:0:0:0:
256,192,40145,5,0,0:0:0:0:
256,192,40367,5,8,0:0:0:0:
256,192,40590,5,0,0:0:0:0:
256,192,40812,5,0,0:0:0:0:
256,192,41034,5,8,0:0:0:0:
256,192,41256,5,0,0:0:0:0:
256,192,41479,5,8,0:0:0:0:
256,192,41701,5,8,0:0:0:0:
256,192,41923,5,0,0:0:0:0:
256,192,42812,5,12,0:0:0:0:
256,192,43256,5,0,0:0:0:0:
256,192,43701,5,8,0:0:0:0:
256,192,44145,5,0,0:0:0:0:
256,192,44367,5,0,0:0:0:0:
256,192,44590,5,8,0:0:0:0:
256,192,44812,5,8,0:0:0:0:
256,192,45034,5,0,0:0:0:0:
256,192,45479,5,8,0:0:0:0:
256,192,45923,5,8,0:0:0:0:
256,192,46367,5,0,0:0:0:0:
256,192,46812,5,0,0:0:0:0:
256,192,47034,5,0,0:0:0:0:
256,192,47256,5,8,0:0:0:0:
256,192,47701,5,8,0:0:0:0:
256,192,48145,5,0,0:0:0:0:
256,192,48367,5,8,0:0:0:0:
256,192,48590,5,0,0:0:0:0:
256,192,48812,5,0,0:0:0:0:
256,192,49034,5,8,0:0:0:0:
256,192,49479,5,0,0:0:0:0:
256,192,49923,5,0,0:0:0:0:
256,192,50367,5,0,0:0:0:0:
256,192,50590,5,0,0:0:0:0:
256,192,50812,5,8,0:0:0:0:
256,192,51256,5,8,0:0:0:0:
256,192,51701,5,0,0:0:0:0:
256,192,51923,5,8,0:0:0:0:
256,192,52145,5,0,0:0:0:0:
256,192,52367,5,0,0:0:0:0:
256,192,52590,5,8,0:0:0:0:
256,192,53034,5,8,0:0:0:0:
256,192,53479,5,0,0:0:0:0:
256,192,53923,5,8,0:0:0:0:
256,192,54145,5,0,0:0:0:0:
256,192,54367,5,8,0:0:0:0:
256,192,54812,5,8,0:0:0:0:
256,192,55256,5,0,0:0:0:0:
256,192,55479,5,8,0:0:0:0:
256,192,55701,5,8,0:0:0:0:
256,192,55923,5,0,0:0:0:0:
256,192,56145,5,8,0:0:0:0:
256,192,57034,5,4,0:0:0:0:
256,192,57256,5,8,0:0:0:0:
256,192,57479,5,0,0:0:0:0:
256,192,57923,5,8,0:0:0:0:
256,192,58367,5,0,0:0:0:0:
256,192,58812,5,0,0:0:0:0:
256,192,59256,5,8,0:0:0:0:
256,192,59701,5,0,0:0:0:0:
256,192,59923,5,8,0:0:0:0:
256,192,60145,5,0,0:0:0:0:
256,192,60367,5,0,0:0:0:0:
256,192,60590,5,8,0:0:0:0:
256,224,60812,5,8,0:0:0:0:
256,192,61034,5,0,0:0:0:0:
256,192,61256,5,8,0:0:0:0:
256,192,61479,5,8,0:0:0:0:
256,192,61701,5,0,0:0:0:0:
256,192,62145,5,8,0:0:0:0:
256,192,62367,5,0,0:0:0:0:
256,192,62590,5,8,0:0:0:0:
256,192,62812,5,0,0:0:0:0:
256,192,63034,5,0,0:0:0:0:
256,192,63256,5,8,0:0:0:0:
256,192,64145,5,0,0:0:0:0:
256,192,64367,5,0,0:0:0:0:
256,192,64590,5,8,0:0:0:0:
256,192,64812,5,0,0:0:0:0:
256,192,65034,5,8,0:0:0:0:
256,192,65479,5,8,0:0:0:0:
256,192,65701,5,0,0:0:0:0:
256,192,65923,5,8,0:0:0:0:
256,192,66367,5,0,0:0:0:0:
256,192,66590,5,0,0:0:0:0:
256,192,66812,5,8,0:0:0:0:
256,192,67034,5,8,0:0:0:0:
256,192,67701,5,8,0:0:0:0:
256,192,67923,5,8,0:0:0:0:
256,192,68145,5,0,0:0:0:0:
256,192,68367,5,0,0:0:0:0:
256,192,68590,5,8,0:0:0:0:
256,192,69034,5,0,0:0:0:0:
256,192,69479,5,8,0:0:0:0:
256,192,69701,5,8,0:0:0:0:
256,192,69923,5,0,0:0:0:0:
256,192,70145,5,0,0:0:0:0:
256,192,70367,5,8,0:0:0:0:
256,192,71256,5,12,0:0:0:0:
256,192,71701,5,0,0:0:0:0:
256,192,72145,5,8,0:0:0:0:
256,192,72590,5,0,0:0:0:0:
256,192,72812,5,0,0:0:0:0:
256,192,73034,5,8,0:0:0:0:
256,192,73256,5,8,0:0:0:0:
256,192,73479,5,0,0:0:0:0:
256,192,73923,5,8,0:0:0:0:
256,192,74367,5,8,0:0:0:0:
256,192,74812,5,0,0:0:0:0:
256,192,75256,5,0,0:0:0:0:
256,192,75479,5,0,0:0:0:0:
256,192,75701,5,8,0:0:0:0:
256,192,76145,5,8,0:0:0:0:
256,192,76590,5,0,0:0:0:0:
256,192,76812,5,8,0:0:0:0:
256,192,77034,5,0,0:0:0:0:
256,192,77256,5,0,0:0:0:0:
256,192,77479,5,8,0:0:0:0:
256,192,77923,5,0,0:0:0:0:
256,192,78367,5,0,0:0:0:0:
256,192,78812,5,0,0:0:0:0:
256,192,79034,5,0,0:0:0:0:
256,192,79256,5,8,0:0:0:0:
256,192,79701,5,8,0:0:0:0:
256,192,80145,5,0,0:0:0:0:
256,192,80367,5,8,0:0:0:0:
256,192,80590,5,0,0:0:0:0:
256,192,80812,5,0,0:0:0:0:
256,192,81034,5,8,0:0:0:0:
256,192,81479,5,8,0:0:0:0:
256,192,81923,5,0,0:0:0:0:
256,192,82367,5,8,0:0:0:0:
256,192,82590,5,0,0:0:0:0:
256,192,82812,5,8,0:0:0:0:
256,192,83256,5,8,0:0:0:0:
256,192,83701,5,0,0:0:0:0:
256,192,83923,5,8,0:0:0:0:
256,192,84145,5,8,0:0:0:0:
256,192,84367,5,0,0:0:0:0:
256,192,84590,5,8,0:0:0:0:
256,192,85479,5,4,0:0:0:0:
256,192,85701,5,8,0:0:0:0:
256,192,85923,5,0,0:0:0:0:
256,192,86145,5,0,0:0:0:0:
256,192,86367,5,8,0:0:0:0:
256,192,86812,5,0,0:0:0:0:
256,192,87034,5,8,0:0:0:0:
256,192,87256,5,0,0:0:0:0:
256,192,87701,5,8,0:0:0:0:
256,192,88145,5,0,0:0:0:0:
256,192,88367,5,8,0:0:0:0:
256,192,88590,5,0,0:0:0:0:
256,192,89034,5,8,0:0:0:0:
256,224,89256,5,8,0:0:0:0:
256,192,89479,5,0,0:0:0:0:
256,192,89701,5,0,0:0:0:0:
256,192,89923,5,8,0:0:0:0:
256,192,90367,5,0,0:0:0:0:
256,192,90590,5,8,0:0:0:0:
256,192,90812,5,0,0:0:0:0:
256,192,91034,5,8,0:0:0:0:
256,192,91256,5,0,0:0:0:0:
256,192,91479,5,0,0:0:0:0:
256,192,91701,5,8,0:0:0:0:
256,192,92145,5,8,0:0:0:0:
256,192,92590,5,0,0:0:0:0:
256,192,92812,5,0,0:0:0:0:
256,192,93034,5,8,0:0:0:0:
256,192,93256,5,0,0:0:0:0:
256,192,93479,5,8,0:0:0:0:
256,192,93923,5,0,0:0:0:0:
256,192,94367,5,8,0:0:0:0:
256,192,94590,5,0,0:0:0:0:
256,192,94812,5,8,0:0:0:0:
256,192,95256,5,8,0:0:0:0:
256,192,95479,5,8,0:0:0:0:
256,192,95701,5,8,0:0:0:0:
256,192,96145,5,8,0:0:0:0:
256,192,96367,5,8,0:0:0:0:
256,192,96590,5,0,0:0:0:0:
256,192,96812,5,0,0:0:0:0:
256,192,97034,5,8,0:0:0:0:
256,192,97256,5,8,0:0:0:0:
256,192,97479,5,0,0:0:0:0:
256,192,97701,5,8,0:0:0:0:
256,192,97923,5,8,0:0:0:0:
256,192,98145,5,8,0:0:0:0:
256,192,98367,5,0,0:0:0:0:
256,192,98590,5,0,0:0:0:0:
256,192,98812,5,8,0:0:0:0:
256,192,99701,5,8,0:0:0:0:
256,192,100145,5,0,0:0:0:0:
256,192,100590,5,8,0:0:0:0:
256,192,101034,5,8,0:0:0:0:
256,192,101256,5,0,0:0:0:0:
256,192,101479,5,8,0:0:0:0:
256,192,101701,5,8,0:0:0:0:
256,192,101923,5,0,0:0:0:0:
256,192,102367,5,8,0:0:0:0:
256,192,102812,5,8,0:0:0:0:
256,192,103034,5,8,0:0:0:0:
256,192,103256,5,0,0:0:0:0:
256,192,103701,5,0,0:0:0:0:
256,192,104145,5,8,0:0:0:0:
256,192,104590,5,0,0:0:0:0:
256,192,104812,5,8,0:0:0:0:
256,192,105034,5,8,0:0:0:0:
256,192,105479,5,0,0:0:0:0:
256,192,105923,5,8,0:0:0:0:
256,192,106367,5,0,0:0:0:0:
256,192,106590,1,8,0:0:0:0:
256,192,106812,5,8,0:0:0:0:
256,192,107034,5,8,0:0:0:0:
256,192,107256,5,0,0:0:0:0:
256,192,107701,5,8,0:0:0:0:
256,192,108145,5,0,0:0:0:0:
256,192,108367,5,0,0:0:0:0:
256,192,108590,5,8,0:0:0:0:
256,192,108812,5,0,0:0:0:0:
256,192,109034,5,0,0:0:0:0:
256,192,109479,5,8,0:0:0:0:
256,192,109923,5,8,0:0:0:0:
256,192,110145,5,0,0:0:0:0:
256,192,110367,5,8,0:0:0:0:
256,192,110812,5,0,0:0:0:0:
256,192,111034,5,0,0:0:0:0:
256,192,111256,5,8,0:0:0:0:
256,192,111701,5,0,0:0:0:0:
256,192,111923,5,0,0:0:0:0:
256,192,112145,5,8,0:0:0:0:
256,192,112590,5,8,0:0:0:0:
256,192,112812,5,0,0:0:0:0:
256,192,113034,5,8,0:0:0:0:
256,192,113479,5,8,0:0:0:0:
256,192,113701,5,0,0:0:0:0:
256,192,113923,5,8,0:0:0:0:
256,192,114145,5,8,0:0:0:0:
256,192,114367,5,0,0:0:0:0:
256,192,114590,5,0,0:0:0:0:
256,192,114812,5,8,0:0:0:0:
256,192,115701,5,0,0:0:0:0:
256,192,116145,5,0,0:0:0:0:
256,192,116590,5,8,0:0:0:0:
256,192,117034,5,0,0:0:0:0:
256,192,117479,5,8,0:0:0:0:
256,192,117923,5,8,0:0:0:0:
256,192,118145,5,8,0:0:0:0:
256,192,118367,5,0,0:0:0:0:
256,192,118812,5,8,0:0:0:0:
256,192,119256,5,0,0:0:0:0:
256,192,119701,5,0,0:0:0:0:
256,192,119923,5,0,0:0:0:0:
256,192,120145,5,8,0:0:0:0:
256,192,120590,5,0,0:0:0:0:
256,192,120812,5,0,0:0:0:0:
256,192,121034,5,8,0:0:0:0:
256,192,121256,5,8,0:0:0:0:
256,192,121479,5,0,0:0:0:0:
256,192,121701,5,8,0:0:0:0:
256,192,121923,5,0,0:0:0:0:
256,192,122812,5,0,0:0:0:0:
256,192,123256,5,0,0:0:0:0:
256,192,123701,5,8,0:0:0:0:
256,192,124145,5,0,0:0:0:0:
256,192,124367,5,8,0:0:0:0:
256,192,124590,5,0,0:0:0:0:
256,192,125034,5,0,0:0:0:0:
256,192,125256,5,0,0:0:0:0:
256,192,125479,5,8,0:0:0:0:
256,192,125923,5,0,0:0:0:0:
256,192,126367,5,8,0:0:0:0:
256,192,126812,5,0,0:0:0:0:
256,192,127034,5,0,0:0:0:0:
256,192,127256,5,8,0:0:0:0:
256,192,127701,5,0,0:0:0:0:
256,192,127923,5,0,0:0:0:0:
256,192,128145,5,8,0:0:0:0:
256,192,128367,5,0,0:0:0:0:
256,192,128590,5,8,0:0:0:0:
256,192,128812,5,0,0:0:0:0:
256,192,129034,5,8,0:0:0:0:
256,192,129923,5,4,0:0:0:0:
256,192,130367,5,0,0:0:0:0:
256,192,130812,5,8,0:0:0:0:
256,192,131034,5,0,0:0:0:0:
256,192,131256,5,8,0:0:0:0:
256,192,131479,5,8,0:0:0:0:
256,192,131701,5,0,0:0:0:0:
256,192,132145,5,0,0:0:0:0:
256,192,132590,5,8,0:0:0:0:
256,192,132812,5,8,0:0:0:0:
256,192,133034,5,0,0:0:0:0:
256,192,133479,5,0,0:0:0:0:
256,192,133923,5,8,0:0:0:0:
256,192,134367,5,8,0:0:0:0:
256,192,134590,5,0,0:0:0:0:
256,192,134812,5,8,0:0:0:0:
256,192,135034,5,8,0:0:0:0:
256,192,135256,5,0,0:0:0:0:
256,192,135701,5,0,0:0:0:0:
256,192,135923,5,0,0:0:0:0:
256,192,136145,5,8,0:0:0:0:
256,192,136367,5,0,0:0:0:0:
256,192,136590,5,8,0:0:0:0:
256,192,137034,5,0,0:0:0:0:
256,192,137256,1,8,0:0:0:0:
256,192,137479,5,0,0:0:0:0:
256,192,137701,5,0,0:0:0:0:
256,192,137923,5,8,0:0:0:0:
256,192,138367,5,8,0:0:0:0:
256,192,138590,5,8,0:0:0:0:
256,192,138812,5,0,0:0:0:0:
256,192,139034,1,8,0:0:0:0:
256,192,139256,5,0,0:0:0:0:
256,192,139479,5,0,0:0:0:0:
256,192,139701,5,8,0:0:0:0:
256,192,140145,5,0,0:0:0:0:
256,192,140590,5,8,0:0:0:0:
256,192,140812,5,0,0:0:0:0:
256,192,141034,5,8,0:0:0:0:
256,192,141256,5,8,0:0:0:0:
256,192,141479,5,0,0:0:0:0:
256,192,141701,5,8,0:0:0:0:
256,192,141923,5,4,0:0:0:0:
256,192,142145,5,0,0:0:0:0:
256,192,142367,5,12,0:0:0:0:
256,192,142590,5,0,0:0:0:0:
256,192,142812,5,8,0:0:0:0:
256,192,143034,5,8,0:0:0:0:
256,192,143256,5,4,0:0:0:0:
256,192,144145,5,4,0:0:0:0:
256,192,144367,5,8,0:0:0:0:
256,192,144590,5,0,0:0:0:0:
256,192,144812,5,0,0:0:0:0:
256,192,145034,5,8,0:0:0:0:
256,192,145256,5,0,0:0:0:0:
256,192,145701,5,8,0:0:0:0:
256,192,145923,5,0,0:0:0:0:
256,192,146367,5,8,0:0:0:0:
256,192,146590,5,8,0:0:0:0:
256,192,146812,5,0,0:0:0:0:
256,192,147034,5,8,0:0:0:0:
256,192,147256,5,0,0:0:0:0:
256,192,147701,5,8,0:0:0:0:
256,224,147923,5,8,0:0:0:0:
256,192,148145,5,0,0:0:0:0:
256,192,148367,5,0,0:0:0:0:
256,192,148590,5,8,0:0:0:0:
256,192,149034,5,0,0:0:0:0:
256,192,149479,5,0,0:0:0:0:
256,192,149701,5,8,0:0:0:0:
256,192,149923,5,0,0:0:0:0:
256,192,150145,5,0,0:0:0:0:
256,192,150367,5,8,0:0:0:0:
256,192,150590,5,0,0:0:0:0:
256,192,150812,5,8,0:0:0:0:
256,192,151256,5,0,0:0:0:0:
256,192,151479,5,0,0:0:0:0:
256,192,151701,5,8,0:0:0:0:
256,192,151923,5,0,0:0:0:0:
256,192,152145,5,8,0:0:0:0:
256,192,152367,5,8,0:0:0:0:
256,192,152590,5,0,0:0:0:0:
256,192,152812,5,0,0:0:0:0:
256,192,153034,5,8,0:0:0:0:
256,192,153479,5,8,0:0:0:0:
256,192,153701,5,0,0:0:0:0:
256,192,153923,5,8,0:0:0:0:
256,192,154145,5,0,0:0:0:0:
256,192,154812,5,8,0:0:0:0:
256,192,155034,5,8,0:0:0:0:
256,192,155256,5,0,0:0:0:0:
256,192,155479,5,0,0:0:0:0:
256,192,155701,5,8,0:0:0:0:
256,192,155923,5,8,0:0:0:0:
256,192,156145,5,0,0:0:0:0:
256,192,156590,5,8,0:0:0:0:
256,192,156812,5,8,0:0:0:0:
256,192,157034,5,0,0:0:0:0:
256,192,157479,5,8,0:0:0:0:
256,192,158367,5,8,0:0:0:0:
256,192,158812,5,0,0:0:0:0:
256,192,159256,5,8,0:0:0:0:
256,192,159701,5,8,0:0:0:0:
256,192,159923,5,0,0:0:0:0:
256,192,160145,5,8,0:0:0:0:
256,192,160367,5,8,0:0:0:0:
256,192,160590,5,0,0:0:0:0:
256,192,161034,5,8,0:0:0:0:
256,192,161479,5,8,0:0:0:0:
256,192,161701,5,8,0:0:0:0:
256,192,161923,5,0,0:0:0:0:
256,192,162367,5,0,0:0:0:0:
256,192,162812,5,8,0:0:0:0:
256,192,163256,5,0,0:0:0:0:
256,192,163479,5,8,0:0:0:0:
256,192,163701,5,8,0:0:0:0:
256,192,164145,5,0,0:0:0:0:
256,192,164590,5,8,0:0:0:0:
256,192,165034,5,0,0:0:0:0:
256,192,165256,1,8,0:0:0:0:
256,192,165479,5,8,0:0:0:0:
256,192,165701,5,8,0:0:0:0:
256,192,165923,5,0,0:0:0:0:
256,192,166367,5,8,0:0:0:0:
256,192,166812,5,0,0:0:0:0:
256,192,167034,5,0,0:0:0:0:
256,192,167256,5,8,0:0:0:0:
256,192,167479,5,0,0:0:0:0:
256,192,167701,5,0,0:0:0:0:
256,192,168145,5,8,0:0:0:0:
256,192,168590,5,8,0:0:0:0:
256,192,168812,5,0,0:0:0:0:
256,192,169034,5,8,0:0:0:0:
256,192,169479,5,0,0:0:0:0:
256,192,169701,5,0,0:0:0:0:
256,192,169923,5,8,0:0:0:0:
256,192,170367,5,0,0:0:0:0:
256,192,170590,5,0,0:0:0:0:
256,192,170812,5,8,0:0:0:0:
256,192,171256,5,8,0:0:0:0:
256,192,171479,5,0,0:0:0:0:
256,192,171701,5,8,0:0:0:0:
256,192,172145,5,8,0:0:0:0:
256,192,172367,5,0,0:0:0:0:
256,192,172590,5,8,0:0:0:0:
256,192,172812,5,8,0:0:0:0:
256,192,173034,5,0,0:0:0:0:
256,192,173256,5,0,0:0:0:0:
256,192,173479,5,8,0:0:0:0:
256,192,174367,5,0,0:0:0:0:
256,192,174812,5,8,0:0:0:0:
256,192,175256,5,0,0:0:0:0:
256,192,175479,5,8,0:0:0:0:
256,192,176145,5,0,0:0:0:0:
256,192,176367,5,0,0:0:0:0:
256,192,176590,5,8,0:0:0:0:
256,192,176812,5,8,0:0:0:0:
256,192,177034,5,0,0:0:0:0:
256,192,177256,5,8,0:0:0:0:
256,192,177479,5,0,0:0:0:0:
256,192,177701,5,0,0:0:0:0:
256,192,177923,5,8,0:0:0:0:
256,192,178367,5,8,0:0:0:0:
256,192,178812,5,8,0:0:0:0:
256,192,179034,5,8,0:0:0:0:
256,192,179256,5,0,0:0:0:0:
256,192,179479,5,0,0:0:0:0:
256,192,179701,5,8,0:0:0:0:
256,192,180145,5,8,0:0:0:0:
256,192,180590,5,8,0:0:0:0:
256,192,180812,5,0,0:0:0:0:
256,192,181034,5,8,0:0:0:0:
256,192,181479,5,0,0:0:0:0:
256,192,181701,5,0,0:0:0:0:
256,192,181923,5,8,0:0:0:0:
256,192,182145,5,8,0:0:0:0:
256,192,182367,5,0,0:0:0:0:
256,192,182590,5,0,0:0:0:0:
256,192,182812,5,8,0:0:0:0:
256,192,183034,5,0,0:0:0:0:
256,192,183256,5,0,0:0:0:0:
256,192,183479,5,8,0:0:0:0:
256,192,183701,5,0,0:0:0:0:
256,192,183923,5,0,0:0:0:0:
256,192,184145,5,8,0:0:0:0:
256,192,184590,5,0,0:0:0:0:
256,192,184812,5,0,0:0:0:0:
256,192,185034,5,12,0:0:0:0:
256,192,185479,5,0,0:0:0:0:
256,192,185701,5,0,0:0:0:0:
256,192,185923,5,8,0:0:0:0:
256,192,186145,5,0,0:0:0:0:
256,192,186367,5,8,0:0:0:0:
256,192,186590,5,8,0:0:0:0:
256,192,186812,5,0,0:0:0:0:
256,192,187034,5,0,0:0:0:0:
256,192,187256,5,8,0:0:0:0:
256,192,187479,5,0,0:0:0:0:
256,192,187701,5,8,0:0:0:0:
256,192,188590,5,4,0:0:0:0:
256,192,188812,5,0,0:0:0:0:
256,192,189034,5,8,0:0:0:0:
256,192,189479,5,0,0:0:0:0:
256,192,189701,5,0,0:0:0:0:
256,192,189923,5,8,0:0:0:0:
256,192,190145,5,8,0:0:0:0:
256,192,190367,5,12,0:0:0:0:
256,192,190812,5,0,0:0:0:0:
256,192,191256,5,8,0:0:0:0:
256,192,191479,5,8,0:0:0:0:
256,192,191701,5,0,0:0:0:0:
256,192,191923,5,0,0:0:0:0:
256,192,192145,5,12,0:0:0:0:
256,192,192590,5,0,0:0:0:0:
256,192,192812,5,0,0:0:0:0:
256,192,193034,5,8,0:0:0:0:
256,192,193479,5,0,0:0:0:0:
256,192,193923,5,12,0:0:0:0:
256,192,194367,5,0,0:0:0:0:
256,192,194590,5,0,0:0:0:0:
256,192,194812,5,8,0:0:0:0:
256,192,195256,5,0,0:0:0:0:
256,192,195479,5,0,0:0:0:0:
256,192,195701,5,12,0:0:0:0:
256,192,196145,5,0,0:0:0:0:
256,192,196590,5,8,0:0:0:0:
256,192,197034,5,0,0:0:0:0:
256,192,197479,5,12,0:0:0:0:
256,192,197701,5,0,0:0:0:0:
256,192,197923,5,8,0:0:0:0:
256,192,198367,5,0,0:0:0:0:
256,192,198812,5,0,0:0:0:0:
256,192,199256,5,12,0:0:0:0:
256,192,199701,5,0,0:0:0:0:
256,192,200145,5,8,0:0:0:0:
256,192,200590,5,0,0:0:0:0:
256,192,200812,5,0,0:0:0:0:
256,192,201034,5,4,0:0:0:0:
256,192,201479,5,0,0:0:0:0:
256,192,201923,5,8,0:0:0:0:
256,192,202145,5,0,0:0:0:0:
256,192,202367,5,8,0:0:0:0:
256,192,202590,5,8,0:0:0:0:
256,192,202812,5,4,0:0:0:0:
256,192,203256,5,8,0:0:0:0:
256,192,203701,5,0,0:0:0:0:
256,192,203923,5,0,0:0:0:0:
256,192,204145,5,8,0:0:0:0:
256,192,204590,5,12,0:0:0:0:
256,192,205034,5,0,0:0:0:0:
256,192,205479,5,8,0:0:0:0:
256,192,205701,5,8,0:0:0:0:
256,192,205923,5,0,0:0:0:0:
256,192,206367,5,4,0:0:0:0:
256,192,206812,5,8,0:0:0:0:
256,192,207256,5,8,0:0:0:0:
256,192,207479,5,0,0:0:0:0:
256,192,207701,5,8,0:0:0:0:
256,192,207923,5,0,0:0:0:0:
256,192,208145,5,12,0:0:0:0:
256,192,208590,5,0,0:0:0:0:
256,192,208812,5,0,0:0:0:0:
256,192,209034,5,8,0:0:0:0:
256,192,209479,5,8,0:0:0:0:
256,192,209701,5,0,0:0:0:0:
256,192,209923,5,4,0:0:0:0:
256,192,210812,5,8,0:0:0:0:
256,192,211256,5,8,0:0:0:0:
256,192,211479,1,8,0:0:0:0:
256,192,211701,5,4,0:0:0:0:
256,192,212145,5,0,0:0:0:0:
256,192,212367,1,0,0:0:0:0:
256,192,212590,5,8,0:0:0:0:
256,192,213034,5,8,0:0:0:0:
256,192,213256,1,0,0:0:0:0:
256,192,213479,5,12,0:0:0:0:
256,192,213923,5,8,0:0:0:0:
256,192,214145,5,8,0:0:0:0:
256,192,214367,5,8,0:0:0:0:
256,192,214590,1,0,0:0:0:0:
256,192,214812,5,8,0:0:0:0:
256,192,215034,1,8,0:0:0:0:
256,192,215256,5,4,0:0:0:0:
256,192,215701,5,0,0:0:0:0:
256,192,215923,1,0,0:0:0:0:
256,192,216145,5,8,0:0:0:0:
256,192,217034,5,0,0:0:0:0:
256,192,217479,5,0,0:0:0:0:
256,192,217923,5,8,0:0:0:0:
256,192,218367,5,0,0:0:0:0:
256,192,218812,5,8,0:0:0:0:
256,192,219256,5,8,0:0:0:0:
256,192,219479,5,8,0:0:0:0:
256,192,219701,5,0,0:0:0:0:
256,192,220145,5,8,0:0:0:0:
256,192,220590,5,0,0:0:0:0:
256,192,221034,5,0,0:0:0:0:
256,192,221256,5,0,0:0:0:0:
256,192,221479,5,8,0:0:0:0:
256,192,221923,5,0,0:0:0:0:
256,192,222145,5,0,0:0:0:0:
256,192,222367,5,8,0:0:0:0:
256,192,222590,5,8,0:0:0:0:
256,192,222812,5,0,0:0:0:0:
256,192,223034,5,8,0:0:0:0:
256,192,223256,5,0,0:0:0:0:
256,192,224145,5,0,0:0:0:0:
256,192,224590,5,0,0:0:0:0:
256,192,225034,5,8,0:0:0:0:
256,192,225479,5,0,0:0:0:0:
256,192,225701,5,8,0:0:0:0:
256,192,225923,5,0,0:0:0:0:
256,192,226367,5,0,0:0:0:0:
256,192,226590,5,0,0:0:0:0:
256,192,226812,5,8,0:0:0:0:
256,192,227256,5,0,0:0:0:0:
256,192,227701,5,8,0:0:0:0:
256,192,228145,5,0,0:0:0:0:
256,192,228367,5,0,0:0:0:0:
256,192,228590,5,8,0:0:0:0:
256,192,229034,5,0,0:0:0:0:
256,192,229256,5,0,0:0:0:0:
256,192,229479,5,8,0:0:0:0:
256,192,229701,5,0,0:0:0:0:
256,192,229923,5,8,0:0:0:0:
256,192,230145,5,0,0:0:0:0:
256,192,230367,5,8,0:0:0:0:
256,192,231256,5,4,0:0:0:0:
256,192,231701,5,0,0:0:0:0:
256,192,232145,5,8,0:0:0:0:
256,192,232367,5,0,0:0:0:0:
256,192,232590,5,8,0:0:0:0:
256,192,232812,5,8,0:0:0:0:
256,192,233034,5,0,0:0:0:0:
256,192,233479,5,0,0:0:0:0:
256,192,233923,5,8,0:0:0:0:
256,192,234145,5,8,0:0:0:0:
256,192,234367,5,0,0:0:0:0:
256,192,234812,5,0,0:0:0:0:
256,192,235256,5,8,0:0:0:0:
256,192,235701,5,8,0:0:0:0:
256,192,235923,5,0,0:0:0:0:
256,192,236145,5,8,0:0:0:0:
256,192,236367,5,8,0:0:0:0:
256,192,236590,5,0,0:0:0:0:
256,192,237034,5,0,0:0:0:0:
256,192,237256,5,0,0:0:0:0:
256,192,237479,5,8,0:0:0:0:
256,192,237701,5,0,0:0:0:0:
256,192,237923,5,8,0:0:0:0:
256,192,238367,5,0,0:0:0:0:
256,192,238590,1,8,0:0:0:0:
256,192,238812,5,0,0:0:0:0:
256,192,239034,5,0,0:0:0:0:
256,192,239256,5,8,0:0:0:0:
256,192,239701,5,8,0:0:0:0:
256,192,239923,5,8,0:0:0:0:
256,192,240145,5,0,0:0:0:0:
256,192,240367,1,8,0:0:0:0:
256,192,240590,5,0,0:0:0:0:
256,192,240812,5,0,0:0:0:0:
256,192,241034,5,8,0:0:0:0:
256,192,241479,5,0,0:0:0:0:
256,160,241701,1,0,0:0:0:0:
256,192,241923,5,8,0:0:0:0:
256,192,242367,5,0,0:0:0:0:
256,192,242590,5,8,0:0:0:0:
256,192,242812,5,0,0:0:0:0:
256,192,243034,5,8,0:0:0:0:
256,192,243479,5,0,0:0:0:0:
256,192,243701,5,8,0:0:0:0:
256,192,243923,5,0,0:0:0:0:
256,192,244145,5,8,0:0:0:0:
256,192,244367,5,8,0:0:0:0:
256,192,244590,5,4,0:0:0:0:
256,192,245479,5,12,0:0:0:0:
256,192,245923,5,0,0:0:0:0:
256,192,246367,5,8,0:0:0:0:
256,192,246812,5,0,0:0:0:0:
256,192,247034,5,0,0:0:0:0:
256,192,247256,5,8,0:0:0:0:
256,192,247479,5,8,0:0:0:0:
256,192,247701,5,0,0:0:0:0:
256,192,248145,5,8,0:0:0:0:
256,192,248590,5,8,0:0:0:0:
256,192,249034,5,0,0:0:0:0:
256,192,249479,5,0,0:0:0:0:
256,192,249701,5,0,0:0:0:0:
256,192,249923,5,8,0:0:0:0:
256,192,250367,5,8,0:0:0:0:
256,192,250812,5,0,0:0:0:0:
256,192,251034,5,8,0:0:0:0:
256,192,251256,5,0,0:0:0:0:
256,192,251479,5,0,0:0:0:0:
256,192,251701,5,8,0:0:0:0:
256,192,252145,5,0,0:0:0:0:
256,192,252590,5,0,0:0:0:0:
256,192,253034,5,0,0:0:0:0:
256,192,253256,5,0,0:0:0:0:
256,192,253479,5,8,0:0:0:0:
256,192,253923,5,8,0:0:0:0:
256,192,254367,5,0,0:0:0:0:
256,192,254590,5,8,0:0:0:0:
256,192,254812,5,0,0:0:0:0:
256,192,255034,5,0,0:0:0:0:
256,192,255256,5,8,0:0:0:0:
256,192,255701,5,8,0:0:0:0:
256,192,256145,5,0,0:0:0:0:
256,192,256590,5,8,0:0:0:0:
256,192,256812,5,0,0:0:0:0:
256,192,257034,5,8,0:0:0:0:
256,192,257479,5,8,0:0:0:0:
256,192,257923,5,0,0:0:0:0:
256,192,258145,5,8,0:0:0:0:
256,192,258367,5,8,0:0:0:0:
256,192,258590,5,0,0:0:0:0:
256,192,258812,5,8,0:0:0:0:
256,192,259256,1,8,0:0:0:0:
256,192,259701,5,4,0:0:0:0:
