osu file format v14

[General]
AudioFilename: audio.mp3
AudioLeadIn: 0
PreviewTime: 42690
Countdown: 0
SampleSet: Normal
StackLeniency: 0.7
Mode: 1
LetterboxInBreaks: 0
WidescreenStoryboard: 1

[Editor]
Bookmarks: 135,14357,42801,71245,99690,129912,158356,174356,188579,217023,245468
DistanceSpacing: 2
BeatDivisor: 4
GridSize: 32
TimelineZoom: 1.800001

[Metadata]
Title:The Empress
TitleUnicode:The Empress
Artist:UNDEAD CORPORATION
ArtistUnicode:UNDEAD CORPORATION
Creator:Raiden
Version:Beginner
Source:東方紅魔郷 ~ the Embodiment of Scarlet Devil.
Tags:FA Featured Artist UC Melodeath Melodic Death Metal English U.N.オーエンは彼女なのか? UN U.N. Owen was her? wa Kanojo Nanoka? Flandre Scarlet フランドール・スカーレット EoSD Extra Stage TH06 TH 6 TOHO Complete Box GOLD Touhou 東方Project ZUN Team Shanghai Alice The Violation Fleshgod Apocalypse madness stream stamina
BeatmapID:2438563
BeatmapSetID:452051

[Difficulty]
HPDrainRate:8
CircleSize:2
OverallDifficulty:3
ApproachRate:10
SliderMultiplier:0.9
SliderTickRate:1

[Events]
//Background and Video events
0,0,"44908884_p0_master1200.jpg",0,150
//Break Periods
//Storyboard Layer 0 (Background)
//Storyboard Layer 1 (Fail)
//Storyboard Layer 2 (Pass)
//Storyboard Layer 3 (Foreground)
//Storyboard Layer 4 (Overlay)
//Storyboard Sound Samples

[TimingPoints]
173,222.222222222222,4,1,0,5,1,0
173,-200,4,1,0,5,0,0
1949,-181.818181818182,4,1,0,15,0,0
3727,-166.666666666667,4,1,0,25,0,0
7283,-153.846153846154,4,1,0,35,0,0
8616,-149.253731343284,4,1,0,35,0,0
8838,-147.058823529412,4,1,0,35,0,0
9060,-142.857142857143,4,1,0,35,0,0
9505,-133.333333333333,4,1,0,45,0,0
14368,222.222222222222,4,1,0,100,1,0
14368,-100,4,1,0,100,0,0
28590,-100,4,1,0,100,0,1
41923,-100,4,1,0,100,0,0
42812,-100,4,1,0,100,0,1
56590,-100,4,1,0,100,0,0
71256,-100,4,1,0,100,0,1
85479,-100,4,1,0,100,0,0
115701,-100,4,1,0,100,0,1
128145,-100,4,1,0,100,0,0
129923,-100,4,1,0,100,0,1
143701,-100,4,1,0,100,0,0
217034,-100,4,1,0,100,0,1
229479,-100,4,1,0,100,0,0
231256,-100,4,1,0,100,0,1
244590,-100,4,1,0,100,0,0
245479,-100,4,1,0,100,0,1
259701,-100,4,1,0,100,0,0

[HitObjects]
256,192,173,5,0,0:0:0:0:
256,192,1950,5,8,0:0:0:0:
256,192,3728,5,0,0:0:0:0:
256,192,5506,5,8,0:0:0:0:
256,192,7284,5,0,0:0:0:0:
256,192,9061,5,8,0:0:0:0:
256,192,10839,5,0,0:0:0:0:
256,192,11728,5,8,0:0:0:0:
256,192,12617,5,0,0:0:0:0:
256,192,13506,5,8,0:0:0:0:
256,192,14368,5,4,0:0:0:0:
256,192,16145,5,4,0:0:0:0:
256,192,17923,5,12,0:0:0:0:
256,192,19701,5,0,0:0:0:0:
256,192,20590,5,0,0:0:0:0:
256,192,21479,5,8,0:0:0:0:
256,192,22367,5,8,0:0:0:0:
256,192,23256,5,0,0:0:0:0:
256,192,25034,5,8,0:0:0:0:
256,192,25923,5,8,0:0:0:0:
256,192,26812,5,8,0:0:0:0:
256,192,27256,5,8,0:0:0:0:
256,192,27701,5,4,0:0:0:0:
256,192,28590,5,4,0:0:0:0:
256,192,29479,5,8,0:0:0:0:
256,192,29923,5,8,0:0:0:0:
256,192,30367,5,0,0:0:0:0:
256,192,31256,5,8,0:0:0:0:
256,192,32145,5,0,0:0:0:0:
256,192,33034,5,8,0:0:0:0:
256,192,33479,5,8,0:0:0:0:
256,192,33923,5,0,0:0:0:0:
256,192,34812,5,8,0:0:0:0:
256,192,35701,5,0,0:0:0:0:
256,192,36590,5,8,0:0:0:0:
256,192,37479,5,0,0:0:0:0:
256,192,37923,5,0,0:0:0:0:
256,192,38367,5,8,0:0:0:0:
256,192,39256,5,8,0:0:0:0:
256,192,40145,5,8,0:0:0:0:
256,192,41034,5,8,0:0:0:0:
256,192,41479,5,8,0:0:0:0:
256,192,41923,5,0,0:0:0:0:
256,192,42812,5,12,0:0:0:0:
256,192,43701,5,8,0:0:0:0:
256,192,44590,5,0,0:0:0:0:
256,192,45034,5,0,0:0:0:0:
256,192,45479,5,8,0:0:0:0:
256,192,45923,5,8,0:0:0:0:
256,192,46367,5,0,0:0:0:0:
256,192,47256,5,8,0:0:0:0:
256,192,48145,5,0,0:0:0:0:
256,192,48590,5,0,0:0:0:0:
256,192,49034,5,8,0:0:0:0:
256,192,49923,5,0,0:0:0:0:
256,192,50812,5,8,0:0:0:0:
256,192,51701,5,0,0:0:0:0:
256,192,52145,5,0,0:0:0:0:
256,192,52590,5,8,0:0:0:0:
256,192,53034,5,8,0:0:0:0:
256,192,53479,5,0,0:0:0:0:
256,192,54367,5,8,0:0:0:0:
256,192,55256,5,0,0:0:0:0:
256,192,55701,5,0,0:0:0:0:
256,192,56145,5,8,0:0:0:0:
256,192,57034,5,4,0:0:0:0:
256,192,57923,5,8,0:0:0:0:
256,192,58812,5,0,0:0:0:0:
256,192,60590,5,8,0:0:0:0:
256,192,61479,5,8,0:0:0:0:
256,192,62367,5,0,0:0:0:0:
256,192,63256,5,8,0:0:0:0:
256,192,64145,5,0,0:0:0:0:
256,192,65923,5,8,0:0:0:0:
256,192,66812,5,0,0:0:0:0:
256,192,67701,5,8,0:0:0:0:
256,192,69479,5,0,0:0:0:0:
256,192,70367,5,8,0:0:0:0:
256,192,71256,5,8,0:0:0:0:
256,192,72145,5,8,0:0:0:0:
256,192,73034,5,0,0:0:0:0:
256,192,73479,5,0,0:0:0:0:
256,192,73923,5,8,0:0:0:0:
256,192,74367,5,8,0:0:0:0:
256,192,74812,5,0,0:0:0:0:
256,192,75701,5,8,0:0:0:0:
256,192,76590,5,0,0:0:0:0:
256,192,77034,5,0,0:0:0:0:
256,192,77479,5,8,0:0:0:0:
256,192,78367,5,0,0:0:0:0:
256,192,79256,5,8,0:0:0:0:
256,192,80145,5,0,0:0:0:0:
256,192,80590,5,0,0:0:0:0:
256,192,81034,5,8,0:0:0:0:
256,192,81479,5,8,0:0:0:0:
256,192,81923,5,0,0:0:0:0:
256,192,82812,5,8,0:0:0:0:
256,192,83701,5,0,0:0:0:0:
256,192,84145,5,0,0:0:0:0:
256,192,84590,5,8,0:0:0:0:
256,192,85479,5,4,0:0:0:0:
256,192,87256,5,8,0:0:0:0:
256,192,88145,5,0,0:0:0:0:
256,192,89034,5,8,0:0:0:0:
256,192,90812,5,8,0:0:0:0:
256,192,91701,5,8,0:0:0:0:
256,192,92590,5,0,0:0:0:0:
256,192,94367,5,0,0:0:0:0:
256,192,95256,5,8,0:0:0:0:
256,192,96145,5,0,0:0:0:0:
256,192,97034,5,0,0:0:0:0:
256,192,97923,5,8,0:0:0:0:
256,192,99701,5,8,0:0:0:0:
256,192,100590,5,0,0:0:0:0:
256,192,101034,5,8,0:0:0:0:
256,192,101479,5,8,0:0:0:0:
256,192,102812,5,8,0:0:0:0:
256,192,103256,5,0,0:0:0:0:
256,192,104590,5,0,0:0:0:0:
256,192,105034,5,8,0:0:0:0:
256,192,105923,5,8,0:0:0:0:
256,192,106812,5,8,0:0:0:0:
256,192,108145,5,0,0:0:0:0:
256,192,108590,5,8,0:0:0:0:
256,192,109923,5,8,0:0:0:0:
256,192,110367,5,8,0:0:0:0:
256,192,111701,5,0,0:0:0:0:
256,192,112145,5,8,0:0:0:0:
256,192,113479,5,8,0:0:0:0:
256,192,113923,5,8,0:0:0:0:
256,192,115701,5,0,0:0:0:0:
256,192,116145,5,0,0:0:0:0:
256,192,116590,5,8,0:0:0:0:
256,192,117479,5,8,0:0:0:0:
256,192,117923,5,8,0:0:0:0:
256,192,118367,5,0,0:0:0:0:
256,192,119256,5,0,0:0:0:0:
256,192,120145,5,8,0:0:0:0:
256,192,121034,5,8,0:0:0:0:
256,192,121479,5,8,0:0:0:0:
256,192,121923,5,0,0:0:0:0:
256,192,122812,5,0,0:0:0:0:
256,192,123701,5,8,0:0:0:0:
256,192,124590,5,0,0:0:0:0:
256,192,125034,5,0,0:0:0:0:
256,192,125479,5,8,0:0:0:0:
256,192,126367,5,8,0:0:0:0:
256,192,127256,5,0,0:0:0:0:
256,192,127701,5,0,0:0:0:0:
256,192,128145,5,8,0:0:0:0:
256,192,129923,5,4,0:0:0:0:
256,192,130812,5,8,0:0:0:0:
256,192,131256,5,8,0:0:0:0:
256,192,131701,5,0,0:0:0:0:
256,192,132590,5,8,0:0:0:0:
256,192,133479,5,0,0:0:0:0:
256,192,134367,5,8,0:0:0:0:
256,192,134812,5,8,0:0:0:0:
256,192,135256,5,0,0:0:0:0:
256,192,136145,5,8,0:0:0:0:
256,192,137034,5,0,0:0:0:0:
256,192,137923,5,8,0:0:0:0:
256,192,138812,5,0,0:0:0:0:
256,192,139256,5,0,0:0:0:0:
256,192,139701,5,8,0:0:0:0:
256,192,140590,5,8,0:0:0:0:
256,192,141479,5,8,0:0:0:0:
256,192,142367,5,12,0:0:0:0:
256,192,143256,5,0,0:0:0:0:
256,192,144145,5,4,0:0:0:0:
256,192,145923,5,8,0:0:0:0:
256,192,146812,5,0,0:0:0:0:
256,192,147701,5,8,0:0:0:0:
256,192,149479,5,8,0:0:0:0:
256,192,150367,5,8,0:0:0:0:
256,192,151256,5,0,0:0:0:0:
256,192,151701,5,0,0:0:0:0:
256,192,152145,5,8,0:0:0:0:
256,192,153034,5,8,0:0:0:0:
256,192,153923,5,0,0:0:0:0:
256,192,154812,5,8,0:0:0:0:
256,192,155701,5,0,0:0:0:0:
256,192,156590,5,8,0:0:0:0:
256,192,157479,5,8,0:0:0:0:
256,192,158367,5,0,0:0:0:0:
256,192,159256,5,8,0:0:0:0:
256,192,160145,5,0,0:0:0:0:
256,192,161034,5,8,0:0:0:0:
256,192,162812,5,8,0:0:0:0:
256,192,163701,5,0,0:0:0:0:
256,192,164590,5,8,0:0:0:0:
256,192,165479,5,0,0:0:0:0:
256,192,167256,5,8,0:0:0:0:
256,192,168145,5,0,0:0:0:0:
256,192,169034,5,8,0:0:0:0:
256,192,170812,5,8,0:0:0:0:
256,192,171701,5,8,0:0:0:0:
256,192,172590,5,0,0:0:0:0:
256,192,173479,5,8,0:0:0:0:
256,192,174367,5,0,0:0:0:0:
256,192,175479,5,8,0:0:0:0:
256,192,176145,5,0,0:0:0:0:
256,192,177034,5,0,0:0:0:0:
256,192,177923,5,8,0:0:0:0:
256,192,179701,5,8,0:0:0:0:
256,192,180590,5,8,0:0:0:0:
256,192,181479,5,0,0:0:0:0:
256,192,181923,5,8,0:0:0:0:
256,192,182367,5,0,0:0:0:0:
256,192,183256,5,0,0:0:0:0:
256,192,183701,5,0,0:0:0:0:
256,192,184145,5,8,0:0:0:0:
256,192,185034,5,12,0:0:0:0:
256,192,185923,5,8,0:0:0:0:
256,192,186812,5,0,0:0:0:0:
256,192,188590,5,4,0:0:0:0:
256,192,190367,5,12,0:0:0:0:
256,192,192145,5,4,0:0:0:0:
256,192,193923,5,12,0:0:0:0:
256,192,195701,5,12,0:0:0:0:
256,192,196590,5,0,0:0:0:0:
256,192,197479,5,12,0:0:0:0:
256,192,199256,5,4,0:0:0:0:
256,192,200145,5,8,0:0:0:0:
256,192,201034,5,4,0:0:0:0:
256,192,202812,5,4,0:0:0:0:
256,192,203701,5,0,0:0:0:0:
256,192,204590,5,12,0:0:0:0:
256,192,205479,5,8,0:0:0:0:
256,192,206367,5,4,0:0:0:0:
256,192,208145,5,12,0:0:0:0:
256,192,209034,5,8,0:0:0:0:
256,192,209923,5,4,0:0:0:0:
256,192,210812,5,8,0:0:0:0:
256,192,211701,5,4,0:0:0:0:
256,192,213479,5,12,0:0:0:0:
256,192,214367,5,8,0:0:0:0:
256,192,214812,5,8,0:0:0:0:
256,192,215256,5,4,0:0:0:0:
256,192,217034,5,0,0:0:0:0:
256,192,217479,5,0,0:0:0:0:
256,192,217923,5,8,0:0:0:0:
256,192,218812,5,8,0:0:0:0:
256,192,219256,5,8,0:0:0:0:
256,192,219701,5,0,0:0:0:0:
256,192,220590,5,0,0:0:0:0:
256,192,221479,5,8,0:0:0:0:
256,192,222367,5,8,0:0:0:0:
256,192,222812,5,8,0:0:0:0:
256,192,223256,5,0,0:0:0:0:
256,192,224145,5,0,0:0:0:0:
256,192,225034,5,8,0:0:0:0:
256,192,225923,5,0,0:0:0:0:
256,192,226367,5,0,0:0:0:0:
256,192,226812,5,8,0:0:0:0:
256,192,227701,5,8,0:0:0:0:
256,192,228590,5,0,0:0:0:0:
256,192,229034,5,0,0:0:0:0:
256,192,229479,5,8,0:0:0:0:
256,192,230367,5,8,0:0:0:0:
256,192,231256,5,4,0:0:0:0:
256,192,232145,5,8,0:0:0:0:
256,192,232590,5,8,0:0:0:0:
256,192,233034,5,0,0:0:0:0:
256,192,233923,5,8,0:0:0:0:
256,192,234812,5,0,0:0:0:0:
256,192,235701,5,8,0:0:0:0:
256,192,236145,5,8,0:0:0:0:
256,192,236590,5,0,0:0:0:0:
256,192,237479,5,8,0:0:0:0:
256,192,238367,5,0,0:0:0:0:
256,192,239256,5,8,0:0:0:0:
256,192,240145,5,0,0:0:0:0:
256,192,240590,5,0,0:0:0:0:
256,192,241034,5,8,0:0:0:0:
256,192,241923,5,8,0:0:0:0:
256,192,242812,5,8,0:0:0:0:
256,192,243701,5,8,0:0:0:0:
256,192,244145,5,8,0:0:0:0:
256,192,244590,5,4,0:0:0:0:
256,192,245479,5,12,0:0:0:0:
256,192,246367,5,8,0:0:0:0:
256,192,247256,5,0,0:0:0:0:
256,192,247701,5,0,0:0:0:0:
256,192,248145,5,8,0:0:0:0:
256,192,248590,5,8,0:0:0:0:
256,192,249034,5,0,0:0:0:0:
256,192,249923,5,8,0:0:0:0:
256,192,250812,5,0,0:0:0:0:
256,192,251256,5,0,0:0:0:0:
256,192,251701,5,8,0:0:0:0:
256,192,252590,5,0,0:0:0:0:
256,192,253479,5,8,0:0:0:0:
256,192,254367,5,0,0:0:0:0:
256,192,254812,5,0,0:0:0:0:
256,192,255256,5,8,0:0:0:0:
256,192,255701,5,8,0:0:0:0:
256,192,256145,5,0,0:0:0:0:
256,192,257034,5,8,0:0:0:0:
256,192,257923,5,0,0:0:0:0:
256,192,258367,5,0,0:0:0:0:
256,192,258812,5,8,0:0:0:0:
256,192,259701,5,4,0:0:0:0:
