osu file format v14

[General]
AudioFilename: audio.mp3
AudioLeadIn: 0
PreviewTime: 32331
Countdown: 0
SampleSet: Normal
StackLeniency: 0.7
Mode: 2
LetterboxInBreaks: 0
WidescreenStoryboard: 1

[Editor]
DistanceSpacing: 1
BeatDivisor: 1
GridSize: 32
TimelineZoom: 4.566398

[Metadata]
Title:The Empress
TitleUnicode:The Empress
Artist:UNDEAD CORPORATION
ArtistUnicode:UNDEAD CORPORATION
Creator:Pltilt
Version:EMPRESS SCREAM
Source:東方Project
Tags:touhou un owen was her metal
BeatmapID:1298832
BeatmapSetID:615780

[Difficulty]
HPDrainRate:0
CircleSize:4
OverallDifficulty:6
ApproachRate:9.5
SliderMultiplier:2.2
SliderTickRate:1

[Events]
//Background and Video events
0,0,"bg.png",0,0
//Break Periods
2,46751,49581
2,53862,56692
//Storyboard Layer 0 (Background)
//Storyboard Layer 1 (Fail)
//Storyboard Layer 2 (Pass)
//Storyboard Layer 3 (Foreground)
//Storyboard Sound Samples

[TimingPoints]
3888,222.222222222222,4,1,0,100,1,0
18999,-100,4,1,0,100,0,0
19026,-100,4,1,0,5,0,0
19443,-100,4,1,0,100,0,0
19471,-100,4,1,0,5,0,0
19887,-100,4,1,0,100,0,0
20804,-100,4,1,0,5,0,0
21221,-100,4,1,0,100,0,0
21249,-100,4,1,0,5,0,0
21665,-100,4,1,0,100,0,0
22582,-100,4,1,0,5,0,0
22999,-100,4,1,0,100,0,0
23027,-100,4,1,0,5,0,0
23443,-100,4,1,0,100,0,0
28943,-100,4,1,0,5,0,0
28999,-100,4,1,0,100,0,0
29165,-100,4,1,0,5,0,0
29221,-83.3333333333333,4,1,0,100,0,0
29387,-83.3333333333333,4,1,0,5,0,0
29443,-83.3333333333333,4,1,0,100,0,0
29610,-83.3333333333333,4,1,0,5,0,0
29665,-71.4285714285714,4,1,0,100,0,0
29832,-71.4285714285714,4,1,0,5,0,0
29887,-71.4285714285714,4,1,0,100,0,0
30054,-71.4285714285714,4,1,0,5,0,0
30110,-62.5,4,1,0,100,0,0
30276,-62.5,4,1,0,5,0,0
30332,-62.5,4,1,0,100,0,0
30499,-62.5,4,1,0,5,0,0
30554,-55.5555555555556,4,1,0,100,0,0
30721,-55.5555555555556,4,1,0,5,0,0
30776,-55.5555555555556,4,1,0,100,0,0
30943,-55.5555555555556,4,1,0,5,0,0
30999,-50,4,1,0,100,0,0
31165,-50,4,1,0,5,0,0
31221,-50,4,1,0,100,0,0
31387,-50,4,1,0,5,0,0
31443,444.444444444444,4,1,0,100,1,0
31443,-50,4,1,0,100,0,0
31831,-50,4,1,0,5,0,0
31887,888.888888888889,4,1,0,100,1,0
31887,-25,4,1,0,100,0,0
32331,222.222222222222,4,1,0,100,1,1
35886,-100,4,1,0,100,0,1
35914,-100,4,1,0,5,0,1
36330,-100,4,1,0,100,0,1
36358,-100,4,1,0,5,0,1
36775,-100,4,1,0,100,0,1
37664,-100,4,1,0,100,0,1
38053,-100,4,1,0,5,0,1
38108,-100,4,1,0,100,0,1
38553,888.888888888889,4,1,0,100,1,0
38553,-25,4,1,0,100,0,0
39441,222.222222222222,4,1,0,100,1,1
42996,-100,4,1,0,100,0,1
43163,-100,4,1,0,5,0,1
43440,-100,4,1,0,100,0,1
43496,-100,4,1,0,5,0,1
43885,-100,4,1,0,100,0,1
44052,-100,4,1,0,5,0,1
44329,-100,4,1,0,100,0,1
44385,-100,4,1,0,5,0,1
44774,-100,4,1,0,100,0,1
45163,-100,4,1,0,5,0,1
45218,-100,4,1,0,100,0,1
45663,888.888888888889,4,1,0,100,1,0
45663,-25,4,1,0,100,0,0
46551,222.222222222222,4,1,0,100,1,0
60773,444.444444444444,4,1,0,100,1,0
60773,-50,4,1,0,100,0,0
75884,-50,4,2,0,100,0,0
76328,888.888888888889,4,1,0,100,1,0
76328,-25,4,1,0,100,0,0
76772,222.222222222222,4,1,0,100,1,1
82272,-100,4,1,0,5,0,1
82327,-100,4,1,0,100,0,1
82494,-100,4,1,0,5,0,1
82549,-100,4,1,0,100,0,1
82716,-100,4,1,0,5,0,1
82772,-100,4,1,0,100,0,1
82938,-100,4,1,0,5,0,1
82994,888.888888888889,4,1,0,100,1,0
82994,-25,4,1,0,100,0,0
83882,222.222222222222,4,1,0,100,1,1
86048,-100,4,1,0,5,0,1
86104,-100,4,1,0,100,0,1
86270,-100,4,1,0,5,0,1
86326,-100,4,1,0,100,0,1
86493,-100,4,1,0,5,0,1
86548,-100,4,1,0,100,0,1
87604,-100,4,1,0,5,0,1
87659,-100,4,1,0,100,0,1
87826,-100,4,1,0,5,0,1
87881,-100,4,1,0,100,0,1
88048,-100,4,1,0,5,0,1
88103,-100,4,1,0,100,0,1
88270,-100,4,1,0,5,0,1
88325,-100,4,1,0,100,0,1
89159,-100,4,1,0,5,0,1
89214,-100,4,1,0,100,0,1
90104,888.888888888889,4,1,0,100,1,0
90104,-25,4,1,0,100,0,0
90992,222.222222222222,4,1,0,100,1,0
91880,-100,4,1,0,100,0,0
91907,-100,4,1,0,5,0,0
92324,-100,4,1,0,100,0,0
92352,-100,4,1,0,5,0,0
92768,-100,4,1,0,100,0,0
93658,-100,4,1,0,100,0,0
93685,-100,4,1,0,5,0,0
94102,-100,4,1,0,100,0,0
94130,-100,4,1,0,5,0,0
94546,-100,4,1,0,100,0,0
95436,-100,4,1,0,100,0,0
95463,-100,4,1,0,5,0,0
95880,-100,4,1,0,100,0,0
95908,-100,4,1,0,5,0,0
96324,-100,4,1,0,100,0,0
101658,-100,4,1,0,100,0,0
101825,-100,4,1,0,5,0,0
101881,-100,4,1,0,100,0,0
102047,-100,4,1,0,5,0,0
102103,-83.3333333333333,4,1,0,100,0,0
102269,-83.3333333333333,4,1,0,5,0,0
102325,-83.3333333333333,4,1,0,100,0,0
102492,-83.3333333333333,4,1,0,5,0,0
102547,-71.4285714285714,4,1,0,100,0,0
102714,-71.4285714285714,4,1,0,5,0,0
102769,-71.4285714285714,4,1,0,100,0,0
102936,-71.4285714285714,4,1,0,5,0,0
102992,-62.5,4,1,0,100,0,0
103158,-62.5,4,1,0,5,0,0
103214,-62.5,4,1,0,100,0,0
103381,-62.5,4,1,0,5,0,0
103436,-55.5555555555556,4,1,0,100,0,0
103603,-55.5555555555556,4,1,0,5,0,0
103658,-55.5555555555556,4,1,0,100,0,0
103825,-55.5555555555556,4,1,0,5,0,0
103881,-50,4,1,0,100,0,0
104047,-50,4,1,0,5,0,0
104103,-50,4,1,0,100,0,0
104269,-50,4,1,0,5,0,0
104325,444.444444444444,4,1,0,100,1,0
104325,-50,4,1,0,100,0,0
104769,888.888888888889,4,1,0,100,1,0
104769,-25,4,1,0,100,0,0
105213,222.222222222222,4,1,0,100,1,1
108768,-100,4,1,0,100,0,1
108796,-100,4,1,0,5,0,1
109212,-100,4,1,0,100,0,1
109240,-100,4,1,0,5,0,1
109657,-100,4,1,0,100,0,1
110546,-100,4,1,0,100,0,1
110935,-100,4,1,0,5,0,1
110990,-100,4,1,0,100,0,1
111435,888.888888888889,4,1,0,100,1,0
111435,-25,4,1,0,100,0,0
112323,222.222222222222,4,1,0,100,1,1
115878,-100,4,1,0,100,0,1
116045,-100,4,1,0,5,0,1
116322,-100,4,1,0,100,0,1
116378,-100,4,1,0,5,0,1
116767,-100,4,1,0,100,0,1
116934,-100,4,1,0,5,0,1
117211,-100,4,1,0,100,0,1
117267,-100,4,1,0,5,0,1
117656,-100,4,1,0,100,0,1
118045,-100,4,1,0,5,0,1
118100,-100,4,1,0,100,0,1
118545,888.888888888889,4,1,0,100,1,0
118545,-25,4,1,0,100,0,0
119433,444.444444444444,4,2,0,70,1,0
119433,-50,4,2,0,70,0,0
132766,1777.77777777778,4,2,0,5,1,0
132766,-12.5,4,2,0,5,0,0

[HitObjects]
208,320,3887,6,0,P|80:208|256:64,1,440,4|0,0:0|0:0,0:0:0:0:
272,96,4554,1,0,0:0:0:0:
320,128,4610,1,0,0:0:0:0:
368,144,4665,1,0,0:0:0:0:
432,160,4721,1,0,0:0:0:0:
80,144,4776,6,0,L|48:144,2,27.5,4|0|0,0:0|0:0|0:0,0:0:0:0:
144,192,4999,2,0,L|176:192,2,27.5
48,272,5221,2,0,L|16:272,2,27.5
160,320,5443,2,0,L|192:320,2,27.5
352,320,5665,6,0,P|464:208|288:64,1,440,4|0,0:0|0:0,0:0:0:0:
128,64,6332,1,0,0:0:0:0:
96,112,6387,1,0,0:0:0:0:
64,176,6443,1,0,0:0:0:0:
96,240,6499,1,0,0:0:0:0:
336,144,6554,6,0,L|304:144,2,27.5,4|0|0,0:0|0:0|0:0,0:0:0:0:
368,224,6776,2,0,L|400:224,2,27.5
320,304,6999,5,0,0:0:0:0:
336,304,7054,1,0,0:0:0:0:
352,304,7110,1,0,0:0:0:0:
336,304,7165,1,0,0:0:0:0:
320,304,7221,1,0,0:0:0:0:
336,304,7249,1,0,0:0:0:0:
352,304,7276,1,0,0:0:0:0:
336,304,7304,1,0,0:0:0:0:
320,304,7332,1,0,0:0:0:0:
336,304,7360,1,0,0:0:0:0:
352,304,7387,1,0,0:0:0:0:
336,304,7415,1,0,0:0:0:0:
416,320,7443,6,0,B|496:208|496:208|432:112|432:112|464:64|464:64|320:32,1,440,4|0,0:0|0:0,0:0:0:0:
272,48,8110,1,0,0:0:0:0:
240,80,8165,1,0,0:0:0:0:
192,112,8221,1,0,0:0:0:0:
144,112,8276,1,0,0:0:0:0:
64,192,8332,5,4,0:0:0:0:
208,224,8554,1,0,0:0:0:0:
112,272,8776,1,0,0:0:0:0:
320,256,8999,1,0,0:0:0:0:
64,352,9221,6,0,B|32:208|32:208|96:80|288:48,1,440
416,64,9887,1,0,0:0:0:0:
464,128,9943,1,0,0:0:0:0:
416,208,9999,1,0,0:0:0:0:
352,176,10054,1,0,0:0:0:0:
112,192,10110,5,0,0:0:0:0:
208,192,10332,1,0,0:0:0:0:
112,192,10554,1,0,0:0:0:0:
128,192,10610,1,0,0:0:0:0:
144,192,10665,1,0,0:0:0:0:
160,192,10721,1,0,0:0:0:0:
176,192,10776,1,0,0:0:0:0:
208,192,10832,1,0,0:0:0:0:
224,192,10887,1,0,0:0:0:0:
240,192,10943,1,0,0:0:0:0:
400,160,10999,6,0,L|432:48,1,110,4|0,0:0|0:0,0:0:0:0:
80,112,11221,2,0,L|80:240,1,110
368,320,11443,2,0,L|416:192,1,110
32,176,11665,2,0,L|32:320,1,110
160,80,11887,5,4,0:0:0:0:
320,112,12110,1,0,0:0:0:0:
224,176,12332,1,8,0:0:0:0:
368,224,12554,1,0,0:0:0:0:
80,240,12776,5,4,0:0:0:0:
64,208,12832,1,0,0:0:0:0:
64,176,12887,1,0,0:0:0:0:
96,144,12943,1,0,0:0:0:0:
304,224,12999,1,0,0:0:0:0:
336,192,13054,1,0,0:0:0:0:
336,160,13110,1,0,0:0:0:0:
144,192,13165,1,0,0:0:0:0:
128,144,13221,1,0,0:0:0:0:
128,112,13276,1,0,0:0:0:0:
304,96,13332,1,0,0:0:0:0:
336,64,13387,1,0,0:0:0:0:
336,16,13443,1,0,0:0:0:0:
128,64,13499,1,0,0:0:0:0:
96,80,13554,1,0,0:0:0:0:
80,112,13610,1,0,0:0:0:0:
128,320,13665,5,4,0:0:0:0:
128,304,13693,1,0,0:0:0:0:
128,288,13721,1,0,0:0:0:0:
272,224,13887,1,0,0:0:0:0:
272,256,13915,1,0,0:0:0:0:
272,272,13943,1,0,0:0:0:0:
192,160,14110,1,0,0:0:0:0:
208,144,14137,1,0,0:0:0:0:
240,128,14165,1,0,0:0:0:0:
272,144,14193,1,0,0:0:0:0:
304,176,14221,1,0,0:0:0:0:
336,176,14249,1,0,0:0:0:0:
352,144,14276,1,0,0:0:0:0:
400,128,14304,1,0,0:0:0:0:
416,160,14332,1,0,0:0:0:0:
464,192,14387,5,0,0:0:0:0:
464,256,14443,1,0,0:0:0:0:
416,304,14499,1,0,0:0:0:0:
112,288,14554,6,0,P|64:208|112:64,1,220,4|0,0:0|0:0,0:0:0:0:
128,64,14832,1,0,0:0:0:0:
176,48,14887,1,0,0:0:0:0:
224,32,14943,1,0,0:0:0:0:
464,64,14999,2,0,P|464:192|416:288,1,220,4|0,0:0|0:0,0:0:0:0:
384,288,15276,1,0,0:0:0:0:
320,288,15332,1,0,0:0:0:0:
272,240,15387,1,0,0:0:0:0:
112,48,15443,6,0,P|64:96|96:256,1,220,4|0,0:0|0:0,0:0:0:0:
128,256,15721,1,0,0:0:0:0:
176,288,15776,1,0,0:0:0:0:
224,288,15832,1,0,0:0:0:0:
416,32,15887,2,0,P|480:160|448:272,1,220,4|0,0:0|0:0,0:0:0:0:
464,272,16165,1,0,0:0:0:0:
416,304,16221,1,0,0:0:0:0:
368,304,16276,1,0,0:0:0:0:
112,320,16332,6,0,P|80:224|80:192,1,110,4|0,0:0|0:0,0:0:0:0:
96,176,16471,1,0,0:0:0:0:
128,144,16499,1,0,0:0:0:0:
144,96,16526,1,0,0:0:0:0:
160,48,16554,2,0,P|272:16|368:80,1,220,4|0,0:0|0:0,0:0:0:0:
384,96,16804,1,0,0:0:0:0:
400,144,16832,1,0,0:0:0:0:
400,176,16860,1,0,0:0:0:0:
416,208,16887,2,0,P|448:288|448:320,1,110,4|0,0:0|0:0,0:0:0:0:
416,352,17054,1,0,0:0:0:0:
368,352,17110,1,0,0:0:0:0:
320,320,17165,1,0,0:0:0:0:
256,192,17221,5,4,0:0:0:0:
272,192,17665,1,4,0:0:0:0:
256,192,17721,12,12,17887,0:0:0:0:
144,176,18110,5,0,0:0:0:0:
112,128,18165,1,0,0:0:0:0:
96,64,18221,1,0,0:0:0:0:
336,176,18276,1,0,0:0:0:0:
384,112,18332,1,0,0:0:0:0:
384,64,18387,1,0,0:0:0:0:
240,208,18443,1,0,0:0:0:0:
224,160,18499,1,0,0:0:0:0:
192,80,18554,1,8,0:0:0:0:
384,256,18610,1,0,0:0:0:0:
432,192,18665,1,0,0:0:0:0:
464,144,18721,1,0,0:0:0:0:
240,304,18776,1,0,0:0:0:0:
192,256,18832,1,0,0:0:0:0:
176,192,18887,1,0,0:0:0:0:
144,128,18943,1,0,0:0:0:0:
32,48,18999,5,4,0:0:0:0:
48,48,19026,1,0,0:0:0:0:
64,48,19054,1,0,0:0:0:0:
80,48,19082,1,0,0:0:0:0:
96,48,19110,1,0,0:0:0:0:
256,64,19221,1,0,0:0:0:0:
240,64,19249,1,0,0:0:0:0:
224,64,19276,1,0,0:0:0:0:
208,64,19304,1,0,0:0:0:0:
192,64,19332,1,0,0:0:0:0:
48,192,19443,1,8,0:0:0:0:
64,192,19471,1,0,0:0:0:0:
80,192,19499,1,0,0:0:0:0:
96,192,19526,1,0,0:0:0:0:
112,192,19554,1,0,0:0:0:0:
272,176,19665,1,0,0:0:0:0:
256,176,19693,1,0,0:0:0:0:
240,176,19721,1,0,0:0:0:0:
224,176,19749,1,0,0:0:0:0:
208,176,19776,1,0,0:0:0:0:
128,112,19887,5,4,0:0:0:0:
112,80,19943,1,0,0:0:0:0:
96,32,19999,1,0,0:0:0:0:
240,96,20054,1,0,0:0:0:0:
256,64,20110,1,0,0:0:0:0:
272,32,20165,1,0,0:0:0:0:
192,160,20221,1,0,0:0:0:0:
176,128,20276,1,0,0:0:0:0:
160,96,20332,1,8,0:0:0:0:
160,48,20387,1,0,0:0:0:0:
288,192,20443,1,0,0:0:0:0:
320,160,20499,1,0,0:0:0:0:
352,112,20554,1,0,0:0:0:0:
224,240,20610,1,0,0:0:0:0:
208,208,20665,1,0,0:0:0:0:
192,176,20721,1,0,0:0:0:0:
112,304,20776,5,4,0:0:0:0:
64,272,20804,1,0,0:0:0:0:
48,224,20832,1,0,0:0:0:0:
48,176,20860,1,0,0:0:0:0:
80,128,20887,1,0,0:0:0:0:
368,80,20999,1,0,0:0:0:0:
416,128,21026,1,0,0:0:0:0:
416,192,21054,1,0,0:0:0:0:
384,240,21082,1,0,0:0:0:0:
336,240,21110,1,0,0:0:0:0:
128,48,21221,5,8,0:0:0:0:
132,48,21235,1,0,0:0:0:0:
136,48,21249,1,0,0:0:0:0:
140,48,21262,1,0,0:0:0:0:
144,48,21276,1,0,0:0:0:0:
148,48,21290,1,0,0:0:0:0:
152,48,21304,1,0,0:0:0:0:
156,48,21318,1,0,0:0:0:0:
216,112,21443,5,0,0:0:0:0:
212,112,21457,1,0,0:0:0:0:
208,112,21471,1,0,0:0:0:0:
204,112,21484,1,0,0:0:0:0:
200,112,21498,1,0,0:0:0:0:
196,112,21512,1,0,0:0:0:0:
192,112,21526,1,0,0:0:0:0:
188,112,21540,1,0,0:0:0:0:
176,112,21554,1,0,0:0:0:0:
160,112,21582,1,0,0:0:0:0:
144,112,21610,1,0,0:0:0:0:
128,112,21637,1,0,0:0:0:0:
144,224,21665,5,4,0:0:0:0:
128,192,21721,1,0,0:0:0:0:
112,144,21776,1,0,0:0:0:0:
288,224,21832,1,0,0:0:0:0:
320,192,21887,1,0,0:0:0:0:
336,144,21943,1,0,0:0:0:0:
192,160,21999,1,0,0:0:0:0:
176,112,22054,1,0,0:0:0:0:
176,64,22110,1,8,0:0:0:0:
288,128,22165,1,0,0:0:0:0:
320,96,22221,1,0,0:0:0:0:
352,32,22276,1,0,0:0:0:0:
160,32,22332,1,0,0:0:0:0:
128,64,22387,1,0,0:0:0:0:
128,128,22443,1,0,0:0:0:0:
160,192,22499,1,0,0:0:0:0:
144,336,22554,5,4,0:0:0:0:
112,288,22582,1,0,0:0:0:0:
96,224,22610,1,0,0:0:0:0:
80,160,22637,1,0,0:0:0:0:
80,96,22665,1,0,0:0:0:0:
288,80,22776,1,0,0:0:0:0:
320,128,22804,1,0,0:0:0:0:
304,192,22832,1,0,0:0:0:0:
256,240,22860,1,0,0:0:0:0:
192,208,22887,1,0,0:0:0:0:
160,32,22999,2,0,L|128:32,4,27.5,8|0|0|0|0,0:0|0:0|0:0|0:0|0:0,0:0:0:0:
208,96,23221,2,0,L|240:96,4,27.5
112,192,23443,5,4,0:0:0:0:
96,176,23499,1,0,0:0:0:0:
80,144,23554,1,0,0:0:0:0:
256,192,23610,1,0,0:0:0:0:
272,160,23665,1,0,0:0:0:0:
288,128,23721,1,0,0:0:0:0:
176,160,23776,1,0,0:0:0:0:
160,128,23832,1,0,0:0:0:0:
160,96,23887,1,8,0:0:0:0:
352,128,23943,1,0,0:0:0:0:
368,112,23999,1,0,0:0:0:0:
368,80,24054,1,0,0:0:0:0:
320,256,24110,1,0,0:0:0:0:
288,288,24165,1,0,0:0:0:0:
240,272,24221,1,0,0:0:0:0:
224,224,24276,1,0,0:0:0:0:
96,64,24332,5,4,0:0:0:0:
288,80,24554,1,0,0:0:0:0:
208,144,24776,1,8,0:0:0:0:
400,80,24999,1,0,0:0:0:0:
128,96,25221,6,0,L|48:96,1,55,4|0,0:0|0:0,0:0:0:0:
128,144,25332,1,0,0:0:0:0:
160,192,25387,1,0,0:0:0:0:
368,96,25443,1,0,0:0:0:0:
368,144,25499,1,0,0:0:0:0:
336,176,25554,1,0,0:0:0:0:
224,112,25610,1,0,0:0:0:0:
208,64,25665,1,8,0:0:0:0:
224,16,25721,1,0,0:0:0:0:
400,32,25776,1,0,0:0:0:0:
416,80,25832,1,0,0:0:0:0:
400,128,25887,1,0,0:0:0:0:
256,224,25943,1,0,0:0:0:0:
224,192,25999,1,0,0:0:0:0:
192,160,26054,1,0,0:0:0:0:
80,176,26110,5,4,0:0:0:0:
176,224,26332,1,0,0:0:0:0:
96,256,26554,1,8,0:0:0:0:
304,208,26776,1,0,0:0:0:0:
160,160,26999,5,4,0:0:0:0:
144,112,27054,1,0,0:0:0:0:
160,64,27110,1,0,0:0:0:0:
272,64,27165,1,0,0:0:0:0:
288,112,27221,1,0,0:0:0:0:
272,160,27276,1,0,0:0:0:0:
192,256,27332,1,0,0:0:0:0:
160,224,27387,1,0,0:0:0:0:
160,176,27443,1,8,0:0:0:0:
320,192,27499,1,0,0:0:0:0:
304,224,27554,1,0,0:0:0:0:
272,256,27610,1,0,0:0:0:0:
144,304,27665,2,0,L|64:320,1,55
192,336,27776,1,0,0:0:0:0:
256,320,27832,1,0,0:0:0:0:
96,64,27887,5,4,0:0:0:0:
272,64,28110,1,0,0:0:0:0:
192,96,28332,1,8,0:0:0:0:
224,144,28387,1,0,0:0:0:0:
288,144,28443,1,0,0:0:0:0:
336,96,28499,1,0,0:0:0:0:
368,48,28554,1,2,2:0:0:0:
400,16,28610,1,2,2:0:0:0:
416,0,28665,1,2,2:0:0:0:
80,64,28776,6,0,P|48:144|96:240,1,165,4|0,0:0|0:0,0:0:0:0:
160,224,28999,2,0,P|192:144|160:48,1,165
48,16,29221,6,0,P|16:112|32:240,1,197.99999395752,4|0,0:0|0:0,0:0:0:0:
224,16,29443,2,0,P|256:144|224:240,1,197.99999395752
96,48,29665,6,0,P|80:176|128:272,1,230.99999295044,4|0,0:0|0:0,0:0:0:0:
272,32,29887,2,0,P|304:176|288:272,1,230.99999295044
160,64,30110,6,0,P|112:176|176:336,1,264,4|0,0:0|0:0,0:0:0:0:
352,64,30332,2,0,P|400:192|368:320,1,264
224,32,30554,6,0,P|176:192|224:336,1,296.99999093628,4|0,0:0|0:0,0:0:0:0:
400,32,30776,2,0,P|448:192|416:336,1,296.99999093628
128,16,30999,6,0,P|64:160|144:336,1,330,4|0,0:0|0:0,0:0:0:0:
416,16,31221,2,0,P|464:208|400:320,1,330
192,48,31443,6,0,P|112:176|272:336,1,385,4|0,0:0|0:0,0:0:0:0:
352,48,31887,2,0,P|464:224|304:352,1,440,4|4,0:0|0:0,0:0:0:0:
272,320,32386,1,0,0:0:0:0:
160,256,32442,1,0,0:0:0:0:
176,224,32497,1,0,0:0:0:0:
272,192,32553,1,0,0:0:0:0:
256,160,32608,1,0,0:0:0:0:
176,144,32664,1,0,0:0:0:0:
192,112,32719,1,0,0:0:0:0:
288,96,32775,1,8,0:0:0:0:
272,64,32831,1,0,0:0:0:0:
176,64,32886,1,0,0:0:0:0:
192,32,32942,1,0,0:0:0:0:
288,32,32997,1,0,0:0:0:0:
304,64,33053,1,0,0:0:0:0:
208,128,33108,1,0,0:0:0:0:
176,160,33164,1,0,0:0:0:0:
112,304,33219,5,4,0:0:0:0:
128,272,33275,1,0,0:0:0:0:
240,256,33331,1,0,0:0:0:0:
224,224,33386,1,0,0:0:0:0:
128,192,33442,1,0,0:0:0:0:
144,160,33497,1,0,0:0:0:0:
272,128,33553,1,0,0:0:0:0:
256,112,33608,1,0,0:0:0:0:
144,96,33664,1,8,0:0:0:0:
160,80,33719,1,0,0:0:0:0:
288,48,33775,1,0,0:0:0:0:
272,32,33831,1,0,0:0:0:0:
128,16,33886,1,0,0:0:0:0:
144,16,33942,1,0,0:0:0:0:
256,96,33997,1,0,0:0:0:0:
240,112,34053,1,0,0:0:0:0:
80,192,34108,5,4,0:0:0:0:
64,176,34164,1,0,0:0:0:0:
400,176,34219,1,0,0:0:0:0:
384,160,34275,1,0,0:0:0:0:
80,96,34331,1,0,0:0:0:0:
96,64,34386,1,0,0:0:0:0:
400,80,34442,1,0,0:0:0:0:
384,64,34497,1,0,0:0:0:0:
64,272,34553,1,8,0:0:0:0:
80,288,34608,1,0,0:0:0:0:
384,304,34664,1,0,0:0:0:0:
400,288,34719,1,0,0:0:0:0:
128,192,34775,1,0,0:0:0:0:
112,160,34831,1,0,0:0:0:0:
384,144,34886,1,0,0:0:0:0:
368,160,34942,1,0,0:0:0:0:
48,32,34997,5,4,0:0:0:0:
64,48,35053,1,0,0:0:0:0:
416,80,35108,1,0,0:0:0:0:
432,64,35164,1,0,0:0:0:0:
48,144,35219,1,0,0:0:0:0:
32,160,35275,1,0,0:0:0:0:
432,224,35331,1,0,0:0:0:0:
448,208,35386,1,0,0:0:0:0:
32,256,35442,1,8,0:0:0:0:
48,272,35497,1,0,0:0:0:0:
432,336,35553,1,0,0:0:0:0:
416,352,35608,1,0,0:0:0:0:
32,336,35664,1,0,0:0:0:0:
48,320,35719,1,0,0:0:0:0:
416,208,35775,1,0,0:0:0:0:
432,192,35831,1,0,0:0:0:0:
224,192,35886,5,4,0:0:0:0:
224,176,35914,1,0,0:0:0:0:
240,176,35942,1,0,0:0:0:0:
256,176,35969,1,0,0:0:0:0:
256,192,35997,1,0,0:0:0:0:
256,208,36025,1,0,0:0:0:0:
240,208,36053,1,0,0:0:0:0:
224,208,36081,1,0,0:0:0:0:
224,192,36108,5,0,0:0:0:0:
224,176,36136,1,0,0:0:0:0:
240,176,36164,1,0,0:0:0:0:
256,176,36191,1,0,0:0:0:0:
256,192,36219,1,0,0:0:0:0:
256,208,36247,1,0,0:0:0:0:
240,208,36275,1,0,0:0:0:0:
224,208,36303,1,0,0:0:0:0:
224,192,36330,5,8,0:0:0:0:
224,176,36358,1,0,0:0:0:0:
240,176,36386,1,0,0:0:0:0:
256,176,36413,1,0,0:0:0:0:
256,192,36441,1,0,0:0:0:0:
256,208,36469,1,0,0:0:0:0:
240,208,36497,1,0,0:0:0:0:
224,208,36525,1,0,0:0:0:0:
224,192,36553,5,0,0:0:0:0:
224,176,36581,1,0,0:0:0:0:
240,176,36609,1,0,0:0:0:0:
256,176,36636,1,0,0:0:0:0:
256,192,36664,1,0,0:0:0:0:
256,208,36692,1,0,0:0:0:0:
240,208,36720,1,0,0:0:0:0:
224,208,36748,1,0,0:0:0:0:
64,48,36775,5,4,0:0:0:0:
48,64,36830,1,0,0:0:0:0:
64,96,36886,1,0,0:0:0:0:
48,128,36942,1,0,0:0:0:0:
432,128,36997,1,0,0:0:0:0:
448,160,37053,1,0,0:0:0:0:
432,192,37108,1,0,0:0:0:0:
112,272,37164,1,0,0:0:0:0:
96,240,37219,1,8,0:0:0:0:
96,192,37275,1,0,0:0:0:0:
384,288,37330,1,0,0:0:0:0:
368,320,37386,1,0,0:0:0:0:
336,336,37442,1,0,0:0:0:0:
192,240,37497,1,0,0:0:0:0:
224,192,37553,1,0,0:0:0:0:
272,176,37608,1,0,0:0:0:0:
96,384,37664,6,0,L|32:0,1,385,4|0,0:0|0:0,0:0:0:0:
464,16,38108,2,4,L|272:400,1,426.25
256,192,38553,12,4,39441,0:0:0:0:
80,176,39496,5,0,0:0:0:0:
64,144,39552,1,0,0:0:0:0:
64,96,39607,1,0,0:0:0:0:
272,176,39663,1,0,0:0:0:0:
288,144,39718,1,0,0:0:0:0:
304,96,39774,1,0,0:0:0:0:
128,256,39829,1,0,0:0:0:0:
128,224,39885,1,8,0:0:0:0:
112,192,39941,1,0,0:0:0:0:
288,272,39996,1,0,0:0:0:0:
288,240,40052,1,0,0:0:0:0:
304,192,40107,1,0,0:0:0:0:
112,320,40163,1,0,0:0:0:0:
80,288,40218,1,0,0:0:0:0:
64,256,40274,1,0,0:0:0:0:
128,48,40329,5,4,0:0:0:0:
96,80,40385,1,0,0:0:0:0:
96,128,40441,1,0,0:0:0:0:
256,48,40496,1,0,0:0:0:0:
288,96,40552,1,0,0:0:0:0:
288,160,40607,1,0,0:0:0:0:
144,240,40663,1,0,0:0:0:0:
128,208,40718,1,0,0:0:0:0:
128,144,40774,1,8,0:0:0:0:
272,256,40829,1,0,0:0:0:0:
304,208,40885,1,0,0:0:0:0:
320,160,40941,1,0,0:0:0:0:
128,64,40996,1,0,0:0:0:0:
80,112,41052,1,0,0:0:0:0:
64,192,41107,1,0,0:0:0:0:
96,272,41163,1,0,0:0:0:0:
288,288,41218,5,4,0:0:0:0:
320,240,41274,1,0,0:0:0:0:
352,160,41329,1,0,0:0:0:0:
352,96,41385,1,0,0:0:0:0:
128,48,41441,1,0,0:0:0:0:
80,112,41496,1,0,0:0:0:0:
80,176,41552,1,0,0:0:0:0:
128,256,41607,1,0,0:0:0:0:
272,176,41663,1,8,0:0:0:0:
288,112,41718,1,0,0:0:0:0:
288,48,41774,1,0,0:0:0:0:
128,176,41829,1,0,0:0:0:0:
112,128,41885,1,0,0:0:0:0:
112,80,41941,1,0,0:0:0:0:
336,256,41996,1,0,0:0:0:0:
352,192,42052,1,0,0:0:0:0:
272,192,42107,1,4,0:0:0:0:
256,192,42163,12,12,42552,0:0:0:0:
176,304,42996,6,0,P|96:224|96:144,1,165,4|0,0:0|0:0,0:0:0:0:
304,304,43218,2,0,P|368:240|368:144,1,165
144,144,43440,2,0,P|112:64|192:16,1,165,8|0,0:0|0:0,0:0:0:0:
320,144,43663,2,0,P|368:96|304:16,1,165
128,160,43885,2,0,P|96:224|160:320,1,165,4|0,0:0|0:0,0:0:0:0:
320,160,44107,2,0,P|352:256|272:320,1,165
64,160,44329,2,0,P|64:80|160:16,1,165,8|0,0:0|0:0,0:0:0:0:
352,32,44552,2,0,P|400:96|384:176,1,165
176,48,44774,6,0,P|128:208|272:352,1,385,4|0,0:0|0:0,0:0:0:0:
336,336,45218,2,4,P|400:224|224:32,1,426.25
256,192,45663,12,4,46107,0:0:0:0:
256,192,46551,5,4,0:0:0:0:
256,384,50106,6,0,P|80:208|448:208,1,866.25,6|0,0:0|0:0,0:0:0:0:
447,156,50995,2,0,P|224:16|320:368,1,866.25,6|0,0:0|0:0,0:0:0:0:
256,384,51884,2,0,P|80:208|448:208,1,866.25,6|6,0:0|0:0,0:0:0:0:
256,192,52773,12,4,53662,0:0:0:0:
256,384,57217,6,0,P|80:208|448:208,1,866.25,6|0,0:0|0:0,0:0:0:0:
447,156,58106,2,0,P|224:16|320:368,1,866.25,6|0,0:0|0:0,0:0:0:0:
256,384,58995,2,0,P|80:208|448:208,1,866.25,6|6,0:0|0:0,0:0:0:0:
256,192,59884,12,4,60773,0:0:0:0:
160,240,60884,5,0,0:0:0:0:
144,192,60995,1,0,0:0:0:0:
160,128,61106,1,0,0:0:0:0:
192,80,61217,1,8,0:0:0:0:
224,32,61328,1,0,0:0:0:0:
272,32,61439,1,0,0:0:0:0:
320,32,61550,5,0,0:0:0:0:
352,64,61578,1,0,0:0:0:0:
352,128,61606,1,0,0:0:0:0:
304,144,61634,1,0,0:0:0:0:
272,176,61661,1,4,0:0:0:0:
128,144,61773,5,0,0:0:0:0:
112,208,61884,1,0,0:0:0:0:
128,256,61995,1,0,0:0:0:0:
160,288,62106,1,8,0:0:0:0:
192,288,62217,1,0,0:0:0:0:
240,272,62328,1,0,0:0:0:0:
336,112,62439,5,0,0:0:0:0:
352,112,62467,1,0,0:0:0:0:
352,128,62495,1,0,0:0:0:0:
352,144,62523,1,0,0:0:0:0:
336,144,62550,1,4,0:0:0:0:
256,160,62661,5,0,0:0:0:0:
208,192,62773,1,0,0:0:0:0:
160,240,62884,1,0,0:0:0:0:
176,304,62995,1,8,0:0:0:0:
240,320,63106,1,0,0:0:0:0:
304,320,63217,1,0,0:0:0:0:
368,256,63328,5,0,0:0:0:0:
384,240,63356,1,0,0:0:0:0:
384,208,63384,1,0,0:0:0:0:
368,192,63411,1,0,0:0:0:0:
336,208,63439,1,4,0:0:0:0:
208,192,63550,5,0,0:0:0:0:
192,160,63661,1,0,0:0:0:0:
160,112,63773,1,0,0:0:0:0:
160,64,63884,1,8,0:0:0:0:
192,16,63995,1,0,0:0:0:0:
240,0,64106,1,0,0:0:0:0:
416,32,64217,5,0,0:0:0:0:
448,64,64245,1,0,0:0:0:0:
480,112,64273,1,0,0:0:0:0:
464,176,64300,1,0,0:0:0:0:
416,224,64328,1,4,0:0:0:0:
192,160,64439,5,0,0:0:0:0:
160,192,64550,1,0,0:0:0:0:
128,224,64661,1,0,0:0:0:0:
128,256,64772,1,8,0:0:0:0:
160,288,64884,1,0,0:0:0:0:
208,304,64995,1,0,0:0:0:0:
384,160,65106,5,0,0:0:0:0:
384,160,65134,1,0,0:0:0:0:
384,160,65161,1,0,0:0:0:0:
384,160,65189,1,0,0:0:0:0:
384,160,65217,1,4,0:0:0:0:
288,160,65328,1,0,0:0:0:0:
256,112,65439,1,0,0:0:0:0:
208,80,65550,1,0,0:0:0:0:
160,48,65661,1,8,0:0:0:0:
80,48,65773,1,0,0:0:0:0:
16,80,65884,1,0,0:0:0:0:
64,144,65995,5,0,0:0:0:0:
160,208,66023,1,0,0:0:0:0:
256,288,66050,1,0,0:0:0:0:
384,352,66078,1,0,0:0:0:0:
480,336,66106,1,4,0:0:0:0:
480,256,66217,5,0,0:0:0:0:
480,192,66328,1,0,0:0:0:0:
448,144,66439,1,0,0:0:0:0:
400,112,66550,1,8,0:0:0:0:
336,80,66661,1,0,0:0:0:0:
272,80,66773,1,0,0:0:0:0:
208,80,66884,5,0,0:0:0:0:
160,144,66911,1,0,0:0:0:0:
112,208,66939,1,0,0:0:0:0:
32,256,66967,1,0,0:0:0:0:
32,256,66995,1,4,0:0:0:0:
112,304,67106,5,0,0:0:0:0:
176,320,67217,1,0,0:0:0:0:
240,304,67328,1,0,0:0:0:0:
288,272,67439,1,8,0:0:0:0:
320,224,67550,1,0,0:0:0:0:
368,176,67661,1,0,0:0:0:0:
512,192,67773,5,0,0:0:0:0:
384,192,67800,1,0,0:0:0:0:
256,192,67828,1,0,0:0:0:0:
128,192,67856,1,0,0:0:0:0:
0,192,67884,1,4,0:0:0:0:
0,192,67995,5,0,0:0:0:0:
64,192,68106,1,0,0:0:0:0:
128,192,68217,1,0,0:0:0:0:
192,192,68328,1,8,0:0:0:0:
256,192,68439,1,0,0:0:0:0:
320,192,68550,1,0,0:0:0:0:
320,192,68661,5,0,0:0:0:0:
192,192,68689,1,0,0:0:0:0:
64,192,68717,1,0,0:0:0:0:
128,192,68745,1,0,0:0:0:0:
256,192,68772,1,4,0:0:0:0:
208,256,68884,5,0,0:0:0:0:
160,304,68995,1,0,0:0:0:0:
96,304,69106,1,0,0:0:0:0:
48,256,69217,1,8,0:0:0:0:
32,208,69328,1,0,0:0:0:0:
48,144,69439,1,0,0:0:0:0:
128,144,69550,5,0,0:0:0:0:
208,144,69578,1,0,0:0:0:0:
288,144,69606,1,0,0:0:0:0:
368,144,69634,1,0,0:0:0:0:
448,144,69661,1,4,0:0:0:0:
496,192,69772,5,0,0:0:0:0:
480,240,69884,1,0,0:0:0:0:
432,272,69995,1,0,0:0:0:0:
384,288,70106,1,8,0:0:0:0:
336,272,70217,1,0,0:0:0:0:
304,224,70328,1,0,0:0:0:0:
256,160,70439,1,0,0:0:0:0:
224,96,70550,5,4,0:0:0:0:
160,48,70661,1,0,0:0:0:0:
96,32,70772,1,0,0:0:0:0:
32,48,70884,1,0,0:0:0:0:
0,96,70995,1,8,0:0:0:0:
0,160,71106,1,0,0:0:0:0:
48,208,71217,1,0,0:0:0:0:
96,256,71328,1,0,0:0:0:0:
176,272,71439,5,4,0:0:0:0:
256,192,72328,5,4,0:0:0:0:
192,208,73217,5,4,0:0:0:0:
160,176,73272,1,0,0:0:0:0:
144,112,73328,1,0,0:0:0:0:
304,192,73384,1,0,0:0:0:0:
336,160,73439,1,0,0:0:0:0:
352,112,73495,1,0,0:0:0:0:
224,96,73550,1,0,0:0:0:0:
192,64,73606,1,0,0:0:0:0:
144,32,73661,1,8,0:0:0:0:
304,96,73717,1,0,0:0:0:0:
352,48,73772,1,0,0:0:0:0:
416,32,73828,1,0,0:0:0:0:
480,48,73884,1,0,0:0:0:0:
496,96,73939,1,0,0:0:0:0:
480,160,73995,1,0,0:0:0:0:
448,192,74050,1,0,0:0:0:0:
112,272,74106,5,4,0:0:0:0:
96,240,74161,1,0,0:0:0:0:
224,272,74217,1,0,0:0:0:0:
240,240,74272,1,0,0:0:0:0:
144,192,74328,1,0,0:0:0:0:
128,160,74384,1,0,0:0:0:0:
272,176,74439,1,0,0:0:0:0:
288,160,74495,1,0,0:0:0:0:
176,112,74550,1,8,0:0:0:0:
160,96,74606,1,0,0:0:0:0:
336,96,74661,1,0,0:0:0:0:
352,80,74717,1,0,0:0:0:0:
160,32,74772,1,0,0:0:0:0:
128,16,74828,1,0,0:0:0:0:
352,32,74884,1,0,0:0:0:0:
384,16,74939,1,0,0:0:0:0:
240,192,74995,5,4,0:0:0:0:
272,192,75050,1,0,0:0:0:0:
240,192,75106,1,0,0:0:0:0:
272,192,75161,1,0,0:0:0:0:
240,192,75217,1,0,0:0:0:0:
272,192,75272,1,0,0:0:0:0:
240,192,75328,1,0,0:0:0:0:
272,192,75384,1,0,0:0:0:0:
240,192,75439,1,8,0:0:0:0:
272,192,75495,1,0,0:0:0:0:
240,192,75550,1,0,0:0:0:0:
272,192,75606,1,0,0:0:0:0:
240,192,75661,1,0,0:0:0:0:
272,192,75717,1,0,0:0:0:0:
240,192,75772,1,0,0:0:0:0:
272,192,75828,1,0,0:0:0:0:
512,192,75884,5,2,0:0:0:0:
384,192,75911,5,0,0:0:0:0:
256,192,75939,5,2,0:0:0:0:
128,192,75967,5,0,0:0:0:0:
0,192,75995,5,2,0:0:0:0:
0,192,76022,5,0,0:0:0:0:
128,192,76049,5,2,0:0:0:0:
256,192,76077,5,0,0:0:0:0:
384,192,76105,5,2,0:0:0:0:
512,192,76133,5,0,0:0:0:0:
512,192,76161,5,2,0:0:0:0:
384,192,76188,5,0,0:0:0:0:
256,192,76216,5,2,0:0:0:0:
128,192,76244,5,0,0:0:0:0:
0,192,76272,5,2,0:0:0:0:
128,192,76300,5,0,0:0:0:0:
256,192,76328,5,4,0:0:0:0:
256,192,76383,12,4,76771,0:0:0:0:
96,32,76827,5,0,0:0:0:0:
64,64,76883,1,0,0:0:0:0:
32,96,76938,1,0,0:0:0:0:
0,112,76994,1,0,0:0:0:0:
176,48,77049,1,0,0:0:0:0:
208,96,77105,1,0,0:0:0:0:
240,128,77160,1,0,0:0:0:0:
288,144,77216,1,8,0:0:0:0:
96,144,77272,1,0,0:0:0:0:
80,192,77327,1,0,0:0:0:0:
48,224,77383,1,0,0:0:0:0:
0,240,77438,1,0,0:0:0:0:
160,192,77494,1,0,0:0:0:0:
192,240,77549,1,0,0:0:0:0:
240,272,77605,1,0,0:0:0:0:
288,272,77660,5,4,0:0:0:0:
336,240,77716,1,0,0:0:0:0:
368,192,77772,1,0,0:0:0:0:
400,144,77827,1,0,0:0:0:0:
304,80,77883,1,0,0:0:0:0:
256,128,77938,1,0,0:0:0:0:
192,160,77994,1,0,0:0:0:0:
112,160,78049,1,0,0:0:0:0:
48,48,78105,1,8,0:0:0:0:
96,48,78160,1,0,0:0:0:0:
160,16,78216,1,0,0:0:0:0:
208,0,78272,1,0,0:0:0:0:
304,32,78327,1,0,0:0:0:0:
272,80,78383,1,0,0:0:0:0:
224,112,78438,1,0,0:0:0:0:
176,128,78494,1,0,0:0:0:0:
64,208,78549,5,4,0:0:0:0:
80,272,78605,1,0,0:0:0:0:
128,320,78660,1,0,0:0:0:0:
176,352,78716,1,0,0:0:0:0:
224,320,78772,1,0,0:0:0:0:
256,272,78827,1,0,0:0:0:0:
304,240,78883,1,0,0:0:0:0:
368,240,78938,1,0,0:0:0:0:
384,176,78994,1,8,0:0:0:0:
432,128,79049,1,0,0:0:0:0:
464,80,79105,1,0,0:0:0:0:
448,16,79160,1,0,0:0:0:0:
384,16,79216,1,8,0:0:0:0:
336,64,79272,1,0,0:0:0:0:
288,96,79327,1,0,0:0:0:0:
224,64,79383,1,0,0:0:0:0:
256,192,79438,5,4,0:0:0:0:
256,192,79452,12,8,79883,0:0:0:0:
256,192,79938,12,4,80327,0:0:0:0:
112,192,80383,5,0,0:0:0:0:
80,160,80438,1,0,0:0:0:0:
64,96,80494,1,0,0:0:0:0:
224,192,80549,1,8,0:0:0:0:
256,144,80605,1,0,0:0:0:0:
272,80,80660,1,0,0:0:0:0:
160,256,80716,1,0,0:0:0:0:
112,304,80772,1,8,0:0:0:0:
64,352,80827,1,0,0:0:0:0:
240,272,80883,1,0,0:0:0:0:
288,320,80938,1,0,0:0:0:0:
336,368,80994,1,8,0:0:0:0:
224,208,81049,1,0,0:0:0:0:
256,176,81105,1,0,0:0:0:0:
272,128,81160,1,0,0:0:0:0:
112,48,81216,5,4,0:0:0:0:
64,112,81272,1,0,0:0:0:0:
80,176,81327,1,0,0:0:0:0:
128,224,81383,1,0,0:0:0:0:
256,64,81438,1,8,0:0:0:0:
304,112,81494,1,0,0:0:0:0:
320,176,81549,1,8,0:0:0:0:
288,240,81605,1,0,0:0:0:0:
208,288,81660,1,8,0:0:0:0:
160,256,81716,1,0,0:0:0:0:
112,192,81772,1,0,0:0:0:0:
112,128,81827,1,0,0:0:0:0:
304,192,81883,1,8,0:0:0:0:
336,144,81938,1,0,0:0:0:0:
336,80,81994,1,0,0:0:0:0:
288,32,82049,1,0,0:0:0:0:
208,192,82105,6,0,P|112:128|96:64,1,165,4|0,0:0|0:0,0:0:0:0:
304,192,82327,2,0,P|400:128|416:64,1,165,8|0,0:0|0:0,0:0:0:0:
208,256,82549,6,0,P|112:192|96:128,1,165,4|0,0:0|0:0,0:0:0:0:
304,256,82771,2,0,P|400:192|416:128,1,165,8|0,0:0|0:0,0:0:0:0:
432,96,82994,6,0,B|256:32|256:32|48:112|48:112|256:192|256:192|256:368|256:368|352:368,1,880,4|4,0:0|0:0,0:0:0:0:
368,336,83937,5,0,0:0:0:0:
400,288,83993,1,0,0:0:0:0:
400,240,84048,1,0,0:0:0:0:
192,336,84104,1,0,0:0:0:0:
160,304,84159,1,0,0:0:0:0:
128,256,84215,1,0,0:0:0:0:
288,272,84270,1,0,0:0:0:0:
320,224,84326,1,8,0:0:0:0:
320,176,84382,1,0,0:0:0:0:
160,176,84437,1,0,0:0:0:0:
144,144,84493,1,0,0:0:0:0:
112,96,84548,1,0,0:0:0:0:
288,128,84604,1,0,0:0:0:0:
320,64,84659,1,0,0:0:0:0:
320,16,84715,1,0,0:0:0:0:
96,32,84770,5,4,0:0:0:0:
64,64,84826,1,0,0:0:0:0:
64,112,84882,1,0,0:0:0:0:
96,160,84937,1,0,0:0:0:0:
336,256,84993,1,0,0:0:0:0:
368,208,85048,1,0,0:0:0:0:
368,128,85104,1,0,0:0:0:0:
320,80,85159,1,0,0:0:0:0:
64,240,85215,1,8,0:0:0:0:
48,288,85270,1,0,0:0:0:0:
96,352,85326,1,0,0:0:0:0:
160,368,85382,1,0,0:0:0:0:
320,240,85437,1,0,0:0:0:0:
352,272,85493,1,0,0:0:0:0:
352,320,85548,1,0,0:0:0:0:
320,352,85604,1,0,0:0:0:0:
192,272,85659,6,0,B|80:208|48:16|48:16|128:0,1,385,4|0,0:0|0:0,0:0:0:0:
288,240,86104,2,0,P|336:160|304:80,1,165,8|0,0:0|0:0,0:0:0:0:
144,96,86326,2,0,P|96:160|128:256,1,165,8|0,0:0|0:0,0:0:0:0:
256,192,86548,1,4,0:0:0:0:
256,192,86562,12,12,86993,0:0:0:0:
160,160,87437,6,0,P|96:80|128:16,1,165,4|0,0:0|0:0,0:0:0:0:
320,160,87659,2,0,P|384:128|400:32,1,165,8|0,0:0|0:0,0:0:0:0:
160,160,87882,2,0,P|80:240|128:304,1,165,8|0,0:0|0:0,0:0:0:0:
320,160,88104,2,0,P|368:256|336:320,1,165,8|0,0:0|0:0,0:0:0:0:
112,352,88326,2,0,P|64:224|480:272,1,825,4|0,0:0|0:0,0:0:0:0:
480,272,89215,5,4,0:0:0:0:
480,288,89270,1,0,0:0:0:0:
480,304,89326,1,0,0:0:0:0:
480,320,89382,1,0,0:0:0:0:
480,336,89437,1,0,0:0:0:0:
480,352,89493,1,0,0:0:0:0:
480,368,89548,1,0,0:0:0:0:
480,384,89604,1,0,0:0:0:0:
480,368,89659,1,8,0:0:0:0:
480,352,89715,1,0,0:0:0:0:
480,336,89770,1,0,0:0:0:0:
480,320,89826,1,0,0:0:0:0:
480,304,89882,1,0,0:0:0:0:
480,288,89937,1,0,0:0:0:0:
480,272,89993,1,0,0:0:0:0:
480,256,90048,1,0,0:0:0:0:
0,192,90104,5,4,0:0:0:0:
128,192,90159,5,0,0:0:0:0:
256,192,90215,5,0,0:0:0:0:
384,192,90270,5,0,0:0:0:0:
512,192,90326,5,0,0:0:0:0:
512,192,90381,5,0,0:0:0:0:
384,192,90436,5,0,0:0:0:0:
256,192,90492,5,0,0:0:0:0:
128,192,90547,5,8,0:0:0:0:
0,192,90603,5,0,0:0:0:0:
0,192,90659,5,0,0:0:0:0:
128,192,90714,5,0,0:0:0:0:
256,192,90770,5,0,0:0:0:0:
384,192,90825,5,0,0:0:0:0:
512,192,90881,5,0,0:0:0:0:
256,192,90937,5,0,0:0:0:0:
368,176,90992,5,0,0:0:0:0:
400,128,91047,1,0,0:0:0:0:
416,64,91103,1,0,0:0:0:0:
176,176,91158,1,0,0:0:0:0:
128,112,91214,1,0,0:0:0:0:
128,64,91269,1,0,0:0:0:0:
272,208,91325,1,0,0:0:0:0:
288,160,91381,1,0,0:0:0:0:
320,80,91436,1,8,0:0:0:0:
128,256,91492,1,0,0:0:0:0:
80,192,91547,1,0,0:0:0:0:
48,144,91603,1,0,0:0:0:0:
272,304,91658,1,0,0:0:0:0:
320,256,91714,1,0,0:0:0:0:
336,192,91769,1,0,0:0:0:0:
368,128,91825,1,0,0:0:0:0:
480,48,91881,5,4,0:0:0:0:
464,48,91908,1,0,0:0:0:0:
448,48,91936,1,0,0:0:0:0:
432,48,91964,1,0,0:0:0:0:
416,48,91992,1,0,0:0:0:0:
256,64,92103,1,0,0:0:0:0:
272,64,92131,1,0,0:0:0:0:
288,64,92158,1,0,0:0:0:0:
304,64,92186,1,0,0:0:0:0:
320,64,92214,1,0,0:0:0:0:
464,192,92325,1,8,0:0:0:0:
448,192,92353,1,0,0:0:0:0:
432,192,92381,1,0,0:0:0:0:
416,192,92408,1,0,0:0:0:0:
400,192,92436,1,0,0:0:0:0:
240,176,92547,1,0,0:0:0:0:
256,176,92575,1,0,0:0:0:0:
272,176,92603,1,0,0:0:0:0:
288,176,92631,1,0,0:0:0:0:
304,176,92658,1,0,0:0:0:0:
384,112,92769,5,4,0:0:0:0:
400,80,92825,1,0,0:0:0:0:
416,32,92881,1,0,0:0:0:0:
272,96,92936,1,0,0:0:0:0:
256,64,92992,1,0,0:0:0:0:
240,32,93047,1,0,0:0:0:0:
320,160,93103,1,0,0:0:0:0:
336,128,93158,1,0,0:0:0:0:
352,96,93214,1,8,0:0:0:0:
352,48,93269,1,0,0:0:0:0:
224,192,93325,1,0,0:0:0:0:
192,160,93381,1,0,0:0:0:0:
160,112,93436,1,0,0:0:0:0:
288,240,93492,1,0,0:0:0:0:
304,208,93547,1,0,0:0:0:0:
320,176,93603,1,0,0:0:0:0:
400,304,93658,5,4,0:0:0:0:
448,272,93686,1,0,0:0:0:0:
464,224,93714,1,0,0:0:0:0:
464,176,93742,1,0,0:0:0:0:
432,128,93769,1,0,0:0:0:0:
144,80,93881,1,0,0:0:0:0:
96,128,93908,1,0,0:0:0:0:
96,192,93936,1,0,0:0:0:0:
128,240,93964,1,0,0:0:0:0:
176,240,93992,1,0,0:0:0:0:
384,48,94103,5,8,0:0:0:0:
380,48,94117,1,0,0:0:0:0:
376,48,94131,1,0,0:0:0:0:
372,48,94144,1,0,0:0:0:0:
368,48,94158,1,0,0:0:0:0:
364,48,94172,1,0,0:0:0:0:
360,48,94186,1,0,0:0:0:0:
356,48,94200,1,0,0:0:0:0:
296,112,94325,5,0,0:0:0:0:
300,112,94339,1,0,0:0:0:0:
304,112,94353,1,0,0:0:0:0:
308,112,94366,1,0,0:0:0:0:
312,112,94380,1,0,0:0:0:0:
316,112,94394,1,0,0:0:0:0:
320,112,94408,1,0,0:0:0:0:
324,112,94422,1,0,0:0:0:0:
336,112,94436,1,0,0:0:0:0:
352,112,94464,1,0,0:0:0:0:
368,112,94492,1,0,0:0:0:0:
384,112,94519,1,0,0:0:0:0:
368,224,94547,5,4,0:0:0:0:
384,192,94603,1,0,0:0:0:0:
400,144,94658,1,0,0:0:0:0:
224,224,94714,1,0,0:0:0:0:
192,192,94769,1,0,0:0:0:0:
176,144,94825,1,0,0:0:0:0:
320,160,94881,1,0,0:0:0:0:
336,112,94936,1,0,0:0:0:0:
336,64,94992,1,8,0:0:0:0:
224,128,95047,1,0,0:0:0:0:
192,96,95103,1,0,0:0:0:0:
160,32,95158,1,0,0:0:0:0:
352,32,95214,1,0,0:0:0:0:
384,64,95269,1,0,0:0:0:0:
384,128,95325,1,0,0:0:0:0:
352,192,95381,1,0,0:0:0:0:
368,336,95436,5,4,0:0:0:0:
400,288,95464,1,0,0:0:0:0:
416,224,95492,1,0,0:0:0:0:
432,160,95519,1,0,0:0:0:0:
432,96,95547,1,0,0:0:0:0:
224,80,95658,1,0,0:0:0:0:
192,128,95686,1,0,0:0:0:0:
208,192,95714,1,0,0:0:0:0:
256,240,95742,1,0,0:0:0:0:
320,208,95769,1,0,0:0:0:0:
352,32,95881,2,0,L|384:32,4,27.5,8|0|0|0|0,0:0|0:0|0:0|0:0|0:0,0:0:0:0:
304,96,96103,2,0,L|272:96,4,27.5
400,192,96325,5,4,0:0:0:0:
416,176,96381,1,0,0:0:0:0:
432,144,96436,1,0,0:0:0:0:
256,192,96492,1,0,0:0:0:0:
240,160,96547,1,0,0:0:0:0:
224,128,96603,1,0,0:0:0:0:
336,160,96658,1,0,0:0:0:0:
352,128,96714,1,0,0:0:0:0:
352,96,96769,1,8,0:0:0:0:
160,128,96825,1,0,0:0:0:0:
144,112,96881,1,0,0:0:0:0:
144,80,96936,1,0,0:0:0:0:
192,256,96992,1,0,0:0:0:0:
224,288,97047,1,0,0:0:0:0:
272,272,97103,1,0,0:0:0:0:
288,224,97158,1,0,0:0:0:0:
416,64,97214,5,4,0:0:0:0:
224,80,97436,1,0,0:0:0:0:
304,144,97658,1,8,0:0:0:0:
112,80,97881,1,0,0:0:0:0:
384,96,98103,6,0,L|464:96,1,55,4|0,0:0|0:0,0:0:0:0:
384,144,98214,1,0,0:0:0:0:
352,192,98269,1,0,0:0:0:0:
144,96,98325,1,0,0:0:0:0:
144,144,98381,1,0,0:0:0:0:
176,176,98436,1,0,0:0:0:0:
288,112,98492,1,0,0:0:0:0:
304,64,98547,1,8,0:0:0:0:
288,16,98603,1,0,0:0:0:0:
112,32,98658,1,0,0:0:0:0:
96,80,98714,1,0,0:0:0:0:
112,128,98769,1,0,0:0:0:0:
256,224,98825,1,0,0:0:0:0:
288,192,98881,1,0,0:0:0:0:
320,160,98936,1,0,0:0:0:0:
432,176,98992,5,4,0:0:0:0:
336,224,99214,1,0,0:0:0:0:
416,256,99436,1,8,0:0:0:0:
208,208,99658,1,0,0:0:0:0:
352,160,99881,5,4,0:0:0:0:
368,112,99936,1,0,0:0:0:0:
352,64,99992,1,0,0:0:0:0:
240,64,100047,1,0,0:0:0:0:
224,112,100103,1,0,0:0:0:0:
240,160,100158,1,0,0:0:0:0:
320,256,100214,1,0,0:0:0:0:
352,224,100269,1,0,0:0:0:0:
352,176,100325,1,8,0:0:0:0:
192,192,100381,1,0,0:0:0:0:
208,224,100436,1,0,0:0:0:0:
240,256,100492,1,0,0:0:0:0:
368,304,100547,2,0,L|448:320,1,55
320,336,100658,1,0,0:0:0:0:
256,320,100714,1,0,0:0:0:0:
416,64,100769,5,4,0:0:0:0:
240,64,100992,1,0,0:0:0:0:
320,96,101214,1,8,0:0:0:0:
288,144,101269,1,0,0:0:0:0:
224,144,101325,1,0,0:0:0:0:
176,96,101381,1,0,0:0:0:0:
144,48,101436,1,2,2:0:0:0:
112,16,101492,1,2,2:0:0:0:
96,0,101547,1,2,2:0:0:0:
432,64,101658,6,0,P|464:144|416:240,1,165,4|0,0:0|0:0,0:0:0:0:
352,224,101881,2,0,P|320:144|352:48,1,165
464,16,102103,6,0,P|496:112|480:240,1,197.99999395752,4|0,0:0|0:0,0:0:0:0:
288,16,102325,2,0,P|256:144|288:240,1,197.99999395752
416,48,102547,6,0,P|432:176|384:272,1,230.99999295044,4|0,0:0|0:0,0:0:0:0:
240,32,102769,2,0,P|208:176|224:272,1,230.99999295044
352,64,102992,6,0,P|400:176|336:336,1,264,4|0,0:0|0:0,0:0:0:0:
160,64,103214,2,0,P|112:192|144:320,1,264
288,32,103436,6,0,P|336:192|288:336,1,296.99999093628,4|0,0:0|0:0,0:0:0:0:
112,32,103658,2,0,P|64:192|96:336,1,296.99999093628
384,16,103881,6,0,P|448:160|368:336,1,330,4|0,0:0|0:0,0:0:0:0:
96,16,104103,2,0,P|48:208|112:320,1,330
320,48,104325,6,0,P|400:176|240:336,1,385,4|0,0:0|0:0,0:0:0:0:
160,48,104769,2,0,P|48:224|208:352,1,440,4|4,0:0|0:0,0:0:0:0:
240,320,105268,1,0,0:0:0:0:
352,256,105324,1,0,0:0:0:0:
336,224,105379,1,0,0:0:0:0:
240,192,105435,1,0,0:0:0:0:
256,160,105490,1,0,0:0:0:0:
336,144,105546,1,0,0:0:0:0:
320,112,105601,1,0,0:0:0:0:
224,96,105657,1,8,0:0:0:0:
240,64,105713,1,0,0:0:0:0:
336,64,105768,1,0,0:0:0:0:
320,32,105824,1,0,0:0:0:0:
224,32,105879,1,0,0:0:0:0:
208,64,105935,1,0,0:0:0:0:
304,128,105990,1,0,0:0:0:0:
336,160,106046,1,0,0:0:0:0:
400,304,106101,5,4,0:0:0:0:
384,272,106157,1,0,0:0:0:0:
272,256,106213,1,0,0:0:0:0:
288,224,106268,1,0,0:0:0:0:
384,192,106324,1,0,0:0:0:0:
368,160,106379,1,0,0:0:0:0:
240,128,106435,1,0,0:0:0:0:
256,112,106490,1,0,0:0:0:0:
368,96,106546,1,8,0:0:0:0:
352,80,106601,1,0,0:0:0:0:
224,48,106657,1,0,0:0:0:0:
240,32,106713,1,0,0:0:0:0:
384,16,106768,1,0,0:0:0:0:
368,16,106824,1,0,0:0:0:0:
256,96,106879,1,0,0:0:0:0:
272,112,106935,1,0,0:0:0:0:
432,192,106990,5,4,0:0:0:0:
448,176,107046,1,0,0:0:0:0:
112,176,107101,1,0,0:0:0:0:
128,160,107157,1,0,0:0:0:0:
432,96,107213,1,0,0:0:0:0:
416,64,107268,1,0,0:0:0:0:
112,80,107324,1,0,0:0:0:0:
128,64,107379,1,0,0:0:0:0:
448,272,107435,1,8,0:0:0:0:
432,288,107490,1,0,0:0:0:0:
128,304,107546,1,0,0:0:0:0:
112,288,107601,1,0,0:0:0:0:
384,192,107657,1,0,0:0:0:0:
400,160,107713,1,0,0:0:0:0:
128,144,107768,1,0,0:0:0:0:
144,160,107824,1,0,0:0:0:0:
464,32,107879,5,4,0:0:0:0:
448,48,107935,1,0,0:0:0:0:
96,80,107990,1,0,0:0:0:0:
80,64,108046,1,0,0:0:0:0:
464,144,108101,1,0,0:0:0:0:
480,160,108157,1,0,0:0:0:0:
80,224,108213,1,0,0:0:0:0:
64,208,108268,1,0,0:0:0:0:
480,256,108324,1,8,0:0:0:0:
464,272,108379,1,0,0:0:0:0:
80,336,108435,1,0,0:0:0:0:
96,352,108490,1,0,0:0:0:0:
480,336,108546,1,0,0:0:0:0:
464,320,108601,1,0,0:0:0:0:
96,208,108657,1,0,0:0:0:0:
80,192,108713,1,0,0:0:0:0:
288,192,108768,5,4,0:0:0:0:
288,176,108796,1,0,0:0:0:0:
272,176,108824,1,0,0:0:0:0:
256,176,108851,1,0,0:0:0:0:
256,192,108879,1,0,0:0:0:0:
256,208,108907,1,0,0:0:0:0:
272,208,108935,1,0,0:0:0:0:
288,208,108963,1,0,0:0:0:0:
288,192,108990,5,0,0:0:0:0:
288,176,109018,1,0,0:0:0:0:
272,176,109046,1,0,0:0:0:0:
256,176,109073,1,0,0:0:0:0:
256,192,109101,1,0,0:0:0:0:
256,208,109129,1,0,0:0:0:0:
272,208,109157,1,0,0:0:0:0:
288,208,109185,1,0,0:0:0:0:
288,192,109212,5,8,0:0:0:0:
288,176,109240,1,0,0:0:0:0:
272,176,109268,1,0,0:0:0:0:
256,176,109295,1,0,0:0:0:0:
256,192,109323,1,0,0:0:0:0:
256,208,109351,1,0,0:0:0:0:
272,208,109379,1,0,0:0:0:0:
288,208,109407,1,0,0:0:0:0:
288,192,109435,5,0,0:0:0:0:
288,176,109463,1,0,0:0:0:0:
272,176,109491,1,0,0:0:0:0:
256,176,109518,1,0,0:0:0:0:
256,192,109546,1,0,0:0:0:0:
256,208,109574,1,0,0:0:0:0:
272,208,109602,1,0,0:0:0:0:
288,208,109630,1,0,0:0:0:0:
448,48,109657,5,4,0:0:0:0:
464,64,109712,1,0,0:0:0:0:
448,96,109768,1,0,0:0:0:0:
464,128,109824,1,0,0:0:0:0:
80,128,109879,1,0,0:0:0:0:
64,160,109935,1,0,0:0:0:0:
80,192,109990,1,0,0:0:0:0:
400,272,110046,1,0,0:0:0:0:
416,240,110101,1,8,0:0:0:0:
416,192,110157,1,0,0:0:0:0:
128,288,110212,1,0,0:0:0:0:
144,320,110268,1,0,0:0:0:0:
176,336,110324,1,0,0:0:0:0:
320,240,110379,1,0,0:0:0:0:
288,192,110435,1,0,0:0:0:0:
240,176,110490,1,0,0:0:0:0:
416,384,110546,6,0,L|480:0,1,385,4|0,0:0|0:0,0:0:0:0:
48,16,110990,2,4,L|240:400,1,426.25
256,192,111435,12,4,112323,0:0:0:0:
432,176,112378,5,0,0:0:0:0:
448,144,112434,1,0,0:0:0:0:
448,96,112489,1,0,0:0:0:0:
240,176,112545,1,0,0:0:0:0:
224,144,112600,1,0,0:0:0:0:
208,96,112656,1,0,0:0:0:0:
384,256,112711,1,0,0:0:0:0:
384,224,112767,1,8,0:0:0:0:
400,192,112823,1,0,0:0:0:0:
224,272,112878,1,0,0:0:0:0:
224,240,112934,1,0,0:0:0:0:
208,192,112989,1,0,0:0:0:0:
400,320,113045,1,0,0:0:0:0:
432,288,113100,1,0,0:0:0:0:
448,256,113156,1,0,0:0:0:0:
384,48,113211,5,4,0:0:0:0:
416,80,113267,1,0,0:0:0:0:
416,128,113323,1,0,0:0:0:0:
256,48,113378,1,0,0:0:0:0:
224,96,113434,1,0,0:0:0:0:
224,160,113489,1,0,0:0:0:0:
368,240,113545,1,0,0:0:0:0:
384,208,113600,1,0,0:0:0:0:
384,144,113656,1,8,0:0:0:0:
240,256,113711,1,0,0:0:0:0:
208,208,113767,1,0,0:0:0:0:
192,160,113823,1,0,0:0:0:0:
384,64,113878,1,0,0:0:0:0:
432,112,113934,1,0,0:0:0:0:
448,192,113989,1,0,0:0:0:0:
416,272,114045,1,0,0:0:0:0:
224,288,114100,5,4,0:0:0:0:
192,240,114156,1,0,0:0:0:0:
160,160,114211,1,0,0:0:0:0:
160,96,114267,1,0,0:0:0:0:
384,48,114323,1,0,0:0:0:0:
432,112,114378,1,0,0:0:0:0:
432,176,114434,1,0,0:0:0:0:
384,256,114489,1,0,0:0:0:0:
240,176,114545,1,8,0:0:0:0:
224,112,114600,1,0,0:0:0:0:
224,48,114656,1,0,0:0:0:0:
384,176,114711,1,0,0:0:0:0:
400,128,114767,1,0,0:0:0:0:
400,80,114823,1,0,0:0:0:0:
176,256,114878,1,0,0:0:0:0:
160,192,114934,1,0,0:0:0:0:
240,192,114989,1,4,0:0:0:0:
256,192,115045,12,12,115434,0:0:0:0:
336,304,115878,6,0,P|416:224|416:144,1,165,4|0,0:0|0:0,0:0:0:0:
208,304,116100,2,0,P|144:240|144:144,1,165
368,144,116322,2,0,P|400:64|320:16,1,165,8|0,0:0|0:0,0:0:0:0:
192,144,116545,2,0,P|144:96|208:16,1,165
384,160,116767,2,0,P|416:224|352:320,1,165,4|0,0:0|0:0,0:0:0:0:
192,160,116989,2,0,P|160:256|240:320,1,165
448,160,117211,2,0,P|448:80|352:16,1,165,8|0,0:0|0:0,0:0:0:0:
160,32,117434,2,0,P|112:96|128:176,1,165
336,48,117656,6,0,P|384:208|240:352,1,385,4|0,0:0|0:0,0:0:0:0:
176,336,118100,2,4,P|112:224|288:32,1,426.25
256,192,118545,12,4,118989,0:0:0:0:
256,192,119433,5,4,1:1:0:0:
384,192,119877,5,0,0:0:0:0:
512,192,120321,5,8,0:0:0:0:
384,192,120766,5,0,0:0:0:0:
256,192,120989,5,0,0:0:0:0:
128,192,121210,5,2,0:0:0:0:
0,192,121655,5,0,0:0:0:0:
128,192,122099,5,8,0:0:0:0:
256,192,122544,5,2,0:0:0:0:
384,192,122988,5,0,0:0:0:0:
512,192,123433,5,0,0:0:0:0:
384,192,123877,5,8,0:0:0:0:
256,192,124321,5,0,0:0:0:0:
128,192,124544,5,0,0:0:0:0:
0,192,124766,5,2,0:0:0:0:
128,192,125210,5,0,0:0:0:0:
256,192,125655,5,4,0:0:0:0:
256,384,126544,6,0,B|0:192|256:0,1,440,2|8,0:0|0:0,0:0:0:0:
256,0,127432,6,0,B|512:192|256:384,1,440,2|8,0:0|0:0,0:0:0:0:
224,384,128321,6,0,B|-32:192|224:0,1,440,2|8,0:0|0:0,0:0:0:0:
288,0,129210,6,0,B|544:192|288:384,1,440,2|8,0:0|0:0,0:0:0:0:
192,384,130099,6,0,B|-64:192|192:0,1,440,2|8,0:0|0:0,0:0:0:0:
320,0,130988,6,0,B|576:192|320:384,1,440,2|8,0:0|0:0,0:0:0:0:
160,384,131877,6,0,B|-96:192|160:0,1,440,2|8,0:0|0:0,0:0:0:0:
256,0,132766,6,4,B|512:192|512:192|256:384|256:384|0:192|0:192,1,880
