osu file format v14

[General]
AudioFilename: audio.mp3
AudioLeadIn: 0
PreviewTime: 0
Countdown: 1
SampleSet: Normal
StackLeniency: 0.2
Mode: 0
LetterboxInBreaks: 0
WidescreenStoryboard: 1

[Editor]
Bookmarks: 3858,12080,14024,18080,32302,46524,49969,60746,71413,74969,76746,90969,105191,119413
DistanceSpacing: 5
BeatDivisor: 4
GridSize: 32
TimelineZoom: 7.999994

[Metadata]
Title:The Empress
TitleUnicode:The Empress
Artist:UNDEAD CORPORATION
ArtistUnicode:UNDEAD CORPORATION
Creator:LegenDarius13
Version:Starbow Break
Source:Touhou Project
Tags:touhou flandre scarlet theme stream deathstream practice
BeatmapID:1689218
BeatmapSetID:747267

[Difficulty]
HPDrainRate:0
CircleSize:3.8
OverallDifficulty:10
ApproachRate:10
SliderMultiplier:1.4
SliderTickRate:1

[Events]
//Background and Video events
0,0,"flandre_scarlet_girl_dress_cap_wings_36674_2048x1152.jpg",0,0
//Break Periods
//Storyboard Layer 0 (Background)
//Storyboard Layer 1 (Fail)
//Storyboard Layer 2 (Pass)
//Storyboard Layer 3 (Foreground)
//Storyboard Sound Samples

[TimingPoints]
0,444.444444444444,4,1,0,5,1,0
3858,222.222222222222,4,1,0,100,1,0
3969,-200,4,1,0,50,0,0
17857,-200,4,1,0,60,0,0
26024,-133.333333333333,4,1,0,70,0,0
28024,-100,4,1,0,80,0,0
28469,-50,4,1,0,80,0,0
28691,-100,4,1,0,90,0,0
30469,-66.6666666666667,4,1,0,90,0,0
31607,-100,4,1,0,90,0,0
32330,-100,4,1,0,100,0,1
44719,-88.8888888888889,4,1,0,100,0,1
46524,-88.8888888888889,4,1,0,100,0,0
49913,-100,4,1,0,100,0,0
79385,-100,4,1,0,100,0,0
82246,-50,4,1,0,100,0,0
83830,-100,4,1,0,100,0,0
90969,-100,4,1,0,100,0,1
91069,-100,4,1,0,100,0,1
105191,111.111111111111,4,1,0,100,1,1
110635,-200,4,1,0,100,0,1
112246,-78.125,4,1,0,100,0,1
119413,444.444444444444,4,1,0,5,1,0
119413,-200,4,1,0,5,0,0

[Colours]
Combo1 : 120,10,255
Combo2 : 247,60,102
Combo3 : 255,34,34
Combo4 : 255,159,64
Combo5 : 255,255,34
Combo6 : 62,239,41
Combo7 : 55,255,255
Combo8 : 47,47,255

[HitObjects]
84,72,111,5,0,0:0:0:0:
108,88,222,1,0,0:0:0:0:
124,112,333,1,0,0:0:0:0:
152,156,555,1,0,0:0:0:0:
176,204,777,1,0,0:0:0:0:
192,260,1000,1,0,0:0:0:0:
228,300,1222,1,0,0:0:0:0:
284,292,1444,1,0,0:0:0:0:
332,264,1666,1,0,0:0:0:0:
372,224,1888,1,0,0:0:0:0:
404,180,2111,1,0,0:0:0:0:
408,124,2333,1,0,0:0:0:0:
380,80,2555,1,0,0:0:0:0:
324,68,2777,1,0,0:0:0:0:
272,92,2999,2,0,P|176:92|140:128,1,140
256,192,3858,5,2,0:0:0:0:
256,192,4746,5,0,0:0:0:0:
256,192,5635,5,0,0:0:0:0:
256,192,6524,5,0,0:0:0:0:
256,192,6969,5,8,0:0:0:0:
240,176,7024,1,8,0:0:0:0:
272,176,7080,1,8,0:0:0:0:
272,208,7135,1,8,0:0:0:0:
240,208,7191,1,8,0:0:0:0:
240,176,7246,1,8,0:0:0:0:
272,176,7302,1,8,0:0:0:0:
272,208,7357,1,8,0:0:0:0:
256,192,7413,1,8,0:0:0:0:
308,248,7635,5,0,0:0:0:0:
368,256,7857,1,0,0:0:0:0:
444,224,8080,1,0,0:0:0:0:
340,148,8302,1,0,0:0:0:0:
468,76,8524,1,0,0:0:0:0:
308,24,8746,1,0,0:0:0:0:
252,208,8969,1,0,0:0:0:0:
368,52,9191,1,0,0:0:0:0:
132,64,9413,1,0,0:0:0:0:
360,160,9635,1,0,0:0:0:0:
144,272,9857,1,0,0:0:0:0:
456,336,10080,1,0,0:0:0:0:
320,144,10302,1,0,0:0:0:0:
72,316,10524,1,0,0:0:0:0:
188,184,10746,5,8,0:0:0:0:
212,172,10802,1,8,0:0:0:0:
240,168,10857,1,8,0:0:0:0:
268,172,10913,1,8,0:0:0:0:
296,180,10969,1,8,0:0:0:0:
332,340,11191,5,0,0:0:0:0:
476,200,11413,1,0,0:0:0:0:
220,16,11635,1,0,0:0:0:0:
12,372,11857,1,0,0:0:0:0:
68,241,12080,5,0,0:0:0:0:
71,234,12135,1,0,0:0:0:0:
74,227,12191,1,0,0:0:0:0:
78,221,12246,1,0,0:0:0:0:
82,215,12302,5,0,0:0:0:0:
86,207,12357,1,0,0:0:0:0:
90,199,12413,1,0,0:0:0:0:
95,191,12469,1,0,0:0:0:0:
100,184,12524,5,0,0:0:0:0:
107,176,12580,1,0,0:0:0:0:
115,169,12635,1,0,0:0:0:0:
123,162,12691,1,0,0:0:0:0:
131,153,12746,5,0,0:0:0:0:
141,146,12802,1,0,0:0:0:0:
152,138,12857,1,0,0:0:0:0:
164,132,12913,1,0,0:0:0:0:
177,127,12969,5,0,0:0:0:0:
191,121,13024,1,0,0:0:0:0:
206,116,13080,1,0,0:0:0:0:
221,113,13135,1,0,0:0:0:0:
238,113,13191,5,0,0:0:0:0:
254,116,13246,1,0,0:0:0:0:
270,121,13302,1,0,0:0:0:0:
285,132,13357,1,0,0:0:0:0:
299,144,13413,5,0,0:0:0:0:
312,160,13469,1,0,0:0:0:0:
324,176,13524,1,0,0:0:0:0:
336,195,13580,1,0,0:0:0:0:
347,214,13635,5,0,0:0:0:0:
358,235,13691,1,0,0:0:0:0:
368,256,13746,1,0,0:0:0:0:
378,280,13802,1,0,0:0:0:0:
381,305,13857,5,0,0:0:0:0:
375,332,13913,1,0,0:0:0:0:
353,350,13969,1,0,0:0:0:0:
326,357,14024,1,0,0:0:0:0:
294,341,14080,1,4,0:0:0:0:
112,196,14302,5,0,0:0:0:0:
168,188,14413,1,0,0:0:0:0:
216,216,14524,1,0,0:0:0:0:
416,352,14746,5,0,0:0:0:0:
260,252,14969,1,0,0:0:0:0:
216,56,15191,1,0,0:0:0:0:
436,204,15413,1,0,0:0:0:0:
212,344,15635,1,0,0:0:0:0:
16,96,15857,1,0,0:0:0:0:
492,16,16080,1,0,0:0:0:0:
120,380,16302,1,0,0:0:0:0:
16,8,16524,1,0,0:0:0:0:
496,372,16746,1,0,0:0:0:0:
260,16,16969,1,0,0:0:0:0:
8,380,17191,1,0,0:0:0:0:
256,192,17635,5,8,0:0:0:0:
145,153,18080,69,0,0:0:0:0:
156,145,18135,1,0,0:0:0:0:
168,138,18191,1,0,0:0:0:0:
181,135,18246,1,0,0:0:0:0:
195,135,18302,1,0,0:0:0:0:
208,137,18357,1,0,0:0:0:0:
220,142,18413,1,0,0:0:0:0:
232,148,18469,1,0,0:0:0:0:
243,155,18524,1,0,0:0:0:0:
254,163,18580,1,0,0:0:0:0:
264,171,18635,1,0,0:0:0:0:
272,182,18691,1,0,0:0:0:0:
279,193,18746,1,0,0:0:0:0:
285,205,18802,1,0,0:0:0:0:
290,217,18857,1,0,0:0:0:0:
293,230,18913,1,0,0:0:0:0:
247,314,18969,6,0,L|235:338,3,17.5,4|0|0|0,0:0|0:0|0:0|0:0,0:0:0:0:
128,197,19191,6,0,L|108:177,3,17.5,4|0|0|0,0:0|0:0|0:0|0:0,0:0:0:0:
309,106,19413,6,0,L|321:90,3,17.5,4|0|0|0,0:0|0:0|0:0|0:0,0:0:0:0:
347,232,19635,6,0,L|371:232,3,17.5,4|0|0|0,0:0|0:0|0:0|0:0,0:0:0:0:
280,199,19857,5,0,0:0:0:0:
264,195,19913,1,0,0:0:0:0:
248,193,19969,1,0,0:0:0:0:
231,193,20024,1,0,0:0:0:0:
215,195,20080,1,0,0:0:0:0:
199,198,20135,1,0,0:0:0:0:
183,202,20191,1,0,0:0:0:0:
168,208,20246,1,0,0:0:0:0:
153,214,20302,1,0,0:0:0:0:
138,222,20357,1,0,0:0:0:0:
125,231,20413,1,0,0:0:0:0:
110,240,20469,1,0,0:0:0:0:
97,250,20524,1,0,0:0:0:0:
86,262,20580,1,0,0:0:0:0:
79,276,20635,1,0,0:0:0:0:
79,293,20691,1,0,0:0:0:0:
269,303,20746,6,0,L|289:279,3,17.5,4|0|0|0,0:0|0:0|0:0|0:0,0:0:0:0:
157,166,20969,6,0,L|133:146,3,17.5,4|0|0|0,0:0|0:0|0:0|0:0,0:0:0:0:
352,131,21191,6,0,L|364:105,7,17.5,4|0|0|0|0|0|0|0,0:0|0:0|0:0|0:0|0:0|0:0|0:0|0:0,0:0:0:0:
103,234,21635,5,0,0:0:0:0:
114,220,21691,1,0,0:0:0:0:
126,207,21747,1,0,0:0:0:0:
138,195,21802,1,0,0:0:0:0:
151,183,21858,1,0,0:0:0:0:
165,172,21913,1,0,0:0:0:0:
180,163,21969,1,0,0:0:0:0:
196,155,22024,1,0,0:0:0:0:
213,150,22080,1,0,0:0:0:0:
231,148,22135,1,0,0:0:0:0:
249,149,22191,1,0,0:0:0:0:
267,152,22247,1,0,0:0:0:0:
284,157,22302,1,0,0:0:0:0:
300,165,22358,1,0,0:0:0:0:
314,176,22413,1,0,0:0:0:0:
328,188,22469,1,0,0:0:0:0:
184,296,22524,6,0,L|204:292,3,17.5,4|0|0|0,0:0|0:0|0:0|0:0,0:0:0:0:
256,208,22746,6,0,L|276:204,3,17.5,4|0|0|0,0:0|0:0|0:0|0:0,0:0:0:0:
336,120,22969,6,0,L|356:116,3,17.5,4|0|0|0,0:0|0:0|0:0|0:0,0:0:0:0:
424,176,23191,6,0,L|444:172,3,17.5,4|0|0|0,0:0|0:0|0:0|0:0,0:0:0:0:
312,168,23413,5,0,0:0:0:0:
296,152,23469,1,0,0:0:0:0:
280,144,23524,1,0,0:0:0:0:
256,136,23580,1,0,0:0:0:0:
232,136,23635,1,0,0:0:0:0:
208,136,23691,1,0,0:0:0:0:
184,144,23746,1,0,0:0:0:0:
168,152,23802,1,0,0:0:0:0:
152,160,23857,1,0,0:0:0:0:
136,176,23913,1,0,0:0:0:0:
120,192,23969,1,0,0:0:0:0:
112,208,24024,1,0,0:0:0:0:
104,224,24080,1,0,0:0:0:0:
104,248,24135,1,0,0:0:0:0:
104,272,24191,1,0,0:0:0:0:
112,288,24246,1,0,0:0:0:0:
160,280,24302,6,0,L|156:256,3,17.5,4|0|0|0,0:0|0:0|0:0|0:0,0:0:0:0:
196,224,24524,6,0,L|192:200,3,17.5,4|0|0|0,0:0|0:0|0:0|0:0,0:0:0:0:
256,192,24746,2,0,L|256:168,7,17.5,4|0|0|0|0|0|0|0,0:0|0:0|0:0|0:0|0:0|0:0|0:0|0:0,0:0:0:0:
360,256,25191,5,0,0:0:0:0:
344,274,25246,1,0,0:0:0:0:
324,288,25302,1,0,0:0:0:0:
302,299,25357,1,0,0:0:0:0:
279,308,25413,1,0,0:0:0:0:
255,315,25469,1,0,0:0:0:0:
231,319,25524,1,0,0:0:0:0:
206,320,25580,1,0,0:0:0:0:
181,319,25635,1,0,0:0:0:0:
157,312,25691,1,0,0:0:0:0:
135,300,25746,1,0,0:0:0:0:
116,283,25802,1,0,0:0:0:0:
101,263,25857,1,0,0:0:0:0:
88,241,25913,1,0,0:0:0:0:
83,216,25969,1,0,0:0:0:0:
82,179,26024,1,0,0:0:0:0:
191,202,26080,6,0,L|191:248,3,26.2500010013581,4|0|0|0,0:0|0:0|0:0|0:0,0:0:0:0:
229,118,26302,6,0,L|229:78,3,26.2500010013581,4|0|0|0,0:0|0:0|0:0|0:0,0:0:0:0:
273,224,26524,6,0,L|273:270,3,26.2500010013581,4|0|0|0,0:0|0:0|0:0|0:0,0:0:0:0:
320,112,26746,6,0,L|320:84,3,26.2500010013581,4|0|0|0,0:0|0:0|0:0|0:0,0:0:0:0:
224,168,26969,5,0,0:0:0:0:
184,184,27024,1,0,0:0:0:0:
152,216,27080,1,0,0:0:0:0:
144,256,27135,1,0,0:0:0:0:
152,296,27191,1,0,0:0:0:0:
176,328,27246,1,0,0:0:0:0:
216,344,27302,1,0,0:0:0:0:
256,344,27357,1,0,0:0:0:0:
296,336,27413,1,0,0:0:0:0:
336,312,27469,1,0,0:0:0:0:
368,280,27524,1,0,0:0:0:0:
384,240,27580,1,0,0:0:0:0:
384,200,27635,1,0,0:0:0:0:
360,168,27691,1,0,0:0:0:0:
328,144,27746,1,0,0:0:0:0:
288,128,27802,1,0,0:0:0:0:
236,119,27857,5,4,0:0:0:0:
172,129,27913,1,0,0:0:0:0:
130,188,27969,1,0,0:0:0:0:
153,257,28024,1,0,0:0:0:0:
228,268,28080,6,0,L|256:320,7,35,4|0|0|0|0|0|0|0,0:0|0:0|0:0|0:0|0:0|0:0|0:0|0:0,0:0:0:0:
384,56,28524,6,0,L|304:136,1,70
128,328,28635,2,0,L|208:248,1,70
192,345,28746,5,0,0:0:0:0:
146,290,28802,1,0,0:0:0:0:
122,224,28857,1,0,0:0:0:0:
119,153,28913,1,0,0:0:0:0:
184,125,28969,5,0,0:0:0:0:
254,132,29025,1,0,0:0:0:0:
314,165,29080,1,0,0:0:0:0:
328,233,29136,1,0,0:0:0:0:
317,301,29191,5,0,0:0:0:0:
250,325,29247,1,0,0:0:0:0:
185,299,29302,1,0,0:0:0:0:
133,251,29358,1,0,0:0:0:0:
128,180,29414,5,0,0:0:0:0:
170,123,29470,1,0,0:0:0:0:
209,65,29525,1,0,0:0:0:0:
274,37,29581,1,0,0:0:0:0:
331,73,29635,5,0,0:0:0:0:
348,141,29691,1,0,0:0:0:0:
354,209,29746,1,0,0:0:0:0:
345,279,29802,1,0,0:0:0:0:
275,289,29858,5,0,0:0:0:0:
218,247,29914,1,0,0:0:0:0:
191,183,29969,1,0,0:0:0:0:
154,115,30025,1,0,0:0:0:0:
98,156,30080,5,0,0:0:0:0:
87,225,30136,1,0,0:0:0:0:
121,284,30191,1,0,0:0:0:0:
190,271,30247,1,0,0:0:0:0:
247,229,30303,5,0,0:0:0:0:
298,180,30359,1,0,0:0:0:0:
306,111,30414,1,0,0:0:0:0:
208,152,30470,1,0,0:0:0:0:
192,72,30524,6,0,B|152:64|104:84|96:136,1,105,4|8,0:0|0:0,0:0:0:0:
320,312,30746,2,0,B|360:320|408:300|416:248,1,105,4|8,0:0|0:0,0:0:0:0:
192,72,30969,2,0,B|152:64|104:84|96:136,1,105,4|4,0:0|0:0,0:0:0:0:
320,312,31191,2,0,B|360:320|408:300|416:248,1,105,4|8,0:0|0:0,0:0:0:0:
192,72,31413,2,0,B|152:64|104:84|96:136,1,105,4|8,0:0|0:0,0:0:0:0:
96,192,31635,54,0,P|256:320|416:192,1,420,8|4,0:0|0:0,0:0:0:0:
408,160,32357,5,0,0:0:0:0:
376,112,32412,1,0,0:0:0:0:
328,80,32468,1,0,0:0:0:0:
280,64,32524,1,0,0:0:0:0:
232,56,32579,1,0,0:0:0:0:
184,64,32635,1,0,0:0:0:0:
136,88,32690,1,0,0:0:0:0:
104,256,32746,5,0,0:0:0:0:
136,296,32802,1,0,0:0:0:0:
184,320,32857,1,0,0:0:0:0:
232,328,32913,1,0,0:0:0:0:
280,320,32968,1,0,0:0:0:0:
328,304,33024,1,0,0:0:0:0:
376,272,33080,1,0,0:0:0:0:
376,192,33135,1,0,0:0:0:0:
303,171,33191,5,0,0:0:0:0:
238,195,33246,1,0,0:0:0:0:
169,211,33302,1,0,0:0:0:0:
99,212,33357,1,0,0:0:0:0:
53,158,33413,1,0,0:0:0:0:
67,88,33469,1,0,0:0:0:0:
136,56,33524,1,0,0:0:0:0:
208,80,33580,1,0,0:0:0:0:
312,180,33635,5,0,0:0:0:0:
312,250,33691,1,0,0:0:0:0:
268,303,33746,1,0,0:0:0:0:
204,333,33802,1,0,0:0:0:0:
134,334,33857,1,0,0:0:0:0:
112,264,33913,1,0,0:0:0:0:
112,192,33969,1,0,0:0:0:0:
160,144,34024,1,0,0:0:0:0:
384,88,34080,5,0,0:0:0:0:
328,128,34135,1,0,0:0:0:0:
272,176,34191,1,0,0:0:0:0:
216,216,34246,1,0,0:0:0:0:
160,256,34302,1,0,0:0:0:0:
96,288,34357,1,0,0:0:0:0:
32,256,34413,1,0,0:0:0:0:
40,184,34469,1,0,0:0:0:0:
96,32,34524,5,0,0:0:0:0:
152,72,34580,1,0,0:0:0:0:
200,120,34635,1,0,0:0:0:0:
256,168,34691,1,0,0:0:0:0:
304,216,34746,1,0,0:0:0:0:
344,272,34802,1,0,0:0:0:0:
392,320,34857,1,0,0:0:0:0:
456,344,34913,1,0,0:0:0:0:
456,216,34969,5,0,0:0:0:0:
408,264,35024,1,0,0:0:0:0:
352,312,35080,1,0,0:0:0:0:
288,336,35135,1,0,0:0:0:0:
216,344,35191,1,0,0:0:0:0:
144,336,35246,1,0,0:0:0:0:
88,288,35302,1,0,0:0:0:0:
72,224,35357,1,0,0:0:0:0:
152,160,35413,5,0,0:0:0:0:
192,216,35469,1,0,0:0:0:0:
248,256,35524,1,0,0:0:0:0:
320,272,35580,1,0,0:0:0:0:
384,248,35635,1,0,0:0:0:0:
440,200,35691,1,0,0:0:0:0:
464,136,35746,1,0,0:0:0:0:
464,64,35802,1,0,0:0:0:0:
288,320,35857,5,0,0:0:0:0:
223,291,35913,1,0,0:0:0:0:
160,258,35969,1,0,0:0:0:0:
107,212,36024,1,0,0:0:0:0:
77,147,36080,1,0,0:0:0:0:
90,78,36135,1,0,0:0:0:0:
156,55,36191,1,0,0:0:0:0:
222,74,36246,1,0,0:0:0:0:
280,212,36302,5,0,0:0:0:0:
267,280,36357,1,0,0:0:0:0:
315,331,36413,1,0,0:0:0:0:
383,345,36469,1,0,0:0:0:0:
423,288,36524,1,0,0:0:0:0:
390,225,36580,1,0,0:0:0:0:
320,226,36635,1,0,0:0:0:0:
257,257,36691,1,0,0:0:0:0:
87,72,36746,5,0,0:0:0:0:
146,109,36802,1,0,0:0:0:0:
190,162,36857,1,0,0:0:0:0:
173,230,36913,1,0,0:0:0:0:
138,291,36969,1,0,0:0:0:0:
193,332,37024,1,0,0:0:0:0:
263,325,37080,1,0,0:0:0:0:
321,288,37135,1,0,0:0:0:0:
202,213,37191,5,0,0:0:0:0:
133,201,37246,1,0,0:0:0:0:
88,146,37302,1,0,0:0:0:0:
116,83,37357,1,0,0:0:0:0:
186,81,37413,1,0,0:0:0:0:
230,136,37469,1,0,0:0:0:0:
201,198,37524,1,0,0:0:0:0:
133,178,37580,1,0,0:0:0:0:
48,91,37635,5,0,0:0:0:0:
125,94,37691,1,0,0:0:0:0:
76,152,37746,1,0,0:0:0:0:
153,154,37802,1,0,0:0:0:0:
102,210,37857,1,0,0:0:0:0:
179,214,37913,1,0,0:0:0:0:
132,276,37969,1,0,0:0:0:0:
208,271,38024,1,0,0:0:0:0:
173,340,38080,1,0,0:0:0:0:
249,334,38135,1,0,0:0:0:0:
276,261,38191,1,0,0:0:0:0:
314,326,38246,1,0,0:0:0:0:
316,248,38302,1,0,0:0:0:0:
378,291,38357,1,0,0:0:0:0:
361,215,38413,1,0,0:0:0:0:
429,251,38469,1,0,0:0:0:0:
400,180,38524,1,0,0:0:0:0:
476,195,38580,1,0,0:0:0:0:
458,120,38635,1,0,0:0:0:0:
408,59,38691,1,0,0:0:0:0:
348,106,38746,1,0,0:0:0:0:
275,79,38802,1,0,0:0:0:0:
136,240,38857,6,0,P|112:168|120:224,1,350,8|8,0:0|0:0,0:0:0:0:
135,268,39469,1,0,0:0:0:0:
193,305,39524,1,0,0:0:0:0:
263,312,39580,1,0,0:0:0:0:
331,304,39635,1,0,0:0:0:0:
388,262,39691,1,0,0:0:0:0:
423,202,39746,1,0,0:0:0:0:
426,131,39802,1,0,0:0:0:0:
88,266,39857,5,0,0:0:0:0:
68,194,39913,1,0,0:0:0:0:
82,121,39969,1,0,0:0:0:0:
143,81,40024,1,0,0:0:0:0:
216,75,40080,1,0,0:0:0:0:
284,100,40135,1,0,0:0:0:0:
327,159,40191,1,0,0:0:0:0:
358,224,40246,1,0,0:0:0:0:
51,152,40302,5,0,0:0:0:0:
74,224,40357,1,0,0:0:0:0:
143,258,40413,1,0,0:0:0:0:
220,258,40469,1,0,0:0:0:0:
287,222,40524,1,0,0:0:0:0:
337,163,40580,1,0,0:0:0:0:
341,86,40635,1,0,0:0:0:0:
288,29,40691,1,0,0:0:0:0:
43,301,40746,5,0,0:0:0:0:
120,295,40802,1,0,0:0:0:0:
195,284,40857,1,0,0:0:0:0:
271,272,40913,1,0,0:0:0:0:
327,218,40969,1,0,0:0:0:0:
269,167,41024,1,0,0:0:0:0:
191,159,41080,1,0,0:0:0:0:
116,173,41135,1,0,0:0:0:0:
26,33,41191,5,0,0:0:0:0:
87,78,41246,1,0,0:0:0:0:
159,105,41302,1,0,0:0:0:0:
234,117,41357,1,0,0:0:0:0:
311,122,41413,1,0,0:0:0:0:
388,113,41469,1,0,0:0:0:0:
456,79,41524,1,0,0:0:0:0:
509,22,41580,1,0,0:0:0:0:
499,172,41635,5,0,0:0:0:0:
447,229,41691,1,0,0:0:0:0:
388,278,41746,1,0,0:0:0:0:
319,315,41802,1,0,0:0:0:0:
244,333,41857,1,0,0:0:0:0:
167,323,41913,1,0,0:0:0:0:
99,284,41969,1,0,0:0:0:0:
56,220,42024,1,0,0:0:0:0:
418,49,42080,5,0,0:0:0:0:
418,125,42135,1,0,0:0:0:0:
370,186,42191,1,0,0:0:0:0:
303,219,42246,1,0,0:0:0:0:
245,166,42302,1,0,0:0:0:0:
254,90,42357,1,0,0:0:0:0:
330,76,42413,1,0,0:0:0:0:
369,143,42469,1,0,0:0:0:0:
119,298,42524,5,0,0:0:0:0:
112,220,42580,1,0,0:0:0:0:
145,151,42635,1,0,0:0:0:0:
209,193,42691,1,0,0:0:0:0:
215,268,42746,1,0,0:0:0:0:
234,343,42802,1,0,0:0:0:0:
300,306,42857,1,0,0:0:0:0:
307,228,42913,1,0,0:0:0:0:
141,212,42969,5,0,0:0:0:0:
80,165,43024,1,0,0:0:0:0:
119,98,43080,1,0,0:0:0:0:
189,127,43135,1,0,0:0:0:0:
168,201,43191,1,0,0:0:0:0:
92,209,43246,1,0,0:0:0:0:
71,134,43302,1,0,0:0:0:0:
135,94,43357,1,0,0:0:0:0:
379,330,43413,5,0,0:0:0:0:
318,283,43468,1,0,0:0:0:0:
357,216,43524,1,0,0:0:0:0:
427,245,43579,1,0,0:0:0:0:
406,319,43635,1,0,0:0:0:0:
330,327,43690,1,0,0:0:0:0:
309,252,43746,1,0,0:0:0:0:
373,212,43801,1,0,0:0:0:0:
131,349,43857,5,0,0:0:0:0:
70,302,43912,1,0,0:0:0:0:
109,235,43968,1,0,0:0:0:0:
179,264,44023,1,0,0:0:0:0:
158,338,44079,1,0,0:0:0:0:
82,346,44134,1,0,0:0:0:0:
61,271,44190,1,0,0:0:0:0:
125,231,44245,1,0,0:0:0:0:
401,168,44302,5,0,0:0:0:0:
340,121,44357,1,0,0:0:0:0:
379,54,44413,1,0,0:0:0:0:
449,83,44468,1,0,0:0:0:0:
428,157,44524,1,0,0:0:0:0:
352,165,44579,1,0,0:0:0:0:
331,90,44635,1,0,0:0:0:0:
395,50,44690,1,0,0:0:0:0:
63,84,44746,5,0,0:0:0:0:
87,180,44802,1,0,0:0:0:0:
138,262,44857,1,0,0:0:0:0:
220,317,44913,1,0,0:0:0:0:
316,340,44969,1,0,0:0:0:0:
412,327,45024,1,0,0:0:0:0:
468,245,45080,1,0,0:0:0:0:
475,147,45135,1,0,0:0:0:0:
448,51,45191,1,0,0:0:0:0:
350,55,45246,1,0,0:0:0:0:
251,43,45302,1,0,0:0:0:0:
157,71,45357,1,0,0:0:0:0:
73,124,45413,1,0,0:0:0:0:
114,214,45469,1,0,0:0:0:0:
169,294,45524,1,0,0:0:0:0:
258,336,45580,1,0,0:0:0:0:
349,302,45635,1,0,0:0:0:0:
337,203,45691,1,0,0:0:0:0:
240,192,45746,1,0,0:0:0:0:
142,209,45802,1,0,0:0:0:0:
66,147,45857,1,0,0:0:0:0:
111,58,45913,1,0,0:0:0:0:
209,66,45969,1,0,0:0:0:0:
278,133,46024,1,0,0:0:0:0:
294,230,46080,1,0,0:0:0:0:
256,192,46524,85,0,0:0:0:0:
255,352,46635,5,0,0:0:0:0:
350,61,46746,1,0,0:0:0:0:
103,241,46857,1,0,0:0:0:0:
408,241,46969,1,0,0:0:0:0:
161,61,47080,1,0,0:0:0:0:
142,305,47191,5,0,0:0:0:0:
414,166,47302,1,0,0:0:0:0:
112,119,47413,1,0,0:0:0:0:
328,335,47525,1,0,0:0:0:0:
281,33,47636,1,0,0:0:0:0:
95,191,47746,5,0,0:0:0:0:
386,286,47857,1,0,0:0:0:0:
206,39,47968,1,0,0:0:0:0:
206,344,48080,1,0,0:0:0:0:
386,97,48191,1,0,0:0:0:0:
142,78,48302,5,0,0:0:0:0:
281,350,48413,1,0,0:0:0:0:
328,48,48524,1,0,0:0:0:0:
112,264,48636,1,0,0:0:0:0:
414,217,48747,1,0,0:0:0:0:
256,31,48857,5,0,0:0:0:0:
161,322,48968,1,0,0:0:0:0:
408,142,49079,1,0,0:0:0:0:
103,142,49191,1,0,0:0:0:0:
350,322,49302,1,0,0:0:0:0:
369,78,49413,5,0,0:0:0:0:
97,217,49524,1,0,0:0:0:0:
399,264,49635,1,0,0:0:0:0:
183,48,49747,1,0,0:0:0:0:
230,350,49858,1,0,0:0:0:0:
32,160,49969,22,0,B|64:160|64:128|96:128,1,70
480,224,50191,2,0,B|448:224|448:256|416:256,1,70
32,160,50413,2,0,B|64:160|64:128|96:128,1,70
480,224,50635,2,0,B|448:224|448:256|416:256,1,70
32,160,50857,2,0,B|64:160|64:128|96:128,1,70
480,224,51080,6,0,B|448:224|448:256|416:256,1,70
480,160,51302,2,0,B|448:160|448:128|416:128,1,70
32,160,51524,2,0,B|64:160|64:128|96:128,1,70
32,224,51746,2,0,B|64:224|64:256|92:255,1,70
419,255,51969,6,0,B|448:256|448:224|480:224,1,70
419,128,52191,2,0,B|448:128|448:160|480:160,1,70
92,128,52413,2,0,B|64:128|64:160|32:160,1,70
92,255,52635,2,0,B|64:256|64:224|32:224,1,70
480,160,52857,6,0,B|448:160|448:128|416:128,1,70
32,224,53080,2,0,B|64:224|64:256|96:256,1,70
480,160,53302,2,0,B|448:160|448:128|416:128,1,70
32,224,53523,2,0,B|64:224|64:256|92:255,1,70
364,379,53746,5,0,0:0:0:0:
147,4,53857,1,0,0:0:0:0:
473,192,53969,5,0,0:0:0:0:
39,191,54080,1,0,0:0:0:0:
364,4,54191,5,0,0:0:0:0:
147,379,54302,1,0,0:0:0:0:
147,4,54413,5,0,0:0:0:0:
364,379,54524,1,0,0:0:0:0:
39,191,54636,5,0,0:0:0:0:
473,192,54747,1,0,0:0:0:0:
147,379,54858,5,0,0:0:0:0:
364,4,54969,1,0,0:0:0:0:
364,379,55080,5,0,0:0:0:0:
147,4,55191,1,0,0:0:0:0:
32,32,55413,102,4,B|32:64|32:64|64:64|64:64|64:96|64:96|96:96|96:96|96:128|96:128|128:128|128:128|128:160|128:160|160:160|160:160|160:192|160:192|192:192|192:192|192:224|192:224|224:224|224:224|224:256|224:256|256:256|256:256|256:288|256:288|288:288|288:288|288:320|288:320|320:320|320:320,1,560
448,320,56746,5,0,0:0:0:0:
512,384,57080,101,0,0:0:0:0:
0,0,57191,1,0,0:0:0:0:
154,367,57302,5,0,0:0:0:0:
154,16,57413,1,0,0:0:0:0:
458,192,57524,1,0,0:0:0:0:
60,244,57635,5,0,0:0:0:0:
308,0,57746,1,0,0:0:0:0:
398,334,57857,1,0,0:0:0:0:
81,90,57969,5,0,0:0:0:0:
431,90,58080,1,0,0:0:0:0:
256,394,58191,1,0,0:0:0:0:
203,0,58302,5,0,0:0:0:0:
451,244,58413,1,0,0:0:0:0:
113,334,58524,1,0,0:0:0:0:
357,17,58635,5,0,0:0:0:0:
357,367,58746,1,0,0:0:0:0:
53,192,58857,1,0,0:0:0:0:
0,64,58969,5,0,0:0:0:0:
512,64,59080,1,0,0:0:0:0:
0,192,59191,1,0,0:0:0:0:
512,192,59302,1,0,0:0:0:0:
0,320,59413,1,0,0:0:0:0:
512,320,59524,1,0,0:0:0:0:
0,192,59635,1,0,0:0:0:0:
512,192,59746,1,0,0:0:0:0:
0,64,59857,1,0,0:0:0:0:
512,64,59969,1,0,0:0:0:0:
0,192,60080,1,0,0:0:0:0:
512,192,60191,1,0,0:0:0:0:
0,312,60302,1,0,0:0:0:0:
512,320,60413,1,0,0:0:0:0:
0,192,60524,1,0,0:0:0:0:
512,192,60635,1,0,0:0:0:0:
256,0,60746,5,0,0:0:0:0:
256,384,60820,1,0,0:0:0:0:
305,6,60895,5,0,0:0:0:0:
206,377,60969,1,0,0:0:0:0:
352,25,61043,5,0,0:0:0:0:
159,358,61117,1,0,0:0:0:0:
391,56,61191,5,0,0:0:0:0:
120,327,61265,1,0,0:0:0:0:
422,96,61339,5,0,2:0:0:0:
89,288,61413,1,0,2:0:0:0:
441,142,61487,5,0,0:0:0:0:
70,241,61561,1,0,0:0:0:0:
448,192,61635,5,0,0:0:0:0:
64,192,61709,1,0,0:0:0:0:
441,241,61783,5,0,0:0:0:0:
70,142,61857,1,0,0:0:0:0:
422,288,61932,5,0,2:0:0:0:
89,96,62006,1,0,2:0:0:0:
391,327,62080,5,0,0:0:0:0:
120,56,62154,1,0,0:0:0:0:
352,358,62228,5,0,0:0:0:0:
160,25,62302,1,0,0:0:0:0:
305,377,62376,5,0,0:0:0:0:
206,6,62450,1,0,0:0:0:0:
256,0,62524,5,0,0:0:0:0:
256,384,62598,1,0,0:0:0:0:
206,6,62672,5,0,2:0:0:0:
305,377,62746,1,0,2:0:0:0:
160,25,62820,5,4,0:0:0:0:
352,358,62894,1,4,0:0:0:0:
120,56,62969,5,0,0:0:0:0:
391,327,63043,1,0,0:0:0:0:
89,96,63117,5,0,0:0:0:0:
422,288,63191,1,0,0:0:0:0:
70,142,63265,5,0,0:0:0:0:
441,241,63339,1,0,0:0:0:0:
64,192,63413,5,0,0:0:0:0:
448,192,63487,1,0,0:0:0:0:
70,241,63561,5,0,0:0:0:0:
441,142,63635,1,0,0:0:0:0:
89,288,63709,5,0,0:0:0:0:
422,96,63783,1,0,0:0:0:0:
120,327,63857,5,0,0:0:0:0:
391,56,63931,1,0,0:0:0:0:
160,358,64006,5,0,0:0:0:0:
352,25,64080,1,0,0:0:0:0:
206,377,64154,5,0,0:0:0:0:
305,6,64228,1,0,0:0:0:0:
352,25,64302,5,0,0:0:0:0:
159,358,64376,1,0,0:0:0:0:
422,96,64450,5,0,0:0:0:0:
89,288,64524,1,0,0:0:0:0:
448,192,64598,5,0,0:0:0:0:
64,192,64672,1,0,0:0:0:0:
422,288,64746,5,0,0:0:0:0:
89,96,64820,1,0,0:0:0:0:
352,358,64895,5,0,0:0:0:0:
160,25,64969,1,0,0:0:0:0:
256,0,65043,5,0,0:0:0:0:
256,384,65117,1,0,0:0:0:0:
352,25,65191,5,0,0:0:0:0:
159,358,65265,1,0,0:0:0:0:
422,96,65339,5,0,0:0:0:0:
89,288,65413,1,0,0:0:0:0:
448,192,65487,5,0,0:0:0:0:
64,192,65561,1,0,0:0:0:0:
422,288,65635,5,0,0:0:0:0:
89,96,65709,1,0,0:0:0:0:
351,358,65783,5,0,0:0:0:0:
160,25,65857,1,0,0:0:0:0:
256,0,65932,5,0,0:0:0:0:
256,384,66006,1,0,0:0:0:0:
159,25,66080,5,0,0:0:0:0:
352,358,66154,1,0,0:0:0:0:
89,96,66228,5,0,2:0:0:0:
422,288,66302,1,0,2:0:0:0:
64,192,66376,5,0,0:0:0:0:
448,192,66450,1,0,0:0:0:0:
89,288,66524,5,0,0:0:0:0:
422,96,66598,1,0,0:0:0:0:
160,358,66672,5,0,0:0:0:0:
352,25,66746,1,0,0:0:0:0:
256,384,66820,5,0,0:0:0:0:
256,0,66894,1,0,0:0:0:0:
352,25,66969,5,0,0:0:0:0:
159,358,67043,1,0,0:0:0:0:
422,96,67117,5,0,0:0:0:0:
89,288,67191,1,0,0:0:0:0:
448,192,67265,5,0,0:0:0:0:
64,192,67339,1,0,0:0:0:0:
422,288,67413,5,0,0:0:0:0:
89,96,67487,1,0,0:0:0:0:
352,358,67561,5,0,0:0:0:0:
160,25,67635,1,0,0:0:0:0:
447,191,67709,5,0,0:0:0:0:
64,192,67783,1,0,0:0:0:0:
256,0,67857,5,0,0:0:0:0:
256,384,67931,1,0,0:0:0:0:
448,192,68006,5,0,0:0:0:0:
64,192,68080,1,0,0:0:0:0:
256,0,68154,5,0,0:0:0:0:
256,384,68228,1,0,0:0:0:0:
448,192,68302,5,0,0:0:0:0:
64,192,68376,1,0,0:0:0:0:
256,0,68450,5,0,0:0:0:0:
256,384,68524,1,0,0:0:0:0:
448,192,68598,5,0,0:0:0:0:
64,192,68672,1,0,0:0:0:0:
256,0,68746,5,0,0:0:0:0:
256,384,68820,1,0,0:0:0:0:
448,192,68895,5,0,0:0:0:0:
64,192,68969,1,0,0:0:0:0:
256,0,69043,5,0,0:0:0:0:
256,384,69117,1,0,0:0:0:0:
448,192,69191,5,0,0:0:0:0:
64,192,69265,1,0,0:0:0:0:
256,0,69339,5,0,0:0:0:0:
256,384,69413,1,0,0:0:0:0:
448,192,69487,5,0,0:0:0:0:
64,192,69561,1,0,0:0:0:0:
256,0,69635,5,0,0:0:0:0:
256,384,69709,1,0,0:0:0:0:
256,0,69783,5,0,0:0:0:0:
256,384,69857,1,0,0:0:0:0:
256,0,69932,5,0,0:0:0:0:
256,384,70006,1,0,0:0:0:0:
256,0,70080,5,0,0:0:0:0:
256,384,70154,1,0,0:0:0:0:
256,0,70228,5,0,0:0:0:0:
256,384,70302,1,0,0:0:0:0:
256,0,70376,5,0,0:0:0:0:
256,384,70450,1,0,0:0:0:0:
256,0,70524,5,0,0:0:0:0:
256,384,70598,1,0,0:0:0:0:
256,0,70672,5,0,0:0:0:0:
256,384,70746,1,0,0:0:0:0:
256,0,70820,5,0,0:0:0:0:
256,384,70894,1,0,0:0:0:0:
256,0,70969,5,0,0:0:0:0:
256,384,71043,1,0,0:0:0:0:
256,0,71117,5,0,0:0:0:0:
256,384,71191,1,0,0:0:0:0:
256,0,71265,5,0,0:0:0:0:
256,384,71339,1,0,0:0:0:0:
512,384,71524,5,0,0:0:0:0:
0,384,71635,1,0,0:0:0:0:
512,0,71746,1,0,0:0:0:0:
0,0,71857,1,0,0:0:0:0:
512,384,71969,1,0,0:0:0:0:
0,384,72080,1,0,0:0:0:0:
512,0,72191,1,0,0:0:0:0:
0,0,72302,1,0,0:0:0:0:
512,384,72413,1,0,0:0:0:0:
0,384,72524,1,0,0:0:0:0:
512,0,72635,1,0,0:0:0:0:
0,0,72746,1,0,0:0:0:0:
512,384,72857,1,0,0:0:0:0:
0,384,72969,1,0,0:0:0:0:
512,0,73080,1,0,0:0:0:0:
0,0,73191,1,0,0:0:0:0:
512,0,73413,5,0,0:0:0:0:
256,384,73635,1,0,0:0:0:0:
0,0,73857,1,0,0:0:0:0:
512,0,74080,1,0,0:0:0:0:
256,384,74302,1,0,0:0:0:0:
0,0,74524,1,0,0:0:0:0:
512,0,74746,1,0,0:0:0:0:
256,224,74969,5,0,0:0:0:0:
256,160,75024,1,0,0:0:0:0:
256,224,75080,5,0,0:0:0:0:
256,160,75135,1,0,0:0:0:0:
256,224,75191,5,0,0:0:0:0:
256,160,75246,1,0,0:0:0:0:
256,224,75302,5,0,0:0:0:0:
256,160,75357,1,0,0:0:0:0:
256,224,75413,5,0,0:0:0:0:
256,160,75468,1,0,0:0:0:0:
256,224,75524,5,0,0:0:0:0:
256,160,75579,1,0,0:0:0:0:
256,224,75635,5,0,0:0:0:0:
256,160,75690,1,0,0:0:0:0:
256,224,75746,5,0,0:0:0:0:
256,160,75801,1,0,0:0:0:0:
256,224,75857,5,0,0:0:0:0:
256,160,75912,1,0,0:0:0:0:
256,224,75969,5,0,0:0:0:0:
256,160,76024,1,0,0:0:0:0:
256,224,76080,5,0,0:0:0:0:
256,160,76135,1,0,0:0:0:0:
256,224,76191,5,0,0:0:0:0:
256,160,76246,1,0,0:0:0:0:
256,224,76302,5,0,0:0:0:0:
256,192,76746,5,0,0:0:0:0:
215,270,76802,1,0,0:0:0:0:
129,259,76857,1,0,0:0:0:0:
68,194,76913,1,0,0:0:0:0:
45,108,76969,1,0,0:0:0:0:
84,30,77024,1,0,0:0:0:0:
172,28,77080,1,0,0:0:0:0:
257,39,77135,1,0,0:0:0:0:
341,63,77191,5,0,0:0:0:0:
417,103,77246,1,0,0:0:0:0:
463,177,77302,1,0,0:0:0:0:
420,252,77357,1,0,0:0:0:0:
351,307,77413,1,0,0:0:0:0:
270,343,77469,1,0,0:0:0:0:
184,331,77524,1,0,0:0:0:0:
143,252,77580,1,0,0:0:0:0:
215,204,77635,5,0,0:0:0:0:
302,215,77691,1,0,0:0:0:0:
287,300,77746,1,0,0:0:0:0:
202,325,77802,1,0,0:0:0:0:
133,272,77857,1,0,0:0:0:0:
131,183,77913,1,0,0:0:0:0:
189,116,77969,1,0,0:0:0:0:
274,103,78024,1,0,0:0:0:0:
284,190,78080,5,0,0:0:0:0:
242,265,78135,1,0,0:0:0:0:
307,324,78191,1,0,0:0:0:0:
387,292,78246,1,0,0:0:0:0:
411,207,78302,1,0,0:0:0:0:
431,122,78357,1,0,0:0:0:0:
410,36,78413,1,0,0:0:0:0:
322,43,78469,1,0,0:0:0:0:
235,49,78524,5,0,0:0:0:0:
146,54,78580,1,0,0:0:0:0:
64,83,78635,1,0,0:0:0:0:
45,169,78691,1,0,0:0:0:0:
45,255,78746,1,0,0:0:0:0:
108,316,78802,1,0,0:0:0:0:
193,302,78857,1,0,0:0:0:0:
278,280,78913,1,0,0:0:0:0:
362,255,78969,5,0,0:0:0:0:
435,209,79024,1,0,0:0:0:0:
412,123,79080,1,0,0:0:0:0:
327,104,79135,1,0,0:0:0:0:
241,126,79191,1,0,0:0:0:0:
181,188,79246,1,0,0:0:0:0:
210,271,79302,1,0,0:0:0:0:
283,316,79357,1,0,0:0:0:0:
370,310,79413,5,0,0:0:0:0:
416,235,79469,1,0,0:0:0:0:
404,149,79524,1,0,0:0:0:0:
317,130,79580,1,0,0:0:0:0:
254,190,79635,1,0,0:0:0:0:
189,249,79691,1,0,0:0:0:0:
120,195,79746,1,0,0:0:0:0:
107,107,79802,1,0,0:0:0:0:
188,77,79857,5,0,0:0:0:0:
267,114,79913,1,0,0:0:0:0:
268,202,79969,1,0,0:0:0:0:
200,256,80024,1,0,0:0:0:0:
260,319,80080,1,0,0:0:0:0:
337,280,80135,1,0,0:0:0:0:
288,206,80191,1,0,0:0:0:0:
213,161,80246,1,0,0:0:0:0:
151,223,80302,5,0,0:0:0:0:
208,287,80357,1,0,0:0:0:0:
294,268,80413,1,0,0:0:0:0:
359,209,80469,1,0,0:0:0:0:
309,137,80524,1,0,0:0:0:0:
221,122,80580,1,0,0:0:0:0:
143,161,80635,1,0,0:0:0:0:
176,242,80691,1,0,0:0:0:0:
262,250,80746,5,0,0:0:0:0:
342,214,80802,1,0,0:0:0:0:
329,128,80857,1,0,0:0:0:0:
245,100,80913,1,0,0:0:0:0:
157,106,80969,1,0,0:0:0:0:
80,145,81024,1,0,0:0:0:0:
80,233,81080,1,0,0:0:0:0:
155,275,81135,1,0,0:0:0:0:
242,287,81191,5,0,0:0:0:0:
327,276,81246,1,0,0:0:0:0:
407,240,81302,1,0,0:0:0:0:
432,157,81357,1,0,0:0:0:0:
387,81,81413,1,0,0:0:0:0:
300,65,81469,1,0,0:0:0:0:
214,79,81524,1,0,0:0:0:0:
137,123,81580,1,0,0:0:0:0:
103,202,81635,5,0,0:0:0:0:
185,231,81691,1,0,0:0:0:0:
270,247,81746,1,0,0:0:0:0:
348,287,81802,1,0,0:0:0:0:
275,239,81857,1,0,0:0:0:0:
175,314,81913,1,0,0:0:0:0:
181,226,81969,1,0,0:0:0:0:
216,147,82024,1,0,0:0:0:0:
297,112,82080,5,0,0:0:0:0:
374,150,82135,1,0,0:0:0:0:
367,237,82191,1,0,0:0:0:0:
220,329,82246,1,0,0:0:0:0:
92,207,82302,1,0,0:0:0:0:
153,45,82357,1,0,0:0:0:0:
313,118,82413,1,0,0:0:0:0:
184,238,82469,1,0,0:0:0:0:
68,109,82524,1,0,0:0:0:0:
231,42,82580,1,0,0:0:0:0:
294,203,82635,1,0,0:0:0:0:
138,286,82691,1,0,0:0:0:0:
68,109,82746,1,0,0:0:0:0:
234,49,82802,1,0,0:0:0:0:
321,198,82857,1,0,0:0:0:0:
168,286,82913,1,0,0:0:0:0:
91,126,82969,1,0,0:0:0:0:
255,72,83024,1,0,0:0:0:0:
316,237,83080,1,0,0:0:0:0:
162,316,83135,1,0,0:0:0:0:
91,126,83191,1,0,0:0:0:0:
253,65,83246,1,0,0:0:0:0:
297,235,83302,1,0,0:0:0:0:
136,299,83357,1,0,0:0:0:0:
91,126,83413,1,0,0:0:0:0:
252,54,83469,1,0,0:0:0:0:
297,235,83524,1,0,0:0:0:0:
127,283,83580,1,0,0:0:0:0:
129,109,83635,1,0,0:0:0:0:
304,93,83691,1,0,0:0:0:0:
267,262,83746,1,0,0:0:0:0:
91,242,83802,1,0,0:0:0:0:
115,159,83857,1,0,0:0:0:0:
174,94,83913,1,0,0:0:0:0:
254,130,83969,1,0,0:0:0:0:
293,206,84024,1,0,0:0:0:0:
234,272,84080,1,0,0:0:0:0:
147,271,84135,1,0,0:0:0:0:
90,203,84191,1,0,0:0:0:0:
101,117,84246,1,0,0:0:0:0:
172,65,84302,1,0,0:0:0:0:
258,59,84357,1,0,0:0:0:0:
343,81,84413,1,0,0:0:0:0:
400,147,84469,1,0,0:0:0:0:
409,233,84524,1,0,0:0:0:0:
327,267,84580,1,0,0:0:0:0:
240,268,84635,1,0,0:0:0:0:
169,214,84691,1,0,0:0:0:0:
133,134,84746,1,0,0:0:0:0:
210,91,84802,1,0,0:0:0:0:
293,115,84857,1,0,0:0:0:0:
324,197,84913,1,0,0:0:0:0:
261,258,84969,1,0,0:0:0:0:
174,259,85024,1,0,0:0:0:0:
115,193,85080,1,0,0:0:0:0:
127,107,85135,1,0,0:0:0:0:
194,49,85191,1,0,0:0:0:0:
280,46,85246,1,0,0:0:0:0:
367,54,85302,1,0,0:0:0:0:
447,86,85357,1,0,0:0:0:0:
493,160,85413,1,0,0:0:0:0:
478,246,85469,1,0,0:0:0:0:
429,317,85524,1,0,0:0:0:0:
341,329,85580,1,0,0:0:0:0:
254,330,85635,1,0,0:0:0:0:
166,318,85691,1,0,0:0:0:0:
99,262,85746,1,0,0:0:0:0:
76,176,85802,1,0,0:0:0:0:
77,89,85857,1,0,0:0:0:0:
152,43,85913,1,0,0:0:0:0:
240,47,85969,1,0,0:0:0:0:
326,48,86024,1,0,0:0:0:0:
405,87,86080,1,0,0:0:0:0:
423,171,86135,1,0,0:0:0:0:
384,250,86191,1,0,0:0:0:0:
356,167,86246,1,0,0:0:0:0:
302,96,86302,1,0,0:0:0:0:
218,71,86357,1,0,0:0:0:0:
130,82,86413,1,0,0:0:0:0:
67,143,86469,1,0,0:0:0:0:
82,228,86524,1,0,0:0:0:0:
118,147,86580,1,0,0:0:0:0:
199,116,86635,1,0,0:0:0:0:
286,104,86691,1,0,0:0:0:0:
369,127,86746,1,0,0:0:0:0:
417,200,86802,1,0,0:0:0:0:
419,286,86857,1,0,0:0:0:0:
341,243,86913,1,0,0:0:0:0:
310,160,86969,1,0,0:0:0:0:
224,144,87024,1,0,0:0:0:0:
141,175,87080,1,0,0:0:0:0:
92,247,87135,1,0,0:0:0:0:
113,332,87191,1,0,0:0:0:0:
170,267,87246,1,0,0:0:0:0:
253,238,87302,1,0,0:0:0:0:
339,246,87357,1,0,0:0:0:0:
391,316,87413,1,0,0:0:0:0:
306,340,87469,1,0,0:0:0:0:
219,332,87524,1,0,0:0:0:0:
190,248,87580,1,0,0:0:0:0:
266,206,87635,1,0,0:0:0:0:
350,229,87691,1,0,0:0:0:0:
298,298,87746,1,0,0:0:0:0:
210,306,87802,1,0,0:0:0:0:
125,288,87857,1,0,0:0:0:0:
70,218,87913,1,0,0:0:0:0:
84,130,87969,1,0,0:0:0:0:
110,139,88024,1,0,0:0:0:0:
184,92,88080,1,0,0:0:0:0:
270,99,88135,1,0,0:0:0:0:
357,86,88191,1,0,0:0:0:0:
417,147,88246,1,0,0:0:0:0:
427,234,88302,1,0,0:0:0:0:
363,292,88357,1,0,0:0:0:0:
274,295,88413,1,0,0:0:0:0:
186,283,88469,1,0,0:0:0:0:
119,227,88524,1,0,0:0:0:0:
96,141,88580,1,0,0:0:0:0:
148,71,88635,1,0,0:0:0:0:
235,61,88691,1,0,0:0:0:0:
319,80,88746,1,0,0:0:0:0:
386,136,88802,1,0,0:0:0:0:
422,214,88857,1,0,0:0:0:0:
367,283,88913,1,0,0:0:0:0:
281,305,88969,1,0,0:0:0:0:
195,290,89024,1,0,0:0:0:0:
126,234,89080,1,0,0:0:0:0:
99,151,89135,1,0,0:0:0:0:
288,128,89191,6,0,L|240:152,16,35,4|8|8|8|8|8|8|8|8|8|8|8|8|8|8|8|4,0:0|0:0|0:0|0:0|0:0|0:0|0:0|0:0|0:0|0:0|0:0|0:0|0:0|0:0|0:0|0:0|0:0,0:0:0:0:
263,214,90524,85,12,0:0:0:0:
236,206,90580,5,12,0:0:0:0:
236,178,90635,5,12,0:0:0:0:
263,169,90691,5,12,0:0:0:0:
279,192,90746,5,12,0:0:0:0:
263,214,90802,5,12,0:0:0:0:
236,206,90858,5,12,0:0:0:0:
236,178,90913,5,12,0:0:0:0:
263,169,90969,5,12,0:0:0:0:
382,294,91024,5,0,0:0:0:0:
211,339,91080,5,0,0:0:0:0:
47,280,91135,5,0,0:0:0:0:
54,103,91191,5,0,0:0:0:0:
215,41,91246,5,0,0:0:0:0:
390,55,91302,5,0,0:0:0:0:
466,210,91357,5,0,0:0:0:0:
305,137,91413,5,0,0:0:0:0:
129,151,91469,5,0,0:0:0:0:
66,312,91524,5,0,0:0:0:0:
229,245,91580,5,0,0:0:0:0:
398,282,91635,5,0,0:0:0:0:
225,320,91691,5,0,0:0:0:0:
89,211,91746,5,0,0:0:0:0:
184,62,91802,5,0,0:0:0:0:
357,57,91857,5,0,0:0:0:0:
461,199,91913,5,0,0:0:0:0:
461,375,91969,5,0,0:0:0:0:
341,249,92024,5,0,0:0:0:0:
215,124,92080,5,0,0:0:0:0:
57,51,92135,5,0,0:0:0:0:
57,227,92191,5,0,0:0:0:0:
208,311,92246,5,0,0:0:0:0:
278,149,92302,5,0,0:0:0:0:
403,29,92357,5,0,0:0:0:0:
465,194,92413,5,0,0:0:0:0:
445,369,92469,5,0,0:0:0:0:
325,243,92524,5,0,0:0:0:0:
215,104,92580,5,0,0:0:0:0:
54,38,92635,5,0,0:0:0:0:
39,213,92691,5,0,0:0:0:0:
35,332,92746,5,0,0:0:0:0:
168,216,92802,5,0,0:0:0:0:
309,116,92857,5,0,0:0:0:0:
460,25,92913,5,0,0:0:0:0:
283,19,92969,5,0,0:0:0:0:
110,38,93024,5,0,0:0:0:0:
14,186,93080,5,0,0:0:0:0:
100,335,93135,5,0,0:0:0:0:
88,158,93191,5,0,0:0:0:0:
199,25,93246,5,0,0:0:0:0:
375,26,93302,5,0,0:0:0:0:
487,91,93357,5,0,0:0:0:0:
312,113,93413,5,0,0:0:0:0:
147,177,93469,5,0,0:0:0:0:
36,310,93524,5,0,0:0:0:0:
207,352,93580,5,0,0:0:0:0:
304,208,93635,5,0,0:0:0:0:
343,36,93691,5,0,0:0:0:0:
485,135,93746,5,0,0:0:0:0:
457,309,93802,5,0,0:0:0:0:
284,327,93857,5,0,0:0:0:0:
124,251,93913,5,0,0:0:0:0:
43,93,93969,5,0,0:0:0:0:
213,61,94024,5,0,0:0:0:0:
388,44,94080,5,0,0:0:0:0:
491,183,94135,5,0,0:0:0:0:
409,339,94191,5,0,0:0:0:0:
235,336,94246,5,0,0:0:0:0:
61,306,94302,5,0,0:0:0:0:
111,140,94357,5,0,0:0:0:0:
257,41,94413,5,0,0:0:0:0:
392,154,94469,5,0,0:0:0:0:
228,212,94524,5,0,0:0:0:0:
97,330,94580,5,0,0:0:0:0:
270,320,94635,5,0,0:0:0:0:
439,271,94691,5,0,0:0:0:0:
348,123,94746,5,0,0:0:0:0:
194,35,94802,5,0,0:0:0:0:
32,98,94857,5,0,0:0:0:0:
79,267,94913,5,0,0:0:0:0:
245,325,94969,5,0,0:0:0:0:
408,267,95024,5,0,0:0:0:0:
297,129,95080,5,0,0:0:0:0:
130,81,95135,5,0,0:0:0:0:
69,246,95191,5,0,0:0:0:0:
83,327,95246,5,0,0:0:0:0:
248,266,95302,5,0,0:0:0:0:
372,145,95357,5,0,0:0:0:0:
207,80,95413,5,0,0:0:0:0:
35,120,95469,5,0,0:0:0:0:
26,293,95524,5,0,0:0:0:0:
200,316,95580,5,0,0:0:0:0:
373,317,95635,5,0,0:0:0:0:
464,165,95691,5,0,0:0:0:0:
469,33,95746,5,0,0:0:0:0:
292,40,95802,5,0,0:0:0:0:
128,96,95857,5,0,0:0:0:0:
49,254,95913,5,0,0:0:0:0:
66,369,95969,5,0,0:0:0:0:
236,339,96024,5,0,0:0:0:0:
412,349,96080,5,0,0:0:0:0:
508,263,96135,5,0,0:0:0:0:
429,104,96191,5,0,0:0:0:0:
260,61,96246,5,0,0:0:0:0:
84,44,96302,5,0,0:0:0:0:
43,212,96357,5,0,0:0:0:0:
219,209,96413,5,0,0:0:0:0:
70,113,96469,5,0,0:0:0:0:
65,286,96524,5,0,0:0:0:0:
179,151,96580,5,0,0:0:0:0:
173,324,96635,5,0,0:0:0:0:
274,179,96691,5,0,0:0:0:0:
307,348,96746,5,0,0:0:0:0:
362,180,96802,5,0,0:0:0:0:
432,338,96857,5,0,0:0:0:0:
432,161,96913,5,0,0:0:0:0:
322,22,96969,5,0,0:0:0:0:
322,195,97024,5,0,0:0:0:0:
408,41,97080,5,0,0:0:0:0:
268,143,97135,5,0,0:0:0:0:
141,20,97191,5,0,0:0:0:0:
117,191,97246,5,0,0:0:0:0:
26,39,97302,5,0,0:0:0:0:
37,211,97357,5,0,0:0:0:0:
133,63,97413,5,0,0:0:0:0:
160,237,97469,5,0,0:0:0:0:
236,81,97524,5,0,0:0:0:0:
250,256,97580,5,0,0:0:0:0:
308,92,97635,5,0,0:0:0:0:
343,264,97691,5,0,0:0:0:0:
402,101,97746,5,0,0:0:0:0:
411,277,97802,5,0,0:0:0:0:
483,119,97857,5,0,0:0:0:0:
455,293,97913,5,0,0:0:0:0:
414,121,97969,5,0,0:0:0:0:
379,290,98024,5,0,0:0:0:0:
347,116,98080,5,0,0:0:0:0:
295,281,98135,5,0,0:0:0:0:
272,106,98191,5,0,0:0:0:0:
212,268,98246,5,0,0:0:0:0:
208,91,98302,5,0,0:0:0:0:
155,256,98357,5,0,0:0:0:0:
148,79,98413,5,0,0:0:0:0:
80,242,98469,5,0,0:0:0:0:
71,68,98524,5,0,0:0:0:0:
50,243,98580,5,0,0:0:0:0:
196,150,98635,5,0,0:0:0:0:
216,325,98691,5,0,0:0:0:0:
280,164,98746,5,0,0:0:0:0:
390,301,98802,5,0,0:0:0:0:
435,133,98857,5,0,0:0:0:0:
475,304,98913,5,0,0:0:0:0:
364,166,98969,5,0,0:0:0:0:
307,329,99024,5,0,0:0:0:0:
218,176,99080,5,0,0:0:0:0:
147,334,99135,5,0,0:0:0:0:
129,158,99191,5,0,0:0:0:0:
17,290,99246,5,0,0:0:0:0:
47,116,99302,5,0,0:0:0:0:
181,225,99357,5,0,0:0:0:0:
281,79,99413,5,0,0:0:0:0:
336,246,99469,5,0,0:0:0:0:
416,92,99524,5,0,0:0:0:0:
423,268,99580,5,0,0:0:0:0:
349,110,99635,5,0,0:0:0:0:
258,261,99691,5,0,0:0:0:0:
241,88,99746,5,0,0:0:0:0:
135,229,99802,5,0,0:0:0:0:
89,61,99857,5,0,0:0:0:0:
64,235,99913,5,0,0:0:0:0:
160,87,99969,5,0,0:0:0:0:
217,250,100024,5,0,0:0:0:0:
299,94,100080,5,0,0:0:0:0:
353,258,100135,5,0,0:0:0:0:
395,86,100191,5,0,0:0:0:0:
457,247,100246,5,0,0:0:0:0:
483,72,100302,5,0,0:0:0:0:
364,197,100357,5,0,0:0:0:0:
281,41,100413,5,0,0:0:0:0:
232,210,100469,5,0,0:0:0:0:
193,41,100524,5,0,0:0:0:0:
119,201,100580,5,0,0:0:0:0:
35,49,100635,5,0,0:0:0:0:
42,225,100691,5,0,0:0:0:0:
187,131,100746,5,0,0:0:0:0:
200,306,100802,5,0,0:0:0:0:
289,157,100857,5,0,0:0:0:0:
352,321,100913,5,0,0:0:0:0:
377,146,100969,5,0,0:0:0:0:
486,280,101024,5,0,0:0:0:0:
452,106,101080,5,0,0:0:0:0:
312,208,101135,5,0,0:0:0:0:
254,41,101191,5,0,0:0:0:0:
142,173,101246,5,0,0:0:0:0:
57,18,101302,5,0,0:0:0:0:
87,188,101357,5,0,0:0:0:0:
191,186,101413,85,0,0:0:0:0:
293,139,101524,1,0,0:0:0:0:
283,250,101635,1,0,0:0:0:0:
156,384,101857,5,0,0:0:0:0:
24,0,102080,1,0,0:0:0:0:
504,236,102302,1,0,0:0:0:0:
36,368,102524,1,0,0:0:0:0:
164,144,102746,1,0,0:0:0:0:
280,312,102969,1,0,0:0:0:0:
368,208,103191,1,0,0:0:0:0:
264,180,103413,1,0,0:0:0:0:
324,96,103635,1,0,0:0:0:0:
216,120,103857,1,0,0:0:0:0:
224,184,104080,1,0,0:0:0:0:
256,192,104302,1,0,0:0:0:0:
256,192,104746,85,0,0:0:0:0:
256,192,105191,5,12,0:0:0:0:
255,370,105218,5,0,0:0:0:0:
151,47,105246,5,0,0:0:0:0:
425,247,105274,5,0,0:0:0:0:
86,247,105302,5,0,0:0:0:0:
361,47,105329,5,0,0:0:0:0:
255,370,105357,5,0,0:0:0:0:
151,47,105385,5,0,0:0:0:0:
425,247,105413,5,0,0:0:0:0:
86,247,105441,5,0,0:0:0:0:
361,47,105468,5,0,0:0:0:0:
255,370,105496,5,0,0:0:0:0:
151,47,105524,5,0,0:0:0:0:
425,247,105552,5,0,0:0:0:0:
86,247,105580,5,0,0:0:0:0:
361,47,105607,5,0,0:0:0:0:
255,370,105635,5,0,0:0:0:0:
151,47,105663,5,0,0:0:0:0:
425,247,105691,5,0,0:0:0:0:
86,247,105719,5,0,0:0:0:0:
361,47,105746,5,0,0:0:0:0:
255,370,105774,5,0,0:0:0:0:
151,47,105802,5,0,0:0:0:0:
425,247,105830,5,0,0:0:0:0:
86,247,105858,5,0,0:0:0:0:
361,47,105885,5,0,0:0:0:0:
255,370,105913,5,0,0:0:0:0:
151,47,105941,5,0,0:0:0:0:
425,247,105969,5,0,0:0:0:0:
86,247,105997,5,0,0:0:0:0:
361,47,106024,5,0,0:0:0:0:
255,370,106052,5,0,0:0:0:0:
151,47,106080,5,0,0:0:0:0:
425,247,106108,5,0,0:0:0:0:
86,247,106136,5,0,0:0:0:0:
361,47,106163,5,0,0:0:0:0:
255,370,106191,5,0,0:0:0:0:
151,47,106219,5,0,0:0:0:0:
425,247,106247,5,0,0:0:0:0:
86,247,106275,5,0,0:0:0:0:
361,47,106302,5,0,0:0:0:0:
255,370,106329,5,0,0:0:0:0:
151,47,106357,5,0,0:0:0:0:
425,247,106385,5,0,0:0:0:0:
86,247,106413,5,0,0:0:0:0:
361,47,106440,5,0,0:0:0:0:
255,370,106468,5,0,0:0:0:0:
151,47,106496,5,0,0:0:0:0:
425,247,106524,5,0,0:0:0:0:
86,247,106552,5,0,0:0:0:0:
361,47,106579,5,0,0:0:0:0:
255,370,106607,5,0,0:0:0:0:
151,47,106635,5,0,0:0:0:0:
425,247,106663,5,0,0:0:0:0:
86,247,106691,5,0,0:0:0:0:
361,47,106718,5,0,0:0:0:0:
255,370,106746,5,0,0:0:0:0:
151,47,106774,5,0,0:0:0:0:
425,247,106802,5,0,0:0:0:0:
86,247,106830,5,0,0:0:0:0:
361,47,106857,5,0,0:0:0:0:
255,370,106885,5,0,0:0:0:0:
151,47,106913,5,0,0:0:0:0:
425,247,106941,5,0,0:0:0:0:
86,247,106969,5,0,0:0:0:0:
361,47,106996,5,0,0:0:0:0:
255,370,107024,5,0,0:0:0:0:
151,47,107052,5,0,0:0:0:0:
425,247,107080,5,0,0:0:0:0:
86,247,107108,5,0,0:0:0:0:
361,47,107135,5,0,0:0:0:0:
255,370,107163,5,0,0:0:0:0:
151,47,107191,5,0,0:0:0:0:
425,247,107219,5,0,0:0:0:0:
86,247,107247,5,0,0:0:0:0:
361,47,107274,5,0,0:0:0:0:
255,370,107302,5,0,0:0:0:0:
151,47,107330,5,0,0:0:0:0:
425,247,107358,5,0,0:0:0:0:
86,247,107386,5,0,0:0:0:0:
361,47,107413,5,0,0:0:0:0:
255,370,107441,5,0,0:0:0:0:
151,47,107469,5,0,0:0:0:0:
425,247,107497,5,0,0:0:0:0:
86,247,107525,5,0,0:0:0:0:
361,47,107552,5,0,0:0:0:0:
255,370,107580,5,0,0:0:0:0:
151,47,107608,5,0,0:0:0:0:
425,247,107636,5,0,0:0:0:0:
86,247,107664,5,0,0:0:0:0:
361,47,107691,5,0,0:0:0:0:
255,370,107718,5,0,0:0:0:0:
151,47,107746,5,0,0:0:0:0:
425,247,107774,5,0,0:0:0:0:
86,247,107802,5,0,0:0:0:0:
361,47,107829,5,0,0:0:0:0:
255,370,107857,5,0,0:0:0:0:
151,47,107885,5,0,0:0:0:0:
425,247,107913,5,0,0:0:0:0:
86,247,107941,5,0,0:0:0:0:
361,47,107968,5,0,0:0:0:0:
255,370,107996,5,0,0:0:0:0:
151,47,108024,5,0,0:0:0:0:
425,247,108052,5,0,0:0:0:0:
86,247,108080,5,0,0:0:0:0:
361,47,108107,5,0,0:0:0:0:
255,370,108135,5,0,0:0:0:0:
151,47,108163,5,0,0:0:0:0:
425,247,108191,5,0,0:0:0:0:
86,247,108219,5,0,0:0:0:0:
361,47,108246,5,0,0:0:0:0:
255,370,108274,5,0,0:0:0:0:
151,47,108302,5,0,0:0:0:0:
425,247,108330,5,0,0:0:0:0:
86,247,108358,5,0,0:0:0:0:
361,47,108385,5,0,0:0:0:0:
255,370,108413,5,0,0:0:0:0:
151,47,108441,5,0,0:0:0:0:
425,247,108469,5,0,0:0:0:0:
86,247,108497,5,0,0:0:0:0:
361,47,108524,5,0,0:0:0:0:
255,370,108552,5,0,0:0:0:0:
151,47,108580,5,0,0:0:0:0:
425,247,108608,5,0,0:0:0:0:
86,247,108636,5,0,0:0:0:0:
361,47,108663,5,0,0:0:0:0:
255,370,108691,5,0,0:0:0:0:
151,47,108719,5,0,0:0:0:0:
425,247,108747,5,0,0:0:0:0:
86,247,108775,5,0,0:0:0:0:
361,47,108802,5,0,0:0:0:0:
255,370,108829,5,0,0:0:0:0:
151,47,108857,5,0,0:0:0:0:
425,247,108885,5,0,0:0:0:0:
86,247,108913,5,0,0:0:0:0:
361,47,108940,5,0,0:0:0:0:
255,370,108968,5,0,0:0:0:0:
151,47,108996,5,0,0:0:0:0:
425,247,109024,5,0,0:0:0:0:
86,247,109052,5,0,0:0:0:0:
361,47,109079,5,0,0:0:0:0:
255,370,109107,5,0,0:0:0:0:
151,47,109135,5,0,0:0:0:0:
425,247,109163,5,0,0:0:0:0:
86,247,109191,5,0,0:0:0:0:
361,47,109218,5,0,0:0:0:0:
255,370,109246,5,0,0:0:0:0:
151,47,109274,5,0,0:0:0:0:
425,247,109302,5,0,0:0:0:0:
86,247,109330,5,0,0:0:0:0:
361,47,109357,5,0,0:0:0:0:
255,370,109385,5,0,0:0:0:0:
151,47,109413,5,0,0:0:0:0:
425,247,109441,5,0,0:0:0:0:
86,247,109469,5,0,0:0:0:0:
361,47,109496,5,0,0:0:0:0:
255,370,109524,5,0,0:0:0:0:
151,47,109552,5,0,0:0:0:0:
425,247,109580,5,0,0:0:0:0:
86,247,109608,5,0,0:0:0:0:
361,47,109635,5,0,0:0:0:0:
255,370,109663,5,0,0:0:0:0:
151,47,109691,5,0,0:0:0:0:
425,247,109719,5,0,0:0:0:0:
86,247,109747,5,0,0:0:0:0:
361,47,109774,5,0,0:0:0:0:
255,370,109802,5,0,0:0:0:0:
151,47,109830,5,0,0:0:0:0:
425,247,109858,5,0,0:0:0:0:
86,247,109886,5,0,0:0:0:0:
361,47,109913,5,0,0:0:0:0:
255,370,109941,5,0,0:0:0:0:
151,47,109969,5,0,0:0:0:0:
425,247,109997,5,0,0:0:0:0:
86,247,110025,5,0,0:0:0:0:
361,47,110052,5,0,0:0:0:0:
255,370,110080,5,0,0:0:0:0:
151,47,110108,5,0,0:0:0:0:
425,247,110136,5,0,0:0:0:0:
86,247,110164,5,0,0:0:0:0:
361,47,110191,5,0,0:0:0:0:
255,370,110218,5,0,0:0:0:0:
151,47,110246,5,0,0:0:0:0:
425,247,110274,5,0,0:0:0:0:
86,247,110302,5,0,0:0:0:0:
361,47,110329,5,0,0:0:0:0:
255,370,110357,5,0,0:0:0:0:
151,47,110385,5,0,0:0:0:0:
425,247,110413,5,0,0:0:0:0:
86,247,110441,5,0,0:0:0:0:
361,47,110468,5,0,0:0:0:0:
255,370,110496,5,0,0:0:0:0:
151,47,110524,5,0,0:0:0:0:
425,247,110552,5,0,0:0:0:0:
86,247,110580,5,0,0:0:0:0:
361,47,110607,5,0,0:0:0:0:
255,370,110635,5,0,0:0:0:0:
151,47,110663,5,0,0:0:0:0:
425,247,110691,5,0,0:0:0:0:
86,247,110719,5,0,0:0:0:0:
361,47,110746,5,0,0:0:0:0:
255,370,110774,5,0,0:0:0:0:
151,47,110802,5,0,0:0:0:0:
425,247,110830,5,0,0:0:0:0:
86,247,110858,5,0,0:0:0:0:
361,47,110885,5,0,0:0:0:0:
255,370,110913,5,0,0:0:0:0:
151,47,110941,5,0,0:0:0:0:
425,247,110969,5,0,0:0:0:0:
86,247,110997,5,0,0:0:0:0:
361,47,111024,5,0,0:0:0:0:
255,370,111052,5,0,0:0:0:0:
151,47,111080,5,0,0:0:0:0:
425,247,111108,5,0,0:0:0:0:
86,247,111136,5,0,0:0:0:0:
361,47,111163,5,0,0:0:0:0:
255,370,111191,5,0,0:0:0:0:
151,47,111219,5,0,0:0:0:0:
425,247,111247,5,0,0:0:0:0:
86,247,111275,5,0,0:0:0:0:
361,47,111302,5,0,0:0:0:0:
255,370,111329,5,0,0:0:0:0:
151,47,111357,5,0,0:0:0:0:
425,247,111385,5,0,0:0:0:0:
86,247,111413,5,0,0:0:0:0:
361,47,111440,5,0,0:0:0:0:
255,370,111468,5,0,0:0:0:0:
151,47,111496,5,0,0:0:0:0:
425,247,111524,5,0,0:0:0:0:
86,247,111552,5,0,0:0:0:0:
361,47,111579,5,0,0:0:0:0:
255,370,111607,5,0,0:0:0:0:
151,47,111635,5,0,0:0:0:0:
425,247,111663,5,0,0:0:0:0:
86,247,111691,5,0,0:0:0:0:
361,47,111718,5,0,0:0:0:0:
255,370,111746,5,0,0:0:0:0:
151,47,111774,5,0,0:0:0:0:
425,247,111802,5,0,0:0:0:0:
86,247,111830,5,0,0:0:0:0:
361,47,111857,5,0,0:0:0:0:
256,64,112302,6,0,B|128:192|128:192|256:320|256:320|384:192|384:192|252:60,3,717.5
256,376,114079,101,0,0:0:0:0:
148,44,114524,1,0,0:0:0:0:
429,248,114967,1,0,0:0:0:0:
82,248,115412,1,0,0:0:0:0:
363,44,115857,1,0,0:0:0:0:
256,192,116302,5,0,0:0:0:0:
0,192,116746,1,0,0:0:0:0:
512,192,117191,1,0,0:0:0:0:
256,192,117635,101,8,0:0:0:0:
256,214,117690,5,8,0:0:0:0:
242,173,117746,5,8,0:0:0:0:
277,199,117802,5,8,0:0:0:0:
234,199,117857,5,8,0:0:0:0:
269,173,117913,5,8,0:0:0:0:
256,169,118079,37,4,0:0:0:0:
269,210,118135,5,4,0:0:0:0:
234,184,118190,5,4,0:0:0:0:
277,184,118246,5,4,0:0:0:0:
242,210,118302,5,4,0:0:0:0:
256,214,118524,53,12,0:0:0:0:
242,173,118580,5,12,0:0:0:0:
277,199,118636,5,12,0:0:0:0:
234,199,118691,5,12,0:0:0:0:
269,173,118747,5,12,0:0:0:0:
256,169,118802,5,12,0:0:0:0:
269,210,118858,5,12,0:0:0:0:
234,184,118913,5,12,0:0:0:0:
277,184,118969,5,12,0:0:0:0:
242,210,119025,5,12,0:0:0:0:
256,169,119079,5,12,0:0:0:0:
269,210,119135,5,12,0:0:0:0:
234,184,119190,5,12,0:0:0:0:
277,184,119246,5,12,0:0:0:0:
242,210,119302,5,12,0:0:0:0:
256,192,119357,5,0,0:0:0:0:
256,192,119413,5,0,0:0:0:0:
