osu file format v14

[General]
AudioFilename: audio.mp3
AudioLeadIn: 0
PreviewTime: 0
Countdown: 1
SampleSet: None
StackLeniency: 0.2
Mode: 0
LetterboxInBreaks: 0
WidescreenStoryboard: 1

[Editor]
Bookmarks: 3858,12080,14080,18080,32302,46524,49969,60746,71413,74969,76746,90969,105191,119413
DistanceSpacing: 1.2
BeatDivisor: 4
GridSize: 8
TimelineZoom: 4.999997

[Metadata]
Title:The Empress
TitleUnicode:The Empress
Artist:UNDEAD CORPORATION
ArtistUnicode:UNDEAD CORPORATION
Creator:LegenDarius13
Version:Lunatic
Source:Touhou Project
Tags:touhou flandre scarlet theme stream remilia Undead Corporation Metal
BeatmapID:1641294
BeatmapSetID:747267

[Difficulty]
HPDrainRate:0
CircleSize:3.8
OverallDifficulty:8.4
ApproachRate:10
SliderMultiplier:1.4
SliderTickRate:1

[Events]
//Background and Video events
0,0,"flandre_scarlet_girl_dress_cap_wings_36674_2048x1152.jpg",0,0
//Break Periods
//Storyboard Layer 0 (Background)
//Storyboard Layer 1 (Fail)
//Storyboard Layer 2 (Pass)
//Storyboard Layer 3 (Foreground)
//Storyboard Sound Samples

[TimingPoints]
0,444.444444444444,4,1,0,5,1,0
3858,222.222222222222,4,1,0,100,1,0
3969,-200,4,1,0,50,0,0
17857,-200,4,1,0,60,0,0
26024,-133.333333333333,4,1,0,70,0,0
28024,-100,4,1,0,80,0,0
31607,-100,4,1,0,90,0,0
32330,-100,4,1,0,100,0,1
44719,-88.8888888888889,4,1,0,100,0,1
46524,-88.8888888888889,4,1,0,100,0,0
49913,-100,4,1,0,100,0,0
79385,-100,4,1,0,100,0,0
82246,-50,4,1,0,100,0,0
83830,-100,4,1,0,100,0,0
90969,-100,4,1,0,100,0,1
91069,-100,4,1,0,100,0,1
105191,111.111111111111,4,1,0,100,1,1
110635,-200,4,1,0,100,0,1
112246,-78.125,4,1,0,100,0,1
119413,444.444444444444,4,1,0,5,1,0
119413,-200,4,1,0,5,0,0

[Colours]
Combo1 : 120,10,255
Combo2 : 247,60,102
Combo3 : 255,34,34
Combo4 : 255,159,64
Combo5 : 255,255,34
Combo6 : 62,239,41
Combo7 : 55,255,255
Combo8 : 47,47,255

[HitObjects]
84,72,111,5,0,0:0:0:0:
108,88,222,1,0,0:0:0:0:
124,112,333,1,0,0:0:0:0:
152,156,555,1,0,0:0:0:0:
176,204,777,1,0,0:0:0:0:
192,260,1000,1,0,0:0:0:0:
228,300,1222,1,0,0:0:0:0:
284,292,1444,1,0,0:0:0:0:
332,264,1666,1,0,0:0:0:0:
372,224,1888,1,0,0:0:0:0:
404,180,2111,1,0,0:0:0:0:
408,124,2333,1,0,0:0:0:0:
380,80,2555,1,0,0:0:0:0:
324,68,2777,1,0,0:0:0:0:
272,92,2999,2,0,P|176:92|140:128,1,140
256,192,3858,5,2,0:0:0:0:
256,192,4746,5,0,0:0:0:0:
256,192,5635,5,0,0:0:0:0:
256,192,6524,5,0,0:0:0:0:
256,192,6969,6,0,L|256:168,8,17.5
308,248,7635,5,0,0:0:0:0:
368,256,7857,1,0,0:0:0:0:
444,224,8080,1,0,0:0:0:0:
340,148,8302,1,0,0:0:0:0:
468,76,8524,1,0,0:0:0:0:
308,24,8746,1,0,0:0:0:0:
208,128,8969,1,0,0:0:0:0:
336,112,9191,1,0,0:0:0:0:
132,64,9413,1,0,0:0:0:0:
264,176,9635,1,0,0:0:0:0:
144,272,9857,1,0,0:0:0:0:
376,304,10080,1,0,0:0:0:0:
320,144,10302,1,0,0:0:0:0:
120,232,10524,1,0,0:0:0:0:
168,184,10746,2,0,L|192:168,4,17.5
264,288,11191,5,0,0:0:0:0:
392,224,11413,1,0,0:0:0:0:
312,96,11635,1,0,0:0:0:0:
176,224,11857,1,0,0:0:0:0:
120,160,12080,5,0,0:0:0:0:
144,128,12191,1,0,0:0:0:0:
176,104,12302,1,0,0:0:0:0:
216,88,12413,1,0,0:0:0:0:
256,88,12524,1,0,0:0:0:0:
296,104,12635,1,0,0:0:0:0:
328,128,12746,1,0,0:0:0:0:
352,160,12857,1,0,0:0:0:0:
376,192,12969,1,0,0:0:0:0:
392,232,13080,1,0,0:0:0:0:
392,272,13191,1,0,0:0:0:0:
376,312,13302,1,0,0:0:0:0:
336,336,13413,1,0,0:0:0:0:
296,336,13524,1,0,0:0:0:0:
256,320,13635,1,0,0:0:0:0:
248,280,13746,1,0,0:0:0:0:
240,240,13857,1,0,0:0:0:0:
224,200,13969,1,0,0:0:0:0:
200,160,14080,1,4,0:0:0:0:
168,192,14302,5,0,0:0:0:0:
168,153,14413,1,0,0:0:0:0:
201,172,14524,1,0,0:0:0:0:
328,256,14746,5,0,0:0:0:0:
392,128,14969,1,0,0:0:0:0:
224,88,15191,1,0,0:0:0:0:
296,240,15413,1,0,0:0:0:0:
176,352,15635,1,0,0:0:0:0:
112,208,15857,1,0,0:0:0:0:
344,144,16080,1,0,0:0:0:0:
224,304,16302,1,0,0:0:0:0:
144,96,16524,1,0,0:0:0:0:
352,304,16746,1,0,0:0:0:0:
256,88,16969,1,0,0:0:0:0:
120,264,17191,1,0,0:0:0:0:
256,192,17635,5,8,0:0:0:0:
256,192,18080,70,0,L|256:216,15,17.5,4|0|0|0|0|0|0|0|0|0|0|0|0|0|0|0,0:0|0:0|0:0|0:0|0:0|0:0|0:0|0:0|0:0|0:0|0:0|0:0|0:0|0:0|0:0|0:0,0:0:0:0:
176,184,18969,2,0,P|200:144|216:136,1,52.5
256,209,19191,2,0,P|256:240|240:256,1,52.5
104,152,19413,2,0,P|136:128|160:128,1,52.5
216,216,19635,2,0,P|192:240|168:256,1,52.5
96,240,19857,2,0,L|96:208,15,17.5,4|0|0|0|0|0|0|0|0|0|0|0|0|0|0|0,0:0|0:0|0:0|0:0|0:0|0:0|0:0|0:0|0:0|0:0|0:0|0:0|0:0|0:0|0:0|0:0,0:0:0:0:
144,160,20746,2,0,B|160:192|160:192|192:184,1,52.5
216,144,20969,2,0,B|216:104|216:104|192:96,1,52.5
144,64,21191,2,0,B|112:88|80:104|64:168,1,122.5
136,208,21635,6,0,L|136:240,15,17.5,4|0|0|0|0|0|0|0|0|0|0|0|0|0|0|0,0:0|0:0|0:0|0:0|0:0|0:0|0:0|0:0|0:0|0:0|0:0|0:0|0:0|0:0|0:0|0:0,0:0:0:0:
160,128,22524,1,4,0:0:0:0:
240,88,22635,1,0,0:0:0:0:
208,176,22746,1,0,0:0:0:0:
288,136,22857,1,0,0:0:0:0:
248,240,22969,1,4,0:0:0:0:
328,216,23080,1,0,0:0:0:0:
272,320,23191,1,0,0:0:0:0:
368,312,23302,1,0,0:0:0:0:
416,240,23413,6,0,L|416:268,15,17.5,4|0|0|0|0|0|0|0|0|0|0|0|0|0|0|0,0:0|0:0|0:0|0:0|0:0|0:0|0:0|0:0|0:0|0:0|0:0|0:0|0:0|0:0|0:0|0:0,0:0:0:0:
368,256,24302,1,4,0:0:0:0:
320,176,24413,1,0,0:0:0:0:
280,256,24524,1,0,0:0:0:0:
368,256,24635,1,0,0:0:0:0:
256,192,24746,2,0,L|256:168,7,17.5,4|0|0|0|0|0|0|0,0:0|0:0|0:0|0:0|0:0|0:0|0:0|0:0,0:0:0:0:
304,192,25191,6,0,L|304:224,15,17.5
248,160,26080,2,0,P|192:112|184:112,1,78.7500030040742
160,160,26302,2,0,P|216:208|224:208,1,78.7500030040742
248,160,26524,2,0,P|192:112|184:112,1,78.7500030040742
160,160,26746,2,0,P|216:208|224:208,1,78.7500030040742
256,151,26969,6,0,L|256:178,15,26.2500010013581,4|0|0|0|0|0|0|0|0|0|0|0|0|0|0|0,0:0|0:0|0:0|0:0|0:0|0:0|0:0|0:0|0:0|0:0|0:0|0:0|0:0|0:0|0:0|0:0,0:0:0:0:
208,216,27857,2,0,P|184:208|216:208,1,78.7500030040742
228,268,28080,2,0,L|228:332,7,35,4|0|0|0|0|0|0|0,0:0|0:0|0:0|0:0|0:0|0:0|0:0|0:0,0:0:0:0:
240,240,28524,6,0,L|192:240,1,35,8|0,0:0|0:0,0:0:0:0:
205,240,28635,2,0,L|269:240,1,35,8|0,0:0|0:0,0:0:0:0:
288,224,28746,6,0,L|288:176,7,35,4|0|0|0|4|0|0|0,0:0|0:0|0:0|0:0|0:0|0:0|0:0|0:0,0:0:0:0:
352,192,29191,2,0,L|352:240,3,35,4|0|0|0,0:0|0:0|0:0|0:0,0:0:0:0:
256,224,29413,5,4,0:0:0:0:
256,192,29469,1,0,0:0:0:0:
256,227,29524,1,0,0:0:0:0:
256,192,29580,1,0,0:0:0:0:
256,224,29635,1,4,0:0:0:0:
256,192,29691,1,0,0:0:0:0:
256,227,29746,1,0,0:0:0:0:
256,192,29802,1,0,0:0:0:0:
256,224,29857,1,4,0:0:0:0:
256,192,29913,1,0,0:0:0:0:
256,227,29969,1,0,0:0:0:0:
256,192,30024,1,0,0:0:0:0:
256,192,30080,1,4,0:0:0:0:
256,227,30135,1,0,0:0:0:0:
256,195,30191,1,0,0:0:0:0:
256,227,30246,1,0,0:0:0:0:
256,195,30302,1,4,0:0:0:0:
256,227,30357,1,0,0:0:0:0:
256,192,30413,1,0,0:0:0:0:
256,227,30469,1,0,0:0:0:0:
192,72,30524,6,0,B|152:64|104:84|96:136,1,105,4|8,0:0|0:0,0:0:0:0:
320,312,30746,2,0,B|360:320|408:300|416:248,1,105,4|8,0:0|0:0,0:0:0:0:
192,72,30969,2,0,B|152:64|104:84|96:136,1,105,4|4,0:0|0:0,0:0:0:0:
320,312,31191,2,0,B|360:320|408:300|416:248,1,105,4|8,0:0|0:0,0:0:0:0:
192,72,31413,2,0,B|152:64|104:84|96:136,1,105,4|8,0:0|0:0,0:0:0:0:
96,192,31635,54,0,P|256:320|416:192,1,420,8|4,0:0|0:0,0:0:0:0:
404,184,32357,1,0,0:0:0:0:
396,156,32413,1,0,0:0:0:0:
384,132,32469,1,0,0:0:0:0:
364,112,32524,1,0,0:0:0:0:
340,96,32580,1,0,0:0:0:0:
312,88,32635,1,0,0:0:0:0:
284,84,32691,1,0,0:0:0:0:
260,100,32746,6,0,L|280:144,7,35,4|0|0|0|0|0|0|0,0:0|0:0|0:0|0:0|0:0|0:0|0:0|0:0,0:0:0:0:
236,176,33191,6,0,L|268:228,7,35,4|0|0|0|0|0|0|0,0:0|0:0|0:0|0:0|0:0|0:0|0:0|0:0,0:0:0:0:
240,260,33635,6,0,L|204:208,3,35,4|0|0|0,0:0|0:0|0:0|0:0,0:0:0:0:
164,224,33857,6,0,L|136:168,3,35,4|0|0|0,0:0|0:0|0:0|0:0,0:0:0:0:
92,188,34080,6,0,L|68:132,7,35,4|0|0|0|0|0|0|0,0:0|0:0|0:0|0:0|0:0|0:0|0:0|0:0,0:0:0:0:
128,132,34524,2,0,L|156:184,1,35,4|0,0:0|0:0,0:0:0:0:
160,108,34635,2,0,L|188:160,1,35
184,84,34746,2,0,L|212:136,1,35
204,60,34857,2,0,L|232:112,1,35
244,108,34969,5,4,0:0:0:0:
260,132,35024,1,0,0:0:0:0:
272,156,35080,1,0,0:0:0:0:
280,184,35135,1,0,0:0:0:0:
288,212,35191,1,0,0:0:0:0:
296,240,35246,1,0,0:0:0:0:
296,268,35302,1,0,0:0:0:0:
292,296,35357,1,0,0:0:0:0:
280,320,35413,6,0,L|248:364,7,35,4|0|0|0|0|0|0|0,0:0|0:0|0:0|0:0|0:0|0:0|0:0|0:0,0:0:0:0:
232,336,35857,5,4,0:0:0:0:
208,324,35913,1,0,0:0:0:0:
184,308,35969,1,0,0:0:0:0:
168,288,36024,1,0,0:0:0:0:
148,268,36080,2,0,L|124:232,3,35
112,216,36302,5,4,0:0:0:0:
100,192,36357,1,0,0:0:0:0:
92,164,36413,1,0,0:0:0:0:
88,136,36469,1,0,0:0:0:0:
88,112,36524,1,0,0:0:0:0:
92,84,36580,1,0,0:0:0:0:
108,64,36635,1,0,0:0:0:0:
132,48,36691,1,0,0:0:0:0:
160,56,36746,6,0,L|192:88,7,35,4|0|0|0|0|0|0|0,0:0|0:0|0:0|0:0|0:0|0:0|0:0|0:0,0:0:0:0:
212,72,37191,2,0,L|240:96,7,35,4|0|0|0|0|0|0|0,0:0|0:0|0:0|0:0|0:0|0:0|0:0|0:0,0:0:0:0:
224,120,37635,6,0,L|232:176,1,35,4|0,0:0|0:0,0:0:0:0:
248,132,37746,2,0,L|240:176,1,35
268,152,37857,2,0,L|248:200,1,35
284,176,37969,2,0,L|252:212,1,35
288,200,38080,2,0,L|240:240,1,35,4|0,0:0|0:0,0:0:0:0:
288,228,38191,2,0,L|232:244,1,35
280,252,38302,2,0,L|224:252,1,35
268,272,38413,2,0,L|220:260,1,35
232,292,38524,2,0,L|192:248,1,35,4|0,0:0|0:0,0:0:0:0:
196,292,38635,2,0,L|168:244,1,35
156,280,38746,2,0,L|168:216,1,35
136,240,38857,6,0,P|112:168|120:224,1,350,8|8,0:0|0:0,0:0:0:0:
136,240,39469,6,0,L|114:212,6,35,4|0|0|0|0|0|0,0:0|0:0|0:0|0:0|0:0|0:0|0:0,0:0:0:0:
212,225,39857,6,0,L|240:204,7,35,4|0|0|0|0|0|0|0,0:0|0:0|0:0|0:0|0:0|0:0|0:0|0:0,0:0:0:0:
168,172,40302,6,0,L|136:136,7,35,4|0|0|0|0|0|0|0,0:0|0:0|0:0|0:0|0:0|0:0|0:0|0:0,0:0:0:0:
235,124,40746,6,0,L|256:96,7,35,4|0|0|0|0|0|0|0,0:0|0:0|0:0|0:0|0:0|0:0|0:0|0:0,0:0:0:0:
309,192,41191,6,0,L|344:192,7,35,4|0|0|0|0|0|0|0,0:0|0:0|0:0|0:0|0:0|0:0|0:0|0:0,0:0:0:0:
155,192,41635,6,0,L|120:192,7,35,4|0|0|0|0|0|0|0,0:0|0:0|0:0|0:0|0:0|0:0|0:0|0:0,0:0:0:0:
256,257,42080,6,0,L|256:292,7,35,4|0|0|0|0|0|0|0,0:0|0:0|0:0|0:0|0:0|0:0|0:0|0:0,0:0:0:0:
256,123,42524,6,0,L|256:88,7,35,4|0|0|0|0|0|0|0,0:0|0:0|0:0|0:0|0:0|0:0|0:0|0:0,0:0:0:0:
139,192,42969,6,0,L|104:192,7,35,4|0|0|0|0|0|0|0,0:0|0:0|0:0|0:0|0:0|0:0|0:0|0:0,0:0:0:0:
384,192,43413,6,0,L|440:192,7,35,4|0|0|0|0|0|0|0,0:0|0:0|0:0|0:0|0:0|0:0|0:0|0:0,0:0:0:0:
389,123,43857,6,0,L|416:100,7,35,4|0|0|0|0|0|0|0,0:0|0:0|0:0|0:0|0:0|0:0|0:0|0:0,0:0:0:0:
132,140,44302,6,0,L|104:120,7,35,4|0|0|0|0|0|0|0,0:0|0:0|0:0|0:0|0:0|0:0|0:0|0:0,0:0:0:0:
256,179,44746,6,0,L|256:140,7,39.3750015020371,4|0|4|0|4|0|4|0,0:0|0:0|0:0|0:0|0:0|0:0|0:0|0:0,0:0:0:0:
256,192,45191,2,4,L|256:144,1,39.3750015020371
256,184,45302,2,4,L|256:120,1,39.3750015020371
256,176,45413,2,8,L|256:104,1,39.3750015020371
256,168,45524,2,8,L|256:107,1,39.3750015020371
256,160,45635,6,0,L|256:114,8,39.3750015020371,8|4|4|4|4|8|8|8|8,0:0|0:0|0:0|0:0|0:0|0:0|0:0|0:0|0:0,0:0:0:0:
256,192,46524,85,0,0:0:0:0:
276,255,46635,5,0,0:0:0:0:
201,152,46746,1,0,0:0:0:0:
322,192,46857,1,0,0:0:0:0:
201,231,46969,1,0,0:0:0:0:
276,128,47080,1,0,0:0:0:0:
259,258,47191,5,0,0:0:0:0:
213,139,47302,1,0,0:0:0:0:
320,209,47413,1,0,0:0:0:0:
193,216,47525,1,0,0:0:0:0:
292,135,47636,1,0,0:0:0:0:
242,257,47746,5,0,0:0:0:0:
228,130,47857,1,0,0:0:0:0:
314,225,47968,1,0,0:0:0:0:
189,199,48080,1,0,0:0:0:0:
305,147,48191,1,0,0:0:0:0:
225,251,48302,5,0,0:0:0:0:
245,125,48413,1,0,0:0:0:0:
303,239,48524,1,0,0:0:0:0:
189,181,48636,1,0,0:0:0:0:
315,161,48747,1,0,0:0:0:0:
211,241,48857,5,0,0:0:0:0:
263,125,48968,1,0,0:0:0:0:
289,250,49079,1,0,0:0:0:0:
194,164,49191,1,0,0:0:0:0:
321,178,49302,1,0,0:0:0:0:
199,228,49412,5,0,0:0:0:0:
280,129,49523,1,0,0:0:0:0:
273,256,49634,1,0,0:0:0:0:
203,149,49746,1,0,0:0:0:0:
322,195,49857,1,0,0:0:0:0:
32,160,49969,22,0,B|64:160|64:128|96:128,1,70
480,224,50191,2,0,B|448:224|448:256|416:256,1,70
32,160,50413,2,0,B|64:160|64:128|96:128,1,70
480,224,50635,2,0,B|448:224|448:256|416:256,1,70
32,160,50857,2,0,B|64:160|64:128|96:128,1,70
480,224,51080,6,0,B|448:224|448:256|416:256,1,70
480,160,51302,2,0,B|448:160|448:128|416:128,1,70
32,160,51524,2,0,B|64:160|64:128|96:128,1,70
32,224,51746,2,0,B|64:224|64:256|92:255,1,70
419,255,51969,6,0,B|448:256|448:224|480:224,1,70
419,128,52191,2,0,B|448:128|448:160|480:160,1,70
92,128,52413,2,0,B|64:128|64:160|32:160,1,70
92,255,52635,2,0,B|64:256|64:224|32:224,1,70
480,160,52857,6,0,B|448:160|448:128|416:128,1,70
32,224,53080,2,0,B|64:224|64:256|96:256,1,70
480,160,53302,2,0,B|448:160|448:128|416:128,1,70
32,224,53523,2,0,B|64:224|64:256|92:255,1,70
322,307,53746,5,0,0:0:0:0:
189,76,53857,1,0,0:0:0:0:
189,307,53969,5,0,0:0:0:0:
322,76,54080,1,0,0:0:0:0:
123,191,54191,5,0,0:0:0:0:
389,192,54302,1,0,0:0:0:0:
322,307,54413,5,0,0:0:0:0:
189,76,54524,1,0,0:0:0:0:
189,307,54636,5,0,0:0:0:0:
322,76,54747,1,0,0:0:0:0:
123,191,54858,5,0,0:0:0:0:
389,192,54969,1,0,0:0:0:0:
322,307,55080,5,0,0:0:0:0:
189,76,55191,1,0,0:0:0:0:
32,32,55413,102,4,B|32:64|32:64|64:64|64:64|64:96|64:96|96:96|96:96|96:128|96:128|128:128|128:128|128:160|128:160|160:160|160:160|160:192|160:192|192:192|192:192|192:224|192:224|224:224|224:224|224:256|224:256|256:256|256:256|256:288|256:288|288:288|288:288|288:320|288:320|320:320|320:320,1,560
448,320,56746,5,0,0:0:0:0:
352,288,57080,101,0,0:0:0:0:
160,96,57191,1,0,0:0:0:0:
256,332,57302,5,0,0:0:0:0:
134,262,57413,1,0,0:0:0:0:
134,121,57524,1,0,0:0:0:0:
256,52,57635,1,0,0:0:0:0:
377,122,57746,1,0,0:0:0:0:
377,262,57857,1,0,0:0:0:0:
255,332,57969,1,0,0:0:0:0:
134,261,58080,1,0,0:0:0:0:
134,121,58191,1,0,0:0:0:0:
256,52,58302,1,0,0:0:0:0:
377,122,58413,1,0,0:0:0:0:
377,262,58524,1,0,0:0:0:0:
255,332,58635,1,0,0:0:0:0:
134,261,58746,1,0,0:0:0:0:
134,121,58857,1,0,0:0:0:0:
192,64,58969,5,0,0:0:0:0:
320,64,59080,1,0,0:0:0:0:
192,192,59191,1,0,0:0:0:0:
320,192,59302,1,0,0:0:0:0:
192,320,59413,1,0,0:0:0:0:
320,320,59524,1,0,0:0:0:0:
192,192,59635,1,0,0:0:0:0:
320,192,59746,1,0,0:0:0:0:
192,64,59857,1,0,0:0:0:0:
320,64,59969,1,0,0:0:0:0:
192,192,60080,1,0,0:0:0:0:
320,192,60191,1,0,0:0:0:0:
192,320,60302,1,0,0:0:0:0:
320,320,60413,1,0,0:0:0:0:
192,192,60524,1,0,0:0:0:0:
320,192,60635,1,0,0:0:0:0:
256,192,60746,69,8,0:0:0:0:
244,156,60820,1,8,0:0:0:0:
224,124,60895,1,8,0:0:0:0:
204,92,60969,1,8,0:0:0:0:
172,76,61043,1,8,0:0:0:0:
136,72,61117,1,8,0:0:0:0:
100,84,61191,1,8,0:0:0:0:
80,116,61265,1,8,0:0:0:0:
68,152,61339,1,8,0:0:0:0:
64,188,61413,1,8,0:0:0:0:
72,224,61487,1,8,0:0:0:0:
84,260,61561,1,8,0:0:0:0:
80,284,61635,2,0,L|112:324,11,46.6666666666667,4|0|4|0|4|0|4|0|4|0|4|0,0:0|0:0|0:0|0:0|0:0|0:0|0:0|0:0|0:0|0:0|0:0|0:0,0:0:0:0:
136,328,62524,5,8,0:0:0:0:
172,336,62598,1,8,0:0:0:0:
208,336,62673,1,8,0:0:0:0:
244,332,62747,1,8,0:0:0:0:
280,320,62821,1,8,0:0:0:0:
316,308,62895,1,8,0:0:0:0:
348,292,62969,1,8,0:0:0:0:
380,272,63043,1,8,0:0:0:0:
408,248,63117,1,8,0:0:0:0:
436,224,63191,1,8,0:0:0:0:
452,192,63265,1,8,0:0:0:0:
460,156,63339,1,8,0:0:0:0:
460,120,63413,2,0,L|448:72,11,46.6666666666667,4|0|4|0|4|0|4|0|4|0|4|0,0:0|0:0|0:0|0:0|0:0|0:0|0:0|0:0|0:0|0:0|0:0|0:0,0:0:0:0:
416,52,64302,5,8,0:0:0:0:
380,44,64376,1,8,0:0:0:0:
344,44,64451,1,8,0:0:0:0:
308,44,64525,1,8,0:0:0:0:
272,44,64599,1,8,0:0:0:0:
244,68,64672,1,8,0:0:0:0:
236,104,64747,1,8,0:0:0:0:
244,140,64820,1,8,0:0:0:0:
268,168,64895,1,8,0:0:0:0:
304,168,64969,1,8,0:0:0:0:
256,192,65043,1,8,0:0:0:0:
276,224,65117,1,8,0:0:0:0:
296,256,65191,2,0,L|328:308,11,46.6666666666667,4|0|4|0|4|0|4|0|4|0|4|0,0:0|0:0|0:0|0:0|0:0|0:0|0:0|0:0|0:0|0:0|0:0|0:0,0:0:0:0:
336,332,66080,5,8,0:0:0:0:
368,348,66154,1,8,0:0:0:0:
404,352,66228,1,8,0:0:0:0:
440,356,66302,1,8,0:0:0:0:
476,348,66377,1,8,0:0:0:0:
448,324,66451,1,8,0:0:0:0:
436,288,66525,1,8,0:0:0:0:
420,252,66599,1,8,0:0:0:0:
440,220,66673,1,8,0:0:0:0:
448,184,66746,1,8,0:0:0:0:
428,152,66821,1,8,0:0:0:0:
400,124,66895,1,8,0:0:0:0:
364,112,66969,2,0,L|304:88,11,46.6666666666667,4|0|4|0|4|0|4|0|4|0|4|0,0:0|0:0|0:0|0:0|0:0|0:0|0:0|0:0|0:0|0:0|0:0|0:0,0:0:0:0:
288,76,67857,5,8,0:0:0:0:
252,80,67931,1,8,0:0:0:0:
224,108,68005,1,8,0:0:0:0:
196,132,68079,1,8,0:0:0:0:
188,168,68153,1,8,0:0:0:0:
212,196,68228,1,8,0:0:0:0:
188,224,68302,1,8,0:0:0:0:
160,248,68376,1,8,0:0:0:0:
160,284,68450,1,8,0:0:0:0:
180,316,68524,1,8,0:0:0:0:
224,340,68598,1,8,0:0:0:0:
260,336,68672,1,8,0:0:0:0:
288,320,68746,2,0,L|328:292,11,46.6666666666667,4|0|4|0|4|0|4|0|4|0|4|0,0:0|0:0|0:0|0:0|0:0|0:0|0:0|0:0|0:0|0:0|0:0|0:0,0:0:0:0:
344,256,69635,21,8,0:0:0:0:
376,240,69709,1,8,0:0:0:0:
360,204,69783,1,8,0:0:0:0:
396,192,69857,1,8,0:0:0:0:
392,156,69932,1,8,0:0:0:0:
428,152,70006,1,8,0:0:0:0:
416,116,70080,1,8,0:0:0:0:
448,96,70154,1,8,0:0:0:0:
416,72,70228,1,8,0:0:0:0:
380,76,70302,1,8,0:0:0:0:
348,60,70376,1,8,0:0:0:0:
320,84,70450,1,8,0:0:0:0:
288,68,70524,1,8,0:0:0:0:
260,92,70598,1,8,0:0:0:0:
224,88,70672,1,8,0:0:0:0:
208,120,70746,1,8,0:0:0:0:
172,116,70820,1,8,0:0:0:0:
156,152,70895,1,8,0:0:0:0:
176,184,70969,1,8,0:0:0:0:
208,200,71043,1,8,0:0:0:0:
265,222,71117,5,4,0:0:0:0:
287,192,71191,1,4,0:0:0:0:
265,161,71265,1,4,0:0:0:0:
230,173,71339,1,4,0:0:0:0:
230,210,71413,1,4,0:0:0:0:
352,256,71524,5,0,0:0:0:0:
160,256,71635,1,0,0:0:0:0:
352,128,71746,1,0,0:0:0:0:
160,128,71857,1,0,0:0:0:0:
352,256,71969,1,0,0:0:0:0:
160,256,72080,1,0,0:0:0:0:
352,128,72191,1,0,0:0:0:0:
160,128,72302,1,0,0:0:0:0:
352,256,72413,1,0,0:0:0:0:
160,256,72524,1,0,0:0:0:0:
352,128,72635,1,0,0:0:0:0:
160,128,72746,1,0,0:0:0:0:
352,256,72857,1,0,0:0:0:0:
160,256,72969,1,0,0:0:0:0:
352,128,73080,1,0,0:0:0:0:
160,128,73191,1,0,0:0:0:0:
512,0,73413,5,0,0:0:0:0:
256,384,73635,1,0,0:0:0:0:
0,0,73857,1,0,0:0:0:0:
512,0,74080,1,0,0:0:0:0:
256,384,74302,1,0,0:0:0:0:
0,0,74524,1,0,0:0:0:0:
512,0,74746,1,0,0:0:0:0:
256,160,74969,6,8,L|256:224,24,35,12|8|8|8|8|8|8|8|8|8|8|8|8|8|8|8|8|8|8|8|8|8|8|8|8,0:0|0:0|0:0|0:0|0:0|0:0|0:0|0:0|0:0|0:0|0:0|0:0|0:0|0:0|0:0|0:0|0:0|0:0|0:0|0:0|0:0|0:0|0:0|0:0|0:0,0:0:0:0:
256,256,76746,102,0,L|256:320,7,35,4|0|0|0|0|0|0|0,0:0|0:0|0:0|0:0|0:0|0:0|0:0|0:0,0:0:0:0:
320,227,77191,6,0,L|320:192,7,35,4|0|0|0|0|0|0|0,0:0|0:0|0:0|0:0|0:0|0:0|0:0|0:0,0:0:0:0:
384,291,77635,6,0,L|384:256,7,35,4|0|0|0|0|0|0|0,0:0|0:0|0:0|0:0|0:0|0:0|0:0|0:0,0:0:0:0:
320,320,78080,6,0,L|320:384,7,35,4|0|0|0|0|0|0|0,0:0|0:0|0:0|0:0|0:0|0:0|0:0|0:0,0:0:0:0:
192,224,78524,6,0,L|192:288,7,35,4|0|0|0|0|0|0|0,0:0|0:0|0:0|0:0|0:0|0:0|0:0|0:0,0:0:0:0:
160,160,78969,2,0,P|192:128|256:160,1,105,4|4,0:0|0:0,0:0:0:0:
352,160,79191,2,4,P|320:128|256:160,1,105
256,192,79413,6,0,L|256:128,7,35,4|0|0|0|0|0|0|0,0:0|0:0|0:0|0:0|0:0|0:0|0:0|0:0,0:0:0:0:
128,192,79857,2,0,L|192:192,7,35,4|0|0|0|0|0|0|0,0:0|0:0|0:0|0:0|0:0|0:0|0:0|0:0,0:0:0:0:
349,192,80302,2,0,L|384:192,7,35,4|0|0|0|0|0|0|0,0:0|0:0|0:0|0:0|0:0|0:0|0:0|0:0,0:0:0:0:
300,132,80746,2,4,L|268:176,1,35
260,112,80857,2,4,L|256:176,1,35
208,116,80969,2,4,L|244:168,1,35
172,144,81080,2,4,L|220:176,1,35
252,192,81191,2,0,L|252:352,2,140,4|0|8,0:0|0:0|0:0,0:0:0:0:
400,156,81857,5,4,0:0:0:0:
428,204,81913,1,0,0:0:0:0:
444,260,81969,1,0,0:0:0:0:
440,316,82024,1,0,0:0:0:0:
404,356,82080,2,0,L|368:324,1,35,4|8,0:0|0:0,0:0:0:0:
368,272,82191,1,0,0:0:0:0:
352,220,82246,1,0,0:0:0:0:
344,164,82302,1,4,0:0:0:0:
344,108,82357,2,0,P|336:32|348:24,1,70
388,32,82469,2,0,P|396:108|384:116,1,70,0|4,0:0|0:0,0:0:0:0:
344,108,82580,2,0,P|336:32|348:24,1,70
388,32,82691,2,0,P|396:108|384:116,1,70
344,108,82802,2,0,P|336:32|348:24,1,70
388,32,82913,6,0,P|396:108|384:116,16,70,4|0|0|0|0|0|0|0|0|0|0|0|0|0|0|0|0,0:0|0:0|0:0|0:0|0:0|0:0|0:0|0:0|0:0|0:0|0:0|0:0|0:0|0:0|0:0|0:0|0:0,0:0:0:0:
340,60,83857,6,4,L|312:84,1,35,4|0,0:0|0:0,0:0:0:0:
364,112,83969,2,0,L|308:128,1,35
360,172,84080,2,0,L|296:172,1,35
344,232,84135,2,0,L|296:204,1,35
308,276,84246,2,0,L|276:232,8,35,4|0|0|0|0|0|0|0|0,0:0|0:0|0:0|0:0|0:0|0:0|0:0|0:0|0:0,0:0:0:0:
252,284,84746,6,0,P|256:232|256:228,1,35,4|0,0:0|0:0,0:0:0:0:
200,260,84857,2,0,L|244:216,1,35
172,216,84969,2,0,L|232:196,1,35
164,168,85080,2,0,L|216:168,1,35
176,116,85191,5,4,0:0:0:0:
224,88,85246,1,0,0:0:0:0:
280,96,85302,1,0,0:0:0:0:
328,128,85357,1,0,0:0:0:0:
348,180,85413,6,0,L|296:200,1,35,4|0,0:0|0:0,0:0:0:0:
364,224,85524,2,0,L|300:232,1,35
364,272,85635,2,0,L|328:272,23,35,4|0|0|0|0|0|0|0|4|0|0|0|0|0|0|0|4|0|0|0|0|0|0|0,0:0|0:0|0:0|0:0|0:0|0:0|0:0|0:0|0:0|0:0|0:0|0:0|0:0|0:0|0:0|0:0|0:0|0:0|0:0|0:0|0:0|0:0|0:0|0:0,0:0:0:0:
364,216,86969,6,0,L|304:216,7,35,4|0|0|0|0|0|0|0,0:0|0:0|0:0|0:0|0:0|0:0|0:0|0:0,0:0:0:0:
368,160,87413,6,0,L|312:160,7,35,4|0|0|0|0|0|0|0,0:0|0:0|0:0|0:0|0:0|0:0|0:0|0:0,0:0:0:0:
372,100,87857,6,0,L|316:100,7,35,4|0|0|0|0|0|0|0,0:0|0:0|0:0|0:0|0:0|0:0|0:0|0:0,0:0:0:0:
380,36,88302,6,0,L|324:36,7,35,4|0|0|0|0|0|0|0,0:0|0:0|0:0|0:0|0:0|0:0|0:0|0:0,0:0:0:0:
184,176,88746,6,0,L|144:204,7,35,4|0|0|0|0|0|0|0,0:0|0:0|0:0|0:0|0:0|0:0|0:0|0:0,0:0:0:0:
288,128,89191,6,0,L|240:152,16,35,4|8|8|8|8|8|8|8|8|8|8|8|8|8|8|8|4,0:0|0:0|0:0|0:0|0:0|0:0|0:0|0:0|0:0|0:0|0:0|0:0|0:0|0:0|0:0|0:0|0:0,0:0:0:0:
263,214,90524,85,12,0:0:0:0:
236,206,90580,5,12,0:0:0:0:
236,178,90635,5,12,0:0:0:0:
263,169,90691,5,12,0:0:0:0:
279,192,90746,5,12,0:0:0:0:
263,214,90802,5,12,0:0:0:0:
236,206,90858,5,12,0:0:0:0:
236,178,90913,5,12,0:0:0:0:
263,169,90969,5,12,0:0:0:0:
300,212,91024,5,4,0:0:0:0:
312,272,91080,5,4,0:0:0:0:
280,312,91135,5,4,0:0:0:0:
228,336,91191,5,4,0:0:0:0:
172,332,91246,5,4,0:0:0:0:
120,308,91302,5,4,0:0:0:0:
88,264,91357,5,12,0:0:0:0:
72,208,91413,5,4,0:0:0:0:
80,152,91469,5,4,0:0:0:0:
112,104,91524,5,4,0:0:0:0:
156,76,91580,5,4,0:0:0:0:
208,64,91635,5,4,0:0:0:0:
264,64,91691,5,4,0:0:0:0:
320,64,91746,5,4,0:0:0:0:
372,84,91802,5,4,0:0:0:0:
396,136,91857,6,0,L|356:144,3,35,12|0|0|0,0:0|0:0|0:0|0:0,0:0:0:0:
404,184,92080,6,0,L|364:192,3,35,12|0|0|0,0:0|0:0|0:0|0:0,0:0:0:0:
408,232,92302,6,0,L|368:240,3,35,12|0|0|0,0:0|0:0|0:0|0:0,0:0:0:0:
408,284,92524,6,0,L|368:292,3,35,12|0|0|0,0:0|0:0|0:0|0:0,0:0:0:0:
320,304,92746,5,4,0:0:0:0:
264,316,92802,5,4,0:0:0:0:
208,308,92857,5,4,0:0:0:0:
156,288,92913,5,4,0:0:0:0:
116,248,92969,5,4,0:0:0:0:
92,200,93024,5,4,0:0:0:0:
80,144,93080,5,4,0:0:0:0:
88,88,93135,5,4,0:0:0:0:
128,48,93191,5,4,0:0:0:0:
184,48,93246,5,4,0:0:0:0:
232,76,93302,5,4,0:0:0:0:
268,120,93357,5,4,0:0:0:0:
304,164,93413,5,4,0:0:0:0:
332,216,93469,5,4,0:0:0:0:
376,252,93524,5,4,0:0:0:0:
420,216,93580,5,4,0:0:0:0:
416,160,93635,6,0,L|376:168,3,35,12|0|0|0,0:0|0:0|0:0|0:0,0:0:0:0:
400,112,93857,6,0,L|360:120,11,35,12|0|0|0|0|0|0|0|0|0|0|0,0:0|0:0|0:0|0:0|0:0|0:0|0:0|0:0|0:0|0:0|0:0|0:0,0:0:0:0:
312,104,94524,5,4,0:0:0:0:
256,88,94580,5,4,0:0:0:0:
200,80,94635,5,4,0:0:0:0:
144,92,94691,5,4,0:0:0:0:
96,120,94746,5,4,0:0:0:0:
68,168,94802,5,4,0:0:0:0:
60,224,94857,5,4,0:0:0:0:
76,276,94913,5,4,0:0:0:0:
116,316,94969,5,4,0:0:0:0:
164,344,95024,5,4,0:0:0:0:
220,348,95080,5,4,0:0:0:0:
276,344,95135,5,4,0:0:0:0:
332,332,95191,5,4,0:0:0:0:
384,308,95246,5,4,0:0:0:0:
424,268,95302,5,4,0:0:0:0:
440,216,95357,5,4,0:0:0:0:
424,164,95413,6,0,L|384:172,3,35,12|0|0|0,0:0|0:0|0:0|0:0,0:0:0:0:
424,208,95635,6,0,L|384:216,3,35,12|0|0|0,0:0|0:0|0:0|0:0,0:0:0:0:
424,260,95857,6,0,L|384:268,3,35,12|0|0|0,0:0|0:0|0:0|0:0,0:0:0:0:
424,312,96080,6,0,L|384:320,3,35,12|0|0|0,0:0|0:0|0:0|0:0,0:0:0:0:
348,280,96302,5,4,0:0:0:0:
292,280,96357,5,4,0:0:0:0:
236,284,96413,5,4,0:0:0:0:
180,272,96469,5,4,0:0:0:0:
140,236,96524,5,4,0:0:0:0:
112,184,96580,5,4,0:0:0:0:
136,136,96635,5,4,0:0:0:0:
192,120,96691,5,4,0:0:0:0:
232,156,96746,5,4,0:0:0:0:
244,212,96802,5,4,0:0:0:0:
216,260,96857,5,4,0:0:0:0:
168,292,96913,5,4,0:0:0:0:
112,304,96969,5,4,0:0:0:0:
72,264,97024,5,4,0:0:0:0:
60,208,97080,5,4,0:0:0:0:
76,156,97135,5,4,0:0:0:0:
104,108,97191,6,0,L|152:96,3,35,12|0|0|0,0:0|0:0|0:0|0:0,0:0:0:0:
156,152,97413,6,0,L|116:160,3,35,12|0|0|0,0:0|0:0|0:0|0:0,0:0:0:0:
133,198,97635,6,0,L|168:192,7,35,12|0|0|0|0|0|0|0,0:0|0:0|0:0|0:0|0:0|0:0|0:0|0:0,0:0:0:0:
216,224,98080,5,4,0:0:0:0:
256,260,98135,5,4,0:0:0:0:
296,300,98191,5,4,0:0:0:0:
348,320,98246,5,4,0:0:0:0:
404,308,98302,5,4,0:0:0:0:
444,268,98357,5,4,0:0:0:0:
444,212,98413,5,4,0:0:0:0:
428,160,98469,5,4,0:0:0:0:
376,144,98524,5,4,0:0:0:0:
320,156,98580,5,4,0:0:0:0:
272,184,98635,5,4,0:0:0:0:
232,224,98691,5,4,0:0:0:0:
192,264,98746,5,4,0:0:0:0:
144,296,98802,5,4,0:0:0:0:
88,308,98857,5,4,0:0:0:0:
52,264,98913,5,4,0:0:0:0:
84,220,98969,6,0,L|44:228,3,35,12|0|0|0,0:0|0:0|0:0|0:0,0:0:0:0:
92,188,99191,6,0,L|52:196,3,35,12|0|0|0,0:0|0:0|0:0|0:0,0:0:0:0:
104,160,99413,6,0,L|64:168,3,35,12|0|0|0,0:0|0:0|0:0|0:0,0:0:0:0:
116,132,99635,6,0,L|76:140,3,35,12|0|0|0,0:0|0:0|0:0|0:0,0:0:0:0:
112,184,99857,5,4,0:0:0:0:
144,232,99913,5,4,0:0:0:0:
180,276,99969,5,4,0:0:0:0:
224,308,100024,5,4,0:0:0:0:
280,320,100080,5,4,0:0:0:0:
336,312,100135,5,4,0:0:0:0:
384,280,100191,5,4,0:0:0:0:
420,240,100246,5,4,0:0:0:0:
444,188,100302,5,4,0:0:0:0:
456,132,100357,5,4,0:0:0:0:
456,76,100413,5,4,0:0:0:0:
420,32,100469,5,4,0:0:0:0:
364,24,100524,5,4,0:0:0:0:
308,28,100580,5,4,0:0:0:0:
256,44,100635,5,4,0:0:0:0:
204,64,100691,5,4,0:0:0:0:
236,112,100746,6,0,L|276:152,3,35,12|0|0|0,0:0|0:0|0:0|0:0,0:0:0:0:
204,120,100969,6,0,L|184:164,7,35,12|0|0|0|0|0|0|0,0:0|0:0|0:0|0:0|0:0|0:0|0:0|0:0,0:0:0:0:
191,186,101413,85,0,0:0:0:0:
293,139,101524,1,0,0:0:0:0:
283,250,101635,1,0,0:0:0:0:
156,384,101857,5,0,0:0:0:0:
24,0,102080,1,0,0:0:0:0:
504,236,102302,1,0,0:0:0:0:
36,368,102524,1,0,0:0:0:0:
164,144,102746,1,0,0:0:0:0:
280,312,102969,1,0,0:0:0:0:
368,208,103191,1,0,0:0:0:0:
264,180,103413,1,0,0:0:0:0:
324,96,103635,1,0,0:0:0:0:
216,120,103857,1,0,0:0:0:0:
224,184,104080,1,0,0:0:0:0:
256,192,104302,1,0,0:0:0:0:
256,192,104746,85,0,0:0:0:0:
256,192,105191,5,12,0:0:0:0:
256,96,105246,6,4,L|256:192,1,70
320,128,105357,2,4,L|256:192,1,70
352,192,105468,2,4,L|256:192,1,70
320,256,105580,2,4,L|256:192,1,70
256,288,105691,2,4,L|256:192,1,70
192,256,105802,2,4,L|256:192,1,70
160,192,105913,2,4,L|256:192,1,70
192,128,106024,2,4,L|256:192,1,70
256,96,106135,6,4,L|256:192,1,70
192,128,106246,2,4,L|256:192,1,70
160,192,106357,2,4,L|256:192,1,70
192,256,106468,2,4,L|256:160,1,70
256,288,106579,2,4,L|256:192,1,70
320,256,106691,2,4,L|256:192,1,70
352,192,106802,2,4,L|256:192,1,70
320,128,106913,2,4,L|256:192,1,70
256,96,107024,2,4,L|256:192,1,70
256,288,107135,6,4,L|256:192,1,70
192,128,107246,2,4,L|256:192,1,70
352,256,107357,2,4,L|256:192,1,70
160,192,107468,2,4,L|256:192,1,70
352,192,107579,2,4,L|256:192,1,70
192,256,107691,2,4,L|256:192,1,70
320,128,107802,2,4,L|256:192,1,70
256,288,107913,2,4,L|256:192,1,70
256,96,108024,2,4,L|256:192,1,70
160,192,108135,6,4,L|256:192,1,70
256,288,108246,2,4,L|256:192,1,70
352,192,108357,2,4,L|256:192,1,70
256,96,108468,2,4,L|256:192,1,70
160,192,108579,2,4,L|256:192,1,70
256,288,108691,2,4,L|256:192,1,70
352,192,108802,2,4,L|256:192,1,70
320,128,108913,6,4,L|256:192,1,70
320,256,109024,2,4,L|256:192,1,70
192,256,109135,2,4,L|256:192,1,70
192,128,109246,2,4,L|256:192,1,70
320,128,109357,2,4,L|256:192,1,70
320,256,109468,2,4,L|256:192,1,70
192,256,109579,2,4,L|256:192,1,70
192,128,109691,2,4,L|256:192,1,70
256,192,109802,6,4,L|160:192,1,70
256,192,109913,2,4,L|352:192,1,70
256,192,110024,2,4,L|192:256,1,70
256,192,110135,2,4,L|320:128,1,70
256,192,110246,2,4,L|256:288,1,70
256,192,110357,2,4,L|256:96,1,70
256,192,110468,2,4,L|320:256,1,70
256,192,110579,6,4,L|192:128,5,70,12|8|8|8|8|4,0:0|0:0|0:0|0:0|0:0|0:0,0:0:0:0:
184,124,110969,5,4,0:0:0:0:
160,112,111024,1,8,0:0:0:0:
132,108,111080,1,8,0:0:0:0:
104,112,111135,1,8,0:0:0:0:
104,112,111302,5,8,0:0:0:0:
132,108,111357,1,8,0:0:0:0:
160,112,111413,1,8,0:0:0:0:
184,124,111468,1,4,0:0:0:0:
184,124,111636,5,4,0:0:0:0:
160,112,111691,1,8,0:0:0:0:
132,108,111747,1,8,0:0:0:0:
104,112,111802,1,8,0:0:0:0:
52,136,111913,101,0,0:0:0:0:
76,120,111968,1,4,0:0:0:0:
104,112,112024,1,4,0:0:0:0:
132,108,112079,1,4,0:0:0:0:
160,112,112135,1,4,0:0:0:0:
184,124,112191,1,4,0:0:0:0:
256,64,112302,2,0,B|128:192|128:192|256:320|256:320|384:192|384:192|252:60,3,717.5
256,376,114079,101,0,0:0:0:0:
148,44,114524,1,0,0:0:0:0:
429,248,114967,1,0,0:0:0:0:
82,248,115412,1,0,0:0:0:0:
363,44,115857,1,0,0:0:0:0:
256,192,116302,5,0,0:0:0:0:
0,192,116746,1,0,0:0:0:0:
512,192,117191,1,0,0:0:0:0:
256,192,117635,101,8,0:0:0:0:
256,214,117690,5,8,0:0:0:0:
242,173,117746,5,8,0:0:0:0:
277,199,117802,5,8,0:0:0:0:
234,199,117857,5,8,0:0:0:0:
269,173,117913,5,8,0:0:0:0:
256,169,118079,37,4,0:0:0:0:
269,210,118135,5,4,0:0:0:0:
234,184,118190,5,4,0:0:0:0:
277,184,118246,5,4,0:0:0:0:
242,210,118302,5,4,0:0:0:0:
256,214,118524,53,12,0:0:0:0:
242,173,118580,5,12,0:0:0:0:
277,199,118636,5,12,0:0:0:0:
234,199,118691,5,12,0:0:0:0:
269,173,118747,5,12,0:0:0:0:
256,169,118802,5,12,0:0:0:0:
269,210,118858,5,12,0:0:0:0:
234,184,118913,5,12,0:0:0:0:
277,184,118969,5,12,0:0:0:0:
242,210,119025,5,12,0:0:0:0:
256,169,119079,5,12,0:0:0:0:
269,210,119135,5,12,0:0:0:0:
234,184,119190,5,12,0:0:0:0:
277,184,119246,5,12,0:0:0:0:
242,210,119302,5,12,0:0:0:0:
256,192,119357,5,0,0:0:0:0:
256,192,119413,5,0,0:0:0:0:
