osu file format v14

[General]
AudioFilename: audio.mp3
AudioLeadIn: 0
PreviewTime: -1
Countdown: 1
SampleSet: Normal
StackLeniency: 0.7
Mode: 0
LetterboxInBreaks: 0
WidescreenStoryboard: 0

[Editor]
Bookmarks: 18067,32285,60729,76729
DistanceSpacing: 0.6
BeatDivisor: 8
GridSize: 8
TimelineZoom: 1

[Metadata]
Title:The Empress
TitleUnicode:The Empress
Artist:UNDEAD CORPORATION
ArtistUnicode:UNDEAD CORPORATION
Creator:Krameer
Version:Lunatic
Source:
Tags:
BeatmapID:1372265
BeatmapSetID:647677

[Difficulty]
HPDrainRate:5
CircleSize:4.5
OverallDifficulty:9
ApproachRate:9
SliderMultiplier:2
SliderTickRate:1

[Events]
//Background and Video events
0,0,"black.png",0,0
//Break Periods
2,64262,74351
//Storyboard Layer 0 (Background)
//Storyboard Layer 1 (Fail)
//Storyboard Layer 2 (Pass)
//Storyboard Layer 3 (Foreground)
//Storyboard Sound Samples

[TimingPoints]
3843,444.444444444444,4,1,0,100,1,0
5618,-83.3333333333333,4,1,0,100,0,0
7396,-71.4285714285714,4,1,0,100,0,0
10952,-100,4,1,0,100,0,0
17248,-71.4285714285714,4,1,0,100,0,0
18507,-83.3333333333333,4,1,0,100,0,0
24729,-66.6666666666667,4,1,0,100,0,0
28565,444.444444444444,4,1,0,100,1,0
32285,444.444444444444,4,1,0,100,1,0
35840,-100,4,1,0,100,0,0
36729,-111.111111111111,4,1,0,100,0,0
39396,-100,4,1,0,100,0,0
60729,-66.6666666666667,4,1,0,100,0,1
76729,-100,4,1,0,100,0,0

[HitObjects]
400,240,3843,6,0,P|352:144|280:88,1,200
176,72,4731,5,0,0:0:0:0:
112,147,4954,1,0,0:0:0:0:
195,214,5176,1,0,0:0:0:0:
128,304,5398,1,0,0:0:0:0:
240,336,5620,6,0,B|304:352|368:336|408:304|408:216,1,239.999992675781
320,152,6509,5,0,0:0:0:0:
232,80,6731,1,0,0:0:0:0:
125,167,6954,5,0,0:0:0:0:
131,177,7009,1,0,0:0:0:0:
137,188,7065,1,0,0:0:0:0:
144,198,7120,1,0,0:0:0:0:
151,209,7176,1,0,0:0:0:0:
157,219,7231,1,0,0:0:0:0:
164,230,7287,1,0,0:0:0:0:
171,241,7342,1,0,0:0:0:0:
192,272,7398,6,0,B|240:352|336:336|416:304|459:240,1,279.999991455078
440,64,8287,5,0,0:0:0:0:
393,120,8509,1,0,0:0:0:0:
334,183,8731,1,0,0:0:0:0:
286,247,8954,1,0,0:0:0:0:
216,312,9176,6,0,P|200:208|288:48,1,279.999991455078
344,176,10065,1,0,0:0:0:0:
400,64,10287,1,0,0:0:0:0:
48,48,10954,6,0,L|112:48,1,50
112,88,11176,2,0,L|168:88,1,50
168,48,11398,2,0,L|232:48,1,50
232,88,11620,2,0,L|296:88,1,50
368,88,11843,5,0,0:0:0:0:
328,152,12065,1,0,0:0:0:0:
272,224,12287,1,0,0:0:0:0:
224,288,12509,1,0,0:0:0:0:
80,117,12731,5,0,0:0:0:0:
93,118,12786,1,0,0:0:0:0:
104,120,12842,1,0,0:0:0:0:
117,121,12897,1,0,0:0:0:0:
129,122,12953,1,0,0:0:0:0:
142,124,13008,1,0,0:0:0:0:
154,125,13064,1,0,0:0:0:0:
167,127,13119,1,0,0:0:0:0:
179,128,13175,1,0,0:0:0:0:
192,129,13230,1,0,0:0:0:0:
204,130,13286,1,0,0:0:0:0:
217,133,13342,1,0,0:0:0:0:
229,134,13397,1,0,0:0:0:0:
241,135,13453,1,0,0:0:0:0:
254,136,13508,1,0,0:0:0:0:
303,140,13620,5,0,0:0:0:0:
389,114,13843,1,0,0:0:0:0:
32,136,14361,5,0,0:0:0:0:
48,128,14435,1,0,0:0:0:0:
64,120,14509,1,0,0:0:0:0:
104,80,14731,1,0,0:0:0:0:
186,107,14954,5,0,0:0:0:0:
133,212,15175,1,0,0:0:0:0:
229,139,15398,5,0,0:0:0:0:
171,254,15619,1,0,0:0:0:0:
280,168,15843,5,0,0:0:0:0:
215,294,16064,1,0,0:0:0:0:
296,328,16287,5,0,0:0:0:0:
416,264,16508,1,0,0:0:0:0:
304,208,16731,1,0,0:0:0:0:
408,144,16954,1,0,0:0:0:0:
312,88,17250,6,0,L|184:32,1,139.999995727539
136,80,17694,1,0,0:0:0:0:
80,176,18065,5,0,0:0:0:0:
90,189,18120,1,0,0:0:0:0:
101,203,18176,1,0,0:0:0:0:
111,217,18231,1,0,0:0:0:0:
122,231,18287,1,0,0:0:0:0:
133,245,18342,1,0,0:0:0:0:
143,259,18398,1,0,0:0:0:0:
192,312,18509,6,0,P|272:288|312:248,1,119.999996337891
392,120,18954,5,0,0:0:0:0:
472,184,19176,1,0,0:0:0:0:
376,216,19398,1,0,0:0:0:0:
464,272,19620,1,0,0:0:0:0:
368,336,19842,5,0,0:0:0:0:
357,325,19897,1,0,0:0:0:0:
346,315,19953,1,0,0:0:0:0:
335,304,20008,1,0,0:0:0:0:
325,294,20064,1,0,0:0:0:0:
314,283,20119,1,0,0:0:0:0:
303,273,20175,1,0,0:0:0:0:
292,262,20230,1,0,0:0:0:0:
282,252,20286,1,0,0:0:0:0:
271,241,20341,1,0,0:0:0:0:
260,231,20397,1,0,0:0:0:0:
249,220,20453,1,0,0:0:0:0:
239,210,20508,1,0,0:0:0:0:
228,199,20564,1,0,0:0:0:0:
217,189,20619,1,0,0:0:0:0:
176,144,20731,6,0,L|96:48,1,119.999996337891
176,232,21176,2,0,L|96:136,1,119.999996337891
112,272,21620,5,0,0:0:0:0:
121,283,21675,1,0,0:0:0:0:
130,295,21731,1,0,0:0:0:0:
139,307,21786,1,0,0:0:0:0:
160,328,21842,6,0,P|232:344|288:312,2,119.999996337891
72,112,22509,5,0,0:0:0:0:
184,144,22731,1,0,0:0:0:0:
272,224,22954,1,0,0:0:0:0:
344,328,23176,1,0,0:0:0:0:
480,208,23398,5,0,0:0:0:0:
465,204,23453,1,0,0:0:0:0:
450,200,23509,1,0,0:0:0:0:
436,197,23564,1,0,0:0:0:0:
421,193,23620,1,0,0:0:0:0:
407,189,23675,1,0,0:0:0:0:
392,186,23731,1,0,0:0:0:0:
378,182,23786,1,0,0:0:0:0:
363,178,23842,1,0,0:0:0:0:
349,175,23897,1,0,0:0:0:0:
334,171,23953,1,0,0:0:0:0:
319,167,24009,1,0,0:0:0:0:
305,164,24064,1,0,0:0:0:0:
290,160,24120,1,0,0:0:0:0:
279,156,24176,1,0,0:0:0:0:
216,176,24287,5,0,0:0:0:0:
168,80,24509,1,0,0:0:0:0:
104,176,24731,6,0,P|104:112|48:48,1,150.000005722046
153,101,25176,5,0,0:0:0:0:
169,107,25231,1,0,0:0:0:0:
186,114,25287,1,0,0:0:0:0:
204,123,25342,1,0,0:0:0:0:
221,130,25398,1,0,0:0:0:0:
238,138,25453,1,0,0:0:0:0:
255,145,25509,1,0,0:0:0:0:
272,153,25564,1,0,0:0:0:0:
290,160,25620,1,0,0:0:0:0:
306,168,25675,1,0,0:0:0:0:
324,175,25731,1,0,0:0:0:0:
341,183,25787,1,0,0:0:0:0:
359,190,25842,1,0,0:0:0:0:
456,152,26065,5,0,0:0:0:0:
440,240,26287,1,0,0:0:0:0:
384,304,26509,1,0,0:0:0:0:
304,336,26731,1,0,0:0:0:0:
232,240,26954,5,0,0:0:0:0:
228,221,27009,1,0,0:0:0:0:
226,203,27065,1,0,0:0:0:0:
226,184,27120,1,0,0:0:0:0:
229,165,27176,1,0,0:0:0:0:
236,148,27231,1,0,0:0:0:0:
247,133,27287,1,0,0:0:0:0:
260,120,27342,1,0,0:0:0:0:
275,108,27398,1,0,0:0:0:0:
292,99,27453,1,0,0:0:0:0:
308,90,27509,1,0,0:0:0:0:
326,83,27565,1,0,0:0:0:0:
343,77,27620,1,0,0:0:0:0:
376,152,27842,5,0,0:0:0:0:
256,40,28065,1,0,0:0:0:0:
96,96,28565,5,0,0:0:0:0:
116,58,28676,1,0,0:0:0:0:
152,38,28787,1,0,0:0:0:0:
240,32,29009,5,0,0:0:0:0:
368,56,29231,1,0,0:0:0:0:
252,91,29453,5,0,0:0:0:0:
377,106,29675,1,0,0:0:0:0:
274,137,29897,5,0,0:0:0:0:
387,156,30120,1,0,0:0:0:0:
296,183,30342,5,0,0:0:0:0:
398,206,30564,1,0,0:0:0:0:
310,238,30786,1,0,0:0:0:0:
222,271,31009,1,0,0:0:0:0:
162,199,31231,1,0,0:0:0:0:
122,293,31472,2,0,P|98:213|10:141,1,183.333338928223
104,72,32285,6,0,L|160:104,1,50
112,192,32729,2,0,L|160:216,1,50
128,304,33173,2,0,L|176:328,1,50
280,208,33618,5,0,0:0:0:0:
384,248,33840,1,0,0:0:0:0:
288,296,34062,2,0,P|232:336|112:288,1,200
200,144,34951,1,0,0:0:0:0:
368,176,35396,2,0,P|416:208|448:256,1,100
392,88,35840,5,0,0:0:0:0:
264,48,36284,1,0,0:0:0:0:
152,96,36729,6,0,P|136:208|168:272,1,179.999994506836
336,176,37618,1,0,0:0:0:0:
248,296,38062,1,0,0:0:0:0:
400,256,38507,1,0,0:0:0:0:
344,312,38729,5,0,0:0:0:0:
333,319,38784,1,0,0:0:0:0:
323,326,38840,1,0,0:0:0:0:
313,334,38895,1,0,0:0:0:0:
303,341,38951,1,0,0:0:0:0:
240,272,39396,6,0,B|336:256|336:256|376:232|376:232|432:160|432:160,1,225
200,128,40284,2,0,P|296:160|344:280,1,200
312,280,41173,2,0,P|218:250|169:166,1,200
192,32,42062,1,0,0:0:0:0:
280,88,42507,1,0,0:0:0:0:
104,280,42951,6,0,P|136:208|248:160,1,200
284,176,43840,2,0,P|187:159|104:211,1,200
176,312,44729,1,0,0:0:0:0:
272,232,45173,1,0,0:0:0:0:
360,144,45618,6,0,P|448:216|464:312,1,200
48,80,46507,6,0,L|80:40,1,50
80,152,46840,5,0,0:0:0:0:
96,112,46951,2,0,L|128:72,1,50
128,184,47284,5,0,0:0:0:0:
144,144,47396,2,0,L|176:104,1,50
176,224,47729,5,0,0:0:0:0:
192,176,47840,2,0,L|224:136,1,50
224,256,48173,5,0,0:0:0:0:
240,208,48284,2,0,L|272:168,1,50
272,288,48618,5,0,0:0:0:0:
296,240,48729,2,0,L|328:200,1,50
320,320,49062,5,0,0:0:0:0:
352,272,49173,2,0,L|384:232,1,50
368,352,49507,5,0,0:0:0:0:
400,312,49618,2,0,L|432:272,1,50
72,104,50062,5,0,0:0:0:0:
84,105,50117,1,0,0:0:0:0:
96,108,50173,1,0,0:0:0:0:
109,110,50228,1,0,0:0:0:0:
121,111,50284,1,0,0:0:0:0:
134,113,50339,1,0,0:0:0:0:
146,115,50395,1,0,0:0:0:0:
158,118,50450,1,0,0:0:0:0:
170,119,50506,1,0,0:0:0:0:
183,121,50561,1,0,0:0:0:0:
195,123,50617,1,0,0:0:0:0:
208,124,50673,1,0,0:0:0:0:
220,126,50728,1,0,0:0:0:0:
233,129,50784,1,0,0:0:0:0:
244,131,50839,1,0,0:0:0:0:
384,248,50951,6,0,L|424:256,14,25
320,200,51840,5,0,0:0:0:0:
308,202,51895,1,0,0:0:0:0:
295,204,51951,1,0,0:0:0:0:
283,206,52006,1,0,0:0:0:0:
270,209,52062,1,0,0:0:0:0:
259,211,52118,1,0,0:0:0:0:
246,214,52173,1,0,0:0:0:0:
234,217,52229,1,0,0:0:0:0:
221,219,52284,1,0,0:0:0:0:
210,221,52340,1,0,0:0:0:0:
197,223,52395,1,0,0:0:0:0:
185,226,52451,1,0,0:0:0:0:
172,229,52506,1,0,0:0:0:0:
160,231,52562,1,0,0:0:0:0:
149,234,52617,1,0,0:0:0:0:
72,184,52729,6,0,L|112:176,14,25
200,160,53618,6,0,L|288:96,1,100
224,184,54062,2,0,L|280:101,1,100
256,198,54507,2,0,L|280:101,1,100
291,200,54951,2,0,L|280:101,1,100
324,191,55396,6,0,L|368:280,1,100
224,320,56284,6,0,L|248:272,1,50
208,224,56729,2,0,L|184:176,1,50
96,120,57173,5,0,0:0:0:0:
108,107,57228,1,0,0:0:0:0:
122,97,57284,1,0,0:0:0:0:
137,88,57339,1,0,0:0:0:0:
153,82,57395,1,0,0:0:0:0:
170,77,57450,1,0,0:0:0:0:
187,74,57506,1,0,0:0:0:0:
205,74,57561,1,0,0:0:0:0:
222,76,57617,1,0,0:0:0:0:
239,79,57672,1,0,0:0:0:0:
256,85,57728,1,0,0:0:0:0:
271,93,57784,1,0,0:0:0:0:
286,103,57839,1,0,0:0:0:0:
299,114,57895,1,0,0:0:0:0:
311,127,57950,1,0,0:0:0:0:
352,176,58062,6,0,L|368:200,14,25
368,256,58951,5,0,0:0:0:0:
353,258,59006,1,0,0:0:0:0:
338,261,59062,1,0,0:0:0:0:
323,264,59117,1,0,0:0:0:0:
309,266,59173,1,0,0:0:0:0:
294,269,59228,1,0,0:0:0:0:
279,272,59284,1,0,0:0:0:0:
264,275,59339,1,0,0:0:0:0:
250,277,59395,1,0,0:0:0:0:
235,280,59450,1,0,0:0:0:0:
220,283,59506,1,0,0:0:0:0:
201,284,59562,1,0,0:0:0:0:
185,284,59617,1,0,0:0:0:0:
169,282,59673,1,0,0:0:0:0:
152,272,59728,1,0,0:0:0:0:
104,232,59840,6,0,L|147:187,1,50
192,160,60062,1,0,0:0:0:0:
239,144,60173,1,0,0:0:0:0:
288,148,60284,1,0,0:0:0:0:
358,181,60396,2,0,L|396:214,1,50
127,275,60729,5,0,0:0:0:0:
179,276,60840,1,0,0:0:0:0:
229,261,60951,1,0,0:0:0:0:
273,231,61062,1,0,0:0:0:0:
306,191,61173,1,0,0:0:0:0:
325,143,61284,2,0,L|344:64,1,75.0000028610231
96,128,61618,5,0,0:0:0:0:
140,121,61729,1,0,0:0:0:0:
184,129,61840,1,0,0:0:0:0:
222,152,61951,1,0,0:0:0:0:
251,187,62062,1,0,0:0:0:0:
265,229,62173,1,0,0:0:0:0:
264,274,62284,2,0,P|256:320|264:352,1,75.0000028610231
336,344,62507,6,0,P|416:344|472:296,1,150.000005722046
425,224,62951,5,0,0:0:0:0:
368,240,63062,1,0,0:0:0:0:
312,220,63173,1,0,0:0:0:0:
279,171,63284,1,0,0:0:0:0:
272,112,63395,1,0,0:0:0:0:
160,104,63618,5,0,0:0:0:0:
127,155,63729,1,0,0:0:0:0:
125,214,63840,1,0,0:0:0:0:
159,261,63951,1,0,0:0:0:0:
216,288,64062,1,0,0:0:0:0:
64,64,74951,5,0,0:0:0:0:
184,80,75062,1,0,0:0:0:0:
70,104,75173,5,0,0:0:0:0:
177,119,75284,1,0,0:0:0:0:
75,137,75396,5,0,0:0:0:0:
172,150,75507,1,0,0:0:0:0:
82,170,75618,5,0,0:0:0:0:
165,181,75729,1,0,0:0:0:0:
87,203,75840,5,0,0:0:0:0:
160,212,75951,1,0,0:0:0:0:
94,236,76062,5,0,0:0:0:0:
154,244,76173,2,0,P|178:248|178:272,1,37.5000014305115
400,168,76729,5,0,0:0:0:0:
