osu file format v14

[General]
AudioFilename: audio.mp3
AudioLeadIn: 0
PreviewTime: 115691
Countdown: 0
SampleSet: Drum
StackLeniency: 0.9
Mode: 0
LetterboxInBreaks: 0
EpilepsyWarning: 1
WidescreenStoryboard: 1

[Editor]
Bookmarks: 14357,28580,42802,57024,71246,85469,99691,115691,129913,144135,158357,174357,188580,202802,217024,231246,245469,258802
DistanceSpacing: 0.9
BeatDivisor: 4
GridSize: 16
TimelineZoom: 1.699999

[Metadata]
Title:The Empress
TitleUnicode:The Empress
Artist:UNDEAD CORPORATION
ArtistUnicode:UNDEAD CORPORATION
Creator:Daycore
Version:Easy
Source:東方紅魔郷 ~ the Embodiment of Scarlet Devil.
Tags:fa featured artist mappers guild mg mpg english metal symphonic melodeath melodic rock death black 東方project touhou 2hu th6 koumakyou video game flandre scarlet 暴君 Boukun Tyrant TOHO Complete Box - GOLD teosd eosd esd u.n.owen was her unowen un owen U.N.オーエンは彼女なのか? alumetri itswinter sayuka delette maruoko silence player silence_player ryxliee trolley mappers' her? dabbe_01 _milr
BeatmapID:3645571
BeatmapSetID:1780135

[Difficulty]
HPDrainRate:1
CircleSize:3
OverallDifficulty:2
ApproachRate:3
SliderMultiplier:0.500000005960464
SliderTickRate:0.5

[Events]
//Background and Video events
0,0,"pixivnetenartworks94002093.jpg",0,0
//Break Periods
//Storyboard Layer 0 (Background)
//Storyboard Layer 1 (Fail)
//Storyboard Layer 2 (Pass)
//Storyboard Layer 3 (Foreground)
//Storyboard Layer 4 (Overlay)
//Storyboard Sound Samples

[TimingPoints]
14358,222.222222222222,4,3,1,40,1,0
17469,-100,4,3,1,50,0,0
21246,-100,4,3,1,60,0,0
21469,-100,4,3,1,40,0,0
21691,-100,4,3,1,42,0,0
21913,-100,4,3,1,44,0,0
22135,-100,4,3,1,46,0,0
22357,-100,4,3,1,48,0,0
22580,-100,4,3,1,50,0,0
22802,-100,4,3,1,52,0,0
23024,-100,4,3,1,54,0,0
23246,-100,4,3,1,56,0,0
23469,-100,4,3,1,58,0,0
23691,-100,4,3,1,60,0,0
23913,-100,4,3,1,65,0,0
24135,-100,4,3,1,70,0,0
28580,-100,4,3,1,80,0,0
42802,-100,4,3,1,90,0,0
57024,-100,4,3,1,85,0,0
71246,-100,4,3,1,90,0,0
85469,-100,4,3,1,85,0,0
99691,-100,4,3,1,90,0,0
115691,-100,4,3,1,95,0,1
129024,-100,4,3,1,95,0,0
129913,-100,4,3,1,80,0,0
144135,-100,4,3,1,85,0,0
158357,-100,4,3,1,90,0,0
217024,-100,4,3,1,95,0,1
230357,-100,4,3,1,95,0,0
231246,-100,4,3,1,80,0,0
245469,-100,4,3,1,90,0,0

[Colours]
Combo1 : 255,51,51
Combo2 : 198,0,0
Combo3 : 255,128,64
Combo4 : 185,92,0

[HitObjects]
209,58,14357,6,0,B|190:28|129:29|108:70|108:70|87:113|41:122,1,200.000002384186,4|2,0:2|0:2,0:0:0:0:
215,188,16135,2,0,P|238:119|338:29,1,200.000002384186,4|6,0:2|0:2,0:0:0:0:
415,6,17469,1,0,0:0:0:0:
502,28,17913,6,0,B|528:78|528:78|457:209,1,200.000002384186,4|2,0:2|0:2,0:0:0:0:
385,255,19246,1,2,0:2:0:0:
427,336,19691,2,0,B|323:291|334:380|232:343,1,200.000002384186
235,344,21469,6,0,L|32:366,1,200.000002384186,8|8,0:2|0:2,0:0:0:0:
36,185,23246,2,0,L|234:206,1,200.000002384186,8|4,0:2|0:2,0:0:0:0:
293,275,24580,1,2,0:0:0:0:
360,215,25024,6,0,P|395:170|387:124,2,100.000001192093,0|8|8,0:0|0:2|0:3,0:0:0:0:
293,275,26357,1,4,0:3:0:0:
235,344,26802,2,0,L|438:322,1,200.000002384186,0|4,0:0|0:2,0:0:0:0:
469,145,28580,6,0,B|409:64|409:64|348:49|317:103,1,200.000002384186,4|2,0:2|0:2,0:0:0:0:
252,152,29913,1,2,0:2:0:0:
206,74,30357,2,0,B|151:117|151:117|190:251,1,200.000002384186
260,295,31691,1,0,0:0:0:0:
189,350,32135,2,0,P|119:364|53:264,1,200.000002384186,4|2,0:2|0:2,0:0:0:0:
24,183,33469,1,2,0:2:0:0:
101,137,33913,1,0,0:0:0:0:
275,183,34802,2,0,L|300:86,1,100.000001192093
275,0,35691,6,0,B|350:11|350:11|379:51|379:51|463:66,1,200.000002384186,4|2,0:2|0:2,0:0:0:0:
503,138,37024,1,2,0:2:0:0:
435,215,37469,2,0,L|233:179,1,200.000002384186
155,215,38802,1,0,0:0:0:0:
93,149,39246,2,0,L|83:94,2,50.0000005960464,6|2|2,0:2|0:2|0:2,0:0:0:0:
177,116,40135,2,0,L|168:66,2,50.0000005960464,6|2|2,0:2|0:2|0:2,0:0:0:0:
239,180,41024,2,0,P|281:179|325:220,2,100.000001192093,6|10|6,0:2|0:0|0:2,0:0:0:0:
402,104,42802,6,0,B|358:100|344:134|349:160|349:160|372:267,1,200.000002384186,6|2,0:2|0:2,0:0:0:0:
434,330,44135,1,2,0:2:0:0:
355,373,44580,2,0,B|253:380|272:308|160:325,1,200.000002384186,2|2,0:2|0:2,0:0:0:0:
57,180,46357,2,0,L|78:385,1,200.000002384186,6|2,0:2|0:2,0:0:0:0:
165,351,47691,1,2,0:2:0:0:
253,335,48135,2,0,L|232:136,1,200.000002384186,10|2,0:2|0:2,0:0:0:0:
162,78,49469,1,0,0:0:0:0:
223,12,49913,6,0,B|299:23|299:23|322:64|322:64|405:79,1,200.000002384186,6|2,0:2|0:2,0:0:0:0:
479,40,51246,1,2,0:2:0:0:
496,128,51691,2,0,B|521:179|521:179|470:315,1,200.000002384186,2|2,0:2|0:2,0:0:0:0:
338,189,53469,2,0,P|250:154|177:215,1,200.000002384186,6|2,0:2|0:2,0:0:0:0:
107,272,54802,1,2,0:2:0:0:
26,231,55246,2,0,B|35:146|35:146|55:123|55:123|68:37,1,200.000002384186,2|2,0:2|0:2,0:0:0:0:
150,2,56580,1,14,0:2:0:0:
218,60,57024,6,0,L|314:34,2,100.000001192093,6|2|2,0:2|0:2|0:2,0:0:0:0:
161,132,58357,2,0,P|135:51|45:99,1,200.000002384186,2|2,0:2|0:2,0:0:0:0:
18,170,59691,1,2,0:2:0:0:
190,222,60580,2,0,B|74:231|105:289|2:300,1,200.000002384186,6|2,0:2|0:2,0:0:0:0:
181,358,62357,2,0,P|266:336|385:315,1,200.000002384186,2|2,0:2|0:2,0:0:0:0:
470,162,64135,6,0,P|484:102|368:59,1,200.000002384186,6|0,0:2|0:2,0:0:0:0:
296,92,65469,1,2,0:2:0:0:
227,33,65913,2,0,B|259:71|245:128|245:128|226:183|264:224,1,200.000002384186,0|2,0:2|0:2,0:0:0:0:
317,291,67246,1,0,0:2:0:0:
249,351,67691,2,0,B|175:340|175:340|133:367|133:367|59:356,1,200.000002384186,4|2,0:2|0:2,0:0:0:0:
209,257,69469,2,0,B|283:268|283:268|325:241|325:241|399:252,1,200.000002384186,2|2,0:2|0:2,0:0:0:0:
411,72,71246,6,0,P|367:79|310:58,1,100.000001192093,6|2,0:2|0:2,0:0:0:0:
237,16,72135,2,0,P|193:9|136:30,1,100.000001192093,2|2,0:2|0:2,0:0:0:0:
51,25,73024,2,0,L|70:226,1,200.000002384186,2|2,0:2|0:2,0:0:0:0:
219,324,74802,2,0,B|268:337|268:337|309:310,1,100.000001192093,6|2,0:2|0:2,0:0:0:0:
343,227,75691,2,0,L|237:210,1,100.000001192093,2|2,0:2|0:2,0:0:0:0:
167,163,76580,2,0,L|369:130,1,200.000002384186,10|2,0:2|0:2,0:0:0:0:
435,185,77913,1,0,0:0:0:0:
488,113,78357,6,0,B|530:183|530:183|483:301,1,200.000002384186,6|2,0:2|0:2,0:0:0:0:
407,337,79691,1,2,0:2:0:0:
324,302,80135,2,0,P|290:295|242:344,1,100.000001192093,2|2,0:2|0:2,0:0:0:0:
157,360,81024,1,2,0:2:0:0:
56,210,81913,2,0,P|21:159|27:117,1,100.000001192093,6|2,0:2|0:2,0:0:0:0:
98,72,82802,2,0,P|153:98|169:137,1,100.000001192093,2|2,0:2|0:2,0:0:0:0:
155,220,83691,2,0,P|216:113|268:47,1,200.000002384186,10|2,0:2|0:2,0:0:0:0:
443,31,85469,6,0,P|467:82|449:120,2,100.000001192093,4|0|0,0:2|0:2|0:2,0:0:0:0:
357,3,86802,1,0,0:2:0:0:
337,90,87246,2,0,L|357:294,1,200.000002384186,0|0,0:2|0:2,0:0:0:0:
188,355,89024,2,0,P|157:368|95:338,1,100.000001192093,6|2,0:2|0:2,0:0:0:0:
40,276,89913,2,0,P|58:242|73:180,1,100.000001192093,2|2,0:2|0:2,0:0:0:0:
64,93,90802,2,0,P|58:55|153:85,1,200.000002384186,2|2,0:2|0:2,0:0:0:0:
227,134,92135,1,2,0:2:0:0:
285,65,92580,6,0,B|322:108|322:108|310:195|310:195|351:231,1,200.000002384186,6|2,0:2|0:2,0:0:0:0:
422,287,93913,1,2,0:2:0:0:
474,213,94357,2,0,P|511:265|451:377,1,200.000002384186,2|2,0:2|0:2,0:0:0:0:
279,336,96135,2,0,B|260:349|260:349|178:334,1,100.000001192093,4|2,0:2|0:2,0:0:0:0:
151,251,97024,2,0,B|169:237|169:237|252:253,1,100.000001192093,2|2,0:2|0:2,0:0:0:0:
279,336,97913,2,0,P|267:271|378:213,1,200.000002384186,8|2,0:2|0:2,0:0:0:0:
439,154,99246,1,2,0:2:0:0:
395,75,99691,5,6,0:2:0:0:
217,102,100580,2,0,L|109:87,1,100.000001192093,12|2,0:2|0:2,0:0:0:0:
39,132,101469,1,6,0:2:0:0:
204,202,102357,2,0,L|312:187,1,100.000001192093,12|2,0:2|0:2,0:0:0:0:
383,228,103246,1,6,0:2:0:0:
217,299,104135,2,0,L|109:284,1,100.000001192093,12|2,0:2|0:2,0:0:0:0:
52,346,105024,1,6,0:2:0:0:
10,170,105913,2,0,P|3:126|44:82,1,100.000001192093,14|0,0:2|0:2,0:0:0:0:
99,21,106802,5,6,0:2:0:0:
255,109,107691,2,0,P|301:102|331:54,1,100.000001192093,12|2,0:2|0:2,0:0:0:0:
402,6,108580,1,6,0:2:0:0:
491,162,109469,2,0,B|503:193|503:193|486:268,1,100.000001192093,12|2,0:2|0:2,0:0:0:0:
407,297,110357,1,14,0:2:0:0:
337,239,110802,2,0,L|350:184,2,50.0000005960464,0|8|12,0:2|0:2|0:2,0:0:0:0:
247,248,111691,1,2,0:2:0:0:
168,204,112135,2,0,P|125:221|112:278,1,100.000001192093,14|8,0:2|0:2,0:0:0:0:
139,354,113024,2,0,P|192:346|247:343,1,100.000001192093,8|10,0:2|0:2,0:0:0:0:
328,335,113913,2,0,P|423:358|363:238,1,300.000003576278,10|4,0:2|0:2,0:0:0:0:
330,154,115691,6,0,P|307:126|245:128,1,100.000001192093,6|2,0:2|0:2,0:0:0:0:
163,159,116580,2,0,P|149:204|123:259,1,100.000001192093,2|2,0:2|0:2,0:0:0:0:
36,251,117469,2,0,P|33:133|80:136,1,200.000002384186,2|2,0:2|0:2,0:0:0:0:
163,159,118802,1,2,0:2:0:0:
239,111,119246,2,0,P|253:51|275:17,1,100.000001192093,6|2,0:2|0:2,0:0:0:0:
361,44,120135,2,0,P|346:103|324:137,1,100.000001192093,2|0,0:2|0:0,0:0:0:0:
262,199,121024,2,0,P|293:183|442:231,1,200.000002384186,2|2,0:2|0:2,0:0:0:0:
262,199,122802,6,0,P|245:242|272:292,1,100.000001192093,6|2,0:2|0:2,0:0:0:0:
199,348,123691,2,0,P|148:334|97:327,1,100.000001192093,2|2,0:2|0:2,0:0:0:0:
35,266,124580,2,0,B|-11:214|-9:113|69:105,1,200.000002384186,2|2,0:2|0:2,0:0:0:0:
159,111,125913,1,2,0:2:0:0:
229,55,126357,2,0,P|282:65|333:64,1,100.000001192093,6|2,0:2|0:2,0:0:0:0:
330,154,127246,2,0,P|280:153|231:163,1,100.000001192093,2|2,0:2|0:2,0:0:0:0:
159,111,128135,2,0,B|209:161|209:161|188:291,1,200.000002384186,8|12,0:3|0:2,0:0:0:0:
362,335,129913,6,0,P|427:336|325:187,1,400.000004768371,4|0,0:2|0:0,0:0:0:0:
188,288,132580,1,0,0:0:0:0:
270,252,133024,1,0,0:0:0:0:
196,199,133469,2,0,B|121:186|121:186|78:219|78:219|7:206,1,200.000002384186,4|2,0:2|0:2,0:0:0:0:
21,116,134802,1,2,0:2:0:0:
101,76,135246,2,0,B|117:98|117:98|257:121|257:121|293:109,1,200.000002384186
368,73,136580,1,0,0:0:0:0:
441,124,137024,6,0,P|423:164|373:198,1,100.000001192093,6|2,0:2|0:2,0:0:0:0:
411,279,137913,2,0,P|366:286|312:257,1,100.000001192093,2|2,0:2|0:2,0:0:0:0:
274,184,138802,2,0,B|255:308|255:308|209:334|177:304,1,200.000002384186,2|2,0:2|0:2,0:0:0:0:
150,133,140580,2,0,P|101:143|73:193,1,100.000001192093,6|10,0:2|0:2,0:0:0:0:
9,245,141469,2,0,P|52:245|107:271,1,100.000001192093,6|2,0:2|0:2,0:0:0:0:
185,310,142357,2,0,L|392:294,1,200.000002384186,6|6,0:2|0:2,0:0:0:0:
467,134,144135,6,0,P|459:106|490:46,2,100.000001192093,6|2|2,0:2|0:2|0:2,0:0:0:0:
482,222,145469,1,0,0:2:0:0:
433,297,145913,2,0,B|400:345|400:345|257:325,1,200.000002384186,0|2,0:2|0:2,0:0:0:0:
139,187,147691,2,0,P|141:234|100:268,1,100.000001192093,6|2,0:2|0:2,0:0:0:0:
16,244,148580,2,0,P|-2:200|23:154,1,100.000001192093,2|0,0:2|0:2,0:0:0:0:
95,107,149469,2,0,P|152:130|236:36,1,200.000002384186,2|2,0:2|0:2,0:0:0:0:
414,15,151246,6,0,P|417:64|382:107,1,100.000001192093,6|2,0:2|0:2,0:0:0:0:
300,126,152135,2,0,L|310:232,1,100.000001192093,0|2,0:2|0:2,0:0:0:0:
254,297,153024,2,0,B|402:253|402:253|398:200,1,200.000002384186,0|2,0:2|0:2,0:0:0:0:
446,130,154357,1,0,0:2:0:0:
492,208,154802,2,0,L|483:308,1,100.000001192093,4|2,0:2|0:2,0:0:0:0:
404,351,155691,2,0,P|368:357|326:310,1,100.000001192093,2|0,0:2|0:2,0:0:0:0:
242,281,156580,2,0,L|141:278,1,100.000001192093,10|8,0:2|0:3,0:0:0:0:
72,335,157469,1,8,0:3:0:0:
162,179,158357,6,0,P|110:144|61:246,1,200.000002384186,6|12,0:2|0:2,0:0:0:0:
142,278,159691,1,2,0:2:0:0:
229,257,160135,2,0,L|329:260,1,100.000001192093,6|0,0:2|0:2,0:0:0:0:
302,347,161024,2,0,L|401:344,1,100.000001192093,12|2,0:2|0:2,0:0:0:0:
443,264,161913,2,0,B|456:190|456:190|497:162|497:162|514:79,1,200.000002384186,6|12,0:2|0:2,0:0:0:0:
458,15,163246,1,2,0:2:0:0:
390,75,163691,2,0,B|299:34|299:34|231:114,1,200.000002384186,6|14,0:2|0:2,0:0:0:0:
56,140,165469,6,0,B|126:163|126:163|152:206|152:206|230:229,1,200.000002384186,6|12,0:2|0:2,0:0:0:0:
300,179,166802,1,2,0:2:0:0:
349,254,167246,2,0,L|327:354,1,100.000001192093,6|0,0:2|0:2,0:0:0:0:
416,366,168135,2,0,L|437:268,1,100.000001192093,12|2,0:2|0:2,0:0:0:0:
462,181,169024,2,0,P|472:107|365:106,2,200.000002384186,14|12|14,0:2|0:2|0:2,0:0:0:0:
437,268,171246,1,8,0:2:0:0:
349,254,171691,1,8,0:2:0:0:
309,173,172135,1,10,0:2:0:0:
258,98,172580,2,0,B|208:154|208:154|255:273,1,200.000002384186,10|4,0:2|0:2,0:0:0:0:
115,347,174357,6,0,B|154:317|131:271|131:271|24:227,1,200.000002384186,6|0,0:2|0:2,0:0:0:0:
6,139,175691,1,0,0:2:0:0:
47,59,176135,2,0,P|111:42|133:13,1,100.000001192093,2|2,0:2|0:2,0:0:0:0:
180,92,177024,2,0,P|226:139|262:144,1,100.000001192093,2|2,0:2|0:2,0:0:0:0:
347,147,177913,1,2,0:2:0:0:
506,231,178802,2,0,P|463:226|430:276,1,100.000001192093,2|2,0:2|0:2,0:0:0:0:
374,334,179691,2,0,P|366:281|348:236,1,100.000001192093,2|2,0:2|0:2,0:0:0:0:
347,147,180580,1,2,0:2:0:0:
210,29,181469,6,0,L|259:23,2,50.0000005960464,2|2|2,0:2|0:2|0:2,0:0:0:0:
136,79,182357,2,0,L|87:73,2,50.0000005960464,2|2|2,0:2|0:2|0:2,0:0:0:0:
215,121,183246,2,0,L|264:115,2,50.0000005960464,2|2|2,0:2|0:2|0:2,0:0:0:0:
136,167,184135,2,0,L|87:161,2,50.0000005960464,2|2|2,0:2|0:2|0:2,0:0:0:0:
214,212,185024,2,0,P|195:261|185:313,1,100.000001192093,2|2,0:2|0:2,0:0:0:0:
104,347,185913,2,0,P|93:298|75:251,1,100.000001192093,2|2,0:2|0:2,0:0:0:0:
0,182,186802,2,0,P|21:134|138:172,1,200.000002384186,10|2,0:2|0:2,0:0:0:0:
214,212,188135,1,2,0:2:0:0:
282,152,188580,6,0,B|339:13|339:13|389:0,1,200.000002384186,14|8,0:2|0:2,0:0:0:0:
491,147,190357,2,0,B|434:286|434:286|384:299,1,200.000002384186,14|8,0:2|0:2,0:0:0:0:
303,260,191691,1,10,0:2:0:0:
307,349,192135,2,0,B|391:356|391:356|419:339|419:339|508:347,1,200.000002384186,14|8,0:2|0:2,0:0:0:0:
374,213,193913,2,0,B|290:220|290:220|262:203|262:203|173:211,1,200.000002384186,14|10,0:2|0:2,0:0:0:0:
102,257,195246,1,10,0:2:0:0:
37,193,195691,6,0,B|59:45|59:45|108:19,1,200.000002384186,14|10,0:2|0:2,0:0:0:0:
193,54,197024,1,10,0:2:0:0:
277,84,197469,2,0,L|483:68,1,200.000002384186,14|10,0:2|0:2,0:0:0:0:
374,213,199247,2,0,L|169:199,1,200.000002384186,14|10,0:2|0:2,0:0:0:0:
102,257,200580,1,10,0:2:0:0:
137,339,201024,2,0,L|342:325,1,200.000002384186,14|10,0:2|0:2,0:0:0:0:
454,188,202802,6,0,L|475:143,2,50.0000005960464,6|0|10,0:2|0:2|0:2,0:0:0:0:
378,236,203691,2,0,L|328:240,2,50.0000005960464,10|0|8,0:2|0:2|0:2,0:0:0:0:
370,146,204580,2,0,P|338:99|316:62,1,100.000001192093,14|10,0:2|0:2,0:0:0:0:
250,0,205469,2,0,P|224:42|195:84,1,100.000001192093,10|8,0:2|0:2,0:0:0:0:
122,136,206357,2,0,P|84:130|97:242,1,200.000002384186,14|10,0:2|0:2,0:0:0:0:
169,279,207691,1,10,0:2:0:0:
258,273,208135,2,0,P|326:241|456:226,1,200.000002384186,14|10,0:2|0:2,0:0:0:0:
388,54,209913,6,0,P|375:90|396:158,1,100.000001192093,14|8,0:2|0:2,0:0:0:0:
473,184,210802,2,0,L|463:283,1,100.000001192093,10|8,0:2|0:2,0:0:0:0:
402,351,211691,2,0,P|341:341|365:230,1,200.000002384186,14|10,0:2|0:2,0:0:0:0:
389,149,213024,1,8,0:2:0:0:
442,76,213469,2,0,P|406:59|346:71,1,100.000001192093,6|0,0:2|0:2,0:0:0:0:
270,25,214358,1,10,0:2:0:0:
204,87,214802,1,2,0:2:0:0:
129,37,215246,5,6,0:2:0:0:
85,155,217025,6,0,P|46:124|46:76,1,100.000001192093,6|2,0:2|0:2,0:0:0:0:
113,18,217913,2,0,P|152:26|216:31,1,100.000001192093,2|2,0:2|0:2,0:0:0:0:
300,12,218802,2,0,B|359:60|359:60|323:188,1,200.000002384186,2|2,0:2|0:2,0:0:0:0:
394,237,220135,1,2,0:2:0:0:
342,312,220580,2,0,P|332:339|264:360,1,100.000001192093,6|2,0:2|0:2,0:0:0:0:
197,309,221469,2,0,L|94:295,1,100.000001192093,2|0,0:2|0:0,0:0:0:0:
38,228,222357,2,0,B|56:156|56:156|100:129|100:129|122:46,1,200.000002384186,2|2,0:2|0:2,0:0:0:0:
297,30,224135,6,0,P|333:48|349:111,1,100.000001192093,6|2,0:2|0:2,0:0:0:0:
289,167,225024,2,0,P|245:153|189:150,1,100.000001192093,2|2,0:2|0:2,0:0:0:0:
192,239,225913,2,0,P|268:236|394:198,1,200.000002384186,2|2,0:2|0:2,0:0:0:0:
471,172,227246,1,2,0:2:0:0:
496,258,227691,2,0,P|495:300|443:323,1,100.000001192093,6|2,0:2|0:2,0:0:0:0:
365,361,228580,2,0,P|337:350|259:334,1,100.000001192093,2|2,0:2|0:2,0:0:0:0:
179,326,229469,2,0,P|122:326|143:208,1,200.000002384186,8|12,0:3|0:2,0:0:0:0:
300,255,231246,6,0,P|274:205|232:181,1,100.000001192093,4|0,0:2|0:0,0:0:0:0:
188,107,232135,2,0,P|243:109|285:85,1,100.000001192093,2|2,0:2|0:2,0:0:0:0:
375,71,233024,2,0,P|333:10|214:22,1,200.000002384186
41,54,234802,2,0,B|3:69|1:113|1:113|75:220,1,200.000002384186,4|2,0:2|0:2,0:0:0:0:
156,243,236135,1,2,0:2:0:0:
163,332,236580,2,0,B|265:317|215:242|330:227,1,200.000002384186
167,144,238357,6,0,P|167:188|154:248,1,100.000001192093,6|2,0:2|0:2,0:0:0:0:
71,215,239246,2,0,P|70:170|83:110,1,100.000001192093,2|2,0:2|0:2,0:0:0:0:
136,44,240135,2,0,L|141:-13,2,50.0000005960464,2|2|2,0:2|0:2|0:2,0:0:0:0:
225,56,241024,1,2,0:2:0:0:
378,150,241913,2,0,P|391:114|456:82,1,100.000001192093,6|2,0:2|0:2,0:0:0:0:
500,150,242802,2,0,P|488:195|489:263,1,100.000001192093,6|2,0:2|0:2,0:0:0:0:
420,309,243691,2,0,P|366:359|288:276,1,200.000002384186,6|6,0:2|0:2,0:0:0:0:
112,337,245469,6,0,P|92:277|114:233,1,100.000001192093,6|2,0:2|0:2,0:0:0:0:
192,262,246357,1,2,0:2:0:0:
221,176,246802,1,2,0:2:0:0:
140,136,247246,2,0,B|120:90|120:90|151:30,1,100.000001192093,2|2,0:2|0:2,0:0:0:0:
225,8,248135,1,2,0:2:0:0:
403,29,249024,2,0,P|433:84|417:132,1,100.000001192093,6|2,0:2|0:2,0:0:0:0:
396,203,249913,1,2,0:2:0:0:
317,156,250357,1,2,0:2:0:0:
278,237,250802,2,0,L|156:226,2,100.000001192093,10|10|2,0:2|0:2|0:2,0:0:0:0:
410,359,252580,6,0,P|440:320|413:270,1,100.000001192093,6|2,0:2|0:2,0:0:0:0:
381,196,253469,2,0,L|413:90,1,100.000001192093,14|2,0:2|0:2,0:0:0:0:
344,38,254357,2,0,P|297:12|228:116,1,200.000002384186,6|14,0:2|0:2,0:0:0:0:
189,191,255691,1,2,0:2:0:0:
104,161,256135,2,0,P|104:220|129:258,1,100.000001192093,6|2,0:2|0:2,0:0:0:0:
122,343,257024,2,0,P|170:328|219:322,1,100.000001192093,14|2,0:2|0:2,0:0:0:0:
303,353,257913,2,0,P|348:353|321:243,1,200.000002384186,14|2,0:2|0:2,0:0:0:0:
499,184,259691,5,6,0:2:0:0:
